osu file format v14

[General]
AudioFilename: audio.mp3
AudioLeadIn: 0
PreviewTime: 51431
Countdown: 0
SampleSet: Soft
StackLeniency: 0.7
Mode: 0
LetterboxInBreaks: 0
WidescreenStoryboard: 1

[Editor]
Bookmarks: 2660,5231,5574,8317,11060,13803,16546,27517,33003,47917,50660,54946,56660,57689,59060,60431,61803,65917,67289,68660,71403,73117,74831,76889,79631,83746,84774
DistanceSpacing: 1.3
BeatDivisor: 4
GridSize: 32
TimelineZoom: 1.7

[Metadata]
Title:Sing My Pleasure (TV Size)
TitleUnicode:Sing My Pleasure (TV Size)
Artist:Vivy (CV: Yagi Kairi)
ArtistUnicode:ヴィヴィ (CV: 八木海莉)
Creator:Sotarks
Version:Eli's Hard
Source:Vivy -Fluorite Eye's Song-
Tags:WIT STUDIO Score Fluorite Eye Song anime opening op japanese j-pop jpop pop Diva ディーヴァ -フローライトアイズソング- 神前曉 MONACA Kousaki Satoru 種崎敦美 Tanezaki Atsumi akitoshi corinn -laura- eli [_eli_] elinor iljaaz keqing kibbleru
BeatmapID:3184407
BeatmapSetID:1556076

[Difficulty]
HPDrainRate:4.2
CircleSize:3.6
OverallDifficulty:7
ApproachRate:8
SliderMultiplier:1.4
SliderTickRate:1

[Events]
//Background and Video events
0,0,"bg.jpg",0,0
//Break Periods
//Storyboard Layer 0 (Background)
//Storyboard Layer 1 (Fail)
//Storyboard Layer 2 (Pass)
//Storyboard Layer 3 (Foreground)
//Storyboard Layer 4 (Overlay)
//Storyboard Sound Samples

[TimingPoints]
89,342.857142857143,4,2,22,72,1,0
89,-100,4,2,22,72,0,0
2660,-200,4,2,22,72,0,0
4889,-200,4,2,22,42,0,0
5060,-200,4,2,22,62,0,0
5231,-100,4,2,22,72,0,0
5489,-100,4,2,22,5,0,0
5574,-125,4,2,22,62,0,0
16546,-117.647058823529,4,2,22,62,0,0
27517,-111.111111111111,4,2,22,72,0,0
38489,-111.111111111111,4,2,22,72,0,0
43974,-125,4,2,22,52,0,0
46031,-117.647058823529,4,2,22,32,0,0
46203,-117.647058823529,4,2,22,42,0,0
46374,-117.647058823529,4,2,22,52,0,0
46546,-117.647058823529,4,2,22,62,0,0
46717,-111.111111111111,4,2,22,72,0,0
47060,-111.111111111111,4,2,22,62,0,0
47574,-111.111111111111,4,2,22,72,0,0
47917,-111.111111111111,4,2,22,82,0,0
48089,-111.111111111111,4,2,22,62,0,0
48260,-111.111111111111,4,2,22,52,0,0
48603,-111.111111111111,4,2,22,62,0,0
48946,-111.111111111111,4,2,22,72,0,0
49460,-111.111111111111,4,2,22,82,0,0
50917,-111.111111111111,4,2,22,5,0,0
51003,-111.111111111111,4,2,22,72,0,0
51517,-125,4,2,22,52,0,0
52117,-125,4,2,22,5,0,0
52203,-90.9090909090909,4,2,22,82,0,1
62831,-100,4,2,22,82,0,0
63174,-90.9090909090909,4,2,22,82,0,1
74146,-111.111111111111,4,2,22,72,0,0
79631,-100,4,2,22,82,0,0
85117,-250,4,2,22,52,0,0
87174,-250,4,2,22,42,0,0
88717,-125,4,2,22,5,0,0

[Colours]
Combo1 : 173,31,84
Combo2 : 145,255,252
Combo3 : 221,242,244
Combo4 : 60,99,204

[HitObjects]
40,52,89,6,0,L|108:36,1,70,6|0,1:2|1:0,0:0:0:0:
196,64,431,1,0,1:0:0:0:
196,64,603,2,0,L|212:132,1,70,6|0,1:2|1:0,0:0:0:0:
176,216,946,1,0,1:0:0:0:
176,216,1117,2,0,L|108:236,1,70,6|0,1:2|1:0,0:0:0:0:
28,276,1460,5,0,1:0:0:0:
28,276,1631,2,0,L|44:344,1,70,6|0,1:2|1:0,0:0:0:0:
128,376,1974,1,0,1:0:0:0:
128,376,2145,2,0,L|196:356,1,70,6|0,1:2|1:0,0:0:0:0:
320,332,2489,5,0,1:0:0:0:
320,332,2660,2,0,B|292:304|204:192|444:159|368:28|368:28|355:116|292:92|318:157,1,490,6|0,1:2|1:2,0:0:0:0:
392,256,5231,2,0,L|460:240,1,70,12|0,0:2|0:0,0:0:0:0:
508,140,5574,6,0,P|508:84|468:48,1,112,6|0,1:2|1:2,0:0:0:0:
396,24,6089,1,2,0:0:0:0:
188,132,6603,2,0,L|244:140,1,56,2|0,1:2|3:2,0:0:0:0:
316,180,6946,5,0,1:0:0:0:
316,180,7117,2,0,P|344:224|344:284,1,112,2|0,0:2|0:0,0:0:0:0:
300,348,7631,2,0,L|188:328,1,112,2|0,1:2|1:0,0:0:0:0:
112,308,8146,1,2,3:2:0:0:
32,232,8317,6,0,P|12:176|32:128,1,112,2|0,1:2|1:0,0:0:0:0:
84,72,8831,1,2,3:2:0:0:
316,28,9346,2,0,L|372:40,1,56,2|0,1:2|3:0,0:0:0:0:
440,92,9689,5,0,1:0:0:0:
440,92,9860,2,0,L|416:204,1,112,2|0,0:0|3:2,0:0:0:0:
388,276,10374,2,0,B|335:264|339:312|283:300,1,112,2|0,1:2|1:0,0:0:0:0:
208,216,10889,5,10,0:0:0:0:
200,204,10974,1,10,0:2:0:0:
192,192,11060,2,0,P|124:192|96:224,1,112,6|2,1:2|1:2,0:0:0:0:
52,288,11574,1,2,0:0:0:0:
28,136,11917,1,2,0:0:0:0:
28,136,12089,2,0,L|40:80,1,56,2|0,1:2|3:2,0:0:0:0:
96,28,12431,5,2,1:2:0:0:
96,28,12603,2,0,L|208:52,1,112,2|0,0:0|0:0,0:0:0:0:
264,104,13117,2,0,L|318:92,1,56,2|10,1:2|0:0,0:0:0:0:
368,32,13460,2,0,L|421:47,1,56,2|14,1:2|0:0,0:0:0:0:
508,120,13803,6,0,B|484:232,1,112,2|0,1:2|1:2,0:0:0:0:
468,308,14317,1,2,3:2:0:0:
316,352,14660,1,0,0:0:0:0:
316,352,14831,2,0,L|208:320,1,112,2|0,1:2|1:2,0:0:0:0:
132,296,15346,5,10,0:3:0:0:
120,300,15431,1,8,0:3:0:0:
108,304,15517,1,8,0:3:0:0:
36,268,15689,1,4,1:3:0:0:
33,255,15774,1,4,0:3:0:0:
30,241,15860,2,0,P|24:211|29:187,1,56,6|10,1:3|0:3,0:0:0:0:
88,132,16203,2,0,P|116:132|140:148,1,56,6|6,1:3|0:3,0:0:0:0:
220,224,16546,6,0,P|280:224|320:184,1,119.000002269745,6|0,1:2|1:0,0:0:0:0:
372,120,17060,1,2,0:0:0:0:
372,120,17231,2,0,L|344:4,1,119.000002269745,2|0,1:2|1:0,0:0:0:0:
260,0,17746,5,2,3:2:0:0:
260,0,17917,2,0,B|208:-8|212:48|152:40,1,119.000002269745,2|0,1:2|1:0,0:0:0:0:
80,76,18431,1,2,0:0:0:0:
80,76,18603,2,0,P|56:128|80:180,1,119.000002269745,2|0,1:2|1:0,0:0:0:0:
136,244,19117,5,2,0:0:0:0:
136,244,19289,2,0,L|256:224,1,119.000002269745,2|2,1:2|1:2,0:0:0:0:
336,216,19803,1,2,3:2:0:0:
476,128,20146,1,2,0:0:0:0:
476,128,20317,2,0,P|475:66|431:34,1,119.000002269745,2|0,1:2|1:0,0:0:0:0:
352,12,20831,6,0,B|296:12|308:64|248:64,1,119.000002269745,0|0,0:0|3:0,0:0:0:0:
172,28,21346,1,2,1:2:0:0:
40,128,21689,1,2,3:2:0:0:
60,208,21860,5,2,3:2:0:0:
64,220,21946,1,0,3:2:0:0:
68,232,22031,2,0,L|184:200,2,119.000002269745,0|0|0,1:2|1:2|1:0,0:0:0:0:
164,368,23060,2,0,L|224:352,1,59.5000011348725,2|0,1:2|3:2,0:0:0:0:
292,308,23403,5,2,1:2:0:0:
292,308,23574,2,0,L|356:324,1,59.5000011348725,2|0,0:0|1:0,0:0:0:0:
432,328,23917,2,0,P|448:304|448:272,1,59.5000011348725,2|0,0:0|1:0,0:0:0:0:
400,208,24260,2,0,P|377:159|401:103,1,119.000002269745,2|0,3:2|0:0,0:0:0:0:
468,56,24774,5,2,1:2:0:0:
308,8,25117,1,2,1:2:0:0:
308,8,25289,2,0,L|196:52,1,119.000002269745,2|2,0:0|0:2,0:0:0:0:
168,132,25803,2,0,L|48:108,2,119.000002269745,2|0|0,1:2|1:0|1:0,0:0:0:0:
324,192,26831,2,0,P|336:216|336:248,1,59.5000011348725,0|8,1:0|0:0,0:0:0:0:
332,264,27089,1,8,0:0:0:0:
328,280,27174,1,8,0:0:0:0:
276,348,27346,1,4,1:3:0:0:
164,356,27517,6,0,L|32:324,1,125.999996154785,6|8,1:2|1:2,0:0:0:0:
8,252,28031,1,0,0:0:0:0:
8,252,28203,2,0,P|40:204|104:204,1,125.999996154785,2|0,0:0|0:0,0:0:0:0:
176,252,28717,5,10,0:0:0:0:
176,252,28889,2,0,L|300:232,1,125.999996154785,0|8,0:0|0:0,0:0:0:0:
376,196,29403,1,0,0:0:0:0:
376,196,29574,2,0,P|380:160|368:136,1,62.9999980773926,0|0,1:0|1:0,0:0:0:0:
308,80,29917,1,8,0:0:0:0:
148,40,30260,6,0,P|104:40|56:100,1,125.999996154785,2|8,1:2|0:0,0:0:0:0:
20,176,30774,2,0,L|52:300,1,125.999996154785,0|2,1:2|1:2,0:0:0:0:
112,356,31289,2,0,L|172:340,1,62.9999980773926,0|8,0:0|0:0,0:0:0:0:
224,276,31631,6,0,L|288:296,1,62.9999980773926
360,324,31974,1,8,0:2:0:0:
484,220,32317,2,0,P|504:192|504:164,1,62.9999980773926,2|0,1:2|1:2,0:0:0:0:
480,84,32660,1,10,0:0:0:0:
388,20,32831,5,8,0:0:0:0:
376,16,32917,1,8,0:0:0:0:
364,12,33003,2,0,L|240:44,2,125.999996154785,6|8|0,1:2|0:0|0:0,0:0:0:0:
404,172,34031,2,0,L|344:188,1,62.9999980773926,0|8,0:0|0:0,0:0:0:0:
284,248,34374,6,0,L|224:232,1,62.9999980773926,0|0,0:0|1:2,0:0:0:0:
144,212,34717,1,8,0:0:0:0:
72,252,34889,1,0,1:0:0:0:
68,264,34974,1,0,1:0:0:0:
64,276,35060,2,0,P|64:312|80:336,1,62.9999980773926,0|0,1:2|1:0,0:0:0:0:
152,372,35403,1,8,0:0:0:0:
232,376,35574,5,0,1:0:0:0:
244,372,35660,1,0,1:0:0:0:
256,368,35746,2,0,L|320:352,1,62.9999980773926,2|0,1:2|0:0,0:0:0:0:
396,328,36089,1,8,0:2:0:0:
396,328,36260,2,0,P|416:308|416:268,1,62.9999980773926,0|0,1:2|1:0,0:0:0:0:
356,220,36603,2,0,P|356:160|404:120,1,125.999996154785,0|8,1:0|0:0,0:0:0:0:
176,32,37460,6,0,L|112:44,1,62.9999980773926,10|8,0:0|0:0,0:0:0:0:
88,76,37717,1,8,0:0:0:0:
88,76,37803,2,0,L|100:140,1,62.9999980773926,10|8,1:3|0:0,0:0:0:0:
136,168,38060,1,8,0:0:0:0:
136,168,38146,2,0,L|200:152,1,62.9999980773926,8|0,0:0|1:2,0:0:0:0:
312,164,38489,6,0,P|356:196|356:264,1,125.999996154785,6|0,1:2|0:0,0:0:0:0:
324,340,39003,1,2,0:0:0:0:
324,340,39174,2,0,L|200:364,1,125.999996154785,8|2,0:0|1:2,0:0:0:0:
124,336,39689,1,2,1:2:0:0:
60,184,40031,5,0,1:0:0:0:
60,184,40203,2,0,P|84:164|116:164,1,62.9999980773926,0|0,0:0|1:0,0:0:0:0:
132,168,40460,1,0,1:0:0:0:
148,176,40546,2,0,P|176:192|212:192,1,62.9999980773926,6|0,1:2|0:0,0:0:0:0:
256,128,40889,2,0,L|252:96,3,31.4999990386963,0|0|0|0,1:0|1:0|1:0|1:0,0:0:0:0:
256,56,41231,6,0,L|380:40,1,125.999996154785,6|2,1:2|0:2,0:0:0:0:
448,88,41746,1,2,1:2:0:0:
448,88,41917,2,0,P|472:140|452:204,1,125.999996154785,8|2,0:0|1:2,0:0:0:0:
400,268,42431,1,2,1:2:0:0:
256,348,42774,5,8,0:0:0:0:
256,348,42946,2,0,L|196:328,1,62.9999980773926,0|0,0:0|1:2,0:0:0:0:
180,320,43203,1,0,1:0:0:0:
164,314,43289,2,0,L|92:334,1,62.9999980773926,6|0,1:2|1:2,0:0:0:0:
36,280,43631,2,0,L|28:248,3,31.4999990386963,8|8|8|8,0:0|0:0|0:0|0:0,0:0:0:0:
20,216,43974,5,2,0:0:0:0:
15,197,45346,5,2,0:0:0:0:
252,36,46031,2,0,L|284:44,3,29.7500005674362,0|0|0|0,1:0|1:0|1:0|1:0,0:0:0:0:
312,68,46374,2,0,L|344:60,3,29.7500005674362,8|8|8|8,0:0|0:0|0:0|0:0,0:0:0:0:
372,36,46717,6,0,L|496:72,1,125.999996154785,6|8,1:2|0:0,0:0:0:0:
508,152,47231,1,8,0:0:0:0:
508,152,47403,2,0,L|488:212,1,62.9999980773926,8|10,0:0|0:0,0:0:0:0:
460,288,47746,1,10,0:0:0:0:
360,236,47917,6,0,B|304:236|316:296|256:296,1,125.999996154785,6|0,1:2|1:2,0:0:0:0:
240,292,48345,1,0,1:2:0:0:
224,288,48431,1,8,0:2:0:0:
176,220,48603,1,0,1:2:0:0:
180,204,48689,1,0,1:2:0:0:
184,188,48774,1,8,0:2:0:0:
232,120,48946,2,0,L|264:128,5,31.4999990386963,0|0|8|8|8|8,1:0|1:0|0:0|0:0|0:0|0:0,0:0:0:0:
308,140,49460,5,14,0:0:0:0:
308,140,49631,1,10,0:0:0:0:
468,172,49974,1,10,0:0:0:0:
424,328,50317,2,0,L|360:312,1,62.9999980773926,10|0,0:0|1:0,0:0:0:0:
264,256,50660,6,0,L|144:296,1,125.999996154785,14|4,0:0|2:3,0:0:0:0:
131,301,51089,1,4,0:3:0:0:
117,306,51174,1,4,2:3:0:0:
36,164,51517,2,0,B|56:104|4:104|20:56,1,112,2|0,0:0|0:0,0:0:0:0:
216,8,52203,6,0,L|292:28,1,77.0000023498536,6|2,1:2|0:0,0:0:0:0:
376,68,52546,1,10,0:0:0:0:
324,144,52717,2,0,L|172:176,1,154.000004699707,2|0,1:2|1:0,0:0:0:0:
96,228,53231,2,0,P|88:264|104:300,1,77.0000023498536,10|0,0:0|1:0,0:0:0:0:
168,364,53574,5,2,1:2:0:0:
260,376,53746,2,0,L|340:360,1,77.0000023498536,2|8,1:2|0:0,0:0:0:0:
420,320,54089,1,2,0:0:0:0:
384,236,54260,2,0,L|308:220,1,77.0000023498536,2|0,1:2|0:0,0:0:0:0:
248,152,54603,1,10,0:0:0:0:
248,152,54774,1,0,1:0:0:0:
304,40,54946,6,0,P|368:4|436:36,1,154.000004699707,2|8,1:2|0:0,0:0:0:0:
492,112,55460,2,0,L|476:188,1,77.0000023498536,2|0,1:2|0:0,0:0:0:0:
452,276,55803,1,2,1:2:0:0:
364,244,55974,1,10,0:0:0:0:
364,244,56146,1,2,1:2:0:0:
304,312,56317,6,0,L|224:292,1,77.0000023498536,6|0,1:2|1:2,0:0:0:0:
152,196,56660,2,0,L|232:176,1,77.0000023498536,8|0,0:0|0:0,0:0:0:0:
316,156,57003,2,0,B|360:96|360:96|312:32,1,154.000004699707,2|8,1:2|0:0,0:0:0:0:
224,4,57517,1,2,3:0:0:0:
100,12,57689,6,0,L|24:32,1,77.0000023498536,4|0,1:2|0:0,0:0:0:0:
12,124,58031,2,0,L|36:200,1,77.0000023498536,10|0,0:0|1:2,0:0:0:0:
80,276,58374,1,2,0:0:0:0:
156,224,58546,2,0,P|184:200|224:200,1,77.0000023498536,2|8,1:2|0:0,0:0:0:0:
304,240,58889,1,2,0:2:0:0:
396,324,59060,6,0,L|472:304,1,77.0000023498536,4|0,1:2|1:2,0:0:0:0:
500,216,59403,2,0,L|484:140,1,77.0000023498536,10|0,0:0|1:0,0:0:0:0:
432,64,59746,1,2,0:0:0:0:
344,32,59917,2,0,L|264:52,1,77.0000023498536,2|8,1:2|0:0,0:0:0:0:
204,116,60260,1,2,0:0:0:0:
308,184,60431,6,0,B|356:240|356:240|320:312,1,154.000004699707,4|10,1:2|0:0,0:0:0:0:
248,368,60946,1,0,1:2:0:0:
156,372,61117,2,0,L|80:352,1,77.0000023498536,2|2,0:0|1:2,0:0:0:0:
32,276,61460,1,10,0:0:0:0:
32,276,61631,1,10,0:0:0:0:
88,164,61803,6,0,P|116:144|160:144,1,77.0000023498536,4|0,1:2|1:2,0:0:0:0:
220,212,62146,2,0,P|248:232|292:232,1,77.0000023498536,8|8,0:0|0:0,0:0:0:0:
308,224,62403,1,8,0:0:0:0:
316,208,62489,2,0,L|312:168,3,38.5000011749268,10|8|4|4,1:3|1:3|1:3|1:3,0:0:0:0:
304,128,62831,1,14,0:2:0:0:
144,32,63174,6,0,L|60:52,1,77.0000023498536,6|2,1:2|0:0,0:0:0:0:
16,128,63518,1,10,0:0:0:0:
76,196,63689,2,0,L|224:156,1,154.000004699707,2|0,1:2|1:0,0:0:0:0:
316,172,64203,2,0,P|340:200|340:244,1,77.0000023498536,10|2,0:0|0:0,0:0:0:0:
320,328,64546,5,2,1:2:0:0:
240,372,64718,2,0,L|160:356,1,77.0000023498536,2|8,1:2|0:0,0:0:0:0:
84,312,65060,2,0,L|100:236,1,77.0000023498536,2|0,1:2|0:2,0:0:0:0:
66,141,65403,1,0,1:2:0:0:
164,96,65574,2,0,L|180:172,1,77.0000023498536,10|0,0:2|0:0,0:0:0:0:
248,276,65918,6,0,P|324:276|368:216,1,154.000004699707,2|8,1:2|0:0,0:0:0:0:
336,132,66432,2,0,P|324:96|336:56,1,77.0000023498536,2|0,1:2|0:0,0:0:0:0:
408,4,66775,1,2,1:2:0:0:
484,60,66946,1,10,0:0:0:0:
484,60,67118,1,2,0:0:0:0:
508,184,67289,6,0,L|468:336,1,154.000004699707,2|12,1:2|0:0,0:0:0:0:
384,368,67803,1,2,0:0:0:0:
292,368,67974,2,0,P|232:368|184:292,1,154.000004699707,2|8,1:2|0:0,0:0:0:0:
208,204,68489,1,2,1:2:0:0:
320,148,68661,6,0,L|394:167,1,77.0000023498536,4|0,1:2|0:0,0:0:0:0:
480,136,69003,2,0,L|496:60,1,77.0000023498536,10|0,0:0|1:0,0:0:0:0:
424,4,69346,1,2,0:0:0:0:
332,0,69518,2,0,P|294:0|265:24,1,77.0000023498536,2|8,1:2|0:0,0:0:0:0:
216,104,69861,1,2,0:0:0:0:
160,176,70032,6,0,L|84:156,1,77.0000023498536,4|2,1:2|1:2,0:0:0:0:
8,104,70375,2,0,L|24:28,1,77.0000023498536,10|0,0:0|1:0,0:0:0:0:
112,4,70718,1,2,0:0:0:0:
204,12,70889,2,0,L|284:32,1,77.0000023498536,2|8,1:2|0:0,0:0:0:0:
348,92,71232,1,2,0:0:0:0:
256,176,71403,6,0,B|208:232|208:232|244:304,1,154.000004699707,4|10,1:2|0:0,0:0:0:0:
324,352,71918,1,2,1:2:0:0:
416,364,72089,2,0,P|456:364|484:340,1,77.0000023498536,2|2,0:0|1:2,0:0:0:0:
488,248,72432,1,10,0:2:0:0:
488,248,72603,1,2,0:0:0:0:
440,168,72775,6,0,P|412:148|368:148,1,77.0000023498536,0|0,1:2|1:2,0:0:0:0:
272,220,73118,2,0,P|244:240|200:240,1,77.0000023498536,4|0,1:2|1:0,0:0:0:0:
160,160,73460,6,0,P|180:144|204:144,2,51.3333348999024,8|8|0,1:2|0:0|1:0,0:0:0:0:
252,76,73803,2,0,P|232:60|208:60,2,51.3333348999024,10|0|4,1:3|1:0|1:3,0:0:0:0:
140,12,74146,6,0,P|68:12|20:108,1,188.999994232178,6|0,1:2|1:0,0:0:0:0:
48,212,74831,1,12,0:2:0:0:
156,336,75174,2,0,L|216:320,1,62.9999980773926,2|0,0:0|1:0,0:0:0:0:
260,252,75517,5,2,1:2:0:0:
260,252,75689,2,0,L|384:288,1,125.999996154785,8|2,0:0|1:2,0:0:0:0:
464,284,76203,2,0,P|480:256|480:224,1,62.9999980773926,8|8,0:0|1:3,0:0:0:0:
428,164,76546,2,0,P|428:132|444:105,1,62.9999980773926,6|4,1:3|1:3,0:0:0:0:
492,4,76889,6,0,L|308:44,1,188.999994232178,6|0,1:2|1:0,0:0:0:0:
228,60,77574,1,10,0:0:0:0:
168,212,77917,2,0,L|232:224,1,62.9999980773926,2|0,0:0|1:0,0:0:0:0:
308,248,78260,5,0,1:2:0:0:
308,248,78431,2,0,P|328:304|292:356,1,125.999996154785,8|2,0:0|1:2,0:0:0:0:
212,372,78946,2,0,L|148:360,1,62.9999980773926,8|0,0:0|0:0,0:0:0:0:
84,308,79289,1,10,0:0:0:0:
88,184,79460,5,0,1:2:0:0:
89,171,79546,1,0,1:2:0:0:
91,158,79631,2,0,B|154:126|166:197|223:171,1,140,6|8,1:2|0:0,0:0:0:0:
288,108,80146,2,0,P|288:40|228:8,1,140,2|0,1:2|1:2,0:0:0:0:
140,8,80660,1,8,0:0:0:0:
140,8,80831,1,0,0:0:0:0:
60,46,81003,6,0,L|88:186,1,140,2|10,1:2|0:0,0:0:0:0:
160,240,81517,2,0,L|296:208,1,140,2|0,1:2|1:2,0:0:0:0:
388,196,82031,1,10,0:0:0:0:
388,196,82203,1,0,0:0:0:0:
492,268,82374,6,0,P|492:320|424:364,1,140,6|10,1:2|0:0,0:0:0:0:
352,308,82889,2,0,B|284:296|296:368|228:356,1,140,2|0,1:2|1:2,0:0:0:0:
164,292,83403,1,10,0:0:0:0:
212,180,83574,5,0,1:2:0:0:
226,175,83660,1,0,1:0:0:0:
241,170,83746,1,10,0:0:0:0:
331,190,83917,1,10,0:0:0:0:
436,40,84260,2,0,L|368:20,1,70,10|0,0:3|0:0,0:0:0:0:
280,8,84603,1,6,1:3:0:0:
176,72,84774,2,0,L|160:144,1,70,12|0,0:0|0:0,0:0:0:0:
136,264,85117,6,0,B|54:293|17:191|17:191|73:119|231:119|187:260|268:349|369:294,1,588,2|0,0:0|0:0,0:0:0:0:
