osu file format v14

[General]
AudioFilename: audio.mp3
AudioLeadIn: 0
PreviewTime: 51431
Countdown: 0
SampleSet: Soft
StackLeniency: 0.7
Mode: 0
LetterboxInBreaks: 0
WidescreenStoryboard: 1

[Editor]
DistanceSpacing: 1
BeatDivisor: 4
GridSize: 32
TimelineZoom: 1.7

[Metadata]
Title:Sing My Pleasure (TV Size)
TitleUnicode:Sing My Pleasure (TV Size)
Artist:Vivy (CV: Yagi Kairi)
ArtistUnicode:ヴィヴィ (CV: 八木海莉)
Creator:Sotarks
Version:Akitoshi's Normal
Source:Vivy -Fluorite Eye's Song-
Tags:WIT STUDIO Score Fluorite Eye Song anime opening op japanese j-pop jpop pop Diva ディーヴァ -フローライトアイズソング- 神前曉 MONACA Kousaki Satoru 種崎敦美 Tanezaki Atsumi akitoshi corinn -laura- eli [_eli_] elinor iljaaz keqing kibbleru
BeatmapID:3184406
BeatmapSetID:1556076

[Difficulty]
HPDrainRate:3
CircleSize:3.2
OverallDifficulty:4
ApproachRate:5.5
SliderMultiplier:0.999999999999999
SliderTickRate:1

[Events]
//Background and Video events
0,0,"bg.jpg",0,0
//Break Periods
//Storyboard Layer 0 (Background)
//Storyboard Layer 1 (Fail)
//Storyboard Layer 2 (Pass)
//Storyboard Layer 3 (Foreground)
//Storyboard Layer 4 (Overlay)
//Storyboard Sound Samples

[TimingPoints]
89,342.857142857143,4,2,22,72,1,0
2660,-100,4,2,22,72,0,0
4889,-100,4,2,22,42,0,0
5060,-100,4,2,22,62,0,0
5231,-100,4,2,22,72,0,0
5489,-100,4,2,22,5,0,0
5574,-100,4,2,22,62,0,0
16546,-111.111111111111,4,2,22,62,0,0
27517,-100,4,2,22,72,0,0
27860,-100,4,2,22,72,0,0
38489,-100,4,2,22,72,0,0
40546,-100,4,2,22,72,0,0
40889,-100,4,2,22,72,0,0
43974,-100,4,2,22,52,0,0
46031,-100,4,2,22,32,0,0
46203,-100,4,2,22,42,0,0
46374,-100,4,2,22,52,0,0
46546,-100,4,2,22,62,0,0
46717,-100,4,2,22,72,0,0
47060,-100,4,2,22,62,0,0
47574,-100,4,2,22,72,0,0
47917,-100,4,2,22,82,0,0
48089,-100,4,2,22,62,0,0
48260,-100,4,2,22,52,0,0
48603,-100,4,2,22,62,0,0
48946,-100,4,2,22,72,0,0
49460,-100,4,2,22,82,0,0
50660,-100,4,2,22,82,0,0
50917,-100,4,2,22,5,0,0
51003,-100,4,2,22,72,0,0
51517,-100,4,2,22,52,0,0
52117,-100,4,2,22,5,0,0
52203,-90.9090909090909,4,2,22,82,0,0
62831,-90.9090909090909,4,2,22,82,0,0
63174,-90.9090909090909,4,2,22,82,0,0
74146,-100,4,2,22,72,0,0
79631,-100,4,2,22,82,0,0
85117,-100,4,2,22,52,0,0
87174,-100,4,2,22,42,0,0

[Colours]
Combo1 : 173,31,84
Combo2 : 145,255,252
Combo3 : 221,242,244
Combo4 : 60,99,204

[HitObjects]
146,279,89,6,0,P|197:271|308:249,1,150,6|6,1:2|1:2,0:0:0:0:
384,132,1117,2,0,P|310:117|236:105,1,150,6|6,1:2|1:2,0:0:0:0:
86,106,2146,2,0,P|55:149|55:215,1,99.9999999999999,6|0,1:2|1:0,0:0:0:0:
53,244,2660,1,6,1:2:0:0:
256,192,2831,12,0,4203,0:0:0:0:
232,158,5060,6,0,L|241:217,1,50,0|12,1:2|0:2,0:0:0:0:
254,306,5574,6,0,P|319:315|403:277,2,150,6|2|2,1:2|0:0|1:2,0:0:0:0:
166,269,6946,1,0,1:0:0:0:
166,269,7117,2,0,P|113:277|59:287,1,99.9999999999999,2|0,0:2|0:0,0:0:0:0:
17,288,7631,1,2,1:2:0:0:
12,188,7974,2,0,P|23:144|28:124,1,50,0|2,1:0|3:2,0:0:0:0:
40,92,8317,6,0,P|95:57|180:74,2,150,2|2|2,1:2|3:2|1:2,0:0:0:0:
120,160,9689,1,0,1:0:0:0:
120,160,9860,2,0,P|168:175|225:163,1,99.9999999999999,2|0,0:0|3:2,0:0:0:0:
259,142,10374,2,0,P|311:148|374:155,1,99.9999999999999,2|0,1:2|1:0,0:0:0:0:
412,158,10889,1,10,0:0:0:0:
412,158,11060,6,0,B|380:117|380:117|416:20,2,150,6|2|2,1:2|0:0|1:2,0:0:0:0:
477,240,12431,1,2,1:2:0:0:
477,240,12603,2,0,P|496:287|479:344,1,99.9999999999999,2|0,0:0|0:0,0:0:0:0:
449,368,13117,1,2,1:2:0:0:
355,333,13460,2,0,P|311:340|295:343,1,50,2|14,1:2|0:0,0:0:0:0:
255,345,13803,6,0,P|270:292|225:210,2,150,2|2|2,1:2|3:2|1:2,0:0:0:0:
156,361,15174,1,0,1:2:0:0:
156,361,15346,2,0,P|117:339|56:338,1,99.9999999999999,10|4,0:3|1:3,0:0:0:0:
14,350,15860,1,6,1:3:0:0:
3,250,16203,2,0,L|13:190,1,50,6|6,1:3|0:3,0:0:0:0:
18,156,16546,6,0,B|61:178|61:178|152:155,1,134.999995880127,6|2,1:2|0:0,0:0:0:0:
188,143,17231,2,0,P|179:89|197:52,1,89.999997253418,2|0,1:2|1:0,0:0:0:0:
273,18,17917,2,0,P|284:75|303:169,1,134.999995880127,2|2,1:2|0:0,0:0:0:0:
308,194,18603,2,0,P|362:203|399:185,1,89.999997253418,2|0,1:2|1:0,0:0:0:0:
470,236,19289,6,0,P|458:292|447:373,2,134.999995880127,2|2|2,1:2|3:2|1:2,0:0:0:0:
505,155,20660,1,0,1:0:0:0:
505,155,20831,2,0,P|497:110|488:66,1,89.999997253418,0|0,0:0|3:0,0:0:0:0:
478,22,21346,1,2,1:2:0:0:
388,15,21689,2,0,P|345:22|332:24,1,44.999998626709,2|2,3:2|3:2,0:0:0:0:
301,36,22031,6,0,P|322:90|322:135,2,89.999997253418,0|0|0,1:2|1:2|1:0,0:0:0:0:
212,18,23060,1,2,1:2:0:0:
141,74,23403,2,0,P|85:52|9:71,2,134.999995880127,2|2|0,1:2|0:0|1:0,0:0:0:0:
185,152,24774,6,0,P|173:209|161:289,2,134.999995880127,2|2|2,1:2|0:0|1:2,0:0:0:0:
272,120,26146,1,0,1:0:0:0:
272,120,26317,2,0,P|321:117|360:137,1,89.999997253418,0|0,0:2|3:0,0:0:0:0:
397,154,26831,2,0,P|424:148|451:146,2,44.999998626709,0|8|8,1:0|0:0|0:0,0:0:0:0:
325,224,27517,6,0,B|340:259|340:259|322:343,1,99.9999999999999,6|8,1:2|1:2,0:0:0:0:
237,360,28203,1,2,0:0:0:0:
237,360,28374,2,0,P|185:349|131:339,1,99.9999999999999,0|10,1:0|0:0,0:0:0:0:
90,327,28889,2,0,P|79:277|101:226,1,99.9999999999999,0|8,0:0|0:0,0:0:0:0:
165,160,29574,2,0,L|235:149,1,50,0|0,1:0|1:0,0:0:0:0:
257,126,29917,2,0,L|327:137,1,50,8|0,0:0|0:0,0:0:0:0:
351,154,30260,6,0,P|344:99|369:57,1,99.9999999999999,2|8,1:2|0:0,0:0:0:0:
404,30,30774,1,0,1:2:0:0:
492,77,31117,2,0,L|482:134,1,50,2|0,1:2|0:0,0:0:0:0:
452,165,31460,2,0,P|459:215|467:269,1,99.9999999999999,8|0,0:0|0:0,0:0:0:0:
473,313,31974,1,8,0:2:0:0:
383,358,32317,1,2,1:2:0:0:
292,314,32660,2,0,L|230:323,1,50,10|8,0:0|0:0,0:0:0:0:
193,333,33003,6,0,P|175:284|192:224,1,99.9999999999999,6|8,1:2|0:0,0:0:0:0:
275,193,33689,1,0,0:0:0:0:
275,193,33860,2,0,P|264:130|254:77,1,99.9999999999999,0|8,1:0|0:0,0:0:0:0:
248,45,34374,2,0,P|204:65|143:61,1,99.9999999999999,0|8,0:0|0:0,0:0:0:0:
105,48,34889,1,0,1:0:0:0:
19,96,35231,1,0,1:0:0:0:
19,96,35403,2,0,L|26:166,1,50,8|0,0:0|1:0,0:0:0:0:
36,194,35746,6,0,P|84:190|137:217,1,99.9999999999999,2|8,1:2|0:2,0:0:0:0:
161,250,36260,1,0,1:2:0:0:
235,316,36603,2,0,L|302:304,1,50,0|0,1:0|0:0,0:0:0:0:
324,277,36946,2,0,P|374:283|430:292,1,99.9999999999999,8|0,0:0|1:0,0:0:0:0:
472,300,37460,1,10,0:0:0:0:
510,217,37803,2,0,P|514:162|485:113,1,99.9999999999999,10|8,1:3|0:0,0:0:0:0:
428,47,38489,6,0,P|412:105|404:159,1,99.9999999999999,6|0,1:2|0:0,0:0:0:0:
359,164,39003,2,0,P|366:203|370:226,1,50,2|8,0:0|0:0,0:0:0:0:
451,278,39517,1,2,1:2:0:0:
451,278,39689,2,0,P|444:317|440:340,1,50,2|0,1:2|0:0,0:0:0:0:
434,376,40031,2,0,P|375:347|330:352,1,99.9999999999999,0|0,1:0|1:0,0:0:0:0:
293,363,40546,1,6,1:2:0:0:
214,301,40889,1,0,1:0:0:0:
258,211,41231,6,0,P|250:165|237:103,1,99.9999999999999,6|2,1:2|0:2,0:0:0:0:
209,72,41746,2,0,P|213:47|218:22,1,50,2|8,1:2|0:0,0:0:0:0:
321,11,42260,1,2,1:2:0:0:
321,11,42431,2,0,P|328:50|332:73,1,50,2|0,1:2|0:0,0:0:0:0:
337,109,42774,2,0,P|392:100|439:115,1,99.9999999999999,8|0,0:0|1:2,0:0:0:0:
476,139,43289,1,6,1:2:0:0:
506,233,43631,2,0,P|499:272|495:295,1,50,8|8,0:0|0:0,0:0:0:0:
486,331,43974,1,2,0:0:0:0:
486,331,46717,6,0,P|437:308|381:317,1,99.9999999999999,6|8,1:2|0:0,0:0:0:0:
347,327,47231,1,8,0:0:0:0:
347,327,47403,2,0,L|331:263,1,50,8|10,0:0|0:0,0:0:0:0:
293,261,47746,1,10,0:0:0:0:
293,261,47917,6,0,B|274:224|274:224|297:158,1,99.9999999999999,6|0,1:2|1:2,0:0:0:0:
325,130,48431,2,0,P|316:82|308:26,1,99.9999999999999,8|8,0:2|0:2,0:0:0:0:
208,31,49117,2,0,P|200:80|191:129,1,99.9999999999999,8|14,0:0|0:0,0:0:0:0:
178,177,49631,5,10,0:0:0:0:
80,156,49974,1,10,0:0:0:0:
3,220,50317,2,0,L|8:273,1,50,10|0,0:0|1:0,0:0:0:0:
12,319,50660,2,0,B|86:304|84:346|168:327,1,150,14|4,0:0|2:3,0:0:0:0:
159,328,52203,6,0,L|149:259,1,55.0000016784668,6|2,1:2|0:0,0:0:0:0:
110,236,52546,1,10,0:0:0:0:
110,236,52717,2,0,P|118:169|124:118,1,110.000003356934,2|0,1:2|1:0,0:0:0:0:
132,72,53231,1,10,0:0:0:0:
235,28,53574,1,2,1:2:0:0:
235,28,53746,2,0,P|287:54|349:42,1,110.000003356934,2|2,1:2|0:0,0:0:0:0:
388,27,54260,1,2,1:2:0:0:
479,88,54603,1,10,0:0:0:0:
416,178,54946,6,0,P|425:233|435:305,1,110.000003356934,2|8,1:2|0:0,0:0:0:0:
437,341,55460,2,0,P|366:331|320:352,1,110.000003356934,2|2,1:2|1:2,0:0:0:0:
283,371,55974,1,10,0:0:0:0:
195,304,56317,2,0,P|201:263|211:182,1,110.000003356934,6|8,1:2|0:0,0:0:0:0:
219,144,56831,1,0,0:0:0:0:
219,144,57003,2,0,P|161:148|109:120,1,110.000003356934,2|8,1:2|0:0,0:0:0:0:
14,169,57689,6,0,P|36:218|32:272,1,110.000003356934,4|10,1:2|0:0,0:0:0:0:
108,359,58374,1,2,0:0:0:0:
108,359,58546,2,0,P|137:353|167:349,1,55.0000016784668,2|8,1:2|0:0,0:0:0:0:
195,304,58889,2,0,P|245:313|306:326,1,110.000003356934,2|0,0:2|1:2,0:0:0:0:
357,334,59403,1,10,0:0:0:0:
450,273,59746,1,2,0:0:0:0:
450,273,59917,2,0,P|440:231|435:211,1,55.0000016784668,2|8,1:2|0:0,0:0:0:0:
427,170,60260,1,2,0:0:0:0:
427,170,60431,6,0,B|387:189|387:189|313:175,1,110.000003356934,4|10,1:2|0:0,0:0:0:0:
281,148,60946,1,0,1:2:0:0:
281,148,61117,2,0,P|219:157|157:168,1,110.000003356934,2|10,0:0|0:0,0:0:0:0:
62,179,61803,2,0,P|57:215|52:246,1,55.0000016784668,4|0,1:2|1:2,0:0:0:0:
2,253,62146,2,0,P|7:289|12:320,1,55.0000016784668,8|8,0:0|0:0,0:0:0:0:
21,361,62489,1,10,1:3:0:0:
129,376,62831,1,14,0:2:0:0:
208,300,63174,6,0,P|249:306|271:310,1,55.0000016784668,6|2,1:2|0:0,0:0:0:0:
311,344,63517,1,10,0:0:0:0:
311,344,63689,2,0,P|364:334|426:323,1,110.000003356934,2|0,1:2|1:0,0:0:0:0:
472,310,64203,1,10,0:0:0:0:
494,205,64546,1,2,1:2:0:0:
494,205,64717,2,0,P|477:150|471:135,1,55.0000016784668,2|8,1:2|0:0,0:0:0:0:
459,100,65060,2,0,P|393:111|345:93,1,110.000003356934,2|2,1:2|1:2,0:0:0:0:
304,72,65574,1,10,0:2:0:0:
206,123,65917,6,0,P|215:177|224:238,1,110.000003356934,2|8,1:2|0:0,0:0:0:0:
230,286,66431,2,0,P|164:275|116:293,1,110.000003356934,2|2,1:2|1:2,0:0:0:0:
74,312,66946,1,10,0:0:0:0:
4,226,67289,2,0,L|12:166,1,55.0000016784668,2|0,1:2|1:0,0:0:0:0:
53,137,67631,2,0,L|45:77,1,55.0000016784668,12|2,0:0|0:0,0:0:0:0:
40,27,67974,2,0,B|79:46|79:46|152:25,1,110.000003356934,2|8,1:2|0:0,0:0:0:0:
247,62,68660,6,0,P|228:110|225:184,1,110.000003356934,4|10,1:2|0:0,0:0:0:0:
141,241,69346,1,2,0:0:0:0:
141,241,69517,2,0,P|156:281|160:305,1,55.0000016784668,2|8,1:2|0:0,0:0:0:0:
161,348,69860,2,0,P|208:326|280:328,1,110.000003356934,2|2,0:0|1:2,0:0:0:0:
318,337,70374,1,10,0:0:0:0:
426,306,70717,1,2,0:0:0:0:
426,306,70889,2,0,L|417:245,1,55.0000016784668,2|8,1:2|0:0,0:0:0:0:
415,201,71231,1,2,0:0:0:0:
415,201,71403,6,0,B|372:206|349:215|349:215|295:187,1,110.000003356934,4|10,1:2|0:0,0:0:0:0:
272,164,71917,1,2,1:2:0:0:
272,164,72089,2,0,P|294:117|280:46,1,110.000003356934,2|10,0:0|0:2,0:0:0:0:
188,13,72774,2,0,L|126:22,1,55.0000016784668,0|0,1:2|1:2,0:0:0:0:
93,58,73117,2,0,L|38:50,1,55.0000016784668,4|0,1:2|1:0,0:0:0:0:
0,89,73460,2,0,P|24:139|20:199,1,110.000003356934,8|10,1:2|1:3,0:0:0:0:
9,292,74146,6,0,B|97:302|70:330|157:340,1,150,6|0,1:2|1:0,0:0:0:0:
199,346,74831,2,0,P|185:291|198:246,1,99.9999999999999,12|2,0:2|0:0,0:0:0:0:
285,202,75517,1,2,1:2:0:0:
285,202,75689,2,0,P|291:252|299:307,1,99.9999999999999,8|2,0:0|1:2,0:0:0:0:
303,351,76203,1,8,0:0:0:0:
400,373,76546,1,6,1:3:0:0:
482,316,76889,6,0,P|486:255|466:217,1,99.9999999999999,6|2,1:2|0:0,0:0:0:0:
431,197,77403,1,0,1:0:0:0:
431,197,77574,2,0,P|440:145|451:80,1,99.9999999999999,10|2,0:0|0:0,0:0:0:0:
371,42,78260,1,0,1:2:0:0:
371,42,78431,2,0,P|328:62|267:56,1,99.9999999999999,8|2,0:0|1:2,0:0:0:0:
228,44,78946,1,8,0:0:0:0:
155,112,79289,1,10,0:0:0:0:
198,201,79631,6,0,P|251:193|308:184,1,99.9999999999999,6|8,1:2|0:0,0:0:0:0:
340,160,80146,2,0,P|393:168|450:177,1,99.9999999999999,2|0,1:2|1:2,0:0:0:0:
487,185,80660,1,8,0:0:0:0:
496,284,81003,2,0,P|452:309|399:310,1,99.9999999999999,2|10,1:2|0:0,0:0:0:0:
353,303,81517,2,0,P|309:278|256:277,1,99.9999999999999,2|0,1:2|1:2,0:0:0:0:
211,288,82031,1,10,0:0:0:0:
122,240,82374,6,0,B|135:208|135:208|115:137,1,99.9999999999999,6|10,1:2|0:0,0:0:0:0:
102,96,82889,2,0,P|147:104|205:79,1,99.9999999999999,2|0,1:2|1:2,0:0:0:0:
234,52,83403,1,10,0:0:0:0:
333,26,83746,1,10,0:0:0:0:
333,26,83917,2,0,P|374:31|393:33,1,50,10|0,0:0|1:0,0:0:0:0:
431,43,84260,2,0,P|405:90|401:143,1,99.9999999999999,10|6,0:3|1:3,0:0:0:0:
365,171,84774,2,0,P|391:218|395:271,1,99.9999999999999,12|2,0:0|0:0,0:0:0:0:
256,192,85289,12,0,87174,0:0:0:0:
