osu file format v14

[General]
AudioFilename: audio.mp3
AudioLeadIn: 0
PreviewTime: 131149
Countdown: 0
SampleSet: Soft
StackLeniency: 0.5
Mode: 0
LetterboxInBreaks: 0
WidescreenStoryboard: 1

[Editor]
Bookmarks: 264,16721,27692,38663,52378,63349,74321,85292,96606,107235,118206,131921,142892,153864,164835,175806,189521,200492,211464,222435,237864,248492,259464,270435,285864
DistanceSpacing: 0.4
BeatDivisor: 4
GridSize: 4
TimelineZoom: 3.099999

[Metadata]
Title:Sing My Pleasure
TitleUnicode:Sing My Pleasure
Artist:Vivy (CV: Yagi Kairi)
ArtistUnicode:ヴィヴィ (CV: 八木海莉)
Creator:Andrea
Version:Collab Insane
Source:Vivy -Fluorite Eye's Song-
Tags:Mayuzumi Fuyuko SkyFlame Yogurtt Erisu Sekai Sekaii Sekai-nyan osuplayer111 Collab Collaboration Anime Japanese J-Pop JPop Pop Full Version Opening OP Female Vocals ヴィヴィ -フローライトアイズソング- MONACA 神前暁 Kousaki Satoru
BeatmapID:3019025
BeatmapSetID:1470500

[Difficulty]
HPDrainRate:6
CircleSize:4.2
OverallDifficulty:8
ApproachRate:9
SliderMultiplier:1.6
SliderTickRate:1

[Events]
//Background and Video events
0,0,"BG Insane Collab.jpg",0,0
//Break Periods
//Storyboard Layer 0 (Background)
//Storyboard Layer 1 (Fail)
//Storyboard Layer 2 (Pass)
//Storyboard Layer 3 (Foreground)
//Storyboard Layer 4 (Overlay)
//Storyboard Sound Samples

[TimingPoints]
260,342.857142857143,4,2,1,70,1,0
2745,-100,4,2,1,5,0,0
2831,-100,4,2,1,70,0,0
2917,-100,4,2,1,5,0,0
5231,-100,4,2,1,70,0,0
5402,-83.3333333333333,4,2,1,70,0,0
5660,-83.3333333333333,4,2,1,5,0,0
5745,-111.111111111111,4,2,1,60,0,0
16374,-100,4,2,1,70,0,0
21431,-100,4,2,1,5,0,0
21517,-100,4,2,1,70,0,0
25202,-100,4,2,1,5,0,0
25288,-100,4,2,1,70,0,0
27688,-96.1538461538461,4,2,1,70,0,0
31888,-96.1538461538461,4,2,1,5,0,0
31974,-96.1538461538461,4,2,1,70,0,0
33431,-96.1538461538461,4,2,1,5,0,0
33517,-96.1538461538461,4,2,1,70,0,0
44145,-125,4,2,1,50,0,0
46888,-100,4,2,1,70,0,0
51688,-125,4,2,1,60,0,0
52374,-90.9090909090909,4,2,1,80,0,1
52378,-90.9090909090909,4,2,2,80,0,1
52545,-90.9090909090909,4,2,2,80,0,1
52549,-90.9090909090909,4,2,1,80,0,1
54688,-90.9090909090909,4,2,1,5,0,1
54774,-90.9090909090909,4,2,1,80,0,1
58117,-90.9090909090909,4,2,1,5,0,1
58202,-90.9090909090909,4,2,1,80,0,1
63002,-111.111111111111,4,2,1,80,0,1
63260,-111.111111111111,4,2,1,5,0,1
63345,-83.3333333333333,4,2,1,80,0,1
63349,-83.3333333333333,4,2,2,80,0,1
63517,-83.3333333333333,4,2,2,80,0,1
63521,-83.3333333333333,4,2,1,80,0,1
68660,-76.9230769230769,4,2,1,80,0,1
68917,-76.9230769230769,4,2,1,5,0,1
69002,-83.3333333333333,4,2,1,80,0,1
70031,-76.9230769230769,4,2,1,80,0,1
70288,-76.9230769230769,4,2,1,5,0,1
70374,-83.3333333333333,4,2,1,80,0,1
74317,-111.111111111111,4,2,1,60,0,0
79802,-100,4,2,1,70,0,0
85288,-111.111111111111,4,2,1,60,0,0
107231,-100,4,2,1,70,0,0
111431,-100,4,2,1,5,0,0
111517,-100,4,2,1,70,0,0
123688,-125,4,2,1,60,0,0
126431,-100,4,2,1,70,0,0
131231,-125,4,2,1,60,0,0
131488,-125,4,2,1,5,0,0
131574,-125,4,2,1,60,0,0
131917,-83.3333333333333,4,2,1,80,0,1
131921,-83.3333333333333,4,2,2,80,0,1
132088,-83.3333333333333,4,2,2,80,0,1
132092,-83.3333333333333,4,2,1,80,0,1
142374,-66.6666666666667,4,2,1,80,0,1
142888,-83.3333333333333,4,2,1,80,0,1
142892,-83.3333333333333,4,2,2,80,0,1
143060,-83.3333333333333,4,2,2,80,0,1
143064,-83.3333333333333,4,2,1,80,0,1
148631,-83.3333333333333,4,2,1,5,0,1
148717,-83.3333333333333,4,2,1,80,0,1
149831,-83.3333333333333,4,2,1,5,0,1
149917,-83.3333333333333,4,2,1,80,0,1
153860,-111.111111111111,4,2,1,60,0,0
159345,-100,4,2,1,70,0,0
163974,-100,4,2,1,70,0,0
163978,-100,4,2,2,70,0,0
164488,-100,4,2,2,70,0,0
164492,-100,4,2,1,70,0,0
164831,-166.666666666667,4,2,1,60,0,0
175460,-125,4,2,1,50,0,0
175464,-125,4,2,3,50,0,0
175717,-125,4,2,3,5,0,0
175802,-111.111111111111,4,2,3,60,0,0
175806,-111.111111111111,4,2,1,60,0,0
182660,-100,4,2,1,70,0,0
186688,-100,4,2,1,5,0,0
188145,-100,4,2,1,70,0,0
189517,-90.9090909090909,4,2,1,70,0,0
200488,-86.9565217391304,4,2,1,70,0,0
211460,-111.111111111111,4,2,1,60,0,0
222688,-111.111111111111,4,2,1,5,0,0
222774,-111.111111111111,4,2,1,60,0,0
227917,-100,4,2,1,70,0,0
237174,-250,4,2,1,70,0,0
237517,-250,4,2,1,5,0,0
237860,-66.6666666666667,4,2,1,80,0,1
238374,-66.6666666666667,4,2,1,80,0,0
238717,-66.6666666666667,4,2,1,80,0,1
239917,-83.3333333333333,4,2,1,80,0,1
240174,-66.6666666666667,4,2,1,80,0,0
240260,-100,4,2,1,80,0,1
242317,-62.5,4,2,1,80,0,1
243002,-133.333333333333,4,2,1,80,0,1
243088,-133.333333333333,4,2,1,20,0,1
243260,-133.333333333333,4,2,1,5,0,1
243345,-66.6666666666667,4,2,1,80,0,1
243349,-66.6666666666667,4,2,2,80,0,1
243602,-66.6666666666667,4,2,2,5,0,1
243688,-83.3333333333333,4,2,2,80,0,1
244031,-83.3333333333333,4,2,2,80,0,1
244035,-83.3333333333333,4,2,1,80,0,1
248402,-66.6666666666667,4,2,1,80,0,0
248488,-90.9090909090909,4,2,1,80,0,1
248492,-90.9090909090909,4,2,2,80,0,1
248660,-90.9090909090909,4,2,2,80,0,1
248664,-90.9090909090909,4,2,1,80,0,1
254231,-90.9090909090909,4,2,1,5,0,1
254317,-90.9090909090909,4,2,1,80,0,1
255602,-90.9090909090909,4,2,1,5,0,1
255688,-90.9090909090909,4,2,1,80,0,1
259460,-111.111111111111,4,2,1,60,0,0
264945,-100,4,2,1,70,0,0
270345,-100,4,2,1,5,0,0
270431,-111.111111111111,4,2,1,60,0,0
270435,-111.111111111111,4,2,2,60,0,0
270945,-111.111111111111,4,2,2,60,0,0
270949,-111.111111111111,4,2,1,60,0,0
281488,-111.111111111111,4,2,1,50,0,0
282774,-111.111111111111,4,2,1,40,0,0
284145,-111.111111111111,4,2,1,30,0,0
284831,-111.111111111111,4,2,1,20,0,0
285517,-111.111111111111,4,2,1,10,0,0
285860,-111.111111111111,4,2,1,5,0,0

[Colours]
Combo1 : 255,149,215
Combo2 : 185,138,255
SliderBorder : 255,149,215
SliderTrackOverride : 185,138,255

[HitObjects]
219,325,260,6,0,P|170:275|223:188,1,160,14|0,2:2|1:1,0:0:0:0:
330,156,774,1,14,2:2:0:0:
271,250,945,1,0,1:1:0:0:
149,164,1117,1,0,1:1:0:0:
149,164,1202,1,0,1:1:0:0:
149,164,1288,2,0,P|188:170|228:175,1,80,14|0,2:2|1:1,0:0:0:0:
91,235,1631,5,0,1:1:0:0:
208,157,1802,2,0,P|201:117|196:77,1,80,14|0,2:2|1:1,0:0:0:0:
134,33,2145,1,0,1:1:0:0:
280,104,2317,5,14,2:2:0:0:
112,271,2488,2,0,P|177:260|250:253,1,120,8|0,1:3|0:2,0:0:0:0:
303,262,2831,1,6,1:2:0:0:
256,192,2917,12,0,4117,0:0:0:0:
256,192,4202,12,0,5060,0:0:0:0:
408,97,5231,5,0,1:1:0:0:
340,44,5402,2,0,P|303:74|329:177,1,143.999995605469,8|0,2:2|0:0,0:0:0:0:
332,186,5745,6,0,P|383:177|421:175,1,71.9999978027344,6|0,1:2|0:0,0:0:0:0:
202,231,6088,1,0,1:1:0:0:
202,231,6260,2,0,P|205:195|212:159,1,71.9999978027344,2|2,2:2|1:2,0:0:0:0:
289,268,6602,1,2,2:2:0:0:
289,268,6774,2,0,P|292:303|299:339,1,71.9999978027344,2|0,1:2|0:0,0:0:0:0:
177,245,7117,1,0,1:1:0:0:
177,245,7288,6,0,P|126:236|8:229,1,143.999995605469,2|2,2:2|2:2,0:0:0:0:
109,346,7802,2,0,P|106:310|101:275,1,71.9999978027344,2|2,1:2|2:2,0:0:0:0:
131,131,8145,1,2,1:2:0:0:
131,131,8317,1,2,2:2:0:0:
261,192,8488,6,0,P|213:239|244:306,1,143.999995605469,2|0,1:2|1:1,0:0:0:0:
349,214,9002,2,0,P|341:165|338:120,1,71.9999978027344,2|2,2:2|1:2,0:0:0:0:
495,183,9345,1,2,2:2:0:0:
494,183,9517,2,0,P|459:176|423:173,1,71.9999978027344,2|0,1:2|0:0,0:0:0:0:
322,303,9860,5,0,1:1:0:0:
322,303,10031,2,0,P|357:296|393:293,2,71.9999978027344,2|2|2,2:2|1:2|2:2,0:0:0:0:
166,384,10545,6,0,B|194:302|139:323|159:217,1,143.999995605469,2|0,1:2|1:1,0:0:0:0:
224,187,11060,5,8,2:2:0:0:
224,187,11145,1,8,2:2:0:0:
224,187,11231,2,0,P|198:163|132:173,1,71.9999978027344,6|0,1:2|0:0,0:0:0:0:
57,214,11574,1,2,1:2:0:0:
47,292,11745,2,0,P|71:265|75:230,1,71.9999978027344,2|0,2:2|1:1,0:0:0:0:
8,129,12088,1,2,2:2:0:0:
8,129,12260,2,0,P|63:118|96:114,1,71.9999978027344,2|0,1:2|1:1,0:0:0:0:
78,115,12517,1,0,1:1:0:0:
78,115,12602,1,2,1:2:0:0:
265,73,12774,6,0,P|259:108|231:232,1,143.999995605469,2|2,2:2|2:2,0:0:0:0:
174,84,13288,1,2,1:2:0:0:
327,191,13460,2,0,P|362:198|397:204,1,71.9999978027344,10|2,2:2|1:2,0:0:0:0:
307,64,13802,1,10,2:2:0:0:
166,166,13974,6,0,P|149:212|216:295,1,143.999995605469,6|2,1:2|1:2,0:0:0:0:
302,338,14488,2,0,P|296:302|288:267,1,71.9999978027344,2|0,2:2|1:1,0:0:0:0:
121,241,14831,1,2,2:2:0:0:
121,241,15002,2,0,P|85:233|50:227,1,71.9999978027344,2|0,1:2|0:0,0:0:0:0:
259,168,15345,6,0,P|294:160|329:154,1,71.9999978027344,2|10,1:2|2:3,0:0:0:0:
329,154,15602,1,8,2:3:0:0:
329,154,15688,1,8,2:3:0:0:
437,54,15860,1,6,2:3:0:0:
437,54,15945,1,4,2:3:0:0:
437,54,16031,2,0,L|452:111,1,35.9999989013672,6|0,2:3|0:0,0:0:0:0:
507,137,16202,2,0,L|492:194,1,35.9999989013672,0|0,1:1|1:1,0:0:0:0:
359,244,16374,6,0,L|426:227,1,40,0|0,1:1|0:0,0:0:0:0:
512,306,16545,2,0,L|449:289,1,40,2|0,1:2|0:0,0:0:0:0:
377,335,16717,6,0,B|334:342|307:373|307:373|280:328|226:322,1,160,6|0,1:2|1:1,0:0:0:0:
246,326,17231,1,2,2:2:0:0:
174,190,17402,2,0,P|256:209|357:215,1,160,2|0,1:2|1:1,0:0:0:0:
450,131,17917,1,2,2:2:0:0:
398,74,18088,6,0,P|327:42|269:97,1,160,2|0,1:2|1:1,0:0:0:0:
206,145,18602,1,2,2:2:0:0:
206,145,18774,2,0,P|169:147|116:123,1,80,2|0,1:2|0:0,0:0:0:0:
24,53,19117,2,0,P|61:39|100:40,1,80,0|2,1:1|2:2,0:0:0:0:
34,133,19460,6,0,B|76:227|-15:205|47:307,1,160,2|2,1:2|1:2,0:0:0:0:
132,347,19974,2,0,L|126:386,2,40,2|0|0,2:2|0:0|1:1,0:0:0:0:
218,256,20317,1,2,2:2:0:0:
262,320,20488,2,0,P|341:302|443:300,1,160,2|0,1:2|1:1,0:0:0:0:
419,298,21002,5,0,0:0:0:0:
451,197,21174,2,0,L|316:171,1,120,0|0,1:1|0:0,0:0:0:0:
310,150,21517,2,0,L|216:162,1,80,2|0,1:2|0:0,0:0:0:0:
95,79,21860,2,0,P|114:95|124:123,1,40,2|0,1:2|0:0,0:0:0:0:
81,171,22031,1,2,2:2:0:0:
81,171,22117,1,2,0:0:0:0:
81,171,22202,6,0,B|96:227|96:227|83:270|83:270|103:333,2,160,0|0|0,1:1|1:1|1:1,0:0:0:0:
229,34,23231,2,0,P|261:39|320:52,1,80,2|0,1:2|0:0,0:0:0:0:
335,59,23488,1,8,0:0:0:0:
335,59,23574,6,0,L|433:49,1,80,2|2,1:2|2:2,0:0:0:0:
502,130,23917,1,0,1:1:0:0:
428,156,24088,2,0,B|418:200|418:200|437:252,1,80,2|0,2:2|1:1,0:0:0:0:
507,337,24431,2,0,P|509:288|516:241,1,80,2|0,2:2|1:1,0:0:0:0:
512,257,24774,1,0,0:0:0:0:
417,329,24945,6,0,B|359:359|359:359|289:340,1,120,2|0,1:2|0:0,0:0:0:0:
306,344,25288,1,2,1:2:0:0:
232,270,25460,2,0,L|245:170,1,80,2|0,2:2|1:1,0:0:0:0:
319,93,25802,1,2,2:2:0:0:
266,32,25974,2,0,B|169:9|211:80|92:53,1,160,2|0,1:2|1:1,0:0:0:0:
113,57,26488,5,0,0:0:0:0:
40,145,26660,2,0,L|64:240,1,80,0|0,1:1|0:0,0:0:0:0:
155,168,27002,1,8,1:3:0:0:
163,278,27174,2,0,L|113:291,2,40,0|8|8,1:1|2:2|2:2,0:0:0:0:
211,285,27431,1,8,2:2:0:0:
211,285,27517,1,10,2:2:0:0:
315,360,27688,6,0,B|348:318|348:318|316:197,1,166.399998984375,6|8,1:2|2:2,0:0:0:0:
228,125,28202,1,2,2:2:0:0:
324,54,28374,1,2,1:2:0:0:
438,156,28545,2,0,P|397:147|356:139,1,83.1999994921875,8|0,1:3|0:0,0:0:0:0:
227,37,28888,1,10,2:2:0:0:
143,183,29060,5,2,2:2:0:0:
143,183,29231,1,0,1:1:0:0:
98,17,29402,1,8,2:2:0:0:
0,203,29574,1,2,2:2:0:0:
0,203,29660,1,2,0:0:0:0:
0,203,29745,2,0,P|33:144|36:117,1,83.1999994921875,2|0,1:2|1:1,0:0:0:0:
0,37,30088,1,8,2:2:0:0:
156,104,30260,1,2,2:2:0:0:
156,104,30345,1,2,0:0:0:0:
156,104,30431,6,0,L|256:80,1,83.1999994921875,2|0,1:2|0:0,0:0:0:0:
327,0,30774,1,10,2:2:0:0:
383,93,30945,2,0,L|371:141,2,41.5999997460938,2|0|0,2:2|0:0|0:0,0:0:0:0:
485,35,31288,1,2,1:2:0:0:
485,35,31374,1,2,0:0:0:0:
485,35,31460,2,0,L|494:88,1,41.5999997460938,2|0,2:2|0:0,0:0:0:0:
512,163,31631,6,0,L|485:292,1,124.799999238281,8|0,2:2|0:0,0:0:0:0:
472,318,31974,2,0,L|424:300,1,41.5999997460938,0|0,1:1|0:0,0:0:0:0:
322,362,32145,1,8,2:2:0:0:
249,305,32317,1,0,1:1:0:0:
119,364,32488,5,2,1:2:0:0:
119,364,32660,1,0,1:1:0:0:
47,282,32831,2,0,L|22:189,1,83.1999994921875,10|10,2:2|2:2,0:0:0:0:
20,185,33088,1,8,2:2:0:0:
16,168,33174,6,0,P|56:143|136:176,1,124.799999238281,4|0,1:2|0:0,0:0:0:0:
146,189,33517,2,0,L|250:168,1,83.1999994921875,8|0,2:2|0:0,0:0:0:0:
325,225,33860,1,0,1:1:0:0:
402,151,34031,1,8,1:3:0:0:
488,223,34202,2,0,L|470:313,1,83.1999994921875,2|8,1:2|2:2,0:0:0:0:
297,360,34545,6,0,P|352:337|367:295,1,83.1999994921875,2|0,1:2|1:1,0:0:0:0:
325,225,34888,1,10,2:2:0:0:
402,151,35060,1,2,1:2:0:0:
398,134,35145,1,0,1:1:0:0:
395,117,35231,1,0,1:1:0:0:
310,55,35402,1,2,1:2:0:0:
218,136,35574,6,0,P|148:123|86:106,1,124.799999238281,8|0,2:2|1:1,0:0:0:0:
64,107,35917,2,0,L|86:228,1,83.1999994921875,2|0,1:2|1:1,0:0:0:0:
32,296,36260,1,10,2:2:0:0:
155,357,36431,1,2,1:2:0:0:
155,357,36517,1,0,1:1:0:0:
155,357,36602,2,0,P|208:336|259:342,1,83.1999994921875,0|2,1:1|1:2,0:0:0:0:
409,268,36945,1,2,2:2:0:0:
363,362,37117,6,0,P|315:317|307:213,1,166.399998984375,8|0,2:2|1:1,0:0:0:0:
232,111,37631,2,0,P|276:135|318:138,1,83.1999994921875,10|8,2:2|2:3,0:0:0:0:
492,188,37974,2,0,P|448:164|406:161,1,83.1999994921875,6|8,2:3|2:2,0:0:0:0:
402,170,38231,1,8,2:2:0:0:
388,180,38317,1,10,2:2:0:0:
302,54,38488,1,8,1:3:0:0:
226,226,38660,6,0,P|186:179|225:79,1,166.399998984375,6|0,1:2|0:0,0:0:0:0:
421,337,39174,2,0,P|374:297|274:336,1,166.399998984375,2|0,1:2|0:0,0:0:0:0:
166,298,39688,1,2,1:2:0:0:
223,204,39860,2,0,P|265:197|322:191,1,83.1999994921875,0|0,1:1|0:0,0:0:0:0:
371,142,40202,5,2,1:2:0:0:
282,105,40374,1,2,2:2:0:0:
385,229,40545,1,2,1:2:0:0:
385,229,40631,1,0,1:1:0:0:
385,229,40717,2,0,P|343:222|302:217,1,83.1999994921875,14|2,2:2|2:2,0:0:0:0:
423,115,41060,1,10,2:3:0:0:
277,24,41231,5,6,1:3:0:0:
277,24,41317,1,0,1:1:0:0:
277,24,41402,2,0,P|213:50|208:149,1,166.399998984375,6|0,1:2|0:0,0:0:0:0:
314,250,41917,2,0,P|255:231|130:212,1,166.399998984375,2|0,1:2|0:0,0:0:0:0:
112,125,42431,1,2,1:2:0:0:
88,281,42602,2,0,L|74:379,1,83.1999994921875,2|0,1:2|0:0,0:0:0:0:
1,290,42945,5,10,2:2:0:0:
175,229,43117,1,2,2:2:0:0:
103,350,43288,1,2,1:2:0:0:
103,350,43374,1,0,1:1:0:0:
103,350,43460,2,0,P|146:343|201:336,1,83.1999994921875,10|10,2:2|2:2,0:0:0:0:
219,323,43717,1,8,2:2:0:0:
219,323,43802,2,0,L|202:383,3,41.5999997460938,10|8|8|8,2:2|2:2|2:2|2:2,0:0:0:0:
290,358,44145,5,6,2:2:0:0:
237,90,45517,5,2,2:2:0:0:
87,271,46202,6,0,L|133:258,3,32
167,195,46545,1,10,2:2:0:0:
161,180,46631,1,8,2:2:0:0:
156,166,46717,1,8,2:2:0:0:
151,151,46802,1,8,2:2:0:0:
148,136,46888,6,0,L|318:161,1,160,6|0,1:2|1:1,0:0:0:0:
391,126,47402,1,0,1:1:0:0:
349,223,47574,1,8,2:2:0:0:
487,102,47745,1,10,2:2:0:0:
344,8,47917,1,10,2:2:0:0:
445,206,48088,6,0,P|442:259|338:317,1,160,6|8,1:2|2:2,0:0:0:0:
361,318,48517,1,8,2:2:0:0:
361,318,48602,1,8,2:2:0:0:
239,211,48774,2,0,L|225:156,2,40,8|8|8,2:2|2:2|2:2,0:0:0:0:
142,341,49117,2,0,L|132:379,2,40,8|8|8,2:2|2:2|2:2,0:0:0:0:
85,212,49460,1,8,2:2:0:0:
56,203,49545,1,8,2:2:0:0:
27,197,49631,5,10,2:2:0:0:
247,137,49802,1,2,1:2:0:0:
273,125,50145,6,0,P|253:170|268:226,1,80,10|0,2:2|0:0,0:0:0:0:
361,326,50488,2,0,P|321:326|286:308,1,80,10|0,2:2|1:1,0:0:0:0:
128,261,50831,6,0,P|199:220|302:242,1,160,14|8,2:2|1:3,0:0:0:0:
274,226,51260,1,8,1:3:0:0:
274,226,51345,1,8,1:3:0:0:
91,53,51688,5,2,2:2:0:0:
88,74,52031,1,2,2:2:0:0:
85,95,52374,6,0,P|94:146|100:202,1,88.000002685547,6|2,1:2|2:2,0:0:0:0:
53,300,52717,1,10,2:2:0:0:
124,359,52888,2,0,B|230:380|178:297|320:331,1,176.000005371094,2|0,1:2|1:1,0:0:0:0:
472,339,53402,2,0,P|459:303|446:254,1,88.000002685547,10|2,2:2|2:2,0:0:0:0:
322,150,53745,5,2,1:2:0:0:
499,104,53917,2,0,P|463:85|412:99,1,88.000002685547,2|8,1:2|2:2,0:0:0:0:
328,241,54260,1,2,1:2:0:0:
243,199,54431,2,0,B|180:223|180:223|79:186,1,132.00000402832,2|0,2:2|0:0,0:0:0:0:
93,189,54774,2,0,P|102:142|107:94,1,88.000002685547,10|0,2:2|0:0,0:0:0:0:
269,6,55117,6,0,B|322:36|322:36|302:171,1,176.000005371094,2|8,1:2|2:2,0:0:0:0:
199,297,55631,2,0,P|156:293|93:284,1,88.000002685547,2|0,1:2|0:0,0:0:0:0:
73,91,55974,1,2,1:2:0:0:
199,186,56145,1,10,2:2:0:0:
44,232,56317,1,2,2:2:0:0:
206,93,56488,6,0,P|297:74|336:158,1,176.000005371094,2|12,1:2|2:2,0:0:0:0:
494,106,57002,1,2,2:2:0:0:
420,257,57174,2,0,P|423:214|429:159,1,88.000002685547,2|0,1:2|1:1,0:0:0:0:
296,209,57517,2,0,P|299:251|305:307,1,88.000002685547,8|2,2:2|2:2,0:0:0:0:
220,346,57860,6,0,B|141:374|141:374|68:330,1,132.00000402832,4|0,1:2|0:0,0:0:0:0:
78,342,58202,2,0,P|75:297|72:234,1,88.000002685547,10|0,2:2|1:1,0:0:0:0:
124,126,58545,1,2,2:2:0:0:
32,111,58717,2,0,P|75:91|127:111,1,88.000002685547,2|8,1:2|2:2,0:0:0:0:
208,223,59060,1,2,2:2:0:0:
322,80,59231,6,0,B|333:145|333:145|313:199|313:199|316:287,1,176.000005371094,4|10,1:2|2:2,0:0:0:0:
315,251,59745,1,0,1:1:0:0:
250,131,59917,2,0,P|202:127|162:153,1,88.000002685547,2|2,2:2|1:2,0:0:0:0:
107,212,60260,1,8,2:2:0:0:
209,296,60431,1,2,2:2:0:0:
44,159,60602,6,0,B|3:198|19:257|43:241|62:300|24:341,1,176.000005371094,4|10,1:2|2:2,0:0:0:0:
35,323,61117,1,2,1:2:0:0:
226,289,61288,1,2,2:2:0:0:
109,210,61460,1,2,1:2:0:0:
140,384,61631,1,10,2:2:0:0:
204,212,61802,2,0,P|293:196|334:261,1,176.000005371094,2|0,2:2|1:1,0:0:0:0:
447,209,62317,5,8,2:2:0:0:
447,209,62402,1,8,2:2:0:0:
447,209,62488,1,8,2:2:0:0:
447,209,62574,1,8,2:2:0:0:
447,209,62660,2,0,L|434:145,1,44.0000013427735,10|8,2:3|2:3,0:0:0:0:
360,41,62831,2,0,L|351:84,1,44.0000013427735,4|4,2:3|2:3,0:0:0:0:
296,174,63002,2,0,L|170:151,1,107.999996704102,14|0,2:2|0:0,0:0:0:0:
146,134,63345,6,0,P|115:171|131:222,1,95.9999970703126,6|2,1:2|2:2,0:0:0:0:
278,277,63688,1,10,2:2:0:0:
164,358,63860,2,0,B|90:360|45:333|45:333|32:365|0:386,1,191.999994140625,2|0,1:2|1:1,0:0:0:0:
28,235,64374,2,0,P|15:188|0:143,1,95.9999970703126,10|2,2:2|2:2,0:0:0:0:
70,66,64717,5,2,1:2:0:0:
189,154,64888,2,0,P|233:168|276:149,1,95.9999970703126,2|8,1:2|2:2,0:0:0:0:
401,43,65231,2,0,P|361:67|348:112,1,95.9999970703126,2|2,1:2|2:2,0:0:0:0:
392,267,65574,1,0,1:1:0:0:
392,267,65745,2,0,P|382:221|344:194,1,95.9999970703126,10|0,2:2|0:0,0:0:0:0:
299,343,66088,6,0,P|352:308|475:339,1,191.999994140625,2|8,1:2|2:2,0:0:0:0:
293,364,66602,2,0,P|250:360|187:351,1,95.9999970703126,2|0,1:2|0:0,0:0:0:0:
92,241,66945,1,2,1:2:0:0:
39,378,67117,1,10,2:2:0:0:
189,259,67288,1,2,2:2:0:0:
17,188,67460,6,0,P|-2:97|82:58,1,191.999994140625,2|12,1:2|2:2,0:0:0:0:
210,162,67974,1,2,2:2:0:0:
272,47,68145,2,0,P|224:60|158:74,1,95.9999970703126,2|0,1:2|1:1,0:0:0:0:
297,197,68488,1,8,2:2:0:0:
113,281,68660,6,0,P|206:301|279:322,1,155.999992858887,2|0,1:2|0:0,0:0:0:0:
289,334,69002,1,2,2:2:0:0:
190,193,69174,1,10,2:2:0:0:
372,260,69345,1,2,1:2:0:0:
245,115,69517,1,2,2:2:0:0:
113,281,69688,2,0,P|67:270|44:229,1,95.9999970703126,2|8,1:2|2:2,0:0:0:0:
116,76,70031,6,0,B|132:125|132:125|76:103|22:90,1,155.999992858887,2|0,2:2|0:0,0:0:0:0:
11,86,70374,1,2,1:2:0:0:
125,206,70545,1,10,2:2:0:0:
218,75,70717,1,0,1:1:0:0:
292,233,70888,1,2,2:2:0:0:
395,86,71060,2,0,P|401:128|420:189,1,95.9999970703126,2|8,1:2|2:2,0:0:0:0:
496,2,71402,6,0,B|396:-9|423:59|313:48,1,191.999994140625,2|2,2:2|2:2,0:0:0:0:
216,118,71917,1,10,2:2:0:0:
139,4,72088,1,2,1:2:0:0:
39,114,72260,1,2,2:2:0:0:
150,219,72431,1,2,1:2:0:0:
43,327,72602,1,10,2:2:0:0:
193,383,72774,6,0,P|252:366|402:338,1,191.999994140625,2|0,2:2|1:1,0:0:0:0:
512,244,73288,2,0,P|524:289|499:329,1,95.9999970703126,12|0,2:2|1:1,0:0:0:0:
364,244,73631,6,0,L|343:179,2,63.9999980468751,8|8|8,2:3|2:3|2:3,0:0:0:0:
452,151,73974,2,0,P|487:164|517:172,2,63.9999980468751,6|4|4,2:3|2:3|1:3,0:0:0:0:
400,64,74317,6,0,P|346:83|336:178,1,143.999995605469,6|0,1:2|0:0,0:0:0:0:
419,149,74831,1,0,1:1:0:0:
300,91,75002,2,0,P|226:103|152:114,1,143.999995605469,8|2,2:2|2:2,0:0:0:0:
98,57,75517,1,0,0:0:0:0:
57,203,75688,6,0,P|62:167|68:131,1,71.9999978027344,2|8,1:2|2:2,0:0:0:0:
227,210,76031,1,2,2:2:0:0:
227,210,76202,2,0,P|191:204|155:198,1,71.9999978027344,2|8,1:2|2:2,0:0:0:0:
67,131,76545,1,8,2:3:0:0:
131,236,76717,1,6,2:3:0:0:
266,141,76888,5,0,1:1:0:0:
266,141,76974,1,0,1:1:0:0:
266,141,77060,2,0,P|300:177|272:274,1,143.999995605469,6|2,1:2|1:2,0:0:0:0:
162,318,77574,1,0,1:1:0:0:
219,374,77745,2,0,P|206:312|199:232,1,143.999995605469,10|2,2:2|1:2,0:0:0:0:
298,153,78260,1,8,2:2:0:0:
284,263,78431,5,0,1:1:0:0:
412,204,78602,2,0,P|409:161|398:119,1,71.9999978027344,8|0,2:2|1:1,0:0:0:0:
275,69,78945,1,2,1:2:0:0:
275,69,79117,2,0,P|267:104|265:140,1,71.9999978027344,8|2,2:2|1:2,0:0:0:0:
439,225,79460,2,0,P|403:232|367:234,1,71.9999978027344,10|10,2:2|2:2,0:0:0:0:
358,244,79717,1,8,2:2:0:0:
349,255,79802,5,6,1:2:0:0:
374,147,79974,1,2,2:2:0:0:
235,266,80145,1,10,2:2:0:0:
429,344,80317,2,0,B|366:347|366:347|337:366|337:366|240:374,1,160,2|2,1:2|1:2,0:0:0:0:
206,236,80831,1,10,2:2:0:0:
146,362,81002,1,2,2:2:0:0:
311,217,81174,6,0,P|328:252|312:288,1,80,2|2,1:2|1:2,0:0:0:0:
164,256,81517,1,10,2:2:0:0:
295,131,81688,2,0,P|351:138|396:231,1,160,2|2,1:2|1:2,0:0:0:0:
202,114,82202,1,10,2:2:0:0:
363,53,82374,1,2,2:2:0:0:
281,156,82545,5,6,1:2:0:0:
185,19,82717,1,0,0:0:0:0:
391,131,82888,1,10,2:2:0:0:
196,255,83060,2,0,P|183:178|171:76,1,160,2|0,1:2|1:1,0:0:0:0:
295,131,83574,1,10,2:2:0:0:
108,232,83745,5,0,1:1:0:0:
108,232,83831,1,0,1:1:0:0:
108,232,83917,2,0,P|56:243|10:256,2,80,10|10|0,2:2|2:2|1:1,0:0:0:0:
194,364,84431,2,0,P|201:325|212:287,1,80,10|0,1:2|0:0,0:0:0:0:
90,154,84774,1,10,2:3:0:0:
90,154,84945,2,0,P|100:192|107:231,1,80,8|0,2:2|0:0,0:0:0:0:
207,329,85288,6,0,P|245:333|290:302,1,71.9999978027344,6|2,1:2|2:2,0:0:0:0:
417,227,85631,1,2,1:2:0:0:
424,329,85802,2,0,P|425:293|431:233,1,71.9999978027344,2|0,2:2|1:1,0:0:0:0:
317,133,86145,1,2,2:2:0:0:
310,235,86317,2,0,P|309:199|303:139,1,71.9999978027344,2|2,1:2|2:2,0:0:0:0:
188,101,86660,5,0,1:1:0:0:
128,46,86831,2,0,P|67:49|44:140,1,143.999995605469,2|2,2:2|2:2,0:0:0:0:
77,221,87345,2,0,L|158:211,1,71.9999978027344,2|8,1:2|2:3,0:0:0:0:
279,120,87688,1,0,1:1:0:0:
295,113,87774,1,8,2:3:0:0:
313,112,87860,1,10,2:3:0:0:
329,119,87945,1,4,2:3:0:0:
342,131,88031,6,0,B|364:166|364:166|357:226,1,71.9999978027344,2|0,1:2|0:0,0:0:0:0:
252,309,88374,1,2,1:2:0:0:
341,341,88545,2,0,L|245:333,1,71.9999978027344,2|0,2:2|1:1,0:0:0:0:
167,228,88888,1,2,2:2:0:0:
78,260,89060,2,0,L|174:252,1,71.9999978027344,2|0,1:2|0:0,0:0:0:0:
167,228,89317,1,0,0:0:0:0:
167,228,89402,6,0,B|249:194|224:280|321:232,1,143.999995605469,2|0,1:2|1:1,0:0:0:0:
302,240,89917,1,0,0:0:0:0:
422,115,90088,2,0,P|395:92|337:159,1,143.999995605469,2|0,1:2|1:1,0:0:0:0:
330,56,90602,5,10,2:2:0:0:
330,56,90688,1,8,2:2:0:0:
330,56,90774,2,0,P|255:61|236:60,1,71.9999978027344,6|0,1:2|0:0,0:0:0:0:
150,37,91117,1,2,1:2:0:0:
150,37,91288,2,0,P|143:77|170:128,1,71.9999978027344,2|0,2:2|1:1,0:0:0:0:
240,177,91631,1,2,2:2:0:0:
194,244,91802,2,0,L|107:238,1,71.9999978027344,2|0,1:2|0:0,0:0:0:0:
199,338,92145,5,2,1:2:0:0:
199,338,92317,2,0,B|236:359|236:359|345:333,1,143.999995605469,2|2,2:2|2:2,0:0:0:0:
453,258,92831,2,0,P|448:300|445:355,1,71.9999978027344,2|0,1:2|0:0,0:0:0:0:
352,247,93174,2,0,P|347:205|344:150,1,71.9999978027344,2|8,1:2|2:3,0:0:0:0:
344,175,93431,1,8,2:3:0:0:
344,175,93517,6,0,B|306:206|262:190|281:173|230:155|183:185,1,143.999995605469,6|2,1:2|1:2,0:0:0:0:
214,53,94031,2,0,L|311:69,1,71.9999978027344,2|0,2:2|1:1,0:0:0:0:
285,64,94374,1,2,2:2:0:0:
375,21,94545,1,2,1:2:0:0:
478,98,94717,6,0,B|474:154|474:154|454:189|454:189|449:252,1,143.999995605469,12|2,2:2|2:2,0:0:0:0:
445,353,95231,1,0,1:1:0:0:
340,286,95402,1,10,2:2:0:0:
327,288,95488,1,8,2:2:0:0:
314,291,95574,2,0,L|253:287,3,35.9999989013672,2|8|4|0,1:2|2:3|2:3|0:0,0:0:0:0:
215,237,95917,2,0,L|168:253,1,35.9999989013672,0|8,1:1|2:2,0:0:0:0:
110,319,96088,2,0,L|63:303,1,35.9999989013672,10|8,2:2|2:2,0:0:0:0:
77,206,96260,5,2,2:2:0:0:
327,380,96602,5,4,1:2:0:0:
407,313,96774,1,2,2:2:0:0:
480,350,96945,2,0,P|506:279|470:216,1,143.999995605469,2|0,1:2|1:1,0:0:0:0:
408,183,97460,1,2,2:2:0:0:
395,175,97545,1,0,0:0:0:0:
382,167,97631,2,0,P|348:122|365:93,1,71.9999978027344,2|0,1:2|0:0,0:0:0:0:
480,0,97974,2,0,P|446:45|463:74,1,71.9999978027344,0|2,1:1|2:2,0:0:0:0:
512,119,98317,6,0,L|364:91,1,143.999995605469,2|0,1:2|1:1,0:0:0:0:
294,34,98831,1,2,2:2:0:0:
294,34,98917,1,0,0:0:0:0:
294,34,99002,2,0,P|258:47|211:62,1,71.9999978027344,2|0,1:2|0:0,0:0:0:0:
129,45,99345,1,2,1:2:0:0:
174,159,99517,2,0,L|197:197,2,35.9999989013672,2|0|0,2:2|0:0|1:1,0:0:0:0:
56,122,99860,1,2,2:2:0:0:
38,254,100031,1,2,1:2:0:0:
38,254,100117,1,0,0:0:0:0:
38,254,100202,6,0,B|97:287|128:365,1,143.999995605469,2|0,0:0|0:0,0:0:0:0:
216,384,100717,2,0,P|234:346|274:331,1,71.9999978027344,0|0,1:1|0:0,0:0:0:0:
272,337,100974,1,0,0:0:0:0:
281,341,101060,2,0,L|372:325,1,71.9999978027344,2|0,1:2|0:0,0:0:0:0:
424,271,101402,1,2,1:2:0:0:
345,221,101574,1,2,2:2:0:0:
345,221,101660,1,0,0:0:0:0:
345,221,101745,6,0,P|354:142|363:55,1,143.999995605469,4|0,1:2|1:1,0:0:0:0:
291,25,102260,1,0,0:0:0:0:
291,25,102431,2,0,P|258:40|210:59,1,71.9999978027344,0|0,1:1|0:0,0:0:0:0:
104,109,102774,2,0,P|137:122|169:137,1,71.9999978027344,2|0,1:2|0:0,0:0:0:0:
177,150,103031,1,0,0:0:0:0:
179,164,103117,6,0,L|167:248,1,71.9999978027344,2|0,1:2|0:0,0:0:0:0:
80,274,103460,1,2,1:2:0:0:
142,338,103631,2,0,P|73:321|10:351,1,143.999995605469,2|2,2:2|2:2,0:0:0:0:
212,384,104145,1,0,1:1:0:0:
212,384,104488,6,0,P|251:351|284:355,1,71.9999978027344,2|0,1:2|0:0,0:0:0:0:
370,378,104831,1,2,1:2:0:0:
314,289,105002,2,0,P|303:217|347:151,1,143.999995605469,2|2,2:2|2:2,0:0:0:0:
419,116,105517,1,2,1:2:0:0:
330,48,105688,2,0,B|254:64|254:64|251:69|251:69|172:85,1,143.999995605469,12|0,2:2|1:1,0:0:0:0:
102,62,106202,1,8,2:2:0:0:
69,199,106374,1,0,1:1:0:0:
18,125,106545,6,0,L|-22:138,2,35.9999989013672,8|8|8,2:2|2:2|2:3,0:0:0:0:
170,195,106888,1,4,2:3:0:0:
48,321,107060,1,10,2:2:0:0:
48,321,107145,1,8,2:2:0:0:
48,321,107231,6,0,P|96:299|211:310,1,160,6|8,1:2|2:2,0:0:0:0:
257,222,107745,1,2,2:2:0:0:
292,369,107917,1,2,1:2:0:0:
114,268,108088,2,0,P|101:221|121:183,1,80,0|0,1:1|0:0,0:0:0:0:
271,129,108431,1,10,2:2:0:0:
192,289,108602,5,2,2:2:0:0:
192,289,108774,1,0,1:1:0:0:
373,220,108945,1,8,2:2:0:0:
273,210,109117,1,10,2:2:0:0:
273,210,109202,1,8,2:2:0:0:
273,210,109288,2,0,P|281:262|286:312,1,80,2|0,1:2|1:1,0:0:0:0:
401,199,109631,1,8,2:2:0:0:
383,384,109802,1,10,2:3:0:0:
383,384,109888,1,4,2:3:0:0:
383,384,109974,6,0,P|389:344|394:304,1,80,2|0,1:2|0:0,0:0:0:0:
493,248,110317,1,10,2:2:0:0:
382,176,110488,2,0,L|328:166,2,40,2|0|0,2:2|0:0|0:0,0:0:0:0:
473,95,110831,1,2,1:2:0:0:
473,95,110917,1,2,0:0:0:0:
473,95,111002,2,0,L|512:87,1,40,2|0,2:2|0:0,0:0:0:0:
378,32,111174,6,0,P|327:20|261:60,1,120,8|0,2:2|0:0,0:0:0:0:
245,35,111517,2,0,L|257:85,1,40,0|0,1:1|0:0,0:0:0:0:
183,144,111688,1,8,2:2:0:0:
329,195,111860,1,0,1:1:0:0:
153,271,112031,5,10,2:2:0:0:
153,271,112202,1,8,2:2:0:0:
245,203,112374,2,0,L|250:300,1,80,2|10,1:2|2:2,0:0:0:0:
231,308,112631,1,8,2:2:0:0:
224,319,112717,6,0,P|173:333|130:233,1,160,4|8,1:2|2:2,0:0:0:0:
265,222,113231,2,0,L|362:217,1,80,0|0,1:1|1:1,0:0:0:0:
183,133,113574,1,0,1:1:0:0:
101,281,113745,1,2,2:2:0:0:
291,202,113917,2,0,L|281:150,1,40,12|0,2:2|0:0,0:0:0:0:
142,64,114088,6,0,P|104:113|112:161,1,80,2|0,2:2|1:1,0:0:0:0:
98,329,114431,2,0,P|136:280|128:232,1,80,10|2,2:2|1:2,0:0:0:0:
137,264,114688,1,8,2:2:0:0:
137,264,114774,1,0,1:1:0:0:
13,155,114945,2,0,P|73:141|113:168,1,80,2|8,1:2|2:2,0:0:0:0:
228,230,115288,1,8,2:2:0:0:
246,226,115374,1,8,2:2:0:0:
265,222,115460,5,6,1:2:0:0:
373,245,115631,1,0,1:1:0:0:
452,106,115802,1,10,2:2:0:0:
344,129,115974,6,0,P|337:82|341:31,1,80,2|0,2:2|0:0,0:0:0:0:
449,12,116317,1,2,1:2:0:0:
429,125,116488,1,2,1:2:0:0:
254,75,116660,6,0,P|187:65|78:77,1,160,12|0,2:2|1:1,0:0:0:0:
152,176,117174,2,0,P|119:185|72:214,1,80,10|8,2:2|2:2,0:0:0:0:
40,278,117431,1,8,2:2:0:0:
38,299,117517,2,0,P|58:333|71:372,1,80,10|8,2:2|2:2,0:0:0:0:
136,308,117774,1,8,2:2:0:0:
141,289,117860,2,0,P|175:269|214:257,1,80,10|8,2:2|2:2,0:0:0:0:
350,178,118202,6,0,B|384:219|369:268|341:249|324:304|356:341,1,160,6|0,1:2|0:0,0:0:0:0:
504,159,118717,2,0,P|483:90|404:105,1,160,2|0,1:2|0:0,0:0:0:0:
258,151,119231,1,2,1:2:0:0:
317,27,119402,2,0,L|331:113,1,80,0|0,1:1|0:0,0:0:0:0:
306,284,119745,5,10,2:2:0:0:
151,233,119917,1,2,2:2:0:0:
227,314,120088,1,2,1:2:0:0:
227,314,120174,1,0,1:1:0:0:
227,314,120260,2,0,L|244:208,1,80,14|2,2:2|1:2,0:0:0:0:
161,69,120602,1,2,2:2:0:0:
108,125,120774,5,2,1:2:0:0:
108,125,120860,1,0,1:2:0:0:
108,125,120945,2,0,P|186:142|239:84,1,160,6|0,1:2|0:0,0:0:0:0:
32,64,121460,2,0,B|19:132|19:132|29:164|29:164|18:256,1,160,2|0,1:2|0:0,0:0:0:0:
140,264,121974,1,6,1:2:0:0:
27,370,122145,2,0,L|136:356,1,80,0|0,1:1|0:0,0:0:0:0:
270,324,122488,5,10,2:2:0:0:
140,264,122660,1,2,2:2:0:0:
241,204,122831,1,2,1:2:0:0:
256,206,122917,1,0,1:2:0:0:
271,208,123002,2,0,L|370:228,1,80,10|10,2:2|1:3,0:0:0:0:
372,237,123260,5,8,1:3:0:0:
372,237,123345,2,0,L|376:182,1,40,10|8,2:2|2:2,0:0:0:0:
466,162,123517,2,0,L|447:109,1,40,8|8,2:2|2:2,0:0:0:0:
375,47,123688,5,6,2:2:0:0:
124,251,125060,5,2,2:2:0:0:
85,97,125745,6,0,L|89:44,3,32
106,189,126088,1,10,2:3:0:0:
105,201,126174,1,4,2:3:0:0:
103,213,126260,1,0,1:1:0:0:
102,225,126345,1,0,1:1:0:0:
100,236,126431,6,0,B|174:266|174:266|265:224,1,160,6|0,1:2|1:1,0:0:0:0:
299,150,126945,1,0,1:1:0:0:
410,218,127117,1,8,2:2:0:0:
329,67,127288,1,10,2:2:0:0:
508,75,127460,1,10,2:2:0:0:
324,224,127631,6,0,P|250:237|197:168,1,160,14|8,2:2|2:2,0:0:0:0:
198,178,128060,1,8,2:2:0:0:
198,178,128145,1,8,2:2:0:0:
44,93,128317,2,0,L|55:154,1,40,8|8,2:2|2:2,0:0:0:0:
67,202,128488,1,8,2:2:0:0:
169,309,128660,2,0,L|180:248,1,40,8|8,2:2|2:2,0:0:0:0:
192,200,128831,1,8,2:2:0:0:
189,74,129002,1,4,2:3:0:0:
207,65,129088,1,0,1:1:0:0:
227,65,129174,5,10,2:2:0:0:
324,234,129345,1,2,1:2:0:0:
328,242,129688,6,0,L|350:157,1,80,10|0,2:2|0:0,0:0:0:0:
466,226,130031,2,0,L|488:311,1,80,2|0,1:2|1:1,0:0:0:0:
366,362,130374,6,0,P|295:333|236:387,1,160,14|8,2:2|2:3,0:0:0:0:
237,382,130802,1,4,2:3:0:0:
237,382,130888,1,0,1:1:0:0:
42,349,131231,6,0,L|58:232,1,96,2|0,2:2|0:0,0:0:0:0:
68,180,131574,1,2,2:2:0:0:
427,289,131917,6,0,P|418:238|412:182,1,95.9999970703126,6|2,1:2|2:2,0:0:0:0:
482,107,132260,1,10,2:2:0:0:
385,32,132431,2,0,B|285:21|312:89|202:78,1,191.999994140625,2|0,1:2|1:1,0:0:0:0:
99,3,132945,2,0,P|48:43|44:78,1,95.9999970703126,10|2,2:2|2:2,0:0:0:0:
117,160,133288,5,2,1:2:0:0:
27,280,133460,2,0,P|2:190|8:169,1,95.9999970703126,2|8,1:2|2:2,0:0:0:0:
129,293,133802,1,2,1:2:0:0:
213,175,133974,2,0,P|260:184|308:189,1,95.9999970703126,2|0,2:2|1:1,0:0:0:0:
332,327,134317,2,0,P|285:318|237:313,1,95.9999970703126,10|0,2:2|0:0,0:0:0:0:
412,384,134660,6,0,B|462:349|462:349|430:216,1,191.999994140625,2|8,1:2|2:2,0:0:0:0:
511,77,135174,2,0,P|490:119|447:138,1,95.9999970703126,2|0,1:2|0:0,0:0:0:0:
289,110,135517,1,2,1:2:0:0:
419,25,135688,1,10,2:2:0:0:
431,221,135860,1,2,2:2:0:0:
273,102,136031,5,2,1:2:0:0:
447,138,136202,1,0,1:1:0:0:
314,253,136374,2,0,P|258:238|205:228,1,95.9999970703126,12|2,2:2|2:2,0:0:0:0:
69,189,136717,5,2,1:2:0:0:
105,363,136888,1,0,1:1:0:0:
220,230,137060,1,8,2:2:0:0:
65,273,137231,6,0,P|5:244|26:121,1,191.999994140625,2|2,2:2|2:2,0:0:0:0:
87,52,137745,1,10,2:2:0:0:
141,152,137917,1,2,1:2:0:0:
214,74,138088,1,2,2:2:0:0:
277,179,138260,2,0,P|291:234|302:288,1,95.9999970703126,2|8,1:2|2:2,0:0:0:0:
206,337,138602,6,0,P|296:313|376:363,1,191.999994140625,2|2,2:2|1:2,0:0:0:0:
511,198,139117,2,0,P|496:251|495:305,1,95.9999970703126,10|0,2:2|1:1,0:0:0:0:
384,201,139460,1,2,2:2:0:0:
451,26,139631,2,0,P|466:79|467:133,1,95.9999970703126,2|8,1:2|2:2,0:0:0:0:
399,288,139974,6,0,B|299:299|326:231|216:242,1,191.999994140625,2|2,2:2|2:2,0:0:0:0:
124,353,140488,2,0,P|120:305|106:259,1,95.9999970703126,10|2,2:2|1:2,0:0:0:0:
10,176,140831,1,2,2:2:0:0:
146,58,141002,1,2,1:2:0:0:
218,241,141174,1,10,2:2:0:0:
25,186,141345,6,0,B|125:197|98:129|208:140,1,191.999994140625,2|0,2:2|1:1,0:0:0:0:
353,41,141860,2,0,P|368:94|369:148,1,95.9999970703126,8|8,2:2|2:2,0:0:0:0:
364,153,142117,1,8,2:2:0:0:
358,171,142202,1,2,1:2:0:0:
456,283,142374,1,8,2:2:0:0:
456,283,142460,1,8,2:2:0:0:
456,283,142545,6,0,P|414:272|375:274,1,60.0000022888184,10|8,2:2|2:2,0:0:0:0:
298,246,142717,2,0,P|267:276|249:311,1,60.0000022888184,8|8,2:2|2:2,0:0:0:0:
392,375,142888,6,0,P|421:336|399:268,1,95.9999970703126,6|2,1:2|2:2,0:0:0:0:
244,191,143231,1,10,2:2:0:0:
152,356,143402,2,0,P|228:330|345:316,1,191.999994140625,2|0,1:2|1:1,0:0:0:0:
168,368,143917,2,0,P|182:322|187:274,1,95.9999970703126,10|2,2:2|2:2,0:0:0:0:
106,137,144260,5,2,1:2:0:0:
0,271,144431,2,0,P|47:276|93:290,1,95.9999970703126,2|8,1:2|2:2,0:0:0:0:
282,165,144774,2,0,P|234:170|188:184,1,95.9999970703126,2|2,1:2|2:2,0:0:0:0:
111,314,145117,1,0,1:1:0:0:
111,314,145202,1,0,1:1:0:0:
111,314,145288,2,0,P|105:266|91:220,1,95.9999970703126,10|0,2:2|0:0,0:0:0:0:
26,65,145631,6,0,P|106:100|232:80,1,191.999994140625,2|8,1:2|2:2,0:0:0:0:
281,134,146145,2,0,P|296:78|273:38,1,95.9999970703126,2|0,1:2|0:0,0:0:0:0:
201,202,146488,1,2,1:2:0:0:
389,130,146660,1,10,2:2:0:0:
261,31,146831,1,2,2:2:0:0:
328,231,147002,6,0,P|306:129|280:46,1,191.999994140625,2|12,1:2|2:2,0:0:0:0:
426,151,147517,1,2,2:2:0:0:
433,174,147602,1,0,0:0:0:0:
440,197,147688,1,2,1:2:0:0:
272,297,147860,1,0,1:1:0:0:
427,306,148031,1,8,2:2:0:0:
308,217,148202,1,2,1:2:0:0:
265,359,148374,6,0,P|214:337|114:340,1,143.999995605469,4|0,1:2|0:0,0:0:0:0:
94,359,148717,1,10,2:2:0:0:
3,305,148888,1,0,1:1:0:0:
204,164,149060,1,2,2:2:0:0:
149,251,149231,2,0,P|106:211|113:164,1,95.9999970703126,2|8,1:2|2:2,0:0:0:0:
288,57,149574,6,0,P|326:107|264:198,1,143.999995605469,2|0,2:2|0:0,0:0:0:0:
279,196,149917,1,2,1:2:0:0:
191,58,150088,1,10,2:2:0:0:
406,96,150260,1,0,1:1:0:0:
331,275,150431,1,2,2:2:0:0:
487,180,150602,2,0,P|434:185|372:200,1,95.9999970703126,2|8,1:2|2:2,0:0:0:0:
402,325,150945,6,0,P|355:315|192:305,1,191.999994140625,2|2,2:2|2:2,0:0:0:0:
138,227,151460,1,10,2:2:0:0:
309,289,151631,1,2,1:2:0:0:
136,370,151802,1,2,2:2:0:0:
231,276,151974,1,2,1:2:0:0:
208,144,152145,1,10,2:2:0:0:
21,152,152317,6,0,P|52:227|172:236,1,191.999994140625,2|0,2:2|1:1,0:0:0:0:
269,108,152831,2,0,P|206:118|140:139,1,95.9999970703126,12|0,2:2|1:1,0:0:0:0:
81,48,153174,5,8,2:2:0:0:
81,48,153288,2,0,P|91:111|105:160,1,63.9999980468751,8|8,2:2|2:3,0:0:0:0:
241,203,153517,1,6,2:3:0:0:
241,203,153631,2,0,P|251:140|265:91,1,63.9999980468751,4|0,1:3|1:1,0:0:0:0:
393,17,153860,6,0,P|329:21|312:99,1,143.999995605469,6|0,1:2|0:0,0:0:0:0:
393,17,154374,1,0,1:1:0:0:
461,133,154545,2,0,B|451:190|451:190|463:223|463:223|452:296,1,143.999995605469,8|2,2:2|2:2,0:0:0:0:
407,348,155060,1,8,2:2:0:0:
335,265,155231,6,0,P|291:264|254:291,1,71.9999978027344,2|8,1:2|2:2,0:0:0:0:
182,348,155574,1,2,2:2:0:0:
88,277,155745,1,2,1:2:0:0:
88,277,155831,1,0,1:1:0:0:
88,277,155917,2,0,P|91:241|94:193,1,71.9999978027344,8|8,2:2|2:3,0:0:0:0:
178,74,156260,2,0,L|184:109,3,35.9999989013672,6|4|0|0,2:3|2:3|1:1|1:1,0:0:0:0:
211,141,156602,6,0,B|275:172|275:172|368:154,1,143.999995605469,6|2,1:2|2:2,0:0:0:0:
346,158,157117,1,0,1:1:0:0:
271,27,157288,2,0,P|232:35|193:39,1,71.9999978027344,10|0,2:2|0:0,0:0:0:0:
56,103,157631,2,0,P|91:107|126:114,1,71.9999978027344,2|8,1:2|2:2,0:0:0:0:
42,202,157974,6,0,B|67:244|57:281|35:267|18:319|54:367,1,143.999995605469,0|0,1:1|1:1,0:0:0:0:
131,221,158488,2,0,P|169:231|217:237,1,71.9999978027344,2|8,1:2|2:2,0:0:0:0:
313,330,158831,2,0,P|350:319|395:300,1,71.9999978027344,10|10,1:3|2:2,0:0:0:0:
409,296,159088,1,8,2:2:0:0:
409,296,159174,1,10,2:2:0:0:
480,138,159345,6,0,P|439:147|391:153,1,80,6|0,1:2|0:0,0:0:0:0:
237,183,159688,1,8,2:2:0:0:
306,49,159860,2,0,P|303:91|307:139,1,80,0|0,0:0|1:1,0:0:0:0:
246,280,160202,1,0,1:1:0:0:
166,136,160374,1,8,2:2:0:0:
328,211,160545,1,8,2:3:0:0:
328,211,160631,1,4,2:3:0:0:
328,211,160717,6,0,P|361:290|287:354,1,160,4|8,1:2|2:2,0:0:0:0:
153,296,161231,1,0,1:1:0:0:
153,296,161317,1,8,2:3:0:0:
153,296,161402,2,0,L|143:242,1,40,0|4,1:1|2:3,0:0:0:0:
216,213,161574,1,0,1:1:0:0:
82,117,161745,1,8,2:2:0:0:
173,71,161917,1,0,1:1:0:0:
14,31,162088,6,0,P|25:124|34:222,1,160,4|8,1:2|2:2,0:0:0:0:
115,12,162602,1,0,1:1:0:0:
115,12,162688,1,8,2:3:0:0:
115,12,162774,2,0,L|166:22,1,40,0|4,1:1|2:3,0:0:0:0:
239,52,162945,1,0,1:1:0:0:
400,15,163117,2,0,L|389:122,1,80,10|0,2:2|1:1,0:0:0:0:
482,227,163460,5,10,2:2:0:0:
290,163,163631,1,10,2:2:0:0:
290,163,163974,2,0,P|289:205|286:247,1,80,10|0,1:3|0:0,0:0:0:0:
211,343,164317,1,2,1:2:0:0:
104,253,164488,1,8,2:2:0:0:
404,164,164831,6,0,P|320:141|213:115,3,191.999994140625,6|2|2|2,1:2|2:2|2:2|2:2,0:0:0:0:
90,205,167231,2,0,L|82:240,3,23.9999992675781
33,141,167574,6,0,P|2:86|102:31,3,191.999994140625,6|2|2|2,2:2|2:2|2:2|2:2,0:0:0:0:
181,60,169802,2,0,L|223:49,1,23.9999992675781
277,14,169974,2,0,L|319:25,1,23.9999992675781
376,64,170145,2,0,L|418:53,1,23.9999992675781
498,59,170317,5,2,2:2:0:0:
512,179,170488,1,2,2:2:0:0:
512,179,170660,1,2,2:2:0:0:
406,163,170831,5,2,2:2:0:0:
413,76,171002,1,2,2:2:0:0:
413,76,171174,1,2,2:2:0:0:
325,93,171345,5,2,2:2:0:0:
334,150,171517,1,2,2:2:0:0:
334,150,171688,1,2,2:2:0:0:
279,140,171860,5,2,2:2:0:0:
288,107,172031,1,2,2:2:0:0:
288,107,172202,1,2,2:2:0:0:
260,119,172374,6,0,L|218:127,2,31.9999990234375,2|0|0,2:2|0:0|0:0,0:0:0:0:
181,193,172717,2,0,L|139:185,2,31.9999990234375,2|0|0,2:2|0:0|0:0,0:0:0:0:
59,160,173060,6,0,P|72:196|75:361,1,191.999994140625,2|2,2:2|2:2,0:0:0:0:
77,348,174088,1,0,0:0:0:0:
256,196,174431,6,0,P|269:218|269:246,2,31.9999990234375,2|2|2,2:2|2:2|2:2,0:0:0:0:
340,252,174774,2,0,P|327:275|303:289,2,31.9999990234375,2|2|2,2:2|2:2|2:2,0:0:0:0:
415,218,175117,5,2,2:2:0:0:
357,361,175288,1,8,2:2:0:0:
357,361,175374,1,8,2:2:0:0:
357,361,175460,2,0,P|318:371|264:325,1,96,12|0,2:3|0:0,0:0:0:0:
282,322,175802,6,0,P|202:326|121:345,1,143.999995605469,6|0,1:2|1:1,0:0:0:0:
54,233,176488,2,0,P|134:237|215:256,1,143.999995605469,2|0,1:2|1:1,0:0:0:0:
196,250,177002,1,0,0:0:0:0:
90,152,177174,6,0,P|78:204|80:242,1,71.9999978027344,2|0,1:2|0:0,0:0:0:0:
77,222,177431,1,0,0:0:0:0:
77,222,177517,1,0,1:1:0:0:
250,156,177688,1,0,0:0:0:0:
250,156,177860,2,0,P|214:158|179:168,1,71.9999978027344,2|0,1:2|0:0,0:0:0:0:
208,320,178202,2,0,P|196:268|198:230,1,71.9999978027344,0|0,1:1|0:0,0:0:0:0:
287,72,178545,6,0,P|340:114|330:201,1,143.999995605469,2|0,1:2|1:1,0:0:0:0:
375,108,179231,2,0,P|426:94|463:89,1,71.9999978027344,2|0,1:2|0:0,0:0:0:0:
444,90,179488,1,0,0:0:0:0:
444,90,179574,1,0,1:1:0:0:
318,176,179745,1,0,0:0:0:0:
419,290,179917,6,0,P|368:276|269:265,1,143.999995605469,2|0,1:2|1:1,0:0:0:0:
212,122,180602,2,0,P|218:157|229:191,1,71.9999978027344,2|0,1:2|0:0,0:0:0:0:
229,191,180860,1,0,0:0:0:0:
229,191,180945,1,0,1:1:0:0:
140,182,181117,1,0,0:0:0:0:
53,120,181288,6,0,P|104:106|203:95,1,143.999995605469,2|0,1:2|1:1,0:0:0:0:
338,32,181974,2,0,P|324:83|313:182,1,143.999995605469,2|0,1:2|1:1,0:0:0:0:
151,272,182660,5,2,1:2:0:0:
211,120,182831,1,8,2:2:0:0:
211,120,182917,1,8,2:2:0:0:
211,120,183002,2,0,L|224:181,1,40,0|8,1:1|2:2,0:0:0:0:
274,235,183174,2,0,L|287:296,1,40,8|8,2:2|2:2,0:0:0:0:
398,179,183345,5,10,2:2:0:0:
398,175,183431,1,8,2:2:0:0:
399,171,183517,1,8,2:2:0:0:
400,167,183602,1,8,2:2:0:0:
401,163,183688,1,8,2:2:0:0:
402,159,183774,1,8,2:2:0:0:
403,155,183860,1,8,2:2:0:0:
404,151,183945,1,8,2:2:0:0:
405,147,184031,6,0,P|450:174|440:276,1,160,6|8,1:2|2:2,0:0:0:0:
282,244,184545,1,6,1:2:0:0:
338,98,184717,1,0,0:0:0:0:
512,165,184888,1,8,2:2:0:0:
512,165,184974,1,8,0:0:0:0:
512,165,185060,2,0,P|450:174|402:183,1,80,6|0,1:2|0:0,0:0:0:0:
316,74,185402,5,8,2:2:0:0:
308,304,185574,2,0,P|317:242|326:194,1,80,6|0,1:2|0:0,0:0:0:0:
252,149,185917,1,8,2:2:0:0:
388,280,186088,6,0,P|465:266|518:259,1,120,6|0,1:2|0:0,0:0:0:0:
506,260,186431,1,8,0:0:0:0:
247,371,186602,1,6,1:2:0:0:
256,192,186688,12,0,187974,0:0:0:0:
78,240,188145,5,8,2:2:0:0:
96,224,188231,1,8,2:3:0:0:
110,208,188317,2,0,L|99:148,1,40,4|0,2:3|1:1,0:0:0:0:
55,96,188488,2,0,L|66:36,1,40,0|0,1:1|1:1,0:0:0:0:
185,113,188660,5,8,2:2:0:0:
201,95,188745,1,8,2:3:0:0:
217,81,188831,2,0,L|277:92,1,40,4|4,2:3|2:3,0:0:0:0:
329,136,189002,2,0,L|389:125,1,40,0|0,1:1|1:1,0:0:0:0:
412,42,189174,6,0,P|447:66|453:167,1,120,12|8,2:2|2:2,0:0:0:0:
455,161,189517,5,2,1:2:0:0:
506,276,189688,1,2,2:2:0:0:
506,276,189774,1,2,2:2:0:0:
506,276,189860,1,10,2:2:0:0:
425,359,190031,2,0,P|389:354|334:344,1,88.000002685547,2|2,1:2|2:2,0:0:0:0:
263,283,190374,1,2,1:2:0:0:
263,283,190545,1,10,2:2:0:0:
188,363,190717,1,2,2:2:0:0:
188,363,190802,1,0,0:0:0:0:
188,363,190888,5,2,1:2:0:0:
67,313,191060,1,2,1:2:0:0:
175,254,191231,5,10,2:2:0:0:
296,204,191402,1,2,1:2:0:0:
204,94,191574,2,0,P|217:143|223:213,1,88.000002685547,2|2,2:2|1:2,0:0:0:0:
35,190,191917,2,0,P|48:148|66:108,1,88.000002685547,10|2,2:2|2:2,0:0:0:0:
140,33,192260,6,0,B|189:67|235:38|217:23|264:1|320:37,1,176.000005371094,2|8,1:2|2:2,0:0:0:0:
472,22,192774,1,2,1:2:0:0:
472,22,192860,1,2,2:2:0:0:
472,22,192945,2,0,P|461:68|457:113,1,88.000002685547,2|0,2:2|1:1,0:0:0:0:
366,247,193288,2,0,P|355:201|351:156,1,88.000002685547,8|2,2:2|2:2,0:0:0:0:
479,242,193631,5,2,1:2:0:0:
479,242,193802,1,0,1:1:0:0:
376,343,193974,2,0,L|285:333,1,88.000002685547,8|2,2:2|2:2,0:0:0:0:
135,293,194317,5,2,1:2:0:0:
135,293,194488,1,0,1:1:0:0:
201,165,194660,2,0,L|290:146,1,88.000002685547,8|2,2:2|2:2,0:0:0:0:
315,146,194917,1,2,2:2:0:0:
315,146,195002,6,0,P|336:189|325:248,1,88.000002685547,2|2,1:2|2:2,0:0:0:0:
221,352,195345,1,10,2:2:0:0:
146,219,195517,2,0,L|247:239,1,88.000002685547,2|0,1:2|0:0,0:0:0:0:
71,328,195860,1,2,1:2:0:0:
33,212,196031,1,10,2:2:0:0:
115,119,196202,1,2,2:2:0:0:
30,26,196374,6,0,B|18:74|18:74|39:141,1,88.000002685547,2|2,1:2|2:2,0:0:0:0:
164,39,196717,1,10,2:2:0:0:
219,185,196888,2,0,L|113:201,1,88.000002685547,2|0,1:2|0:0,0:0:0:0:
236,91,197231,1,2,1:2:0:0:
373,158,197402,1,10,2:2:0:0:
461,56,197574,1,2,2:2:0:0:
321,17,197745,6,0,L|309:125,1,88.000002685547,2|2,1:2|2:2,0:0:0:0:
311,104,198002,1,2,2:2:0:0:
311,104,198088,1,10,2:2:0:0:
235,247,198260,2,0,L|306:266,1,44.0000013427735,2|2,1:2|2:2,0:0:0:0:
352,274,198431,1,2,2:2:0:0:
229,331,198602,2,0,L|158:350,1,44.0000013427735,0|0,1:1|0:0,0:0:0:0:
116,364,198774,1,8,2:2:0:0:
37,310,198945,1,0,1:1:0:0:
113,214,199117,5,14,2:2:0:0:
123,214,199202,1,8,0:0:0:0:
134,215,199288,1,8,2:2:0:0:
145,216,199374,1,8,2:2:0:0:
156,217,199460,1,0,1:1:0:0:
167,218,199545,1,8,2:2:0:0:
178,218,199631,2,0,L|229:198,1,44.0000013427735,8|8,2:2|2:2,0:0:0:0:
329,145,199802,2,0,L|288:128,1,44.0000013427735,0|8,1:1|2:2,0:0:0:0:
178,36,199974,1,8,2:2:0:0:
178,36,200060,1,8,2:2:0:0:
178,36,200145,5,2,1:2:0:0:
159,57,200231,1,10,2:2:0:0:
153,83,200317,1,10,2:2:0:0:
159,110,200402,1,10,2:2:0:0:
176,131,200488,5,6,1:2:0:0:
309,48,200660,1,2,2:2:0:0:
400,201,200831,1,10,2:2:0:0:
460,81,201002,2,0,B|360:70|387:138|277:127,1,184.000003509522,2|2,1:2|1:2,0:0:0:0:
170,34,201517,1,10,2:2:0:0:
76,151,201688,1,2,2:2:0:0:
76,151,201774,1,0,0:0:0:0:
76,151,201860,6,0,P|89:194|92:240,1,92.0000017547608,0|2,1:1|1:2,0:0:0:0:
168,350,202202,1,10,2:2:0:0:
271,276,202374,1,2,1:2:0:0:
373,371,202545,1,2,2:2:0:0:
460,279,202717,1,2,1:2:0:0:
384,178,202888,1,10,2:2:0:0:
493,88,203060,1,2,2:2:0:0:
384,178,203231,6,0,P|343:160|285:141,1,92.0000017547608,2|2,1:2|2:2,0:0:0:0:
185,72,203574,1,10,2:2:0:0:
313,19,203745,1,2,1:2:0:0:
313,19,203831,1,0,0:0:0:0:
313,19,203917,6,0,P|308:41|305:64,1,46.0000008773804,2|0,2:2|0:0,0:0:0:0:
224,207,204088,2,0,P|221:184|216:161,1,46.0000008773804,2|0,1:2|0:0,0:0:0:0:
80,112,204260,1,10,2:2:0:0:
203,45,204431,1,2,2:2:0:0:
94,198,204602,6,0,P|12:168|0:81,1,184.000003509522,2|8,1:2|2:2,0:0:0:0:
132,213,205117,1,2,1:2:0:0:
132,213,205202,1,2,2:2:0:0:
132,213,205288,2,0,P|114:263|113:303,1,92.0000017547608,2|0,2:2|1:1,0:0:0:0:
117,319,205545,1,0,1:1:0:0:
126,335,205631,6,0,L|191:351,1,46.0000008773804,10|2,2:2|2:2,0:0:0:0:
235,262,205802,2,0,L|253:326,1,46.0000008773804,2|2,2:2|2:2,0:0:0:0:
352,319,205974,5,2,1:2:0:0:
428,236,206145,1,2,2:2:0:0:
337,129,206317,1,10,2:2:0:0:
406,35,206488,2,0,B|340:91|340:91|242:56,1,184.000003509522,2|2,1:2|1:2,0:0:0:0:
103,31,207002,5,10,2:2:0:0:
110,76,207088,1,2,2:2:0:0:
117,121,207174,1,2,2:2:0:0:
124,167,207260,1,2,2:2:0:0:
131,212,207345,6,0,L|32:249,2,61.3333345031739,2|2|2,1:2|2:2|2:2,0:0:0:0:
191,212,207688,5,10,2:2:0:0:
236,251,207802,5,2,2:2:0:0:
243,311,207917,5,2,2:2:0:0:
210,361,208031,5,2,2:2:0:0:
299,179,208202,1,2,1:2:0:0:
164,287,208374,5,10,2:2:0:0:
397,322,208545,1,2,2:2:0:0:
318,95,208717,6,0,B|218:84|245:152|145:141,1,184.000003509522,2|8,1:2|2:2,0:0:0:0:
23,60,209231,2,0,L|39:118,1,46.0000008773804,0|0,1:1|0:0,0:0:0:0:
61,196,209402,2,0,L|38:310,1,92.0000017547608,0|2,0:0|1:2,0:0:0:0:
132,363,209745,1,10,2:2:0:0:
222,272,209917,1,2,2:2:0:0:
342,353,210088,5,2,1:2:0:0:
387,316,210202,1,2,2:2:0:0:
396,259,210317,1,2,2:2:0:0:
365,211,210431,5,10,2:2:0:0:
334,162,210545,1,2,2:2:0:0:
343,106,210660,1,2,2:2:0:0:
387,69,210774,6,0,L|446:92,2,61.3333345031739,10|8|8,2:2|2:3|2:3,0:0:0:0:
327,0,211117,1,6,2:3:0:0:
327,0,211231,2,0,L|268:23,1,61.3333345031739,4|4,2:3|1:3,0:0:0:0:
205,92,211460,6,0,P|131:71|46:113,1,143.999995605469,6|0,1:2|0:0,0:0:0:0:
102,225,211974,1,0,1:1:0:0:
238,217,212145,2,0,P|305:179|335:89,1,143.999995605469,8|2,2:2|2:2,0:0:0:0:
184,62,212660,1,8,2:3:0:0:
131,212,212831,6,0,P|114:275|115:313,1,71.9999978027344,2|8,1:2|2:2,0:0:0:0:
255,196,213174,1,2,1:2:0:0:
306,331,213345,1,2,1:2:0:0:
306,331,213431,1,0,0:0:0:0:
306,331,213517,2,0,P|270:325|236:313,2,71.9999978027344,8|0|2,2:2|0:0|1:2,0:0:0:0:
493,247,214031,1,0,1:1:0:0:
415,350,214202,6,0,P|402:316|397:280,1,71.9999978027344,14|0,2:2|0:0,0:0:0:0:
495,138,214545,2,0,P|507:171|512:207,1,71.9999978027344,2|0,2:2|1:1,0:0:0:0:
334,210,214888,1,10,2:2:0:0:
334,210,215060,2,0,P|367:197|403:192,1,71.9999978027344,0|2,0:0|2:2,0:0:0:0:
512,100,215402,1,8,2:2:0:0:
366,114,215574,5,0,1:1:0:0:
366,114,215745,2,0,P|330:108|219:79,1,143.999995605469,8|0,2:2|1:1,0:0:0:0:
120,113,216260,1,8,2:2:0:0:
255,65,216431,1,0,1:1:0:0:
193,193,216602,1,8,2:3:0:0:
25,139,216774,1,0,1:1:0:0:
70,247,216945,6,0,P|139:227|210:214,1,143.999995605469,6|0,1:2|0:0,0:0:0:0:
146,262,217460,1,0,1:1:0:0:
320,247,217631,2,0,P|354:256|390:263,1,71.9999978027344,8|0,2:2|0:0,0:0:0:0:
353,144,217974,2,0,P|318:153|282:160,1,71.9999978027344,2|0,2:2|0:0,0:0:0:0:
241,147,218231,5,0,0:0:0:0:
241,147,218317,2,0,P|197:93|263:33,1,143.999995605469,2|2,1:2|2:2,0:0:0:0:
335,4,218831,2,0,P|328:39|318:74,1,71.9999978027344,6|8,1:2|2:2,0:0:0:0:
161,114,219174,1,4,1:2:0:0:
161,114,219345,2,0,P|126:123|90:130,1,71.9999978027344,2|0,2:2|1:1,0:0:0:0:
266,180,219688,6,0,P|301:186|336:196,1,71.9999978027344,6|0,1:2|0:0,0:0:0:0:
165,285,220031,2,0,P|155:250|148:214,1,71.9999978027344,2|0,2:2|1:1,0:0:0:0:
291,160,220374,1,10,2:2:0:0:
250,258,220545,1,8,2:2:0:0:
367,319,220717,2,0,P|401:328|437:335,1,71.9999978027344,2|0,2:2|1:1,0:0:0:0:
488,239,221060,5,2,1:2:0:0:
488,239,221231,2,0,P|453:229|321:215,1,143.999995605469,8|2,2:2|1:2,0:0:0:0:
242,339,221745,1,10,2:2:0:0:
242,339,221831,1,8,2:2:0:0:
242,339,221917,1,0,1:1:0:0:
154,298,222088,1,12,2:2:0:0:
136,207,222260,1,0,0:0:0:0:
221,138,222431,6,0,P|266:162|280:228,1,107.999996704102,2|0,1:2|0:0,0:0:0:0:
291,235,222774,2,0,P|330:228|389:223,1,71.9999978027344,0|0,1:1|1:1,0:0:0:0:
473,141,223117,2,0,P|430:77|366:75,1,143.999995605469,8|2,2:2|2:2,0:0:0:0:
285,135,223631,1,0,0:0:0:0:
224,17,223802,6,0,P|261:25|319:32,1,71.9999978027344,2|8,1:2|2:2,0:0:0:0:
203,122,224145,1,2,2:2:0:0:
203,122,224317,2,0,P|166:114|108:107,1,71.9999978027344,2|8,1:2|2:2,0:0:0:0:
132,109,224660,1,8,2:3:0:0:
26,129,224831,2,0,P|38:177|41:229,1,71.9999978027344,6|0,2:3|1:1,0:0:0:0:
15,314,225174,6,0,B|55:295|100:315|75:333|116:364|176:328,1,143.999995605469,6|2,1:2|1:2,0:0:0:0:
248,245,225688,1,0,1:1:0:0:
287,344,225860,2,0,P|282:312|276:244,1,71.9999978027344,10|0,2:2|0:0,0:0:0:0:
142,183,226202,2,0,P|137:215|131:283,1,71.9999978027344,2|8,2:2|2:2,0:0:0:0:
230,158,226545,1,0,1:1:0:0:
230,158,226717,1,8,2:2:0:0:
230,158,227060,5,2,1:2:0:0:
339,133,227231,2,0,P|375:153|428:164,1,71.9999978027344,8|2,2:2|1:2,0:0:0:0:
422,167,227488,1,0,1:1:0:0:
422,167,227574,1,10,2:2:0:0:
405,269,227745,1,2,1:2:0:0:
456,354,227917,6,0,P|408:353|360:362,1,80,6|2,1:2|2:2,0:0:0:0:
205,262,228260,1,2,1:2:0:0:
284,376,228431,2,0,P|288:336|295:296,1,80,2|0,2:2|1:1,0:0:0:0:
328,148,228774,1,2,2:2:0:0:
171,161,228945,2,0,P|178:202|200:257,1,80,2|2,1:2|2:2,0:0:0:0:
198,288,229202,1,0,0:0:0:0:
198,288,229288,6,0,P|159:310|102:302,1,80,2|2,1:2|2:2,0:0:0:0:
103,156,229631,1,2,1:2:0:0:
4,297,229802,2,0,P|11:256|18:191,1,80,2|0,2:2|1:1,0:0:0:0:
94,0,230145,1,2,2:2:0:0:
59,75,230317,2,0,B|102:86|102:86|145:66,1,80,2|2,1:2|2:2,0:0:0:0:
211,186,230660,6,0,P|251:192|295:155,1,80,6|2,1:2|2:2,0:0:0:0:
239,0,231002,2,0,P|213:31|223:88,1,80,2|10,1:2|2:2,0:0:0:0:
398,132,231345,2,0,P|383:94|329:74,1,80,0|10,1:1|2:2,0:0:0:0:
213,193,231688,2,0,P|224:241|233:298,1,80,2|10,1:2|2:2,0:0:0:0:
304,313,231945,1,8,2:2:0:0:
304,313,232031,6,0,B|265:358|265:358|164:341,1,160,2|0,1:2|1:1,0:0:0:0:
84,173,232545,2,0,P|125:178|180:185,1,80,10|0,2:2|1:1,0:0:0:0:
32,299,232888,2,0,L|26:243,3,40,10|8|2|8,2:2|2:2|1:2|2:2,0:0:0:0:
84,173,233231,2,0,L|96:105,1,40,10|8,2:2|2:2,0:0:0:0:
19,22,233402,5,2,1:2:0:0:
19,22,233488,1,8,2:2:0:0:
19,22,233574,1,8,2:2:0:0:
19,22,233660,1,8,2:2:0:0:
19,22,233745,2,0,L|80:38,3,40,0|8|8|8,1:1|2:2|2:2|2:2,0:0:0:0:
126,84,234088,2,0,L|170:73,3,40,0|8|8|8,1:1|2:2|2:2|2:2,0:0:0:0:
261,33,234431,1,0,1:1:0:0:
261,33,234517,1,8,2:2:0:0:
261,33,234602,1,8,2:2:0:0:
261,33,234688,1,8,2:2:0:0:
261,33,234774,5,2,1:2:0:0:
291,40,234860,1,8,2:2:0:0:
314,62,234945,1,8,2:2:0:0:
323,92,235031,1,8,2:2:0:0:
315,123,235117,2,0,L|296:184,1,40,0|8,1:1|2:2,0:0:0:0:
389,278,235288,2,0,L|370:217,1,40,8|8,2:2|2:2,0:0:0:0:
270,311,235460,5,0,1:1:0:0:
270,311,235545,1,8,2:3:0:0:
270,311,235631,2,0,L|208:300,1,40,4|0,2:3|1:1,0:0:0:0:
80,197,235802,1,8,2:2:0:0:
127,373,235974,1,8,2:2:0:0:
62,122,236831,5,10,2:3:0:0:
62,122,236917,1,8,2:3:0:0:
62,122,237002,2,0,L|118:136,1,40,4|4,2:3|2:3,0:0:0:0:
175,189,237174,2,0,L|238:176,1,64,14|0,2:2|0:0,0:0:0:0:
424,53,237860,6,0,P|475:93|458:138,1,120.000004577637,6|2,1:2|2:2,0:0:0:0:
393,354,238202,2,0,P|340:285|380:236,2,120.000004577637,2|6|0,2:2|1:2|0:0,0:0:0:0:
459,137,238717,6,0,B|395:106|323:138|363:167|297:216|202:159,1,240.000009155274,6|6,1:2|1:2,0:0:0:0:
162,98,239231,1,6,1:2:0:0:
60,121,239402,1,2,2:2:0:0:
45,223,239574,1,2,2:2:0:0:
126,291,239745,1,0,1:1:0:0:
126,291,239831,1,0,1:1:0:0:
126,291,239917,2,0,P|185:267|243:271,1,95.9999970703126,14|0,2:2|0:0,0:0:0:0:
314,317,240260,6,0,P|262:281|303:203,1,160,6|0,1:2|0:0,0:0:0:0:
450,267,240774,1,2,1:2:0:0:
450,267,240860,1,0,1:1:0:0:
450,267,240945,1,12,2:2:0:0:
373,247,241117,1,10,2:3:0:0:
318,193,241288,1,6,2:3:0:0:
296,118,241460,1,2,1:2:0:0:
314,42,241631,5,10,2:2:0:0:
224,135,241802,1,0,1:1:0:0:
124,173,241974,1,0,1:1:0:0:
6,155,242145,1,10,2:2:0:0:
70,34,242317,6,0,P|92:56|88:119,1,64,2|8,1:2|2:2,0:0:0:0:
92,225,242488,2,0,P|100:194|156:166,1,64,8|8,2:2|2:2,0:0:0:0:
224,135,242660,2,0,P|246:157|242:220,1,64,8|8,2:2|2:2,0:0:0:0:
246,326,242831,1,10,2:2:0:0:
246,326,242917,1,8,2:2:0:0:
246,326,243002,6,0,P|254:295|310:267,1,90.0000034332277,0|0,1:1|0:0,0:0:0:0:
370,341,243345,6,0,P|340:272|391:156,1,180.000006866455,14|0,1:2|0:0,0:0:0:0:
396,155,243688,1,2,1:2:0:0:
314,30,243860,2,0,P|271:47|222:61,1,95.9999970703126,2|8,1:2|2:2,0:0:0:0:
124,224,244202,6,0,P|111:178|94:134,1,95.9999970703126,2|0,2:2|1:1,0:0:0:0:
226,164,244545,1,2,1:2:0:0:
146,318,244717,2,0,P|103:335|54:349,1,95.9999970703126,10|0,2:2|1:1,0:0:0:0:
238,266,245060,1,2,2:2:0:0:
309,350,245231,2,0,P|352:367|401:381,1,95.9999970703126,2|8,1:2|2:2,0:0:0:0:
256,172,245574,6,0,P|249:217|236:267,1,95.9999970703126,2|4,2:2|1:2,0:0:0:0:
93,238,245917,1,2,1:2:0:0:
217,357,246088,1,10,2:2:0:0:
337,215,246260,1,2,1:2:0:0:
410,355,246431,1,2,2:2:0:0:
254,284,246602,1,2,1:2:0:0:
451,195,246774,1,10,2:2:0:0:
394,316,246945,1,2,1:2:0:0:
373,105,247117,5,8,2:2:0:0:
413,278,247288,1,0,1:1:0:0:
497,92,247460,1,0,1:1:0:0:
403,240,247631,1,8,2:2:0:0:
279,44,247802,1,2,1:2:0:0:
472,101,247974,1,0,1:1:0:0:
247,184,248145,1,10,2:2:0:0:
368,72,248317,1,8,2:2:0:0:
368,72,248402,1,8,2:2:0:0:
368,72,248488,6,0,P|378:142|386:180,1,88.000002685547,6|2,1:2|2:2,0:0:0:0:
193,96,248831,1,10,2:2:0:0:
328,240,249002,2,0,P|273:283|178:249,1,176.000005371094,6|0,1:2|1:1,0:0:0:0:
170,118,249517,1,10,2:2:0:0:
289,163,249688,1,2,2:2:0:0:
169,273,249860,5,2,1:2:0:0:
413,262,250031,2,0,P|370:249|327:239,1,88.000002685547,2|8,1:2|2:2,0:0:0:0:
137,383,250374,2,0,P|179:370|222:360,1,88.000002685547,2|2,1:2|2:2,0:0:0:0:
264,124,250717,1,0,1:1:0:0:
264,124,250802,1,0,0:0:0:0:
264,124,250888,2,0,P|251:166|241:209,1,88.000002685547,10|0,2:2|0:0,0:0:0:0:
77,326,251231,6,0,P|64:283|45:140,1,176.000005371094,2|8,1:2|2:2,0:0:0:0:
304,175,251745,2,0,P|261:184|218:197,1,88.000002685547,2|0,1:2|0:0,0:0:0:0:
108,62,252088,1,2,1:2:0:0:
295,94,252260,1,10,2:2:0:0:
128,189,252431,1,2,1:2:0:0:
328,24,252602,6,0,B|340:98|340:98|327:133|327:133|339:218,1,176.000005371094,2|8,1:2|2:2,0:0:0:0:
217,81,253117,2,0,L|272:92,1,44.0000013427735,2|0,2:2|0:0,0:0:0:0:
406,145,253288,1,2,1:2:0:0:
261,250,253460,1,0,1:1:0:0:
353,43,253631,1,8,2:2:0:0:
458,222,253802,5,10,2:2:0:0:
458,222,253888,1,8,2:2:0:0:
458,222,253974,2,0,P|496:170|488:107,1,132.00000402832,4|0,1:2|0:0,0:0:0:0:
470,89,254317,2,0,L|358:106,1,88.000002685547,10|2,2:2|1:2,0:0:0:0:
288,263,254660,1,2,2:2:0:0:
137,194,254831,1,2,1:2:0:0:
272,72,255002,2,0,L|258:159,1,88.000002685547,8|2,2:2|2:2,0:0:0:0:
136,307,255345,6,0,L|110:153,1,132.00000402832,4|0,1:2|0:0,0:0:0:0:
107,143,255688,1,10,2:2:0:0:
270,176,255860,1,0,1:1:0:0:
63,50,256031,1,2,2:2:0:0:
202,3,256202,1,2,1:2:0:0:
98,242,256374,2,0,L|-4:227,1,88.000002685547,8|2,2:2|2:2,0:0:0:0:
187,117,256717,6,0,B|273:109|272:145|370:133,1,176.000005371094,4|10,1:2|2:2,0:0:0:0:
478,94,257231,1,2,1:2:0:0:
350,20,257402,1,2,2:2:0:0:
418,206,257574,1,2,1:2:0:0:
263,272,257745,1,14,2:2:0:0:
374,117,257917,1,2,1:2:0:0:
209,99,258088,5,12,2:2:0:0:
291,249,258260,1,8,2:3:0:0:
175,215,258431,1,4,2:3:0:0:
325,133,258602,1,0,1:1:0:0:
131,56,258774,5,8,2:3:0:0:
335,148,258945,1,4,2:3:0:0:
148,247,259117,1,2,1:2:0:0:
248,66,259288,1,0,1:1:0:0:
251,304,259460,6,0,P|233:208|243:141,1,143.999995605469,6|0,1:2|0:0,0:0:0:0:
306,22,259974,1,0,1:1:0:0:
306,22,260060,1,0,1:1:0:0:
306,22,260145,2,0,P|374:6|421:63,1,143.999995605469,8|2,2:2|1:2,0:0:0:0:
332,114,260660,1,8,2:2:0:0:
452,211,260831,6,0,P|421:206|377:198,1,71.9999978027344,2|8,1:2|2:2,0:0:0:0:
381,198,261174,1,2,2:2:0:0:
232,257,261345,1,2,1:2:0:0:
300,219,261517,6,0,L|282:141,2,47.9999985351563,8|8|4,2:2|2:3|2:3,0:0:0:0:
356,293,261860,2,0,L|338:371,2,47.9999985351563,2|0|0,1:2|1:1|1:1,0:0:0:0:
254,330,262202,6,0,B|212:342|176:318|190:308|157:278|91:301,1,143.999995605469,6|2,1:2|2:2,0:0:0:0:
2,225,262717,1,0,1:1:0:0:
2,225,262802,1,0,1:1:0:0:
2,225,262888,2,0,B|0:185|0:185|15:148,1,71.9999978027344,14|8,2:2|2:2,0:0:0:0:
168,108,263231,2,0,P|132:108|96:96,1,71.9999978027344,2|0,2:2|1:1,0:0:0:0:
212,29,263574,6,0,B|253:10|285:22|285:22|311:55|375:41,1,143.999995605469,0|0,1:2|1:1,0:0:0:0:
490,23,264088,2,0,L|481:122,1,71.9999978027344,2|8,1:2|2:2,0:0:0:0:
457,123,264345,1,8,2:2:0:0:
457,123,264431,2,0,L|471:185,1,35.9999989013672,2|0,1:2|1:1,0:0:0:0:
497,279,264602,2,0,P|456:260|400:274,1,71.9999978027344,14|10,2:2|2:2,0:0:0:0:
270,100,264945,5,14,2:2:0:0:
336,303,265117,1,0,1:1:0:0:
164,171,265288,1,8,2:2:0:0:
354,181,265460,1,0,1:1:0:0:
215,326,265631,1,8,2:2:0:0:
260,212,265802,1,0,1:1:0:0:
109,312,265974,1,8,2:2:0:0:
308,345,266145,1,0,1:1:0:0:
308,345,266231,1,0,1:1:0:0:
308,345,266317,6,0,P|350:333|408:333,1,80,12|0,2:2|1:1,0:0:0:0:
266,185,266660,2,0,P|226:182|187:170,1,80,8|0,2:2|1:1,0:0:0:0:
380,249,267002,2,0,P|382:212|389:151,1,80,8|0,2:2|1:1,0:0:0:0:
247,4,267345,2,0,P|249:41|256:102,1,80,8|0,2:2|1:1,0:0:0:0:
260,112,267602,1,0,1:1:0:0:
260,112,267688,5,12,2:2:0:0:
52,85,267860,1,0,1:1:0:0:
175,214,268031,1,8,2:2:0:0:
160,14,268202,1,0,1:1:0:0:
59,193,268374,1,8,2:2:0:0:
265,177,268545,1,0,1:1:0:0:
167,112,268717,1,10,2:2:0:0:
167,112,268888,1,0,1:1:0:0:
225,294,269060,5,14,2:2:0:0:
322,94,269231,1,14,2:2:0:0:
322,94,269574,2,0,P|327:136|341:198,1,80,10|0,2:3|0:0,0:0:0:0:
461,306,269917,1,2,1:2:0:0:
461,306,270002,1,0,1:1:0:0:
461,306,270088,2,0,P|392:306|368:353,1,120,12|0,2:2|0:0,0:0:0:0:
353,365,270431,6,0,P|315:369|270:338,1,71.9999978027344,6|0,1:2|0:0,0:0:0:0:
219,272,270774,1,0,1:1:0:0:
105,366,270945,2,0,P|112:334|108:294,1,71.9999978027344,2|2,2:2|1:2,0:0:0:0:
37,203,271288,1,2,2:2:0:0:
154,115,271460,2,0,P|146:146|150:186,1,71.9999978027344,2|0,1:2|0:0,0:0:0:0:
219,272,271802,5,0,1:1:0:0:
312,193,271974,2,0,P|373:196|396:287,1,143.999995605469,2|2,2:2|2:2,0:0:0:0:
491,349,272488,2,0,P|507:295|525:256,1,71.9999978027344,2|2,1:2|2:2,0:0:0:0:
479,179,272831,2,0,P|463:125|445:86,1,71.9999978027344,2|2,1:2|2:2,0:0:0:0:
379,44,273174,6,0,B|348:40|348:40|313:62,1,71.9999978027344,2|0,1:2|0:0,0:0:0:0:
235,135,273517,1,0,1:1:0:0:
141,49,273688,1,2,2:2:0:0:
141,49,273774,1,0,0:0:0:0:
141,49,273860,2,0,L|237:57,1,71.9999978027344,2|2,1:2|2:2,0:0:0:0:
323,167,274202,6,0,L|376:154,3,35.9999989013672,2|0|0|0,1:2|0:0|0:0|0:0,0:0:0:0:
287,192,274545,2,0,L|275:355,1,143.999995605469,0|2,1:1|1:2,0:0:0:0:
186,246,275060,1,2,2:2:0:0:
109,341,275231,6,0,P|82:364|32:363,1,71.9999978027344,2|0,1:2|0:0,0:0:0:0:
5,254,275574,2,0,P|35:184|45:177,1,71.9999978027344,0|8,1:1|2:2,0:0:0:0:
42,182,275831,1,8,2:2:0:0:
55,176,275917,6,0,L|134:186,1,71.9999978027344,6|0,1:2|0:0,0:0:0:0:
227,248,276260,1,2,1:2:0:0:
289,160,276431,2,0,P|296:120|269:69,1,71.9999978027344,2|0,2:2|1:1,0:0:0:0:
243,22,276774,1,2,2:2:0:0:
349,47,276945,2,0,L|436:53,1,71.9999978027344,2|0,1:2|0:0,0:0:0:0:
430,62,277202,1,0,0:0:0:0:
439,73,277288,5,2,1:2:0:0:
510,178,277460,2,0,B|533:79|533:79|512:42,1,143.999995605469,2|2,2:2|2:2,0:0:0:0:
398,156,277974,2,0,P|401:192|406:228,1,71.9999978027344,2|2,1:2|2:2,0:0:0:0:
512,360,278317,2,0,P|507:318|504:263,1,71.9999978027344,2|2,1:2|2:2,0:0:0:0:
385,333,278660,6,0,B|347:364|303:348|322:331|271:313|224:343,1,143.999995605469,6|2,1:2|1:2,0:0:0:0:
170,232,279174,2,0,L|178:183,2,35.9999989013672,2|0|0,2:2|0:0|1:1,0:0:0:0:
227,320,279517,1,2,2:2:0:0:
81,354,279688,1,2,1:2:0:0:
81,354,279774,1,0,0:0:0:0:
81,354,279860,1,0,0:0:0:0:
170,232,280031,5,2,1:2:0:0:
37,180,280202,1,2,2:2:0:0:
146,102,280374,1,0,1:1:0:0:
159,100,280460,1,0,0:0:0:0:
172,98,280545,1,10,2:2:0:0:
185,96,280631,1,8,2:2:0:0:
198,93,280717,6,0,L|259:97,3,35.9999989013672,2|8|8|8,1:2|2:2|2:2|2:2,0:0:0:0:
297,147,281060,2,0,L|344:131,1,35.9999989013672,0|8,1:1|2:2,0:0:0:0:
402,65,281231,2,0,L|449:81,1,35.9999989013672,10|8,2:2|2:2,0:0:0:0:
435,178,281402,5,6,1:2:0:0:
256,192,281488,12,0,285860,0:0:0:0:
