osu file format v14

[General]
AudioFilename: audio.mp3
AudioLeadIn: 0
PreviewTime: 110548
Countdown: 0
SampleSet: Normal
StackLeniency: 0.5
Mode: 0
LetterboxInBreaks: 0
WidescreenStoryboard: 0

[Editor]
DistanceSpacing: 0.7
BeatDivisor: 4
GridSize: 8
TimelineZoom: 1.9

[Metadata]
Title:Ringo Uri no Utakata Shoujo
TitleUnicode:Ringo Uri no Utakata Shoujo
Artist:Vivienne
ArtistUnicode:Vivienne
Creator:pashty
Version:Curse of Happiness
Source:
Tags:
BeatmapID:1684123
BeatmapSetID:802451

[Difficulty]
HPDrainRate:5
CircleSize:4.2
OverallDifficulty:9
ApproachRate:9.5
SliderMultiplier:1.6
SliderTickRate:1

[Events]
//Background and Video events
0,0,"NTB.jpg",0,0
//Break Periods
2,134725,143060
2,212524,221390
//Storyboard Layer 0 (Background)
//Storyboard Layer 1 (Fail)
//Storyboard Layer 2 (Pass)
//Storyboard Layer 3 (Foreground)
//Storyboard Sound Samples

[TimingPoints]
6374,266.429840142096,4,1,0,100,1,0
6374,-200,4,1,0,60,0,0
14833,-200,4,1,0,5,0,0
14899,-200,4,1,0,60,0,0
17231,-200,4,1,0,5,0,0
17297,-200,4,1,0,60,0,0
21294,-200,4,1,0,60,0,0
44939,-200,4,1,0,5,0,0
45006,-153.846153846153,4,1,0,70,0,0
45206,-153.846153846153,4,1,0,5,0,0
45272,-153.846153846153,4,1,0,70,0,0
48936,-153.846153846153,4,1,0,5,0,0
49002,-153.846153846153,4,1,0,70,0,0
49202,-153.846153846153,4,1,0,5,0,0
49269,-153.846153846153,4,1,0,70,0,0
49469,-153.846153846153,4,1,0,5,0,0
49535,-153.846153846153,4,1,0,70,0,0
49735,-153.846153846153,4,1,0,5,0,0
49802,-153.846153846153,4,1,0,70,0,0
53199,-153.846153846153,4,1,0,5,0,0
53265,-153.846153846153,4,1,0,70,0,0
53465,-153.846153846153,4,1,0,5,0,0
53532,-153.846153846153,4,1,0,70,0,0
53731,-153.846153846153,4,1,0,5,0,0
53798,-153.846153846153,4,1,0,70,0,0
54064,-153.846153846153,4,1,0,70,0,0
73980,-153.846153846153,4,1,0,5,0,0
74047,-153.846153846153,4,1,0,70,0,0
86236,-153.846153846153,4,1,0,5,0,0
86302,-153.846153846153,4,1,0,70,0,0
86502,-153.846153846153,4,1,0,5,0,0
86569,-153.846153846153,4,1,0,70,0,0
86769,-153.846153846153,4,1,0,5,0,0
86835,-153.846153846153,4,1,0,70,0,0
87035,-153.846153846153,4,1,0,5,0,0
87102,-153.846153846153,4,1,0,70,0,0
97026,-153.846153846153,4,1,0,5,0,0
97093,-153.846153846153,4,1,0,70,0,0
100223,-153.846153846153,4,1,0,5,0,0
100290,-153.846153846153,4,1,0,70,0,0
103421,-153.846153846153,4,1,0,5,0,0
103487,-153.846153846153,4,1,0,70,0,0
105019,-153.846153846153,4,1,0,5,0,0
105086,-153.846153846153,4,1,0,70,0,0
105619,-153.846153846153,4,1,0,5,0,0
105752,-153.846153846153,4,1,0,70,0,0
105885,-153.846153846153,4,1,0,5,0,0
106018,-153.846153846153,4,1,0,70,0,0
106151,-153.846153846153,4,1,0,5,0,0
106285,-153.846153846153,4,1,0,70,0,0
108416,-100,4,1,0,80,0,0
110548,-100,4,1,0,100,0,1
118207,-100,4,1,0,5,0,1
118274,-100,4,1,0,100,0,1
118474,-100,4,1,0,5,0,1
118540,-100,4,1,0,100,0,1
118740,-100,4,1,0,5,0,1
118807,-100,4,1,0,100,0,1
119007,-100,4,1,0,5,0,1
119073,-100,4,1,0,100,0,1
127599,-153.846153846154,4,1,0,70,0,0
127932,-153.846153846154,4,1,0,5,0,0
127999,-153.846153846154,4,1,0,70,0,0
128598,-153.846153846153,4,1,0,5,0,0
128665,-153.846153846154,4,1,0,70,0,0
129131,-153.846153846153,4,1,0,5,0,0
129198,-153.846153846154,4,1,0,70,0,0
129997,-133.333333333333,4,1,0,70,0,0
130263,-111.111111111111,4,1,0,80,0,0
130530,-90.9090909090909,4,1,0,90,0,0
130796,-100,4,1,0,100,0,1
133993,-400,4,1,0,100,0,0
143585,-153.846153846153,4,1,0,70,0,0
158505,-142.857142857143,4,1,0,70,0,0
158771,-133.333333333333,4,1,0,70,0,0
159038,-125,4,1,0,70,0,0
159304,-117.647058823529,4,1,0,70,0,0
159571,-111.111111111111,4,1,0,70,0,0
159837,-105.263157894737,4,1,0,70,0,0
160104,-100,4,1,0,70,0,0
160370,-90.9090909090909,4,1,0,70,0,0
160636,-153.846153846154,4,1,0,70,0,0
160969,-166.666666666667,4,1,0,5,0,0
161036,-153.846153846153,4,1,0,60,0,0
164167,-153.846153846153,4,1,0,5,0,0
164233,-153.846153846153,4,1,0,60,0,0
174291,-153.846153846153,4,1,0,5,0,0
174358,-153.846153846153,4,1,0,60,0,0
175756,-153.846153846153,4,1,0,5,0,0
175823,-153.846153846153,4,1,0,60,0,0
177488,-153.846153846153,4,1,0,5,0,0
177555,-153.846153846153,4,1,0,60,0,0
185681,-100,4,1,0,80,0,0
186347,-100,4,1,0,100,0,0
187812,-100,4,1,0,100,0,1
195739,-100,4,1,0,5,0,1
195805,-100,4,1,0,100,0,1
196005,-100,4,1,0,5,0,1
196072,-100,4,1,0,100,0,1
196271,-100,4,1,0,5,0,1
196338,-100,4,1,0,100,0,1
196538,-100,4,1,0,5,0,1
196604,-100,4,1,0,100,0,1
204864,-166.666666666667,4,1,0,70,0,0
205197,-166.666666666667,4,1,0,5,0,0
205263,-166.666666666667,4,1,0,70,0,0
205863,-166.666666666667,4,1,0,5,0,0
205929,-166.666666666667,4,1,0,70,0,0
206396,-166.666666666667,4,1,0,5,0,0
206462,-166.666666666667,4,1,0,70,0,0
207262,-125,4,1,0,70,0,0
207528,-111.111111111111,4,1,0,80,0,0
207794,-100,4,1,0,90,0,0
208061,-100,4,1,0,100,0,1
212334,-166.666666666667,4,1,0,100,0,0
212390,-166.666666666667,4,1,0,70,0,0
225112,-100,4,1,0,100,0,1
237901,-133.333333333333,4,1,0,100,0,1
239500,-100,4,1,0,100,0,1
242697,-166.666666666667,4,1,0,70,0,0
255818,-166.666666666667,4,1,0,5,0,0
255885,-166.666666666667,4,1,0,70,0,0
259016,-166.666666666667,4,1,0,5,0,0
259082,-166.666666666667,4,1,0,70,0,0
265343,-125,4,1,0,70,0,0
266675,-500,4,1,0,70,0,0
266942,-166.666666666667,4,1,0,5,0,0
268807,-200,4,1,0,30,0,0
283194,-333.333333333333,4,1,0,30,0,0
283294,-333.333333333333,4,1,0,5,0,0
283461,-200,4,1,0,10,0,0
287457,-90.9090909090909,4,1,0,100,0,1
295117,-90.9090909090909,4,1,0,5,0,1
295183,-90.9090909090909,4,1,0,100,0,1
295383,-90.9090909090909,4,1,0,5,0,1
295450,-90.9090909090909,4,1,0,100,0,1
295650,-90.9090909090909,4,1,0,5,0,1
295716,-90.9090909090909,4,1,0,100,0,1
295916,-90.9090909090909,4,1,0,5,0,1
295983,-90.9090909090909,4,1,0,100,0,1
304508,-166.666666666667,4,1,0,70,0,0
304842,-166.666666666667,4,1,0,5,0,0
304908,-166.666666666667,4,1,0,70,0,0
305508,-166.666666666667,4,1,0,5,0,0
305574,-166.666666666667,4,1,0,70,0,0
306040,-166.666666666667,4,1,0,5,0,0
306107,-166.666666666667,4,1,0,70,0,0
307173,-125,4,1,0,80,0,0
307439,-111.111111111111,4,1,0,90,0,0
307706,-90.9090909090909,4,1,0,100,0,1
311969,-153.846153846153,4,1,0,70,0,0
315099,-153.846153846153,4,1,0,5,0,0
315166,-153.846153846153,4,1,0,70,0,0
336747,-153.846153846153,4,1,0,70,0,0
337013,-153.846153846153,4,1,0,50,0,0
337279,-153.846153846153,4,1,0,40,0,0
337546,-153.846153846153,4,1,0,30,0,0
342275,-153.846153846153,4,1,0,5,0,0
342342,-153.846153846153,4,1,0,50,0,0
351134,-250,4,1,0,30,0,0
359659,-153.846153846153,4,1,0,5,0,0

[Colours]
Combo1 : 255,255,255
Combo2 : 255,255,255
Combo3 : 255,255,255
Combo4 : 255,255,255

[HitObjects]
231,118,6374,6,0,L|212:196,1,80
165,107,6906,1,0,0:0:0:0:
286,173,7173,6,0,L|304:251,1,80
352,162,7705,1,0,0:0:0:0:
216,252,7972,6,0,P|190:235|174:191,1,80
213,143,8505,1,0,0:0:0:0:
294,213,8771,6,0,P|319:196|335:152,1,80
297,104,9304,1,0,0:0:0:0:
224,181,9571,6,0,L|166:239,2,80
239,216,10370,6,0,P|225:259|224:294,2,80
269,241,11169,6,0,P|283:274|326:290,2,80
307,243,11969,5,0,0:0:0:0:
338,228,12235,1,0,0:0:0:0:
310,207,12501,1,0,0:0:0:0:
247,242,12768,6,0,P|205:262|173:258,1,80
138,191,13301,1,0,0:0:0:0:
275,209,13567,6,0,P|316:229|348:225,1,80
384,158,14100,1,0,0:0:0:0:
233,182,14366,6,0,P|197:174|191:93,1,120
240,121,14899,2,0,L|262:157,1,40
297,212,15166,1,0,0:0:0:0:
317,150,15432,1,0,0:0:0:0:
249,138,15699,1,0,0:0:0:0:
229,200,15965,6,0,P|210:225|164:241,1,80
123,192,16498,1,0,0:0:0:0:
207,138,16764,2,0,P|248:153|287:223,1,120
236,260,17297,2,0,L|238:217,1,40
243,153,17564,1,0,0:0:0:0:
294,204,17830,1,0,0:0:0:0:
350,159,18096,1,0,0:0:0:0:
299,108,18362,1,0,0:0:0:0:
239,179,18629,5,0,0:0:0:0:
309,197,18895,1,0,0:0:0:0:
335,130,19162,2,0,P|333:93|298:65,1,80
273,143,19695,1,0,0:0:0:0:
292,221,19961,6,0,P|293:257|330:283,1,80
354,208,20494,1,0,0:0:0:0:
277,165,20761,2,0,P|248:160|184:216,1,120
242,252,21294,2,0,L|242:209,1,40
242,146,21560,1,0,0:0:0:0:
178,162,21826,1,0,0:0:0:0:
197,221,22093,1,0,0:0:0:0:
260,205,22359,6,0,L|340:182,2,80
218,145,23159,6,0,P|180:139|148:105,1,80
231,88,23691,1,0,0:0:0:0:
278,164,23958,2,0,P|288:201|249:271,1,120
200,240,24491,2,0,L|237:218,1,40
282,191,24757,1,0,0:0:0:0:
283,260,25024,1,0,0:0:0:0:
349,262,25290,1,0,0:0:0:0:
348,193,25556,6,0,P|338:160|291:136,1,80
274,196,26089,1,0,0:0:0:0:
164,193,26356,6,0,P|173:160|215:138,1,80
238,196,26889,1,0,0:0:0:0:
256,104,27155,6,0,L|256:230,1,120
257,289,27688,2,0,L|283:259,1,40
323,215,27954,1,0,0:0:0:0:
263,173,28221,1,0,0:0:0:0:
303,119,28487,1,0,0:0:0:0:
363,161,28754,6,0,P|374:182|359:237,2,80
315,198,29553,6,0,P|309:221|261:252,1,80
236,170,30086,2,0,P|240:145|286:106,1,80
313,233,30619,5,0,0:0:0:0:
237,219,30885,1,0,0:0:0:0:
247,139,31151,1,0,0:0:0:0:
323,154,31417,1,0,0:0:0:0:
288,250,31684,5,0,0:0:0:0:
229,199,31951,2,0,L|206:177,11,20
183,153,32750,2,0,P|176:195|195:231,1,80
218,247,33150,1,0,0:0:0:0:
218,247,33283,1,0,0:0:0:0:
301,181,33549,6,0,P|315:155|271:88,1,120
234,128,34082,2,0,L|270:143,1,40
315,161,34349,1,0,0:0:0:0:
339,100,34615,1,0,0:0:0:0:
399,122,34881,1,0,0:0:0:0:
375,182,35148,6,0,L|361:210,11,20
343,237,35947,2,0,P|325:200|341:164,1,80
359,142,36347,1,0,0:0:0:0:
359,142,36480,1,0,0:0:0:0:
276,242,36747,6,0,P|255:267|172:250,1,120
201,204,37279,2,0,L|227:235,1,40
264,278,37546,1,0,0:0:0:0:
316,229,37812,1,0,0:0:0:0:
274,181,38079,1,0,0:0:0:0:
222,230,38345,6,0,L|196:252,11,20
177,267,39144,2,0,P|170:235|197:198,1,80
223,182,39544,1,0,0:0:0:0:
223,182,39677,1,0,0:0:0:0:
327,127,39944,6,0,P|342:158|307:241,1,120
268,197,40477,2,0,L|304:176,1,40
353,154,40743,1,0,0:0:0:0:
378,215,41009,1,0,0:0:0:0:
319,237,41276,1,0,0:0:0:0:
294,175,41542,6,0,L|282:147,11,20
271,120,42342,2,0,P|245:145|255:190,1,80
271,216,42741,1,0,0:0:0:0:
271,216,42874,1,0,0:0:0:0:
332,140,43141,5,0,0:0:0:0:
261,144,43407,1,0,0:0:0:0:
208,196,43674,1,0,0:0:0:0:
204,267,43940,1,0,0:0:0:0:
256,192,44007,12,0,44939,0:0:0:0:
183,114,45006,6,0,L|159:209,1,77.9999964294435
178,255,45272,6,0,L|205:159,1,77.9999964294435
212,147,45539,2,0,P|255:123|309:138,1,103.999995239258
341,167,45938,1,0,0:0:0:0:
351,253,46072,2,0,P|325:292|272:316,1,103.999995239258
230,316,46471,1,0,0:0:0:0:
153,251,46604,2,0,L|138:126,1,103.999995239258
133,102,47004,5,0,0:0:0:0:
257,176,47137,2,0,P|295:200|360:171,1,103.999995239258
382,152,47537,1,0,0:0:0:0:
289,66,47670,2,0,B|255:46|255:46|192:88,1,103.999995239258
166,113,48070,1,0,0:0:0:0:
74,209,48203,2,0,P|55:258|72:306,1,103.999995239258
137,342,48603,5,0,0:0:0:0:
240,259,48736,2,0,P|267:223|260:172,1,77.9999964294435
276,241,49002,2,0,P|289:197|265:152,1,77.9999964294435
317,205,49269,2,0,P|310:160|269:129,1,77.9999964294435
351,135,49535,2,0,P|323:99|272:93,1,77.9999964294435
201,116,49802,6,0,P|166:125|131:191,1,103.999995239258
137,227,50201,1,0,0:0:0:0:
266,273,50334,2,0,P|317:258|345:209,1,103.999995239258
350,171,50734,1,0,0:0:0:0:
262,66,50867,6,0,L|228:167,1,103.999995239258
218,210,51267,1,0,0:0:0:0:
138,109,51400,2,0,B|129:66|129:66|187:25,1,103.999995239258
221,9,51800,1,0,0:0:0:0:
287,149,51933,2,0,P|314:191|293:259,1,103.999995239258
282,283,52333,1,0,0:0:0:0:
154,226,52466,2,0,P|106:189|101:136,1,103.999995239258
155,88,52866,5,0,0:0:0:0:
248,168,52999,2,0,P|263:212|250:247,1,77.9999964294435
281,188,53265,2,0,P|280:234|255:262,1,77.9999964294435
309,232,53532,2,0,P|288:273|254:289,1,77.9999964294435
316,310,53798,1,0,0:0:0:0:
296,327,53864,1,0,0:0:0:0:
272,336,53931,1,0,0:0:0:0:
246,337,53997,1,0,0:0:0:0:
220,326,54064,6,0,P|174:298|165:245,1,103.999995239258
245,218,54464,1,0,0:0:0:0:
340,266,54597,2,0,B|364:230|364:230|394:207|394:207|411:182,1,103.999995239258
346,96,54997,5,0,0:0:0:0:
241,125,55130,2,0,P|205:147|182:208,1,103.999995239258
255,263,55530,1,0,0:0:0:0:
320,187,55663,2,0,B|329:158|329:158|303:83|303:83,1,103.999995239258
390,54,56063,5,0,0:0:0:0:
469,142,56196,2,0,P|483:172|464:239,1,103.999995239258
348,330,56596,5,0,0:0:0:0:
269,242,56729,2,0,P|255:212|274:145,1,103.999995239258
427,42,57128,5,0,0:0:0:0:
506,130,57261,2,0,P|520:160|501:227,1,103.999995239258
412,287,57661,1,0,0:0:0:0:
331,177,57794,2,0,B|283:114|283:114|273:137,1,103.999995239258
237,259,58194,5,0,0:0:0:0:
354,279,58327,2,0,P|387:257|407:199,1,103.999995239258
344,93,58727,1,0,0:0:0:0:
230,129,58860,2,0,P|190:145|159:195,1,103.999995239258
180,319,59260,5,0,0:0:0:0:
299,248,59393,2,0,P|329:217|323:192,1,51.999997619629
300,128,59659,2,0,P|270:159|276:184,1,51.999997619629
351,268,59926,1,0,0:0:0:0:
253,105,60059,1,0,0:0:0:0:
392,177,60192,1,0,0:0:0:0:
201,180,60325,1,0,0:0:0:0:
349,87,60459,6,0,P|395:68|411:75,1,51.999997619629
443,91,60659,1,0,0:0:0:0:
443,91,60725,1,0,0:0:0:0:
333,183,60858,1,0,0:0:0:0:
449,244,60992,2,0,P|477:289|457:357,1,103.999995239258
363,353,61391,5,0,0:0:0:0:
279,276,61524,2,0,P|246:241|245:222,1,51.999997619629
280,154,61791,2,0,P|313:189|314:208,1,51.999997619629
233,298,62057,1,0,0:0:0:0:
319,125,62191,1,0,0:0:0:0:
319,125,62257,1,0,0:0:0:0:
319,125,62324,5,0,0:0:0:0:
150,221,62457,1,0,0:0:0:0:
398,207,62590,2,0,P|440:183|455:130,1,103.999995239258
372,45,62990,1,0,0:0:0:0:
266,115,63123,2,0,B|231:148|231:148|223:220,1,103.999995239258
286,290,63523,5,0,0:0:0:0:
339,198,63656,2,0,P|346:161|307:94,1,103.999995239258
265,69,64056,1,0,0:0:0:0:
204,86,64189,2,0,P|165:113|129:184,1,103.999995239258
127,221,64588,5,0,0:0:0:0:
182,303,64722,2,0,P|234:340|291:331,1,103.999995239258
258,237,65121,1,0,0:0:0:0:
170,178,65254,2,0,P|142:143|146:71,1,103.999995239258
231,109,65654,1,0,0:0:0:0:
313,160,65787,2,0,P|363:175|419:146,1,103.999995239258
451,110,66187,5,0,0:0:0:0:
423,53,66320,2,0,P|377:34|324:49,1,103.999995239258
282,83,66653,1,0,0:0:0:0:
261,99,66719,1,0,0:0:0:0:
250,122,66786,1,0,0:0:0:0:
250,150,66853,6,0,P|267:195|313:222,1,103.999995239258
366,126,67253,1,0,0:0:0:0:
451,186,67386,2,0,P|458:233|449:251,1,51.999997619629
387,296,67652,2,0,P|376:324|349:339,1,51.999997619629
215,320,67919,2,0,P|179:335|153:329,1,51.999997619629
48,218,68185,2,0,P|20:189|18:176,1,51.999997619629
121,46,68452,5,0,0:0:0:0:
214,145,68585,1,0,0:0:0:0:
111,225,68718,1,0,0:0:0:0:
152,88,68851,1,0,0:0:0:0:
227,232,68985,2,0,P|268:263|319:263,1,103.999995239258
374,231,69384,5,0,0:0:0:0:
324,194,69517,2,0,P|294:173|271:102,1,103.999995239258
299,57,69917,1,0,0:0:0:0:
361,54,70050,2,0,P|409:79|439:141,1,103.999995239258
423,205,70383,5,0,0:0:0:0:
423,205,70450,1,0,0:0:0:0:
472,96,70583,1,0,0:0:0:0:
335,142,70716,1,0,0:0:0:0:
485,206,70850,1,0,0:0:0:0:
394,49,70983,1,0,0:0:0:0:
322,233,71116,2,0,B|309:264|309:264|235:222,1,103.999995239258
192,197,71516,5,0,0:0:0:0:
183,138,71649,2,0,P|204:106|279:96,1,103.999995239258
325,111,72048,1,0,0:0:0:0:
355,164,72182,2,0,P|354:220|310:264,1,103.999995239258
244,297,72581,5,0,0:0:0:0:
168,218,72715,2,0,B|144:186|144:186|136:137|136:137|116:111,1,103.999995239258
51,202,73114,1,0,0:0:0:0:
126,302,73247,2,0,P|170:333|225:337,1,103.999995239258
297,253,73647,1,0,0:0:0:0:
189,188,73780,2,0,P|164:141|171:99,1,77.9999964294435
178,75,74047,5,0,0:0:0:0:
274,127,74180,1,0,0:0:0:0:
125,194,74313,2,0,L|65:219,1,51.999997619629
228,240,74580,1,0,0:0:0:0:
106,314,74713,2,0,L|46:339,1,51.999997619629
244,354,74980,1,0,0:0:0:0:
365,279,75112,2,0,P|391:255|388:168,1,103.999995239258
326,120,75512,5,0,0:0:0:0:
238,187,75645,1,0,0:0:0:0:
192,74,75778,2,0,P|182:45|188:18,1,51.999997619629
287,52,76045,5,0,0:0:0:0:
238,187,76178,2,0,L|210:241,1,51.999997619629
113,222,76445,5,0,0:0:0:0:
238,187,76578,2,0,P|218:152|219:118,1,51.999997619629
311,97,76844,5,0,0:0:0:0:
238,187,76977,2,0,P|224:226|231:252,2,51.999997619629
311,97,77377,1,0,0:0:0:0:
362,212,77510,6,0,P|368:256|357:279,1,51.999997619629
267,318,77777,1,0,0:0:0:0:
386,344,77910,1,0,0:0:0:0:
315,228,78043,2,0,P|300:200|303:172,1,51.999997619629
430,106,78310,1,0,0:0:0:0:
394,237,78443,1,0,0:0:0:0:
314,127,78576,6,0,P|283:103|253:107,1,51.999997619629
191,152,78842,1,0,0:0:0:0:
281,227,78976,1,0,0:0:0:0:
167,270,79109,2,0,P|133:288|105:285,1,51.999997619629
54,253,79309,5,0,0:0:0:0:
54,253,79376,1,0,0:0:0:0:
123,359,79508,1,0,0:0:0:0:
145,199,79642,2,0,B|152:156|152:156|222:119,1,103.999995239258
301,152,80041,5,0,0:0:0:0:
277,244,80175,2,0,P|288:289|336:315,1,103.999995239258
416,262,80574,1,0,0:0:0:0:
429,164,80707,2,0,P|422:110|368:71,1,103.999995239258
290,115,81107,1,0,0:0:0:0:
222,203,81240,2,0,B|195:236|195:236|184:265|184:265|154:296,1,103.999995239258
56,263,81640,5,0,0:0:0:0:
67,144,81773,2,0,P|74:103|136:79,1,103.999995239258
229,156,82173,5,0,0:0:0:0:
218,275,82306,2,0,P|211:316|149:340,1,103.999995239258
10,234,82706,5,0,0:0:0:0:
25,104,82839,2,0,P|32:63|94:39,1,103.999995239258
153,135,83239,1,0,0:0:0:0:
112,229,83372,2,0,L|74:295,2,51.999997619629
218,210,83771,5,0,0:0:0:0:
36,187,83905,2,0,P|5:161|8:91,1,103.999995239258
98,47,84304,1,0,0:0:0:0:
143,196,84437,2,0,B|156:238|156:238|176:267|176:267|187:302,1,103.999995239258
248,174,84837,1,0,0:0:0:0:
314,279,84970,2,0,B|339:307|339:307|378:241,1,103.999995239258
406,199,85370,5,0,0:0:0:0:
395,140,85503,2,0,P|368:95|304:82,1,103.999995239258
238,104,85903,1,0,0:0:0:0:
150,186,86036,6,0,P|133:225|137:261,1,77.9999964294435
157,137,86302,6,0,P|116:149|91:175,1,77.9999964294435,0|0,0:3|0:3,0:3:0:0:
179,214,86569,6,0,P|191:254|217:279,1,77.9999964294435
164,96,86835,6,0,P|125:79|89:83,1,77.9999964294435
215,229,87102,5,0,0:0:0:0:
190,64,87235,1,0,0:0:0:0:
105,172,87368,2,0,P|84:222|107:280,1,103.999995239258
235,324,87768,5,0,0:0:0:0:
235,324,87834,1,0,0:0:0:0:
235,324,87901,1,0,0:0:0:0:
298,211,88034,1,0,0:0:0:0:
278,78,88167,2,0,P|249:45|186:45,1,103.999995239258
124,93,88567,5,0,0:0:0:0:
76,188,88700,2,0,P|92:259|128:287,1,103.999995239258
218,248,89100,1,0,0:0:0:0:
267,143,89233,2,0,P|275:105|270:85,1,51.999997619629
330,226,89500,2,0,P|322:264|327:284,1,51.999997619629
393,131,89766,2,0,P|401:93|396:73,1,51.999997619629
456,214,90033,2,0,P|448:252|453:272,1,51.999997619629
500,99,90299,6,0,P|479:50|423:28,1,103.999995239258
375,49,90699,1,0,0:0:0:0:
332,98,90832,2,0,P|296:144|231:153,1,103.999995239258
174,163,91231,1,0,0:0:0:0:
90,125,91365,2,0,P|44:79|50:21,1,103.999995239258
176,20,91764,1,0,0:0:0:0:
279,136,91897,2,0,P|304:185|289:254,1,103.999995239258
234,301,92297,1,0,0:0:0:0:
179,265,92430,6,0,P|155:243|144:157,1,103.999995239258
186,105,92830,1,0,0:0:0:0:
273,112,92963,2,0,L|317:165,1,51.999997619629
316,246,93230,2,0,L|248:258,1,51.999997619629
178,217,93496,2,0,L|194:163,1,51.999997619629
289,292,93762,6,0,L|349:284,1,51.999997619629
322,117,94029,2,0,L|280:69,1,51.999997619629
166,145,94295,2,0,L|121:264,1,103.999995239258
79,163,94695,1,0,0:0:0:0:
53,238,94828,2,0,L|23:307,1,51.999997619629
172,269,95095,1,0,0:0:0:0:
198,194,95228,1,0,0:0:0:0:
224,119,95361,2,0,L|273:16,1,103.999995239258
340,115,95761,5,0,0:0:0:0:
311,189,95894,2,0,L|262:292,1,103.999995239258
192,325,96294,5,0,0:0:0:0:
322,293,96427,1,0,0:0:0:0:
195,199,96560,1,0,0:0:0:0:
363,157,96693,2,0,P|407:160|473:223,1,129.999994049073
474,253,97093,5,0,0:0:0:0:
428,78,97226,1,0,0:0:0:0:
256,224,97493,5,0,0:0:0:0:
224,192,97759,1,0,0:0:0:0:
256,160,98025,1,0,0:0:0:0:
288,192,98292,1,0,0:0:0:0:
352,192,98558,5,0,0:0:0:0:
256,95,98825,1,0,0:0:0:0:
160,192,99091,1,0,0:0:0:0:
256,288,99358,6,0,P|300:315|364:306,1,103.999995239258
266,134,99890,6,0,P|222:137|156:200,1,129.999994049073
155,230,100290,5,0,0:0:0:0:
201,55,100423,1,0,0:0:0:0:
315,224,100690,6,0,L|383:330,1,103.999995239258
422,207,101223,6,0,B|407:176|407:176|376:140|376:140|358:104,1,103.999995239258
314,224,101889,2,0,L|347:279,1,51.999997619629
422,207,102155,2,0,L|389:152,1,51.999997619629
373,126,102421,5,0,0:0:0:0:
346,91,102555,1,0,0:0:0:0:
310,67,102688,1,0,0:0:0:0:
268,54,102821,1,0,0:0:0:0:
225,54,102954,1,0,0:0:0:0:
183,66,103088,6,0,P|128:101|99:178,1,129.999994049073
103,199,103487,1,0,0:0:0:0:
91,22,103620,1,0,0:0:0:0:
234,150,103887,6,0,P|272:191|332:194,1,103.999995239258
376,184,104286,5,0,0:0:0:0:
421,153,104420,1,0,0:0:0:0:
424,86,104554,1,0,0:0:0:0:
384,43,104686,6,0,P|333:14|271:50,1,129.999994049073
240,102,105086,1,0,0:0:0:0:
211,174,105219,1,0,0:0:0:0:
215,251,105352,1,0,0:0:0:0:
251,319,105485,6,0,P|276:349|315:361,1,77.9999964294435
343,252,105752,6,0,P|356:216|346:177,1,77.9999964294435
225,120,106018,6,0,P|187:126|151:154,1,77.9999964294435
157,312,106285,6,0,P|181:341|213:354,1,51.999997619629
355,312,106551,2,0,P|330:341|299:354,1,51.999997619629
110,246,106818,6,0,P|116:284|137:310,1,51.999997619629
401,246,107084,2,0,P|395:284|374:310,1,51.999997619629
120,114,107350,6,0,P|95:143|89:176,1,51.999997619629
390,115,107617,6,0,P|415:144|422:177,2,51.999997619629
288,68,108016,1,0,0:0:0:0:
317,196,108150,1,0,0:0:0:0:
408,47,108283,1,0,0:0:0:0:
437,175,108416,6,0,B|427:245|378:264,1,80
288,281,108683,1,0,0:0:0:0:
298,127,108816,2,0,P|287:87|259:55,1,80
140,50,109082,1,0,0:0:0:0:
44,154,109215,2,0,P|21:204|30:258,1,80
117,352,109482,5,0,0:0:0:0:
202,149,109615,1,0,0:0:0:0:
214,345,109748,5,0,0:0:0:0:
316,101,109881,1,0,0:0:0:0:
318,335,110015,5,0,0:0:0:0:
430,66,110148,1,0,0:0:0:0:
425,321,110281,1,0,0:0:0:0:
303,45,110414,1,0,0:0:0:0:
260,235,110548,6,0,P|226:299|134:322,1,160
46,251,110947,1,0,0:0:0:0:
168,162,111080,2,0,P|206:100|180:9,1,160
48,63,111480,5,0,0:0:0:0:
119,183,111613,2,0,P|149:223|202:228,1,80
161,312,111880,2,0,P|209:323|253:293,1,80
320,361,112146,6,0,P|364:338|386:227,1,160
319,125,112546,1,0,0:0:0:0:
220,234,112679,2,0,L|160:303,1,80
135,178,112945,2,0,L|220:150,1,80
250,298,113212,6,0,P|216:343|94:342,1,160
34,259,113612,1,0,0:0:0:0:
141,159,113745,2,0,P|175:129|219:128,1,80
202,244,114011,2,0,P|168:274|124:275,1,80
139,119,114278,5,0,0:0:0:0:
264,190,114411,1,0,0:0:0:0:
107,251,114544,1,0,0:0:0:0:
211,78,114677,1,0,0:0:0:0:
211,78,114744,1,0,0:0:0:0:
211,78,114810,6,0,P|264:46|356:70,1,160
418,159,115210,1,0,0:0:0:0:
283,202,115343,2,0,P|224:222|183:307,1,160
279,367,115743,5,0,0:0:0:0:
399,293,115876,2,0,P|429:261|438:218,1,80
364,179,116143,2,0,P|366:135|345:96,1,80,0|0,3:0|3:0,3:0:0:0:
228,96,116409,2,0,P|201:60|90:64,1,160,0|0,3:0|3:0,3:0:0:0:
23,158,116809,5,0,0:0:0:0:
120,252,116942,2,0,L|188:322,1,80
220,176,117208,2,0,P|235:128|277:103,1,80
376,197,117475,2,0,P|366:273|296:317,1,160
185,265,117874,5,0,0:0:0:0:
296,227,118008,2,0,P|350:203|366:122,1,120
355,25,118274,2,0,P|301:49|285:130,1,120
316,176,118540,2,0,P|350:128|324:50,1,120
319,41,118807,2,0,P|284:88|310:166,1,120
316,176,119073,6,0,P|300:126|199:104,1,160
121,174,119473,1,0,0:0:0:0:
252,197,119606,2,0,P|306:251|289:325,1,160
172,367,120006,5,0,0:0:0:0:
72,303,120139,2,0,P|35:263|36:224,1,80
167,236,120405,2,0,L|246:286,1,80
348,328,120672,2,0,P|394:273|356:178,1,160
278,117,121072,5,0,0:0:0:0:
141,162,121205,2,0,B|96:184|96:184|66:237|66:237|11:266,1,160
165,299,121604,1,0,0:0:0:0:
248,188,121738,2,0,P|265:146|181:64,1,160
74,54,122137,1,0,0:0:0:0:
16,167,122270,2,0,P|6:240|90:321,1,160
146,223,122670,2,0,P|168:181|207:171,1,80
325,208,122937,5,0,0:0:0:0:
207,297,123070,1,0,0:0:0:0:
258,87,123203,1,0,0:0:0:0:
140,176,123336,6,0,P|89:198|-3:149,1,160
58,48,123736,1,0,0:0:0:0:
204,90,123869,2,0,P|273:125|291:200,1,160
227,308,124269,5,0,0:0:0:0:
356,263,124402,2,0,P|391:223|384:178,1,80
352,84,124668,1,0,0:0:0:0:
266,174,124802,2,0,L|204:239,1,80
209,50,125068,5,0,0:0:0:0:
115,157,125201,2,0,P|99:221|123:263,1,80
276,239,125468,2,0,P|321:178|299:87,1,160
215,8,125867,5,0,0:0:0:0:
124,108,126000,2,0,P|109:157|128:192,1,80
195,195,126267,2,0,P|215:242|252:256,1,80
322,194,126533,2,0,P|367:217|405:204,1,80,0|0,3:0|3:0,3:0:0:0:
364,93,126800,2,0,P|318:69|280:82,1,80,0|0,3:0|3:0,3:0:0:0:
251,101,127000,5,0,0:0:0:0:
251,101,127066,1,0,0:0:0:0:
393,166,127199,1,0,0:0:0:0:
251,218,127333,1,0,0:0:0:0:
361,28,127466,1,0,0:0:0:0:
163,88,127599,6,0,P|121:128|124:218,1,129.999994049073
133,248,127999,1,0,0:0:0:0:
142,272,128065,1,0,0:0:0:0:
152,296,128132,5,0,0:0:0:0:
231,174,128265,1,0,0:0:0:0:
289,298,128398,2,0,P|315:340|356:348,1,77.9999964294435
397,344,128665,1,0,0:0:0:0:
459,225,128798,1,0,0:0:0:0:
397,106,128931,6,0,P|355:72|315:68,1,77.9999964294435
221,94,129198,5,0,0:0:0:0:
343,196,129464,5,0,0:0:0:0:
156,241,129731,5,0,0:0:0:0:
323,38,129997,6,0,L|311:118,1,60.0000022888184
282,321,130263,6,0,L|200:263,1,71.9999978027344
73,97,130530,6,0,L|160:60,1,88.000002685547
323,38,130796,6,0,P|376:54|401:92,1,80
324,161,131063,2,0,L|246:212,1,80
146,272,131329,5,0,0:0:0:0:
293,305,131462,1,0,0:0:0:0:
245,157,131596,2,0,L|213:72,1,80
98,68,131862,2,0,P|61:108|66:225,1,160
156,294,132262,5,0,0:0:0:0:
283,236,132395,2,0,P|325:209|333:170,1,80
229,148,132661,2,0,P|187:175|179:214,1,80
309,263,132928,5,0,0:0:0:0:
406,73,133061,1,0,0:0:0:0:
414,298,133194,5,0,0:0:0:0:
307,89,133327,1,0,0:0:0:0:
261,290,133461,5,0,0:0:0:0:
389,39,133594,1,0,0:0:0:0:
367,298,133727,5,0,0:0:0:0:
228,27,133860,1,0,0:0:0:0:
144,289,133993,2,0,L|114:379,1,80
250,105,143585,6,0,P|236:149|197:207,1,103.999995239258
281,192,144118,2,0,P|295:236|334:294,1,103.999995239258
219,280,144517,1,0,0:0:0:0:
158,172,144651,2,0,P|171:130|228:82,1,103.999995239258
315,82,145050,1,0,0:0:0:0:
274,190,145183,2,0,P|264:234|288:306,1,103.999995239258
368,337,145583,5,0,0:0:0:0:
442,253,145716,2,0,P|471:192|464:143,1,103.999995239258
403,72,146116,1,0,0:0:0:0:
314,145,146249,2,0,P|272:184|215:203,1,103.999995239258
128,183,146649,5,0,0:0:0:0:
210,89,146782,2,0,P|230:55|234:20,1,51.999997619629
128,57,147048,2,0,P|108:91|104:126,1,51.999997619629
168,223,147315,2,0,P|188:189|192:154,1,51.999997619629
86,191,147581,2,0,P|66:225|62:260,1,51.999997619629
131,327,147848,6,0,P|158:321|224:270,1,103.999995239258
280,191,148247,1,0,0:0:0:0:
160,162,148381,2,0,P|119:147|93:128,1,51.999997619629
190,45,148647,2,0,L|223:108,1,51.999997619629
304,184,148913,2,0,P|345:211|406:207,1,103.999995239258
474,130,149313,5,0,0:0:0:0:
386,62,149446,2,0,P|344:44|322:46,1,51.999997619629
224,126,149713,2,0,B|201:159|201:159|224:236,1,103.999995239258
296,317,150112,1,0,0:0:0:0:
339,193,150246,2,0,P|373:161|398:152,1,51.999997619629
450,264,150512,2,0,P|426:306|371:326,1,103.999995239258
284,249,150912,5,0,0:0:0:0:
377,139,151045,2,0,L|404:105,2,25.9999988098145
189,176,151311,5,0,0:0:0:0:
282,66,151444,2,0,L|309:32,2,25.9999988098145
284,249,151711,5,0,0:0:0:0:
377,139,151844,1,0,0:0:0:0:
189,176,151977,1,0,0:0:0:0:
282,66,152111,1,0,0:0:0:0:
282,66,152377,5,0,0:0:0:0:
284,249,152510,1,0,0:0:0:0:
284,249,152777,5,0,0:0:0:0:
345,162,152910,1,0,0:0:0:0:
255,117,153043,1,0,0:0:0:0:
194,204,153176,1,0,0:0:0:0:
194,204,153443,5,0,0:0:0:0:
255,117,153576,1,0,0:0:0:0:
345,162,153709,1,0,0:0:0:0:
133,229,153976,5,0,0:0:0:0:
401,136,154242,1,0,0:0:0:0:
401,136,154508,5,0,0:0:0:0:
350,241,154642,1,0,0:0:0:0:
299,136,154775,1,0,0:0:0:0:
299,136,155041,5,0,0:0:0:0:
237,10,155175,1,0,0:0:0:0:
176,136,155308,5,0,0:0:0:0:
237,10,155574,1,0,0:0:0:0:
299,136,155841,1,0,0:0:0:0:
237,262,156107,1,0,0:0:0:0:
115,137,156374,6,0,L|79:85,1,51.999997619629
191,108,156640,2,0,L|227:160,1,51.999997619629
170,234,156906,2,0,P|135:233|101:216,1,51.999997619629
187,133,157173,2,0,P|222:134|256:151,1,51.999997619629
243,264,157439,2,0,L|193:321,1,51.999997619629
147,369,157706,1,0,0:0:0:0:
155,234,157839,6,0,L|205:177,1,51.999997619629
251,129,158106,1,0,0:0:0:0:
305,223,158239,2,0,P|317:258|318:294,1,51.999997619629
250,259,158505,2,0,P|238:224|240:184,1,55.9999982910157
354,236,158771,2,0,P|359:272|347:318,1,60.0000022888184,0|0,0:3|0:3,0:3:0:0:
204,247,159038,2,0,P|198:210|216:161,1,64,0|0,0:3|0:3,0:3:0:0:
405,241,159304,2,0,P|404:277|374:330,1,68.0000012969971
155,234,159571,2,0,P|155:197|190:142,1,71.9999978027344,0|0,0:3|0:3,0:3:0:0:
446,264,159837,2,0,P|432:298|377:340,1,75.9999979705811
116,204,160104,2,0,P|129:169|191:128,1,80
481,296,160370,2,0,P|461:327|384:357,1,88.000002685547
81,156,160636,6,0,P|100:124|189:101,1,129.999994049073
226,110,161036,1,0,0:0:0:0:
87,17,161169,1,0,0:0:0:0:
154,216,161436,5,0,0:0:0:0:
175,271,161702,1,0,0:0:0:0:
219,310,161969,1,0,0:0:0:0:
277,323,162235,1,0,0:0:0:0:
278,284,162501,5,0,0:0:0:0:
193,265,162767,1,0,0:0:0:0:
127,208,163034,1,0,0:0:0:0:
96,127,163301,2,0,P|101:85|156:44,1,103.999995239258
246,179,163834,6,0,P|298:173|371:234,1,129.999994049073
387,248,164233,1,0,0:0:0:0:
346,96,164366,1,0,0:0:0:0:
238,227,164633,6,0,P|198:274|153:285,1,103.999995239258
151,144,165166,2,0,P|191:97|236:86,1,103.999995239258
310,162,165699,2,0,L|352:200,1,51.999997619629
307,200,165965,2,0,L|333:250,1,51.999997619629
285,242,166231,1,0,0:0:0:0:
285,242,166498,6,0,L|284:307,1,51.999997619629
216,220,166764,6,0,L|217:155,1,51.999997619629
285,208,167031,1,0,0:0:0:0:
285,208,167430,5,0,0:0:0:0:
287,53,167564,1,0,0:0:0:0:
143,146,167830,5,0,0:0:0:0:
143,146,168230,5,0,0:0:0:0:
136,292,168363,1,0,0:0:0:0:
373,232,168629,5,0,0:0:0:0:
373,232,169029,1,0,0:0:0:0:
375,62,169162,1,0,0:0:0:0:
373,232,169429,1,0,0:0:0:0:
373,232,169695,6,0,P|362:267|304:308,1,103.999995239258
197,254,170228,5,0,0:0:0:0:
197,254,170627,1,0,0:0:0:0:
198,73,170760,1,0,0:0:0:0:
232,129,171027,1,0,0:0:0:0:
158,111,171294,1,0,0:0:0:0:
233,56,171560,1,0,0:0:0:0:
219,181,171826,6,0,L|202:255,1,51.999997619629
287,214,172093,2,0,L|328:150,1,51.999997619629
234,160,172359,2,0,L|173:206,1,51.999997619629
329,213,172626,1,0,0:0:0:0:
178,130,172892,5,0,0:0:0:0:
178,130,173159,1,0,0:0:0:0:
178,130,173425,2,0,L|166:201,1,51.999997619629
107,130,173691,2,0,L|119:59,1,51.999997619629
180,98,173958,6,0,P|200:126|218:218,1,129.999994049073
214,258,174358,1,0,0:0:0:0:
308,116,174491,2,0,L|342:56,1,51.999997619629
370,160,174757,2,0,L|372:224,1,51.999997619629
296,279,175024,2,0,L|294:215,1,51.999997619629
396,261,175290,2,0,P|409:298|410:333,1,51.999997619629
298,317,175556,2,0,P|271:304|241:248,1,77.9999964294435
243,226,175823,5,0,0:0:0:0:
243,226,175956,1,0,0:0:0:0:
270,135,176089,1,0,0:0:0:0:
270,135,176223,1,0,0:0:0:0:
153,186,176356,6,0,P|117:196|89:192,1,51.999997619629
142,90,176622,2,0,P|178:80|206:84,1,51.999997619629
289,160,176889,2,0,P|253:170|225:166,1,51.999997619629
285,69,177155,2,0,P|353:58|409:80,1,129.999994049073
434,99,177555,5,0,0:0:0:0:
283,194,177688,2,0,P|247:213|220:214,1,51.999997619629
158,143,177954,2,0,L|226:157,1,51.999997619629
232,265,178221,2,0,L|177:216,1,51.999997619629
231,117,178487,2,0,P|268:111|300:123,1,51.999997619629
316,248,178754,2,0,P|298:271|265:294,1,51.999997619629
176,269,179020,5,0,0:0:0:0:
176,269,179153,1,0,0:0:0:0:
176,269,179286,2,0,L|149:201,1,51.999997619629
104,324,179553,6,0,L|83:367,2,25.9999988098145
79,239,179819,1,0,0:0:0:0:
162,191,179953,1,0,0:0:0:0:
171,283,180086,1,0,0:0:0:0:
39,274,180219,1,0,0:0:0:0:
108,152,180352,1,0,0:0:0:0:
108,152,180752,5,0,0:0:0:0:
292,154,180885,1,0,0:0:0:0:
436,270,181151,6,0,L|399:322,1,51.999997619629
330,340,181418,2,0,L|303:281,1,51.999997619629
330,200,181684,2,0,L|393:206,1,51.999997619629
436,270,181951,2,0,P|420:307|368:352,1,103.999995239258
277,355,182350,5,0,0:0:0:0:
315,265,182484,2,0,P|329:226|329:199,1,51.999997619629
255,99,182750,5,0,0:0:0:0:
255,99,183016,6,0,L|266:161,1,51.999997619629
225,279,183283,6,0,L|236:217,1,51.999997619629,0|0,0:3|0:3,0:3:0:0:
337,96,183549,6,0,L|305:150,1,51.999997619629,0|0,0:3|0:3,0:3:0:0:
216,167,183816,2,0,L|248:113,1,51.999997619629,0|0,0:3|0:3,0:3:0:0:
307,210,184082,2,0,L|275:264,1,51.999997619629,0|0,0:3|0:3,0:3:0:0:
186,281,184349,2,0,L|218:227,1,51.999997619629,0|0,0:3|0:3,0:3:0:0:
270,327,184615,5,0,0:0:0:0:
270,327,184748,2,0,P|230:356|215:357,1,51.999997619629
144,310,185015,5,0,0:0:0:0:
144,310,185148,2,0,P|184:281|199:280,1,51.999997619629
282,365,185414,5,0,0:0:0:0:
142,262,185548,1,0,0:0:0:0:
323,238,185681,6,0,P|364:215|388:187,1,80
398,81,185947,1,0,0:0:0:0:
282,131,186080,2,0,P|237:140|194:130,1,80
137,39,186347,5,0,0:0:0:0:
223,219,186480,1,0,0:0:0:0:
267,41,186613,1,0,0:0:0:0:
96,159,186747,5,0,0:0:0:0:
338,119,186880,1,0,0:0:0:0:
142,14,187013,5,0,0:0:0:0:
278,258,187146,1,0,0:0:0:0:
299,21,187279,5,0,0:0:0:0:
88,263,187412,1,0,0:0:0:0:
376,202,187546,5,0,0:0:0:0:
46,74,187679,1,0,0:0:0:0:
299,21,187812,6,0,P|347:13|451:69,1,160
475,185,188212,1,0,0:0:0:0:
345,145,188345,2,0,P|286:125|185:149,1,160
122,239,188745,5,0,0:0:0:0:
219,330,188878,2,0,P|261:349|306:342,1,80
307,242,189144,2,0,P|348:222|372:183,1,80,0|0,3:0|3:0,3:0:0:0:
292,99,189411,2,0,P|303:54|210:0,1,160,0|0,3:0|3:0,3:0:0:0:
156,81,189810,5,0,0:0:0:0:
240,190,189944,2,0,L|293:257,1,80
327,153,190210,2,0,L|312:61,1,80
208,231,190477,2,0,P|132:292|66:283,1,160
87,143,190876,5,0,0:0:0:0:
266,194,191009,2,0,P|310:223|330:272,1,80
206,273,191276,2,0,P|162:244|142:195,1,80
308,184,191542,5,0,0:0:0:0:
171,287,191675,1,0,0:0:0:0:
200,133,191809,1,0,0:0:0:0:
279,320,191942,1,0,0:0:0:0:
324,126,192075,6,0,P|350:83|458:67,1,160
471,174,192475,1,0,0:0:0:0:
375,99,192608,2,0,P|337:63|225:61,1,160
145,137,193008,5,0,0:0:0:0:
247,223,193141,2,0,P|299:233|323:215,1,80
265,128,193407,2,0,L|197:80,1,80
163,184,193674,2,0,L|169:277,1,80
292,252,193940,6,0,P|372:232|394:142,1,160
338,59,194340,1,0,0:0:0:0:
224,80,194473,2,0,P|176:117|172:161,1,80
257,166,194739,2,0,P|305:129|309:85,1,80
169,94,195006,2,0,P|116:112|69:226,1,160
122,314,195405,5,0,0:0:0:0:
251,281,195539,2,0,P|310:245|320:190,1,120
239,120,195805,2,0,L|194:239,1,120
216,313,196072,2,0,P|249:252|230:199,1,120
209,183,196338,6,0,P|152:221|59:195,1,160
22,82,196738,1,0,0:0:0:0:
156,131,196871,2,0,P|222:134|314:53,1,160
186,8,197270,5,0,0:0:0:0:
83,126,197404,2,0,P|69:176|95:212,1,80
181,199,197670,2,0,P|216:236|260:233,1,80
317,147,197937,2,0,P|387:131|404:48,1,160,0|0,3:0|3:0,3:0:0:0:
279,23,198336,5,0,0:0:0:0:
234,162,198469,2,0,L|206:251,1,80
137,145,198736,2,0,P|129:94|144:63,1,80
269,127,199002,2,0,L|339:200,1,80
410,284,199269,5,0,0:0:0:0:
398,109,199402,1,0,0:0:0:0:
284,246,199535,2,0,P|245:284|138:288,1,160
66,200,199935,1,0,0:0:0:0:
160,104,200068,2,0,P|199:71|326:78,1,160
406,147,200468,5,0,0:0:0:0:
267,231,200601,2,0,B|215:258|215:258|185:301|185:301|139:326,1,160
83,178,201000,5,0,0:0:0:0:
222,94,201133,2,0,B|274:67|274:67|304:24|304:24|350:-1,1,160
406,147,201533,5,0,0:0:0:0:
331,250,201667,2,0,P|296:289|252:304,1,80
275,156,201933,1,0,0:0:0:0:
132,166,202066,2,0,P|86:158|53:127,1,80
217,57,202333,5,0,0:0:0:0:
195,208,202466,2,0,L|177:305,1,80
300,229,202732,2,0,P|346:197|359:87,1,160
274,18,203132,1,0,0:0:0:0:
169,86,203265,2,0,P|122:117|109:162,1,80
215,166,203532,2,0,P|262:135|275:90,1,80
122,61,203798,6,0,P|105:114|124:157,1,80
261,190,204064,2,0,P|277:136|258:93,1,80
234,64,204264,1,0,0:0:0:0:
234,64,204330,1,0,0:0:0:0:
134,154,204464,1,0,0:0:0:0:
316,154,204597,1,0,0:0:0:0:
216,259,204731,1,0,0:0:0:0:
294,30,204864,6,0,P|326:4|407:5,1,119.999996337891
444,32,205263,1,0,0:0:0:0:
461,48,205329,1,0,0:0:0:0:
478,65,205396,5,0,0:0:0:0:
465,186,205530,1,0,0:0:0:0:
378,263,205663,2,0,P|331:287|295:286,1,71.9999978027344
261,277,205929,5,0,0:0:0:0:
330,175,206063,1,0,0:0:0:0:
160,217,206196,2,0,P|114:221|83:200,1,71.9999978027344
40,103,206462,5,0,0:0:0:0:
229,54,206729,5,0,0:0:0:0:
97,265,206995,5,0,0:0:0:0:
79,37,207262,6,0,L|121:92,1,64
251,292,207528,6,0,L|288:225,1,71.9999978027344
396,28,207794,6,0,L|311:45,1,80
79,37,208061,6,0,P|42:65|32:128,1,80
134,133,208327,2,0,L|239:119,1,80
343,109,208594,1,0,0:0:0:0:
240,236,208727,1,0,0:0:0:0:
396,225,208860,2,0,P|442:199|456:154,1,80
396,45,209127,2,0,P|341:23|209:34,1,160
130,97,209526,1,0,0:0:0:0:
224,191,209659,6,0,P|274:214|324:197,1,80
279,116,209926,2,0,P|229:93|179:110,1,80
188,224,210192,5,0,0:0:0:0:
319,91,210326,1,0,0:0:0:0:
151,103,210459,5,0,0:0:0:0:
341,198,210593,1,0,0:0:0:0:
243,40,210725,5,0,0:0:0:0:
206,281,210859,1,0,0:0:0:0:
363,109,210992,5,0,0:0:0:0:
86,153,211126,1,0,0:0:0:0:
289,293,211258,5,0,0:0:0:0:
142,6,211392,1,0,0:0:0:0:
121,310,211524,5,0,0:0:0:0:
275,7,211658,1,0,0:0:0:0:
327,349,211791,5,0,0:0:0:0:
164,31,211925,1,0,0:0:0:0:
96,363,212057,5,0,0:0:0:0:
266,29,212191,1,0,0:0:0:0:
346,376,212324,1,0,0:0:0:0:
223,91,221915,6,0,L|191:189,1,95.9999970703126
312,171,222715,6,0,L|344:269,1,95.9999970703126
223,91,223514,5,0,0:0:0:0:
209,136,223780,1,0,0:0:0:0:
193,182,224047,1,0,0:0:0:0:
312,171,224313,5,0,0:0:0:0:
326,216,224579,1,0,0:0:0:0:
342,262,224846,1,0,0:0:0:0:
219,248,225112,6,0,P|177:228|148:178,1,80
151,142,225312,1,0,0:0:0:0:
151,142,225379,1,0,0:0:0:0:
132,294,225512,1,0,0:0:0:0:
242,192,225645,2,0,L|311:124,1,80
332,231,225912,6,0,P|336:288|357:317,1,80
392,345,226112,1,0,0:0:0:0:
392,345,226178,1,0,0:0:0:0:
271,288,226311,1,0,0:0:0:0:
421,232,226445,2,0,P|464:205|486:173,1,80
452,73,226711,5,0,0:0:0:0:
351,195,226844,1,0,0:0:0:0:
320,48,226977,1,0,0:0:0:0:
435,31,227111,5,0,0:0:0:0:
408,187,227244,1,0,0:0:0:0:
311,69,227377,1,0,0:0:0:0:
286,225,227510,2,0,P|261:270|205:298,1,80
182,301,227710,1,0,0:0:0:0:
182,301,227777,5,0,0:0:0:0:
321,319,227910,1,0,0:0:0:0:
228,205,228043,2,0,P|196:167|198:122,1,80
302,158,228310,2,0,P|356:181|401:161,1,80
434,156,228509,1,0,0:0:0:0:
434,156,228576,5,0,0:0:0:0:
333,257,228709,2,0,P|304:322|308:354,1,80
375,384,228976,1,0,0:0:0:0:
441,283,229109,2,0,P|456:234|451:201,1,80
426,152,229309,1,0,0:0:0:0:
426,152,229375,5,0,0:0:0:0:
347,250,229508,1,0,0:0:0:0:
321,88,229642,2,0,P|296:43|261:27,1,80
181,80,229908,5,0,0:0:0:0:
301,160,230041,1,0,0:0:0:0:
164,215,230175,1,0,0:0:0:0:
247,57,230308,5,0,0:0:0:0:
310,186,230441,1,0,0:0:0:0:
164,165,230574,1,0,0:0:0:0:
227,294,230707,2,0,P|271:333|304:344,1,80
352,343,230907,1,0,0:0:0:0:
352,343,230974,5,0,0:0:0:0:
236,367,231107,1,0,0:0:0:0:
319,266,231240,2,0,P|337:218|331:162,1,80
238,221,231507,2,0,L|162:285,1,80
126,308,231707,1,0,0:0:0:0:
126,308,231773,5,0,0:0:0:0:
259,328,231906,1,0,0:0:0:0:
175,212,232040,2,0,P|149:175|146:138,1,80
212,58,232306,1,0,0:0:0:0:
251,174,232439,2,0,P|280:222|316:237,1,80
359,250,232639,1,0,0:0:0:0:
359,250,232706,5,0,0:0:0:0:
215,285,232839,1,0,0:0:0:0:
315,143,232972,2,0,L|339:99,1,40
382,32,233105,5,0,0:0:0:0:
263,75,233239,1,0,0:0:0:0:
398,137,233372,1,0,0:0:0:0:
279,180,233505,2,0,L|186:218,1,80
355,266,233771,1,0,0:0:0:0:
236,309,233905,6,0,L|143:347,1,80
146,251,234171,2,0,P|100:256|49:242,1,80
101,162,234437,2,0,P|65:136|56:82,1,80
156,70,234704,5,0,0:0:0:0:
290,132,234970,1,0,0:0:0:0:
147,232,235237,1,0,0:0:0:0:
210,6,235503,1,0,0:0:0:0:
326,279,235770,5,0,0:0:0:0:
126,377,236036,1,0,0:0:0:0:
190,85,236302,1,0,0:0:0:0:
186,279,236569,5,0,0:0:0:0:
386,377,236835,1,0,0:0:0:0:
322,85,237101,1,0,0:0:0:0:
256,280,237368,5,0,0:0:0:0:
256,88,237635,1,0,0:0:0:0:
256,352,237901,6,0,P|311:329|354:261,1,120.000004577637
392,160,238434,1,0,0:0:0:0:
210,303,238700,6,0,P|155:280|113:216,1,120.000004577637
72,106,239233,1,0,0:0:0:0:
353,277,239500,6,0,P|408:254|460:157,1,160
463,33,240033,1,0,0:0:0:0:
133,244,240299,6,0,P|78:221|26:124,1,160
23,0,240832,1,0,0:0:0:0:
256,192,241098,5,0,0:0:0:0:
256,192,241365,6,0,L|256:272,1,80
332,195,241631,6,0,L|359:119,1,80
169,170,241897,6,0,L|117:231,1,80
363,253,242164,6,0,L|432:212,1,80
154,108,242430,6,0,L|75:121,1,80
367,312,242697,6,0,P|416:327|462:291,1,95.9999970703126
406,215,243230,1,0,0:0:0:0:
442,115,243496,6,0,P|397:98|347:136,2,95.9999970703126
406,215,244295,1,0,0:0:0:0:
308,268,244562,1,0,0:0:0:0:
201,184,244828,1,0,0:0:0:0:
324,153,245095,2,0,P|364:133|384:82,1,95.9999970703126
278,21,245627,1,0,0:0:0:0:
183,120,245894,6,0,P|141:182|179:304,1,191.999994140625
269,187,246693,2,0,L|300:289,2,95.9999970703126
331,108,247493,5,0,0:0:0:0:
236,53,247759,1,0,0:0:0:0:
121,122,248025,1,0,0:0:0:0:
243,186,248292,2,0,L|294:217,1,47.9999985351563
225,259,248558,2,0,L|254:312,1,47.9999985351563
163,318,248825,2,0,L|161:377,1,47.9999985351563
81,325,249091,6,0,P|49:346|-16:331,1,95.9999970703126
83,234,249624,1,0,0:0:0:0:
267,223,249890,6,0,P|262:261|209:301,1,95.9999970703126
180,132,250423,1,0,0:0:0:0:
395,50,250690,6,0,P|421:77|417:144,1,95.9999970703126
241,51,251223,1,0,0:0:0:0:
363,149,251489,6,0,P|359:199|227:247,1,191.999994140625
171,105,252288,6,0,P|184:139|243:157,1,95.9999970703126
248,66,252688,2,0,L|223:13,1,47.9999985351563
131,66,252954,1,0,0:0:0:0:
185,176,253088,1,0,0:0:0:0:
337,135,253354,5,0,0:0:0:0:
296,298,253620,1,0,0:0:0:0:
437,254,253887,2,0,P|486:224|479:100,1,191.999994140625
373,141,254686,6,0,L|343:188,1,47.9999985351563
285,235,254953,2,0,L|259:185,1,47.9999985351563
250,96,255219,2,0,L|305:98,1,47.9999985351563,0|0,3:0|3:0,3:0:0:0:
401,173,255485,6,0,P|402:210|343:280,1,119.999996337891
267,284,255885,2,0,L|293:231,1,47.9999985351563
304,93,256285,6,0,P|302:142|256:174,1,95.9999970703126
157,193,256818,2,0,P|159:144|205:112,1,95.9999970703126
309,153,257350,1,0,0:0:0:0:
264,254,257617,1,0,0:0:0:0:
141,298,257883,6,0,P|79:303|55:266,1,95.9999970703126
99,185,258416,1,0,0:0:0:0:
198,248,258683,2,0,P|247:278|315:253,1,119.999996337891
332,197,259082,2,0,L|267:197,1,47.9999985351563
128,145,259482,6,0,P|152:100|205:88,1,95.9999970703126
250,183,260015,1,0,0:0:0:0:
157,303,260281,6,0,P|106:304|62:188,1,191.999994140625
250,183,261080,1,0,0:0:0:0:
314,240,261347,1,0,0:0:0:0:
416,167,261613,1,0,0:0:0:0:
267,82,261880,6,0,B|212:67|154:105|154:105|212:148,1,191.999994140625
86,83,262679,1,0,0:0:0:0:
212,148,262945,6,0,L|298:207,1,95.9999970703126
200,272,263478,6,0,P|227:304|371:294,1,191.999994140625
79,247,264278,1,0,0:0:0:0:
79,247,264544,6,0,L|106:186,1,47.9999985351563
165,165,264810,2,0,L|204:218,1,47.9999985351563
192,290,265077,2,0,L|125:297,1,47.9999985351563
42,219,265343,5,0,0:0:0:0:
42,219,265477,2,0,L|68:139,1,64
145,104,265743,5,0,0:0:0:0:
145,104,265877,2,0,L|171:184,1,64
227,289,266143,6,0,L|253:209,1,64
355,183,266409,2,0,L|329:263,1,64
261,143,266675,6,0,L|273:105,1,40
256,192,267008,12,0,268740,0:0:0:0:
256,120,268807,6,0,L|256:32,1,80
256,264,269340,6,0,L|256:352,1,80
292,129,269873,6,0,L|336:53,1,80
220,254,270406,6,0,L|176:330,1,80
318,156,270938,6,0,L|394:111,1,80
193,228,271471,6,0,L|117:272,1,80
328,192,272004,6,0,L|416:191,1,80
184,192,272537,6,0,L|95:192,1,80
318,228,273070,6,0,L|394:272,1,80
193,156,273603,6,0,L|117:112,1,80
292,254,274135,6,0,L|336:330,1,80
220,129,274668,6,0,L|175:53,1,80
256,264,275201,6,0,L|256:352,1,80
256,120,275734,6,0,L|255:31,1,80
256,192,276267,5,0,0:0:0:0:
256,192,276533,1,0,0:0:0:0:
256,192,276800,1,0,0:0:0:0:
256,192,277066,1,0,0:0:0:0:
255,40,277333,6,0,L|256:120,1,80
256,344,277866,6,0,L|256:264,1,80
165,68,278399,6,0,L|213:133,1,80
345,314,278932,6,0,L|298:249,1,80
111,145,279464,6,0,L|186:169,1,80
399,239,279997,6,0,L|324:214,1,80
111,238,280530,6,0,L|187:214,1,80
400,144,281063,6,0,L|324:169,1,80
166,315,281596,6,0,L|213:250,1,80
344,68,282129,6,0,L|297:133,1,80
255,343,282661,6,0,L|255:263,1,80
255,39,283194,5,0,0:0:0:0:
256,216,283461,6,0,L|256:168,1,40
256,120,283727,1,0,0:0:0:0:
232,120,283993,2,0,L|280:120,2,40
256,208,284526,1,0,0:0:0:0:
256,208,284793,1,0,0:0:0:0:
256,192,284859,12,0,286791,0:0:0:0:
188,76,287457,6,0,P|141:115|165:235,1,176.000005371094
271,280,287857,1,0,0:0:0:0:
286,144,287990,2,0,P|297:88|406:48,1,176.000005371094
434,170,288389,5,0,0:0:0:0:
342,254,288523,2,0,P|293:249|274:210,1,88.000002685547
326,141,288789,2,0,P|305:96|330:60,1,88.000002685547
432,112,289056,2,0,P|456:162|395:290,1,176.000005371094
305,333,289455,5,0,0:0:0:0:
201,252,289588,2,0,P|160:206|169:155,1,88.000002685547
270,193,289855,2,0,L|370:217,1,88.000002685547
279,296,290121,2,0,P|239:332|130:300,1,176.000005371094
108,183,290521,5,0,0:0:0:0:
212,101,290654,2,0,P|259:74|310:90,1,88.000002685547
358,159,290921,2,0,P|311:186|260:170,1,88.000002685547
240,56,291187,5,0,0:0:0:0:
352,207,291320,1,0,0:0:0:0:
344,55,291453,1,0,0:0:0:0:
232,206,291586,1,0,0:0:0:0:
240,56,291720,6,0,P|204:11|96:39,1,176.000005371094
118,144,292120,1,0,0:0:0:0:
232,206,292253,2,0,P|287:242|314:353,1,176.000005371094
166,312,292652,5,0,0:0:0:0:
69,204,292786,2,0,P|48:146|76:94,1,88.000002685547
168,209,293052,1,0,0:0:0:0:
239,105,293185,1,0,0:0:0:0:
309,264,293318,2,0,L|353:355,1,88.000002685547
409,229,293585,6,0,P|421:176|398:124,1,88.000002685547
309,58,293851,2,0,P|304:113|194:187,1,176.000005371094
93,113,294251,1,0,0:0:0:0:
165,245,294384,2,0,L|224:345,1,88.000002685547
260,234,294651,2,0,L|276:137,1,88.000002685547
347,261,294917,6,0,P|380:302|468:294,1,132.00000402832
428,197,295183,2,0,L|377:63,1,132.00000402832
347,111,295450,6,0,P|336:162|399:224,1,132.00000402832,0|0,3:0|3:0,3:0:0:0:
428,197,295716,2,0,L|497:71,1,132.00000402832,0|0,3:0|3:0,3:0:0:0:
446,86,295983,6,0,P|377:133|288:93,1,176.000005371094
389,2,296382,1,0,0:0:0:0:
350,177,296516,2,0,P|301:244|203:237,1,176.000005371094
267,116,296915,5,0,0:0:0:0:
332,253,297048,2,0,L|376:345,1,88.000002685547
270,330,297315,2,0,P|220:294|208:237,1,88.000002685547
207,157,297581,2,0,P|265:200|348:143,1,176.000005371094
271,60,297981,5,0,0:0:0:0:
148,126,298114,2,0,L|57:177,1,88.000002685547
166,223,298381,2,0,P|218:254|264:251,1,88.000002685547
329,130,298647,2,0,P|278:152|253:205,1,88.000002685547
360,251,298913,5,0,0:0:0:0:
253,64,299047,1,0,0:0:0:0:
152,251,299180,2,0,L|101:334,1,88.000002685547
212,313,299446,2,0,P|272:281|280:245,1,88.000002685547
170,161,299713,5,0,0:0:0:0:
122,328,299846,1,0,0:0:0:0:
274,265,299979,1,0,0:0:0:0:
69,173,300112,1,0,0:0:0:0:
201,46,300246,6,0,B|259:17|259:17|292:43|292:43|372:36,1,176.000005371094
412,162,300645,1,0,0:0:0:0:
311,290,300778,6,0,B|253:319|253:319|220:293|220:293|140:300,1,176.000005371094
100,174,301177,1,0,0:0:0:0:
236,86,301311,2,0,P|280:62|343:80,1,88.000002685547
412,162,301578,5,0,0:0:0:0:
267,289,301711,1,0,0:0:0:0:
154,81,301844,2,0,L|103:7,1,88.000002685547
105,194,302111,5,0,0:0:0:0:
316,64,302244,1,0,0:0:0:0:
356,317,302377,2,0,L|369:407,1,88.000002685547
187,141,302643,5,0,0:0:0:0:
358,242,302777,1,0,0:0:0:0:
175,327,302910,2,0,L|84:367,1,88.000002685547
153,224,303176,6,0,P|197:179|238:167,1,88.000002685547
262,267,303443,2,0,P|264:317|288:352,1,88.000002685547
381,244,303709,2,0,P|400:201|395:151,1,88.000002685547
323,50,303976,5,0,0:0:0:0:
219,189,304109,1,0,0:0:0:0:
204,0,304242,1,0,0:0:0:0:
100,139,304375,1,0,0:0:0:0:
323,50,304508,2,0,P|375:27|435:48,1,119.999996337891
473,81,304908,5,0,0:0:0:0:
488,99,304974,1,0,0:0:0:0:
503,117,305041,1,0,0:0:0:0:
445,243,305175,1,0,0:0:0:0:
333,131,305308,2,0,P|286:98|257:98,1,71.9999978027344
221,108,305574,5,0,0:0:0:0:
289,245,305707,1,0,0:0:0:0:
112,223,305841,2,0,P|75:205|56:170,1,71.9999978027344
65,126,306107,5,0,0:0:0:0:
267,34,306374,5,0,0:0:0:0:
198,323,306640,5,0,0:0:0:0:
55,66,306906,6,0,L|99:111,1,47.9999985351563
291,345,307173,6,0,L|311:271,1,64
382,30,307439,6,0,L|308:46,1,71.9999978027344
55,66,307706,6,0,P|50:121|89:169,1,88.000002685547
154,88,307972,2,0,P|190:53|247:50,1,88.000002685547
230,169,308239,2,0,L|175:257,1,88.000002685547
124,339,308505,1,0,0:0:0:0:
280,268,308638,1,0,0:0:0:0:
139,190,308771,2,0,P|98:146|92:99,1,88.000002685547
205,112,309038,2,0,P|250:147|308:147,1,88.000002685547
359,39,309304,6,0,P|308:48|269:77,1,88.000002685547
375,144,309571,2,0,P|399:187|405:234,1,88.000002685547
280,317,309837,5,0,0:0:0:0:
446,158,309970,1,0,0:0:0:0:
184,240,310104,5,0,0:0:0:0:
431,223,310237,1,0,0:0:0:0:
158,111,310370,5,0,0:0:0:0:
398,285,310503,1,0,0:0:0:0:
260,30,310636,5,0,0:0:0:0:
338,346,310769,1,0,0:0:0:0:
384,36,310903,5,0,0:0:0:0:
226,357,311036,1,0,0:0:0:0:
470,148,311169,5,0,0:0:0:0:
110,306,311302,1,0,0:0:0:0:
467,301,311436,5,0,0:0:0:0:
51,180,311569,1,0,0:0:0:0:
489,139,311702,5,0,0:0:0:0:
53,330,311835,1,0,0:0:0:0:
500,354,311969,1,0,0:0:0:0:
256,192,312035,12,0,315099,0:0:0:0:
256,192,315166,6,0,L|275:253,1,51.999997619629
300,319,315432,1,0,0:0:0:0:
357,226,315565,2,0,L|376:287,1,51.999997619629
399,364,315832,1,0,0:0:0:0:
463,236,315965,1,0,0:0:0:0:
422,138,316231,1,0,0:0:0:0:
362,152,316498,1,0,0:0:0:0:
353,178,316764,6,0,L|333:232,1,51.999997619629
303,302,317031,1,0,0:0:0:0:
249,200,317164,2,0,L|229:254,1,51.999997619629
199,324,317431,1,0,0:0:0:0:
104,209,317564,1,0,0:0:0:0:
217,123,317830,2,0,P|221:162|210:186,1,51.999997619629
104,209,318096,2,0,P|126:176|149:165,1,51.999997619629
228,185,318362,6,0,P|205:217|182:228,1,51.999997619629
162,122,318629,1,0,0:0:0:0:
257,241,318762,6,0,P|261:280|250:304,1,51.999997619629
165,235,319029,1,0,0:0:0:0:
317,275,319162,2,0,P|370:295|419:258,1,103.999995239258
363,146,319695,1,0,0:0:0:0:
363,146,319961,6,0,L|336:192,1,51.999997619629
269,225,320228,2,0,L|242:178,1,51.999997619629
247,94,320494,2,0,L|302:95,1,51.999997619629
398,141,320761,6,0,L|361:201,1,51.999997619629
257,260,321028,2,0,L|220:198,1,51.999997619629
224,63,321294,2,0,L|297:63,1,51.999997619629
415,184,321560,6,0,L|417:252,1,51.999997619629
421,319,321826,1,0,0:0:0:0:
325,316,321960,2,0,L|323:248,1,51.999997619629
319,181,322226,1,0,0:0:0:0:
229,318,322359,1,0,0:0:0:0:
129,264,322626,1,0,0:0:0:0:
142,185,322892,1,0,0:0:0:0:
180,173,323159,6,0,L|242:155,2,51.999997619629
192,238,323558,2,0,L|218:178,2,51.999997619629
256,280,323958,1,0,0:0:0:0:
256,280,324224,6,0,L|256:344,1,51.999997619629
330,270,324491,2,0,L|330:206,1,51.999997619629
256,332,324757,1,0,0:0:0:0:
191,251,325024,5,0,0:0:0:0:
330,184,325290,1,0,0:0:0:0:
109,84,325556,5,0,0:0:0:0:
342,56,325823,5,0,0:0:0:0:
255,177,326089,1,0,0:0:0:0:
418,197,326356,1,0,0:0:0:0:
295,322,326622,1,0,0:0:0:0:
148,230,326889,1,0,0:0:0:0:
201,37,327155,1,0,0:0:0:0:
329,183,327421,6,0,L|372:234,1,51.999997619629
285,265,327688,2,0,L|221:284,1,51.999997619629
286,118,327954,5,0,0:0:0:0:
125,72,328221,5,0,0:0:0:0:
154,253,328487,1,0,0:0:0:0:
360,153,328754,5,0,0:0:0:0:
275,321,329020,5,0,0:0:0:0:
227,171,329286,1,0,0:0:0:0:
372,234,329553,1,0,0:0:0:0:
346,71,329819,1,0,0:0:0:0:
167,102,330086,1,0,0:0:0:0:
273,279,330352,5,0,0:0:0:0:
79,247,330619,1,0,0:0:0:0:
264,120,330885,1,0,0:0:0:0:
193,354,331151,5,0,0:0:0:0:
374,312,331418,1,0,0:0:0:0:
344,180,331684,1,0,0:0:0:0:
217,235,331951,5,0,0:0:0:0:
258,92,332217,5,0,0:0:0:0:
359,64,332484,1,0,0:0:0:0:
326,154,332750,1,0,0:0:0:0:
245,167,333016,1,0,0:0:0:0:
187,86,333283,1,0,0:0:0:0:
122,170,333549,1,0,0:0:0:0:
205,241,333816,6,0,L|256:280,1,51.999997619629
287,205,334082,6,0,L|278:153,1,51.999997619629
354,280,334349,5,0,0:0:0:0:
404,163,334615,5,0,0:0:0:0:
316,115,334881,1,0,0:0:0:0:
216,264,335148,5,0,0:0:0:0:
133,192,335414,5,0,0:0:0:0:
202,146,335681,1,0,0:0:0:0:
195,223,335947,1,0,0:0:0:0:
153,161,336214,1,0,0:0:0:0:
209,183,336480,1,0,0:0:0:0:
162,207,336747,1,0,0:0:0:0:
188,170,337013,1,0,0:0:0:0:
200,207,337279,1,0,0:0:0:0:
178,193,337546,1,0,0:0:0:0:
256,192,337612,12,0,342275,0:0:0:0:
256,192,342342,5,0,0:0:0:0:
256,192,343141,1,0,0:0:0:0:
256,192,343674,5,0,0:0:0:0:
256,120,343940,1,0,0:0:0:0:
256,120,344473,5,0,0:0:0:0:
256,192,344739,1,0,0:0:0:0:
256,192,345272,6,0,L|256:296,1,103.999995239258
256,296,346072,6,0,L|256:192,1,103.999995239258
208,64,346604,2,0,P|208:128|224:184,1,103.999995239258
288,232,347137,1,0,0:0:0:0:
361,177,347404,1,0,0:0:0:0:
380,114,347670,1,0,0:0:0:0:
212,183,347937,5,0,0:0:0:0:
301,203,348204,1,0,0:0:0:0:
361,177,348470,1,0,0:0:0:0:
208,64,348736,5,0,0:0:0:0:
247,150,349335,5,0,0:0:0:0:
281,179,349601,1,0,0:0:0:0:
224,256,350201,5,0,0:0:0:0:
232,224,350534,1,0,0:0:0:0:
240,208,350867,1,0,0:0:0:0:
256,192,351200,2,0,L|256:136,2,48
256,256,352066,5,0,0:0:0:0:
256,216,352599,1,0,0:0:0:0:
256,192,353398,5,0,0:0:0:0:
256,192,356063,5,0,0:0:0:0:
256,192,356129,12,0,360725,0:0:0:0:
