osu file format v14

[General]
AudioFilename: audio.mp3
AudioLeadIn: 0
PreviewTime: 38062
Countdown: 0
SampleSet: Soft
StackLeniency: 0.4
Mode: 0
LetterboxInBreaks: 0
EpilepsyWarning: 1
WidescreenStoryboard: 1

[Editor]
Bookmarks: 84908,99677
DistanceSpacing: 0.4
BeatDivisor: 4
GridSize: 32
TimelineZoom: 1.4

[Metadata]
Title:Ifuudoudou
TitleUnicode:威風堂々
Artist:Vivid BAD SQUAD x KAITO
ArtistUnicode:Vivid BAD SQUAD × KAITO
Creator:Mocaotic
Version:Normal
Source:プロジェクトセカイ カラフルステージ! feat. 初音ミク
Tags:Aurorance Iceluin Umetora 梅とら pomp and circumstance vocaloid cover HATSUNE MIKU: COLORFUL STAGE! Project Sekai プロセカ Proseka Puroseka Shinonome akito 東雲彰人 Imai Fumiya 今井文也 Aoyagi Toya 伊東健人 Itou Kent Rhythm Game Japanese Pop jpop j-pop electronic
BeatmapID:4275203
BeatmapSetID:2040406

[Difficulty]
HPDrainRate:3
CircleSize:3.4
OverallDifficulty:4
ApproachRate:5
SliderMultiplier:0.999999999999998
SliderTickRate:1

[Events]
//Background and Video events
Video,-850,"videodance.mp4"
0,0,"a.jpg",0,0
//Break Periods
2,62754,68939
//Storyboard Layer 0 (Background)
//Storyboard Layer 1 (Fail)
//Storyboard Layer 2 (Pass)
//Storyboard Layer 3 (Foreground)
//Storyboard Layer 4 (Overlay)
//Storyboard Sound Samples

[TimingPoints]
2063,461.538461538462,4,2,2,35,1,0
7601,-100,4,2,2,25,0,0
9216,461.538461538462,4,2,2,75,1,0
16600,-100,4,2,2,40,0,0
22139,-100,4,2,2,30,0,0
23985,-100,4,2,2,40,0,0
29523,-100,4,2,2,30,0,0
30446,-100,4,2,2,45,0,0
31369,-100,4,2,2,60,0,0
36908,-100,4,2,3,60,0,0
38062,-100,4,2,2,45,0,0
38754,-83.3333333333333,4,2,2,75,0,1
46139,-71.4285714285714,4,2,2,82,0,0
53523,-83.3333333333333,4,2,2,75,0,1
53985,-83.3333333333333,4,2,2,75,0,0
60908,-83.3333333333333,4,2,2,60,0,0
62292,-83.3333333333333,4,2,3,60,0,0
62754,-83.3333333333333,4,2,2,20,0,0
69677,-83.3333333333333,4,2,2,25,0,0
70139,-100,4,2,2,30,0,0
73831,-100,4,2,2,35,0,0
77062,-100,4,2,2,45,0,0
77523,-100,4,2,2,60,0,0
91369,-100,4,2,2,75,0,1
92292,-100,4,2,2,60,0,0
99677,-83.3333333333333,4,2,2,75,0,1
107062,-71.4285714285714,4,2,2,88,0,0
114446,-83.3333333333333,4,2,2,75,0,1
114908,-83.3333333333333,4,2,2,75,0,0
125985,-100,4,2,2,75,0,0
132908,-100,4,2,2,60,0,0
140292,-100,4,2,2,35,0,0

[Colours]
Combo1 : 255,166,255
Combo2 : 255,213,170
Combo3 : 170,215,255

[HitObjects]
256,192,2063,12,2,7601,0:0:0:0:
64,304,9216,5,4,3:2:0:0:
64,304,9446,1,0,3:0:0:0:
64,304,9677,2,2,P|129:322|206:221,3,200,10|10|10|10,0:0|0:0|0:0|0:0,0:1:0:0:
314,231,12908,5,0,3:0:0:0:
314,231,13138,1,0,3:0:0:0:
314,231,13369,2,2,P|362:312|456:303,3,200,10|10|10|10,0:0|0:0|0:0|0:0,0:1:0:0:
511,221,16600,22,0,P|500:158|488:104,1,99.9999999999998,4|2,3:2|3:2,0:0:0:0:
423,49,17523,2,0,P|412:-14|406:-42,2,49.9999999999999,2|2|2,3:2|0:0|3:2,0:0:0:0:
399,93,18216,2,0,P|345:116|286:83,1,99.9999999999998,2|2,0:0|0:0,0:0:0:0:
267,74,18908,1,2,3:2:0:0:
178,119,19369,6,0,P|189:182|195:210,2,49.9999999999999,2|2|2,3:2|0:0|3:2,0:0:0:0:
143,82,20062,2,0,P|95:75|49:105,1,99.9999999999998,2|2,0:0|0:0,0:0:0:0:
20,138,20754,1,2,3:2:0:0:
81,216,21216,2,0,P|73:257|69:292,1,49.9999999999999,2|2,3:2|0:0,0:0:0:0:
32,296,21677,2,0,P|40:337|44:372,1,49.9999999999999,2|2,3:2|0:0,0:0:0:0:
73,384,22139,1,2,3:2:0:0:
73,384,23985,22,0,P|69:359|47:273,1,99.9999999999998,4|2,3:2|3:2,0:0:0:0:
100,199,24908,2,0,P|93:170|82:143,2,49.9999999999999,2|2|2,3:2|0:0|3:2,0:0:0:0:
136,233,25600,2,0,P|187:237|227:205,1,99.9999999999998,2|2,0:0|0:0,0:0:0:0:
252,167,26292,1,2,3:2:0:0:
347,196,26754,6,0,P|355:219|361:243,2,49.9999999999999,2|2|2,3:2|0:0|3:2,0:0:0:0:
360,147,27446,2,0,P|399:118|448:123,1,99.9999999999998,2|2,0:0|0:0,0:0:0:0:
492,147,28139,1,2,3:2:0:0:
511,245,28600,2,0,P|502:268|496:292,1,49.9999999999999,2|2,3:2|0:0,0:0:0:0:
454,319,29062,2,0,P|430:310|406:304,1,49.9999999999999,2|2,3:2|0:0,0:0:0:0:
357,317,29523,21,2,3:2:0:0:
357,317,30446,2,0,B|332:309|332:309|289:346,1,49.9999999999999,2|2,0:1|0:1,0:0:0:0:
283,364,30908,2,0,B|264:379|264:379|239:371,1,49.9999999999999,2|2,0:1|0:1,0:0:0:0:
194,347,31369,5,4,3:2:0:0:
198,352,31600,1,2,0:1:0:0:
106,326,32062,1,2,0:1:0:0:
106,326,32293,1,2,3:1:0:0:
10,296,32754,2,0,P|20:252|27:231,1,49.9999999999999,2|2,3:2|0:0,0:0:0:0:
59,215,33216,22,0,P|103:225|124:232,2,49.9999999999999,2|2|2,3:2|0:0|3:2,0:0:0:0:
40,174,33908,1,2,0:0:0:0:
40,174,34139,2,0,P|15:168|-31:161,2,49.9999999999999,2|2|2,3:2|0:0|3:2,0:0:0:0:
92,90,35062,5,2,3:1:0:0:
92,90,35293,1,2,0:1:0:0:
184,64,35755,1,2,0:1:0:0:
184,64,35986,1,2,3:1:0:0:
280,38,36447,2,0,P|286:62|291:86,1,49.9999999999999,2|2,3:2|0:0,0:0:0:0:
325,123,36907,2,0,P|416:148|491:82,1,200,4|0,3:1|0:0,0:0:0:0:
490,84,38754,22,0,P|478:132|471:169,1,59.9999981689452,6|2,3:2|0:0,0:0:0:0:
435,178,39216,2,0,P|387:166|350:159,1,59.9999981689452,8|2,0:0|0:0,0:0:0:0:
324,178,39677,1,2,3:2:0:0:
250,114,40139,1,8,0:0:0:0:
250,114,40369,1,2,0:0:0:0:
250,114,40600,6,0,P|256:84|264:55,1,59.9999981689452,2|2,3:2|0:0,0:0:0:0:
227,15,41062,2,0,P|197:8|168:0,1,59.9999981689452,8|2,0:0|0:0,0:0:0:0:
116,12,41523,1,2,3:2:0:0:
21,60,41985,1,8,0:0:0:0:
21,60,42215,1,2,0:0:0:0:
21,60,42446,22,0,P|33:108|40:145,1,59.9999981689452,2|2,3:2|0:0,0:0:0:0:
77,151,42908,2,0,P|125:139|162:132,1,59.9999981689452,8|2,0:0|0:0,0:0:0:0:
184,159,43369,1,2,3:2:0:0:
275,102,43831,1,8,0:2:0:0:
275,102,44061,1,2,0:0:0:0:
275,102,44292,6,0,P|268:72|260:43,2,59.9999981689452,2|2|8,3:2|0:0|0:0,0:0:0:0:
327,116,44985,1,2,0:0:0:0:
367,80,45216,1,2,3:2:0:0:
472,134,45677,1,8,0:0:0:0:
472,134,45908,1,2,0:0:0:0:
472,134,46139,6,0,P|454:231|444:306,3,139.999995727539,14|8|8|8,0:0|0:0|0:0|0:0,0:0:0:0:
338,248,47985,2,0,P|348:178|361:110,3,139.999995727539,10|8|8|8,0:0|0:0|0:0|0:0,0:0:0:0:
250,88,49831,2,0,P|237:156|227:226,3,139.999995727539,10|8|8|8,0:0|0:0|0:0|0:0,0:0:0:0:
116,205,51677,2,0,P|126:135|139:67,3,139.999995727539,10|8|8|8,0:0|0:0|0:0|0:0,0:0:0:0:
50,4,53523,6,0,P|-7:55|4:126,1,119.99999633789,4|8,3:2|0:0,0:0:0:0:
30,138,54216,1,2,0:0:0:0:
30,138,54446,2,0,P|17:191|10:234,1,59.9999981689452,2|2,3:2|0:0,0:0:0:0:
43,242,54908,2,0,P|72:248|101:256,1,59.9999981689452,8|2,0:0|0:0,0:0:0:0:
137,296,55369,6,0,P|130:325|122:354,2,59.9999981689452,2|2|8,3:2|0:0|0:0,0:0:0:0:
244,282,56292,2,0,P|250:252|258:223,2,59.9999981689452,2|2|8,3:1|0:1|0:0,0:0:0:0:
264,337,56985,1,2,0:1:0:0:
264,337,57216,22,0,P|333:369|402:332,1,119.99999633789,2|8,3:1|0:0,0:0:0:0:
468,307,58139,2,0,P|478:256|489:225,1,59.9999981689452,2|2,3:2|0:0,0:0:0:0:
446,206,58600,2,0,P|395:196|364:185,1,59.9999981689452,8|2,0:0|0:0,0:0:0:0:
333,196,59062,5,2,3:2:0:0:
287,97,59523,1,10,0:0:0:0:
369,24,59985,1,2,3:2:0:0:
463,77,60446,1,10,0:0:0:0:
440,184,60908,1,2,3:2:0:0:
256,192,61139,12,4,62292,3:1:0:0:
92,192,70139,22,0,P|82:140|65:82,2,99.9999999999998,2|0|0,3:2|3:0|3:0,0:0:0:0:
187,222,71523,1,2,3:2:0:0:
260,154,71985,2,0,P|246:105|237:56,2,99.9999999999998,2|0|0,3:2|3:0|3:0,0:0:0:0:
351,194,73369,1,2,3:2:0:0:
444,229,73831,6,0,P|457:277|466:326,2,99.9999999999998,2|0|0,3:2|3:0|3:0,0:0:0:0:
351,194,75216,1,2,3:2:0:0:
282,266,75677,2,0,P|291:315|304:363,2,99.9999999999998,2|0|0,3:2|3:0|3:0,0:0:0:0:
190,224,77062,2,0,P|158:231|120:238,1,49.9999999999999,10|8,0:0|0:0,0:0:0:0:
92,221,77523,22,0,P|82:171|69:123,1,99.9999999999998,4|8,3:2|0:0,0:0:0:0:
133,47,78446,1,0,3:0:0:0:
133,47,78677,2,0,P|125:11|120:-5,2,49.9999999999999,2|8|2,0:0|0:0|0:0,0:0:0:0:
177,69,79369,6,0,P|243:54|257:53,1,74.9999999999999,2|2,3:2|0:0,0:0:0:0:
326,76,80062,2,0,P|385:64|407:61,1,74.9999999999999,2|2,0:0|0:0,0:0:0:0:
473,90,80754,2,0,P|479:114|484:138,1,49.9999999999999,8|2,0:0|0:0,0:0:0:0:
504,184,81216,22,0,P|490:232|481:281,1,99.9999999999998,2|8,3:2|0:0,0:0:0:0:
393,326,82139,1,0,3:0:0:0:
393,326,82369,2,0,P|386:350|381:374,2,49.9999999999999,2|8|2,0:0|0:0|0:0,0:0:0:0:
354,293,83062,6,0,P|288:278|274:277,1,74.9999999999999,2|2,3:2|0:0,0:0:0:0:
205,300,83755,2,0,P|146:288|124:285,1,74.9999999999999,2|2,0:0|0:0,0:0:0:0:
57,314,84446,1,10,0:0:0:0:
57,314,84677,1,8,0:0:0:0:
57,314,84907,22,0,P|50:338|45:362,2,49.9999999999999,4|2|2,3:2|0:0|3:2,0:0:0:0:
29,271,85600,1,2,0:0:0:0:
82,186,86062,1,2,0:0:0:0:
82,186,86292,2,0,P|112:178|153:173,1,49.9999999999999,2|2,3:2|0:2,0:0:0:0:
168,141,86754,6,0,P|160:111|155:70,2,49.9999999999999,2|2|2,3:2|0:0|3:2,0:0:0:0:
214,160,87446,1,2,0:0:0:0:
198,262,87908,1,2,0:0:0:0:
198,262,88139,1,2,3:2:0:0:
280,318,88600,22,0,P|338:326|371:333,1,74.9999999999999,2|2,3:2|0:0,0:0:0:0:
432,305,89292,1,2,0:0:0:0:
432,305,89523,2,0,P|438:245|446:211,1,74.9999999999999,2|2,3:2|0:0,0:0:0:0:
499,177,90216,1,2,0:0:0:0:
499,177,90446,6,0,P|488:133|481:117,1,49.9999999999999,2|2,3:2|0:0,0:0:0:0:
445,101,90908,2,0,P|420:105|387:115,1,49.9999999999999,2|2,3:2|0:0,0:0:0:0:
353,86,91369,2,0,B|336:57|336:57|348:10,2,66.6666666666665,4|4|0,0:1|0:1|0:0,0:0:0:0:
299,147,92292,22,0,P|250:157|201:170,1,99.9999999999998,4|2,3:2|3:2,0:0:0:0:
160,152,92985,1,2,0:0:0:0:
160,152,93216,2,0,P|149:111|146:91,2,49.9999999999999,2|2|2,3:2|0:0|3:2,0:0:0:0:
150,251,94139,6,0,P|155:276|162:300,1,49.9999999999999,2|2,3:2|0:0,0:0:0:0:
137,343,94600,2,0,P|112:349|88:356,1,49.9999999999999,2|2,3:2|0:0,0:0:0:0:
40,340,95062,1,2,3:2:0:0:
5,246,95523,2,0,P|10:221|17:197,1,49.9999999999999,2|2,3:2|0:0,0:0:0:0:
35,153,95985,1,2,3:2:0:0:
35,153,96216,21,2,3:2:0:0:
121,202,96677,1,2,3:2:0:0:
191,130,97139,1,2,3:2:0:0:
277,179,97600,1,2,3:2:0:0:
345,106,98062,1,2,3:2:0:0:
431,155,98523,1,2,3:2:0:0:
494,78,98985,1,2,3:2:0:0:
512,238,99677,6,0,P|474:245|430:257,1,59.9999981689452,4|2,3:2|0:0,0:0:0:0:
410,283,100139,2,0,P|416:312|422:341,1,59.9999981689452,8|2,0:0|0:0,0:0:0:0:
387,383,100600,1,2,3:2:0:0:
289,365,101062,1,10,0:2:0:0:
289,365,101292,1,2,0:0:0:0:
289,365,101523,22,0,P|282:327|270:283,1,59.9999981689452,2|2,3:2|0:0,0:0:0:0:
229,280,101985,2,0,P|191:287|147:299,1,59.9999981689452,8|2,0:0|0:0,0:0:0:0:
130,328,102446,1,2,3:2:0:0:
51,271,102908,1,8,0:0:0:0:
51,271,103139,1,2,0:0:0:0:
51,271,103369,6,0,P|44:233|32:189,1,59.9999981689452,2|2,3:2|0:0,0:0:0:0:
66,165,103831,2,0,P|95:158|124:152,1,59.9999981689452,8|2,0:0|0:0,0:0:0:0:
160,111,104292,1,2,3:2:0:0:
233,33,104754,1,8,0:2:0:0:
233,33,104985,1,2,0:0:0:0:
233,33,105216,22,0,P|262:26|291:20,2,59.9999981689452,2|2|8,3:2|0:0|0:0,0:0:0:0:
188,2,105908,1,2,0:0:0:0:
139,26,106139,1,2,3:2:0:0:
57,100,106600,1,8,0:0:0:0:
57,100,106831,1,2,0:0:0:0:
57,100,107062,22,0,P|75:197|85:272,3,139.999995727539,14|8|8|8,0:0|0:0|0:0|0:0,0:0:0:0:
191,214,108908,2,0,P|181:144|168:76,3,139.999995727539,10|8|8|8,0:0|0:0|0:0|0:0,0:0:0:0:
279,54,110754,2,0,P|292:122|302:192,3,139.999995727539,10|8|8|8,0:0|0:0|0:0|0:0,0:0:0:0:
413,171,112600,2,0,P|403:101|390:33,3,139.999995727539,10|8|8|8,0:0|0:0|0:0|0:0,0:0:0:0:
493,1,114446,22,0,P|534:56|515:120,1,119.99999633789,4|8,3:2|0:0,0:0:0:0:
498,151,115139,1,2,0:0:0:0:
498,151,115369,2,0,P|511:207|514:240,1,59.9999981689452,2|2,3:2|0:0,0:0:0:0:
479,253,115831,2,0,P|449:258|420:266,1,59.9999981689452,8|2,0:0|0:0,0:0:0:0:
378,299,116292,22,0,P|383:328|391:357,2,59.9999981689452,2|2|8,3:2|0:0|0:0,0:0:0:0:
279,253,117216,2,0,P|273:223|265:194,2,59.9999981689452,2|2|8,3:1|0:1|0:0,0:0:0:0:
252,301,117908,1,2,0:1:0:0:
252,301,118139,6,0,P|195:336|128:310,1,119.99999633789,2|8,3:1|0:0,0:0:0:0:
48,277,119062,2,0,P|42:247|34:218,1,59.9999981689452,2|2,3:2|0:0,0:0:0:0:
59,170,119523,2,0,P|88:164|117:156,1,59.9999981689452,8|2,0:0|0:0,0:0:0:0:
169,171,119985,2,0,P|221:136|303:160,1,119.99999633789,2|10,3:2|0:0,0:0:0:0:
371,191,120908,2,0,P|429:195|477:161,1,119.99999633789,2|10,3:2|0:0,0:0:0:0:
448,56,121831,22,0,P|389:51|341:85,1,119.99999633789,2|8,3:2|0:0,0:0:0:0:
303,123,122523,1,2,0:0:0:0:
303,123,122754,2,0,P|250:113|222:112,1,59.9999981689452,2|2,3:2|0:0,0:0:0:0:
201,78,123216,2,0,P|148:68|120:67,1,59.9999981689452,8|2,0:0|0:0,0:0:0:0:
92,45,123677,5,2,3:2:0:0:
17,123,124139,1,10,0:0:0:0:
68,218,124600,1,2,3:2:0:0:
174,199,125062,1,10,0:2:0:0:
189,92,125523,21,4,3:2:0:0:
189,92,125754,1,0,3:0:0:0:
189,92,125985,2,2,P|263:71|370:157,3,200,10|10|10|10,0:0|0:0|0:0|0:0,0:1:0:0:
363,241,129216,5,0,3:0:0:0:
363,241,129446,1,0,3:0:0:0:
363,241,129677,2,2,P|286:300|191:282,3,200,10|10|10|10,0:0|0:0|0:0|0:0,0:1:0:0:
108,228,132908,22,0,P|41:232|9:263,2,99.9999999999998,6|8|0,3:2|0:0|3:0,0:0:0:0:
192,283,134292,1,8,0:0:0:0:
271,343,134754,2,0,P|337:338|369:307,2,99.9999999999998,0|8|0,3:0|0:0|3:0,0:0:0:0:
192,283,136139,1,8,0:0:0:0:
244,198,136600,2,0,P|285:171|334:173,2,99.9999999999998,0|8|0,3:0|0:0|3:0,0:0:0:0:
192,283,137985,1,8,0:0:0:0:
126,358,138446,2,0,P|84:384|35:382,2,99.9999999999998,0|8|0,3:0|0:0|3:0,0:0:0:0:
192,283,139831,1,8,0:0:0:0:
108,228,140292,1,2,0:0:0:0:
