osu file format v14

[General]
AudioFilename: audio.mp3
AudioLeadIn: 0
PreviewTime: 38062
Countdown: 0
SampleSet: Soft
StackLeniency: 0.4
Mode: 0
LetterboxInBreaks: 0
EpilepsyWarning: 1
WidescreenStoryboard: 1

[Editor]
Bookmarks: 84908,99677
DistanceSpacing: 0.4
BeatDivisor: 4
GridSize: 8
TimelineZoom: 1.5

[Metadata]
Title:Ifuudoudou
TitleUnicode:威風堂々
Artist:Vivid BAD SQUAD x KAITO
ArtistUnicode:Vivid BAD SQUAD × KAITO
Creator:Mocaotic
Version:Aurorance's Expert
Source:プロジェクトセカイ カラフルステージ! feat. 初音ミク
Tags:Aurorance Iceluin Umetora 梅とら pomp and circumstance vocaloid cover HATSUNE MIKU: COLORFUL STAGE! Project Sekai プロセカ Proseka Puroseka Shinonome akito 東雲彰人 Imai Fumiya 今井文也 Aoyagi Toya 伊東健人 Itou Kent Rhythm Game Japanese Pop jpop j-pop electronic
BeatmapID:4458896
BeatmapSetID:2040406

[Difficulty]
HPDrainRate:5
CircleSize:4
OverallDifficulty:8.3
ApproachRate:9.2
SliderMultiplier:2.5
SliderTickRate:1

[Events]
//Background and Video events
0,0,"a.jpg",0,0
Video,-850,"videodance.mp4"
//Break Periods
2,62754,76953
//Storyboard Layer 0 (Background)
//Storyboard Layer 1 (Fail)
//Storyboard Layer 2 (Pass)
//Storyboard Layer 3 (Foreground)
//Storyboard Layer 4 (Overlay)
//Storyboard Sound Samples

[TimingPoints]
2063,461.538461538462,4,2,2,35,1,0
7601,-100,4,2,2,25,0,0
9216,461.538461538462,4,2,2,75,1,0
9216,-83.3333333333333,4,2,2,75,0,0
9677,-66.6666666666667,4,2,2,75,0,0
10600,-62.5,4,2,2,75,0,0
11523,-58.8235294117647,4,2,2,75,0,0
12446,-55.5555555555556,4,2,2,75,0,0
13369,-66.6666666666667,4,2,2,75,0,0
14292,-62.5,4,2,2,75,0,0
15216,-58.8235294117647,4,2,2,75,0,0
16139,-55.5555555555556,4,2,2,75,0,0
16600,-55.5555555555556,4,2,2,40,0,0
16831,-100,4,2,2,40,0,0
22139,-100,4,2,2,30,0,0
23062,-400,4,2,2,30,0,0
23985,-400,4,2,2,40,0,0
24908,-100,4,2,2,40,0,0
29523,-100,4,2,2,30,0,0
30446,-100,4,2,2,45,0,0
31369,-66.6666666666667,4,2,2,60,0,0
33216,-76.9230769230769,4,2,2,60,0,0
35062,-66.6666666666667,4,2,2,60,0,0
36908,-769.230769230769,4,2,3,60,0,0
38062,-769.230769230769,4,2,2,45,0,0
38754,-58.8235294117647,4,2,2,75,0,1
46023,-58.8235294117647,4,2,2,75,0,0
46139,-40,4,2,2,82,0,1
46254,-40,4,2,2,82,0,0
46600,-40,4,2,2,82,0,1
46716,-40,4,2,2,82,0,0
47062,-40,4,2,2,82,0,1
47177,-40,4,2,2,82,0,0
47523,-40,4,2,2,82,0,1
47639,-40,4,2,2,82,0,0
47985,-40,4,2,2,82,0,1
48100,-40,4,2,2,82,0,0
48446,-40,4,2,2,82,0,1
48562,-40,4,2,2,82,0,0
48908,-40,4,2,2,82,0,1
49023,-40,4,2,2,82,0,0
49369,-40,4,2,2,82,0,1
49485,-40,4,2,2,82,0,0
49831,-40,4,2,2,82,0,1
49946,-40,4,2,2,82,0,0
50292,-40,4,2,2,82,0,1
50408,-40,4,2,2,82,0,0
50754,-40,4,2,2,82,0,1
50869,-40,4,2,2,82,0,0
51216,-40,4,2,2,82,0,1
51331,-40,4,2,2,82,0,0
51677,-40,4,2,2,82,0,1
51792,-40,4,2,2,82,0,0
52139,-40,4,2,2,82,0,1
52254,-40,4,2,2,82,0,0
52600,-40,4,2,2,82,0,1
52716,-40,4,2,2,82,0,0
53062,-40,4,2,2,82,0,1
53177,-40,4,2,2,82,0,0
53523,-50,4,2,2,75,0,1
53985,-66.6666666666667,4,2,2,75,0,0
56235,-66.6666666666667,4,2,2,5,0,0
56292,-66.6666666666667,4,2,2,75,0,0
57389,-66.6666666666667,4,2,2,5,0,0
57446,-66.6666666666667,4,2,2,75,0,0
60908,-66.6666666666667,4,2,2,60,0,0
62292,-66.6666666666667,4,2,3,60,0,0
62754,-66.6666666666667,4,2,2,20,0,0
69677,-66.6666666666667,4,2,2,25,0,0
70139,-66.6666666666667,4,2,2,30,0,0
73831,-66.6666666666667,4,2,2,35,0,0
77062,-66.6666666666667,4,2,2,45,0,0
77523,-100,4,2,2,60,0,0
84908,-83.3333333333333,4,2,2,60,0,0
88542,-83.3333333333333,4,2,2,5,0,0
88600,-83.3333333333333,4,2,2,60,0,0
91369,-50,4,2,2,75,0,1
91985,-50,4,2,2,75,0,0
92292,-50,4,2,2,60,0,0
92754,-83.3333333333333,4,2,2,60,0,0
96331,-83.3333333333333,4,2,2,5,0,0
96677,-83.3333333333333,4,2,2,60,0,0
96792,-83.3333333333333,4,2,2,5,0,0
97139,-83.3333333333333,4,2,2,60,0,0
97254,-83.3333333333333,4,2,2,5,0,0
97600,-83.3333333333333,4,2,2,60,0,0
97716,-83.3333333333333,4,2,2,5,0,0
98062,-83.3333333333333,4,2,2,60,0,0
98177,-83.3333333333333,4,2,2,5,0,0
98523,-83.3333333333333,4,2,2,60,0,0
98639,-83.3333333333333,4,2,2,5,0,0
98985,-83.3333333333333,4,2,2,60,0,0
99677,-58.8235294117647,4,2,2,75,0,1
106946,-58.8235294117647,4,2,2,75,0,0
107062,-46.5116279069767,4,2,2,88,0,1
107177,-46.5116279069767,4,2,2,88,0,0
107523,-46.5116279069767,4,2,2,88,0,1
107639,-46.5116279069767,4,2,2,88,0,0
107985,-46.5116279069767,4,2,2,88,0,1
108100,-46.5116279069767,4,2,2,88,0,0
108446,-46.5116279069767,4,2,2,88,0,1
108562,-46.5116279069767,4,2,2,88,0,0
108908,-46.5116279069767,4,2,2,88,0,1
109023,-46.5116279069767,4,2,2,88,0,0
109369,-46.5116279069767,4,2,2,88,0,1
109485,-46.5116279069767,4,2,2,88,0,0
109831,-46.5116279069767,4,2,2,88,0,1
109946,-46.5116279069767,4,2,2,88,0,0
110292,-46.5116279069767,4,2,2,88,0,1
110408,-46.5116279069767,4,2,2,88,0,0
110754,-46.5116279069767,4,2,2,88,0,1
110869,-46.5116279069767,4,2,2,88,0,0
111216,-46.5116279069767,4,2,2,88,0,1
111331,-46.5116279069767,4,2,2,88,0,0
111677,-46.5116279069767,4,2,2,88,0,1
111792,-46.5116279069767,4,2,2,88,0,0
112139,-46.5116279069767,4,2,2,88,0,1
112254,-46.5116279069767,4,2,2,88,0,0
112600,-46.5116279069767,4,2,2,88,0,1
112716,-46.5116279069767,4,2,2,88,0,0
113062,-46.5116279069767,4,2,2,88,0,1
113177,-46.5116279069767,4,2,2,88,0,0
113523,-46.5116279069767,4,2,2,88,0,1
113639,-46.5116279069767,4,2,2,88,0,0
113985,-46.5116279069767,4,2,2,88,0,1
114100,-46.5116279069767,4,2,2,88,0,0
114446,-50,4,2,2,75,0,1
114908,-66.6666666666667,4,2,2,75,0,0
117158,-66.6666666666667,4,2,2,5,0,0
117216,-66.6666666666667,4,2,2,75,0,0
118312,-66.6666666666667,4,2,2,5,0,0
118369,-66.6666666666667,4,2,2,75,0,0
125523,-83.3333333333333,4,2,2,75,0,0
125985,-66.6666666666667,4,2,2,75,0,0
126908,-62.5,4,2,2,75,0,0
127831,-58.8235294117647,4,2,2,75,0,0
128754,-55.5555555555556,4,2,2,75,0,0
129677,-66.6666666666667,4,2,2,75,0,0
130600,-62.5,4,2,2,75,0,0
131523,-58.8235294117647,4,2,2,75,0,0
132446,-55.5555555555556,4,2,2,75,0,0
132908,-55.5555555555556,4,2,2,60,0,0
133139,-66.6666666666667,4,2,2,60,0,0
140292,-66.6666666666667,4,2,2,35,0,0

[Colours]
Combo1 : 209,125,255
Combo2 : 255,213,170
Combo3 : 170,215,255
Combo4 : 255,166,255

[HitObjects]
60,348,2063,5,2,0:0:0:0:
42,269,2178,1,2,0:0:0:0:
147,335,2524,5,2,0:0:0:0:
68,353,2639,1,2,0:0:0:0:
134,248,2986,37,2,0:0:0:0:
152,327,3101,1,2,0:0:0:0:
47,261,3447,5,2,0:0:0:0:
126,243,3563,1,2,0:0:0:0:
219,222,3909,37,2,0:0:0:0:
298,240,4024,1,2,0:0:0:0:
232,135,4370,5,2,0:0:0:0:
214,214,4486,1,2,0:0:0:0:
319,148,4832,37,2,0:0:0:0:
240,130,4947,1,2,0:0:0:0:
306,235,5293,5,2,0:0:0:0:
324,156,5409,1,2,0:0:0:0:
401,105,5755,37,2,0:0:0:0:
383,26,5870,1,2,0:0:0:0:
488,92,6216,5,2,0:0:0:0:
409,110,6332,1,2,0:0:0:0:
475,5,6678,37,2,0:0:0:0:
493,84,6793,1,2,0:0:0:0:
388,18,7139,5,2,0:0:0:0:
467,0,7255,1,2,0:0:0:0:
256,192,7601,37,2,0:0:0:0:
256,192,7716,1,0,0:0:0:0:
256,192,8063,5,2,0:0:0:0:
256,192,8178,1,0,0:0:0:0:
256,192,8524,37,2,0:0:0:0:
256,192,8639,1,0,0:0:0:0:
256,192,8986,5,2,0:0:0:0:
256,192,9101,1,0,0:0:0:0:
184,128,9216,38,0,P|160:156|161:193,1,75,4|0,3:2|0:0,0:0:0:0:
71,222,9446,2,0,P|84:256|116:274,1,75,0|0,3:0|0:0,0:0:0:0:
322,365,9677,6,0,P|275:231|232:367,1,375,10|0,0:0|3:0,0:0:0:0:
276,307,10369,37,0,0:0:0:0:
276,307,10600,2,0,P|293:158|358:298,1,400,10|0,0:0|3:0,0:0:0:0:
310,235,11292,5,0,0:0:0:0:
310,235,11523,2,0,P|299:76|206:213,1,425,10|0,0:0|3:0,0:0:0:0:
272,158,12216,37,0,0:0:0:0:
272,158,12446,2,0,P|395:29|407:217,1,450,10|0,0:0|3:0,0:0:0:0:
256,352,13139,5,0,0:0:0:0:
256,352,13369,2,0,B|98:379|98:379|27:392|10:297|81:285|81:285|136:275,1,375,10|0,0:0|3:0,0:0:0:0:
256,264,14062,37,0,0:0:0:0:
256,264,14292,2,0,B|423:293|423:293|498:306|516:206|441:193|441:193|382:182,1,400,10|0,0:0|3:0,0:0:0:0:
256,176,14985,5,0,0:0:0:0:
256,176,15216,2,0,B|78:207|78:207|-1:221|-20:114|59:100|59:100|121:89,1,425,10|0,0:0|3:0,0:0:0:0:
256,88,15908,37,0,0:0:0:0:
256,88,16139,2,0,B|444:120|444:120|527:135|548:22|464:7|464:7|398:-4,1,450,10|4,0:0|3:2,0:0:0:0:
256,0,16831,6,0,L|184:16,1,62.5,2|2,0:0|0:0,0:0:0:0:
100,0,17062,2,0,L|116:72,1,62.5,2|2,3:2|0:0,0:0:0:0:
192,101,17292,1,2,0:0:0:0:
192,101,17523,38,0,L|180:225,1,125,2|2,3:2|0:0,0:0:0:0:
85,384,17985,2,0,L|97:260,1,125,2|2,3:2|0:0,0:0:0:0:
192,101,18446,1,0,3:0:0:0:
192,101,18677,6,0,L|265:92,1,62.5,2|2,0:0|0:0,0:0:0:0:
339,50,18908,2,0,L|347:123,1,62.5,2|2,3:2|0:0,0:0:0:0:
390,197,19139,2,0,L|316:205,1,62.5,2|0,0:0|0:0,0:0:0:0:
235,186,19369,38,0,L|249:313,1,125,2|2,3:2|0:0,0:0:0:0:
468,384,19831,2,0,L|453:256,1,125,2|2,3:2|0:0,0:0:0:0:
235,186,20292,1,0,3:0:0:0:
235,186,20523,6,0,L|161:194,1,62.5,2|2,0:0|0:0,0:0:0:0:
88,237,20754,2,0,L|79:163,1,62.5,2|2,3:2|0:0,0:0:0:0:
37,90,20985,2,0,L|110:81,1,62.5,2|0,0:0|0:0,0:0:0:0:
184,39,21216,37,2,3:2:0:0:
37,90,21446,1,2,0:0:0:0:
88,237,21677,1,2,3:2:0:0:
235,186,21908,1,2,0:0:0:0:
148,118,22139,6,0,L|162:241,1,125,2|2,3:2|0:0,0:0:0:0:
318,224,22600,2,0,L|303:100,1,125,2|2,0:0|0:0,0:0:0:0:
226,124,23062,38,0,L|234:186,1,62.5,2|2,0:0|0:0,0:0:0:0:
500,6,23985,1,4,3:2:0:0:
284,87,24216,5,2,0:0:0:0:
299,83,24331,1,2,0:0:0:0:
344,23,24446,37,2,3:2:0:0:
354,33,24562,1,2,0:0:0:0:
429,42,24677,5,2,0:0:0:0:
425,56,24792,1,2,0:0:0:0:
370,113,24908,38,0,L|390:246,1,125,2|2,3:2|0:0,0:0:0:0:
244,372,25369,2,0,L|224:239,1,125,2|2,3:2|0:0,0:0:0:0:
65,141,25831,1,0,3:0:0:0:
65,141,26062,5,2,0:0:0:0:
300,3,26292,37,2,3:2:0:0:
286,0,26408,1,2,0:0:0:0:
222,47,26523,2,0,L|232:113,1,62.5,2|2,0:0|0:0,0:0:0:0:
332,251,26754,6,0,L|312:118,1,125,2|2,3:2|0:0,0:0:0:0:
131,0,27216,2,0,L|151:133,1,125,2|2,3:2|0:0,0:0:0:0:
182,329,27677,1,0,3:0:0:0:
182,329,27908,37,2,0:0:0:0:
0,219,28139,5,2,3:2:0:0:
14,222,28254,1,2,0:0:0:0:
65,279,28369,2,0,L|127:267,1,62.5,2|2,0:0|0:0,0:0:0:0:
249,125,28600,37,2,3:2:0:0:
182,329,28831,1,2,0:0:0:0:
113,190,29062,1,2,3:2:0:0:
315,260,29292,1,2,0:0:0:0:
249,125,29523,6,0,L|228:248,1,125,2|2,3:2|0:0,0:0:0:0:
383,384,29985,2,0,L|404:261,1,125,2|2,0:0|0:0,0:0:0:0:
483,15,30446,37,2,0:1:0:0:
453,24,30562,1,2,0:1:0:0:
431,46,30677,1,2,0:1:0:0:
422,76,30792,1,2,0:1:0:0:
508,131,30908,5,2,0:1:0:0:
512,116,31023,1,2,0:1:0:0:
508,100,31139,1,2,0:1:0:0:
497,89,31254,1,2,0:1:0:0:
436,156,31369,38,0,P|394:170|367:135,1,93.75,4|0,3:2|0:0,0:0:0:0:
221,122,31600,2,0,P|256:42|342:57,1,187.5,2|0,0:1|3:0,0:0:0:0:
6,156,32062,6,0,P|48:170|75:135,1,93.75,2|0,0:1|0:0,0:0:0:0:
221,122,32292,2,0,P|186:42|100:57,1,187.5,2|2,3:1|0:0,0:0:0:0:
100,237,32754,37,2,3:2:0:0:
100,237,32985,1,2,0:0:0:0:
179,359,33216,6,0,L|171:271,1,81.25,2|0,3:2|0:0,0:0:0:0:
257,351,33446,2,0,L|249:263,1,81.25,2|0,0:0|0:0,0:0:0:0:
380,218,33677,38,0,L|387:130,1,81.25,2|0,3:2|0:0,0:0:0:0:
302,210,33908,2,0,L|309:122,1,81.25,2|0,0:0|0:0,0:0:0:0:
161,100,34139,6,0,L|153:12,1,81.25,2|0,3:2|0:0,0:0:0:0:
239,92,34369,2,0,L|231:4,1,81.25,2|0,0:0|0:0,0:0:0:0:
72,125,34600,2,0,P|147:135|166:209,1,162.5,2|0,3:2|0:0,0:0:0:0:
56,292,34946,37,0,0:0:0:0:
56,292,35062,2,0,P|94:313|127:283,1,93.75,2|0,3:1|0:0,0:0:0:0:
273,296,35292,2,0,P|252:211|165:210,1,187.5,2|0,0:1|3:0,0:0:0:0:
487,334,35754,6,0,P|445:347|419:311,1,93.75,2|0,0:1|0:0,0:0:0:0:
273,296,35985,2,0,P|309:216|395:232,1,187.5,2|2,3:1|0:0,0:0:0:0:
251,64,36446,37,2,3:2:0:0:
251,64,36677,1,2,0:0:0:0:
251,64,36908,2,0,L|257:-2,1,65,4|0,3:1|0:0,0:0:0:0:
29,8,38062,5,2,0:0:0:0:
29,83,38177,1,2,0:0:0:0:
94,45,38292,1,2,0:0:0:0:
93,38,38523,37,2,0:0:0:0:
35,87,38639,1,2,0:0:0:0:
77,150,38754,6,0,L|184:174,1,106.25,6|0,3:2|0:0,0:0:0:0:
332,211,38985,2,0,L|439:235,1,106.25,2|0,0:0|0:0,0:0:0:0:
214,371,39216,38,0,L|238:264,1,106.25,8|0,0:0|0:0,0:0:0:0:
275,116,39446,2,0,L|299:9,1,106.25,2|0,0:0|0:0,0:0:0:0:
256,192,39677,5,2,3:2:0:0:
256,192,39908,37,2,0:0:0:0:
286,265,40023,1,2,0:0:0:0:
196,253,40139,5,8,0:0:0:0:
244,190,40254,1,2,0:0:0:0:
279,274,40369,37,2,0:0:0:0:
201,264,40485,1,2,0:0:0:0:
171,183,40600,6,0,L|154:78,1,106.25,2|0,3:2|0:0,0:0:0:0:
341,183,40831,2,0,L|357:78,1,106.25,2|0,0:0|0:0,0:0:0:0:
83,238,41062,38,0,L|66:133,1,106.25,8|0,0:0|0:0,0:0:0:0:
429,238,41292,2,0,L|445:133,1,106.25,2|0,0:0|0:0,0:0:0:0:
256,192,41523,5,2,3:2:0:0:
256,192,41754,1,2,0:0:0:0:
256,192,41985,37,8,0:0:0:0:
256,112,42100,1,2,0:0:0:0:
256,32,42216,1,2,0:0:0:0:
333,181,42446,6,0,L|439:172,1,106.25,2|0,3:2|0:0,0:0:0:0:
177,201,42677,2,0,L|68:211,1,106.25,2|0,0:0|0:0,0:0:0:0:
236,7,42908,38,0,L|246:113,1,106.25,8|0,0:0|0:0,0:0:0:0:
265,268,43139,2,0,L|276:374,1,106.25,2|0,0:0|0:0,0:0:0:0:
256,192,43369,5,2,3:2:0:0:
256,192,43600,37,2,0:0:0:0:
287,119,43716,1,2,0:0:0:0:
197,129,43831,5,8,0:2:0:0:
245,193,43946,1,2,0:0:0:0:
281,110,44062,37,2,0:0:0:0:
202,120,44177,1,2,0:0:0:0:
171,193,44292,6,0,L|163:305,1,106.25,2|0,3:2|0:0,0:0:0:0:
341,193,44523,2,0,L|349:305,1,106.25,2|0,0:0|0:0,0:0:0:0:
54,100,44754,38,0,L|46:212,1,106.25,8|0,0:0|0:0,0:0:0:0:
458,100,44985,2,0,L|466:212,1,106.25,2|0,0:0|0:0,0:0:0:0:
256,0,45216,5,2,3:2:0:0:
256,0,45446,37,2,0:0:0:0:
242,7,45562,1,2,0:0:0:0:
230,92,45677,5,8,0:0:0:0:
215,86,45792,1,2,0:0:0:0:
137,116,45908,37,2,0:0:0:0:
134,100,46023,1,2,0:0:0:0:
113,24,46139,22,0,P|111:180|87:334,1,312.5,14|0,0:0|0:0,0:0:0:0:
86,334,46600,2,0,P|242:336|396:360,1,312.5,8|0,0:0|0:0,0:0:0:0:
396,360,47062,2,0,P|398:204|422:50,1,312.5,8|0,0:0|0:0,0:0:0:0:
422,49,47523,2,0,P|266:47|112:23,1,312.5,8|0,0:0|0:0,0:0:0:0:
111,22,47985,6,0,P|265:46|421:48,1,312.5,10|0,0:0|0:0,0:0:0:0:
420,47,48446,2,0,P|396:201|394:358,1,312.5,8|0,0:0|0:0,0:0:0:0:
394,358,48908,2,0,P|240:334|84:332,1,312.5,8|0,0:0|0:0,0:0:0:0:
84,332,49369,2,0,P|108:177|110:21,1,312.5,8|0,0:0|0:0,0:0:0:0:
110,21,49831,38,0,P|108:177|84:332,1,312.5,10|0,0:0|0:0,0:0:0:0:
83,332,50292,2,0,P|239:333|394:358,1,312.5,8|0,0:0|0:0,0:0:0:0:
393,357,50754,2,0,P|395:201|420:47,1,312.5,8|0,0:0|0:0,0:0:0:0:
421,47,51216,2,0,P|265:46|111:22,1,312.5,8|0,0:0|0:0,0:0:0:0:
110,21,51677,6,0,P|264:45|421:48,1,312.5,10|0,0:0|0:0,0:0:0:0:
420,47,52139,2,0,P|396:201|394:358,1,312.5,8|0,0:0|0:0,0:0:0:0:
394,358,52600,2,0,P|240:334|84:332,1,312.5,8|0,0:0|0:0,0:0:0:0:
84,332,53062,2,0,P|108:178|111:22,1,312.5,8|0,0:0|0:0,0:0:0:0:
110,21,53523,6,0,B|134:26|146:48|146:48|133:108|133:108|143:131|164:136|164:136|314:121|314:121|277:111|256:78,1,375,4|0,3:2|0:0,0:0:0:0:
334,37,53985,6,0,P|379:27|418:50,1,93.75,8|0,0:0|0:0,0:0:0:0:
501,21,54216,2,0,P|510:66|487:105,1,93.75,2|0,0:0|0:0,0:0:0:0:
374,210,54446,2,0,L|363:117,1,93.75,2|0,3:2|0:0,0:0:0:0:
288,220,54677,2,0,L|277:127,1,93.75,2|0,0:0|0:0,0:0:0:0:
492,285,54908,38,0,B|411:250|400:361|321:325,1,187.5,8|2,0:0|0:0,0:0:0:0:
114,187,55369,6,0,P|159:178|199:199,1,93.75,2|0,3:2|0:0,0:0:0:0:
172,353,55600,2,0,P|141:316|139:270,1,93.75,2|0,0:0|0:0,0:0:0:0:
288,220,55831,2,0,P|271:262|232:288,1,93.75,8|0,0:0|0:0,0:0:0:0:
365,384,56062,2,0,P|368:318|376:242,1,140.625,2|0,0:1|0:0,0:0:0:0:
377,234,56292,38,0,P|420:261|460:255,1,93.75,2|0,3:1|0:0,0:0:0:0:
481,165,56523,2,0,P|438:138|398:144,1,93.75,2|0,0:1|0:0,0:0:0:0:
229,182,56754,2,0,P|278:192|314:173,1,93.75,8|0,0:0|0:0,0:0:0:0:
302,81,56985,2,0,P|252:70|216:89,1,93.75,2|0,0:1|0:0,0:0:0:0:
149,234,57216,6,0,L|2:221,1,140.625,2|0,3:1|0:0,0:0:0:0:
9,212,57446,2,0,L|113:221,1,93.75,2|0,0:0|0:0,0:0:0:0:
76,38,57677,2,0,L|67:142,1,93.75,8|0,0:0|0:0,0:0:0:0:
250,105,57908,2,0,L|146:96,1,93.75,2|0,0:0|0:0,0:0:0:0:
234,240,58139,38,0,P|273:231|292:184,1,93.75,2|0,3:2|0:0,0:0:0:0:
381,204,58369,2,0,P|392:165|361:125,1,93.75,2|0,0:0|0:0,0:0:0:0:
423,58,58600,2,0,P|395:28|345:35,1,93.75,8|0,0:0|0:0,0:0:0:0:
277,93,58831,2,0,P|233:107|192:89,1,93.75,2|0,0:0|0:0,0:0:0:0:
56,0,59062,6,0,B|18:30|18:30|44:166,1,187.5,2|0,3:2|0:0,0:0:0:0:
44,166,59408,1,0,0:0:0:0:
0,241,59523,2,0,B|30:279|30:279|166:253,1,187.5,10|0,0:0|0:0,0:0:0:0:
166,252,59869,1,0,0:0:0:0:
241,297,59985,2,0,B|279:267|279:267|253:131,1,187.5,2|0,3:2|0:0,0:0:0:0:
252,130,60331,1,0,0:0:0:0:
297,56,60446,2,0,B|267:18|267:18|131:44,1,187.5,10|0,0:0|0:0,0:0:0:0:
3,242,60908,37,2,3:2:0:0:
23,253,61023,1,0,3:0:0:0:
45,258,61139,1,0,3:0:0:0:
69,257,61254,1,0,3:0:0:0:
91,248,61369,5,0,3:0:0:0:
132,227,61485,1,0,3:0:0:0:
178,228,61600,1,0,3:0:0:0:
219,251,61716,1,0,3:0:0:0:
244,289,61831,37,0,3:0:0:0:
297,336,61946,1,0,3:0:0:0:
369,355,62062,1,0,3:0:0:0:
442,337,62177,1,0,3:0:0:0:
499,278,62292,5,4,3:1:0:0:
399,291,77523,38,0,P|339:281|311:227,1,125,4|0,3:2|0:0,0:0:0:0:
495,239,77985,2,0,P|483:313|475:364,2,125,8|0|0,0:0|0:0|3:0,0:0:0:0:
388,19,78677,6,0,L|399:82,1,62.5,2|0,0:0|0:0,0:0:0:0:
252,80,78908,2,0,L|315:68,1,62.5,8|0,0:0|0:0,0:0:0:0:
313,216,79139,2,0,L|301:152,1,62.5,2|0,0:0|0:0,0:0:0:0:
479,186,79369,38,0,P|466:259|459:316,1,125,2|0,3:2|0:0,0:0:0:0:
393,364,79716,1,2,0:0:0:0:
329,303,79831,1,8,0:0:0:0:
279,122,80062,6,0,P|266:195|259:252,1,125,2|0,0:0|3:0,0:0:0:0:
193,300,80408,1,2,0:0:0:0:
129,239,80523,1,0,0:0:0:0:
224,51,80754,38,0,P|196:37|165:40,1,62.5,8|0,0:0|0:0,0:0:0:0:
38,0,80985,2,0,P|12:17|0:45,1,62.5,2|0,0:0|0:0,0:0:0:0:
109,196,81216,6,0,P|99:134|85:73,1,125,2|0,3:2|0:0,0:0:0:0:
7,365,81677,2,0,P|16:303|30:242,2,125,8|0|0,0:0|0:0|3:0,0:0:0:0:
186,252,82369,38,0,L|244:230,1,62.5,2|0,0:0|0:0,0:0:0:0:
105,285,82600,2,0,L|93:346,1,62.5,8|0,0:0|0:0,0:0:0:0:
117,197,82831,2,0,L|69:156,1,62.5,2|0,0:0|0:0,0:0:0:0:
184,343,83062,6,0,P|256:328|313:320,1,125,2|0,3:2|0:0,0:0:0:0:
359,251,83408,1,2,0:0:0:0:
296,189,83523,1,8,0:0:0:0:
86,195,83754,38,0,P|158:180|215:172,1,125,2|0,0:0|3:0,0:0:0:0:
261,104,84100,1,2,0:0:0:0:
198,41,84216,1,0,0:0:0:0:
414,0,84446,5,10,0:0:0:0:
359,51,84562,1,8,0:0:0:0:
369,124,84677,1,8,0:0:0:0:
436,155,84792,1,8,0:0:0:0:
455,227,84908,38,0,L|443:307,1,75,4|0,3:2|0:0,0:0:0:0:
369,384,85139,2,0,L|357:304,1,75,2|0,0:0|0:0,0:0:0:0:
294,193,85369,2,0,L|282:273,1,75,2|0,3:2|0:0,0:0:0:0:
107,364,85600,2,0,P|176:348|197:280,1,150,2|0,0:0|3:0,0:0:0:0:
196,278,86062,6,0,L|122:266,1,75,2|0,0:0|0:0,0:0:0:0:
0,183,86292,2,0,L|74:195,1,75,2|0,3:2|0:0,0:0:0:0:
122,265,86523,1,2,0:2:0:0:
188,101,86754,38,0,L|178:25,1,75,2|0,3:2|0:0,0:0:0:0:
269,149,86985,2,0,L|208:195,1,75,2|0,0:0|0:0,0:0:0:0:
271,55,87216,2,0,L|341:84,1,75,2|0,3:2|0:0,0:0:0:0:
509,86,87446,2,0,P|437:97|409:163,1,150,2|0,0:0|3:0,0:0:0:0:
408,162,87908,6,0,P|435:180|475:176,1,75,2|0,0:0|0:0,0:0:0:0:
271,55,88139,2,0,P|244:37|204:41,1,75,2|0,3:2|0:0,0:0:0:0:
356,25,88369,2,0,P|343:91|335:140,1,112.5,2|0,0:0|0:0,0:0:0:0:
330,143,88600,38,0,P|277:184|197:168,1,150,2|0,3:2|0:0,0:0:0:0:
140,104,88946,1,2,0:0:0:0:
140,104,89062,1,0,3:0:0:0:
6,219,89292,6,0,L|-1:295,1,75,2|0,0:0|0:0,0:0:0:0:
43,368,89523,2,0,P|109:372|167:314,1,150,2|0,3:2|0:0,0:0:0:0:
195,237,89869,1,2,0:0:0:0:
195,237,89985,1,0,3:0:0:0:
360,371,90216,37,2,0:0:0:0:
374,368,90331,1,0,0:0:0:0:
431,314,90446,2,0,L|507:326,1,75,2|0,3:2|0:0,0:0:0:0:
404,180,90677,2,0,L|330:169,1,75,2|0,0:0|0:0,0:0:0:0:
496,160,90908,2,0,L|484:236,1,75,2|0,3:2|0:0,0:0:0:0:
339,335,91139,2,0,L|351:259,1,75,2|0,0:0|0:0,0:0:0:0:
262,104,91369,22,0,B|240:108|229:128|229:128|241:181|241:181|232:201|213:206|213:206|80:192|80:192|113:184|132:154,2,333.333333333333,4|4|4,0:1|0:1|0:1,0:0:0:0:
501,18,92523,21,2,0:0:0:0:
498,32,92639,1,2,0:0:0:0:
444,89,92754,2,0,L|453:166,1,75,2|0,3:2|0:0,0:0:0:0:
368,176,92985,2,0,L|359:101,1,75,2|0,0:0|0:0,0:0:0:0:
263,4,93216,6,0,P|213:55|137:51,1,150,2|2,3:2|0:0,0:0:0:0:
0,188,93677,2,0,P|50:137|125:140,1,150,2|2,3:2|0:0,0:0:0:0:
270,357,94139,38,0,L|346:347,1,75,2|0,3:2|0:0,0:0:0:0:
335,262,94369,2,0,L|259:272,1,75,2|0,0:0|0:0,0:0:0:0:
172,369,94600,6,0,P|178:296|126:245,1,150,2|2,3:2|0:0,0:0:0:0:
4,85,95062,2,0,P|-2:158|50:209,1,150,2|0,3:2|0:0,0:0:0:0:
262,134,95523,37,2,3:2:0:0:
232,140,95639,1,2,0:0:0:0:
214,164,95754,1,2,0:0:0:0:
213,193,95869,1,2,0:0:0:0:
276,255,95985,2,0,L|358:241,1,75,2|0,3:2|0:0,0:0:0:0:
481,366,96216,6,0,L|390:348,1,75,2|0,3:2|0:0,0:0:0:0:
483,362,96677,38,0,L|392:344,1,75,2|0,3:2|0:0,0:0:0:0:
411,343,97139,6,0,L|485:358,1,75,2|0,3:2|0:0,0:0:0:0:
487,354,97600,38,0,L|396:336,1,75,2|0,3:2|0:0,0:0:0:0:
489,350,98062,6,0,L|398:332,1,75,2|0,3:2|0:0,0:0:0:0:
417,331,98523,38,0,L|491:346,1,75,2|0,3:2|0:0,0:0:0:0:
420,191,98985,5,2,3:2:0:0:
495,191,99100,1,2,0:0:0:0:
457,256,99216,1,2,0:0:0:0:
450,255,99446,37,2,0:0:0:0:
499,197,99562,1,2,0:0:0:0:
435,150,99677,6,0,L|328:174,1,106.25,4|0,3:2|0:0,0:0:0:0:
180,211,99908,2,0,L|73:235,1,106.25,2|0,0:0|0:0,0:0:0:0:
298,371,100139,38,0,L|274:264,1,106.25,8|0,0:0|0:0,0:0:0:0:
237,116,100369,2,0,L|213:9,1,106.25,2|0,0:0|0:0,0:0:0:0:
256,192,100600,5,2,3:2:0:0:
256,192,100831,37,2,0:0:0:0:
232,268,100946,1,2,0:0:0:0:
321,248,101062,5,10,0:2:0:0:
267,190,101177,1,2,0:0:0:0:
240,276,101292,37,2,0:0:0:0:
317,259,101408,1,2,0:0:0:0:
341,183,101523,6,0,L|358:78,1,106.25,2|0,3:2|0:0,0:0:0:0:
171,183,101754,2,0,L|155:78,1,106.25,2|0,0:0|0:0,0:0:0:0:
429,238,101985,38,0,L|446:133,1,106.25,8|0,0:0|0:0,0:0:0:0:
83,238,102216,2,0,L|67:133,1,106.25,2|0,0:0|0:0,0:0:0:0:
256,192,102446,5,2,3:2:0:0:
256,192,102677,1,2,0:0:0:0:
256,192,102908,37,8,0:0:0:0:
219,119,103023,1,2,0:0:0:0:
300,123,103139,1,2,0:0:0:0:
256,192,103254,1,2,0:0:0:0:
176,188,103369,6,0,L|66:178,1,106.25,2|0,3:2|0:0,0:0:0:0:
335,201,103600,2,0,L|444:211,1,106.25,2|0,0:0|0:0,0:0:0:0:
276,7,103831,38,0,L|266:113,1,106.25,8|0,0:0|0:0,0:0:0:0:
247,268,104062,2,0,L|236:374,1,106.25,2|0,0:0|0:0,0:0:0:0:
256,192,104292,5,2,3:2:0:0:
256,192,104523,37,2,0:0:0:0:
218,121,104639,1,2,0:0:0:0:
309,124,104754,5,8,0:2:0:0:
267,192,104869,1,2,0:0:0:0:
223,112,104985,37,2,0:0:0:0:
303,115,105100,1,2,0:0:0:0:
341,193,105216,6,0,L|349:305,1,106.25,2|0,3:2|0:0,0:0:0:0:
171,193,105446,2,0,L|163:305,1,106.25,2|0,0:0|0:0,0:0:0:0:
458,100,105677,38,0,L|466:212,1,106.25,8|0,0:0|0:0,0:0:0:0:
54,100,105908,2,0,L|46:212,1,106.25,2|0,0:0|0:0,0:0:0:0:
256,0,106139,5,2,3:2:0:0:
256,0,106369,37,2,0:0:0:0:
270,7,106485,1,2,0:0:0:0:
321,66,106600,5,8,0:0:0:0:
307,74,106716,1,2,0:0:0:0:
231,89,106831,37,2,0:0:0:0:
231,73,106946,1,2,0:0:0:0:
175,12,107062,22,0,B|128:28|128:28|93:244,1,268.75,14|0,0:0|0:0,0:0:0:0:
337,372,107523,2,0,B|384:356|384:356|418:139,1,268.75,8|0,0:0|0:0,0:0:0:0:
175,12,107985,2,0,B|128:28|128:28|93:244,1,268.75,8|0,0:0|0:0,0:0:0:0:
337,372,108446,2,0,B|384:356|384:356|418:139,1,268.75,8|0,0:0|0:0,0:0:0:0:
0,185,108908,6,0,B|16:232|16:232|232:266,1,268.75,10|0,0:0|0:0,0:0:0:0:
512,199,109369,2,0,B|496:152|496:152|279:117,1,268.75,8|0,0:0|0:0,0:0:0:0:
0,185,109831,2,0,B|16:232|16:232|232:266,1,268.75,8|0,0:0|0:0,0:0:0:0:
512,199,110292,2,0,B|496:152|496:152|279:117,1,268.75,8|0,0:0|0:0,0:0:0:0:
175,372,110754,38,0,B|128:356|128:356|93:139,1,268.75,10|0,0:0|0:0,0:0:0:0:
337,12,111216,2,0,B|384:28|384:28|418:244,1,268.75,8|0,0:0|0:0,0:0:0:0:
175,372,111677,2,0,B|128:356|128:356|93:139,1,268.75,8|0,0:0|0:0,0:0:0:0:
337,12,112139,2,0,B|384:28|384:28|418:244,1,268.75,8|0,0:0|0:0,0:0:0:0:
0,167,112600,6,0,B|16:120|16:120|232:85,1,268.75,10|0,0:0|0:0,0:0:0:0:
512,217,113062,2,0,B|496:264|496:264|280:299,1,268.75,8|0,0:0|0:0,0:0:0:0:
0,167,113523,2,0,B|16:120|16:120|232:85,1,268.75,8|0,0:0|0:0,0:0:0:0:
512,217,113985,2,0,B|496:264|496:264|280:299,1,268.75,8|0,0:0|0:0,0:0:0:0:
279,299,114446,6,0,B|255:294|243:272|243:272|256:212|256:212|246:189|225:184|225:184|75:199|75:199|112:209|133:242,1,375,4|0,3:2|0:0,0:0:0:0:
168,320,114908,6,0,P|123:333|83:312,1,93.75,8|0,0:0|0:0,0:0:0:0:
3,347,115139,2,0,P|-9:302|11:262,1,93.75,2|0,0:0|0:0,0:0:0:0:
143,147,115369,2,0,L|132:240,1,93.75,2|0,3:2|0:0,0:0:0:0:
244,377,115600,2,0,L|255:284,1,93.75,2|0,0:0|0:0,0:0:0:0:
341,161,115831,38,0,B|422:126|433:237|512:201,1,187.5,8|2,0:0|0:0,0:0:0:0:
195,213,116292,6,0,P|209:169|247:145,1,93.75,2|0,3:2|0:0,0:0:0:0:
367,245,116523,2,0,P|319:253|278:232,1,93.75,2|0,0:0|0:0,0:0:0:0:
311,77,116754,2,0,P|338:112|341:159,1,93.75,8|0,0:0|0:0,0:0:0:0:
219,303,116985,2,0,P|150:289|80:280,1,140.625,2|0,0:1|0:0,0:0:0:0:
72,274,117216,38,0,P|45:231|51:191,1,93.75,2|0,3:1|0:0,0:0:0:0:
141,170,117446,2,0,P|168:213|162:253,1,93.75,2|0,0:1|0:0,0:0:0:0:
246,367,117677,6,0,P|234:317|253:281,1,93.75,8|0,0:0|0:0,0:0:0:0:
345,291,117907,2,0,P|356:340|337:376,1,93.75,2|0,0:1|0:0,0:0:0:0:
161,253,118139,38,0,L|174:106,1,140.625,2|0,3:1|0:0,0:0:0:0:
183,113,118369,2,0,L|174:217,1,93.75,2|0,0:0|0:0,0:0:0:0:
357,180,118600,2,0,L|253:171,1,93.75,8|0,0:0|0:0,0:0:0:0:
93,155,118831,2,0,L|-11:146,1,93.75,2|0,0:0|0:0,0:0:0:0:
209,26,119062,6,0,P|248:35|267:82,1,93.75,2|0,3:2|0:0,0:0:0:0:
356,62,119292,2,0,P|367:101|336:141,1,93.75,2|0,0:0|0:0,0:0:0:0:
398,208,119523,2,0,P|370:238|320:231,1,93.75,8|0,0:0|0:0,0:0:0:0:
252,173,119754,2,0,P|208:159|167:177,1,93.75,2|0,0:0|0:0,0:0:0:0:
78,315,119985,38,0,B|108:353|108:353|244:327,1,187.5,2|0,3:2|0:0,0:0:0:0:
244,326,120331,1,0,0:0:0:0:
319,371,120446,2,0,B|357:341|357:341|331:205,1,187.5,10|0,0:0|0:0,0:0:0:0:
330,204,120792,1,0,0:0:0:0:
375,130,120908,2,0,B|345:92|345:92|209:118,1,187.5,2|0,3:2|0:0,0:0:0:0:
208,118,121254,1,0,0:0:0:0:
134,74,121369,2,0,B|96:104|96:104|122:240,1,187.5,10|0,0:0|0:0,0:0:0:0:
319,371,121831,6,0,P|403:344|423:256,2,187.500007152558,2|0|8,3:2|0:0|0:0,0:0:0:0:
148,247,122523,38,0,P|164:279|164:247,1,93.7500035762788,2|0,0:0|0:0,0:0:0:0:
58,284,122754,2,0,P|52:238|76:199,1,93.7500035762788,2|0,3:2|0:0,0:0:0:0:
13,140,122985,2,0,P|49:112|95:114,1,93.7500035762788,2|0,0:0|0:0,0:0:0:0:
162,172,123216,2,0,P|186:132|180:87,1,93.7500035762788,8|0,0:0|0:0,0:0:0:0:
261,59,123447,2,0,P|239:18|196:0,1,93.7500035762788,2|0,0:0|0:0,0:0:0:0:
401,118,123677,6,0,P|384:210|374:303,1,187.500007152558,2|0,3:2|0:0,0:0:0:0:
424,374,124023,1,0,0:0:0:0:
374,303,124139,2,0,P|281:286|188:276,1,187.500007152558,10|0,0:0|0:0,0:0:0:0:
118,326,124485,1,0,0:0:0:0:
188,276,124600,2,0,P|204:183|214:90,1,187.500007152558,2|0,3:2|0:0,0:0:0:0:
165,19,124946,1,0,0:0:0:0:
214,90,125062,2,0,P|306:106|399:116,1,187.500007152558,10|0,0:2|0:0,0:0:0:0:
202,203,125523,38,0,P|203:240|211:277,1,74.9999977111817,4|0,3:2|0:0,0:0:0:0:
127,288,125754,2,0,P|125:250|117:213,1,74.9999977111817,0|0,3:0|0:0,0:0:0:0:
26,72,125985,6,0,B|-11:69|-36:108|-26:136|-26:136|74:208|122:48|231:123,1,375.000014305115,10|0,0:0|3:0,0:0:0:0:
174,190,126677,37,0,0:0:0:0:
174,190,126908,2,0,B|138:207|136:257|160:278|160:278|293:291|252:115|389:126,1,400,10|0,0:0|3:0,0:0:0:0:
377,218,127600,5,0,0:0:0:0:
377,218,127831,2,0,B|414:231|420:280|398:304|398:304|267:328|293:135|109:175,1,425.000008106232,10|0,0:0|3:0,0:0:0:0:
175,256,128523,37,0,0:0:0:0:
175,256,128754,2,0,B|195:292|175:344|147:352|147:352|10:322|84:132|44:89|-32:77,1,449.99998626709,10|0,0:0|3:0,0:0:0:0:
156,173,129446,5,0,0:0:0:0:
156,173,129677,2,0,B|180:168|192:146|192:146|179:86|179:86|189:63|210:58|210:58|360:73|360:73|323:83|302:116,1,375.000014305115,10|0,0:0|3:0,0:0:0:0:
267,198,130369,37,0,0:0:0:0:
267,198,130600,2,0,B|293:203|306:227|306:227|292:293|292:293|303:319|326:324|326:324|491:308|491:308|450:297|427:260,1,400,10|0,0:0|3:0,0:0:0:0:
382,169,131292,5,0,0:0:0:0:
382,169,131523,2,0,B|354:163|341:138|341:138|355:70|355:70|344:43|320:38|320:38|150:55|150:55|192:66|215:104,1,425.000008106232,10|0,0:0|3:0,0:0:0:0:
261,176,132216,37,0,0:0:0:0:
261,176,132447,2,0,B|232:182|217:208|217:208|233:280|233:280|221:308|195:314|195:314|15:296|15:296|59:284|85:244,1,449.99998626709,10|6,0:0|3:2,0:0:0:0:
30,96,133139,5,2,0:0:0:0:
12,17,133254,1,2,0:0:0:0:
58,172,133600,37,2,0:0:0:0:
40,93,133715,1,2,0:0:0:0:
86,248,134062,5,2,0:0:0:0:
68,169,134177,1,2,0:0:0:0:
114,324,134524,37,2,0:0:0:0:
96,245,134639,1,2,0:0:0:0:
132,245,134985,5,2,0:0:0:0:
114,324,135100,1,2,0:0:0:0:
160,169,135446,37,2,0:0:0:0:
142,248,135561,1,2,0:0:0:0:
188,93,135908,5,2,0:0:0:0:
170,172,136023,1,2,0:0:0:0:
216,17,136370,37,2,0:0:0:0:
198,96,136485,1,2,0:0:0:0:
301,36,136831,5,2,0:0:0:0:
305,45,136946,1,2,0:0:0:0:
501,239,137292,37,2,0:0:0:0:
489,238,137407,1,2,0:0:0:0:
460,80,137754,5,2,0:0:0:0:
453,88,137869,1,2,0:0:0:0:
383,354,138216,37,2,0:0:0:0:
378,344,138331,1,2,0:0:0:0:
201,214,138677,5,2,0:0:0:0:
211,215,138792,1,2,0:0:0:0:
460,332,139138,37,2,0:0:0:0:
456,322,139253,1,2,0:0:0:0:
297,348,139600,5,2,0:0:0:0:
302,339,139715,1,2,0:0:0:0:
357,202,140062,37,2,0:0:0:0:
362,211,140177,1,2,0:0:0:0:
