osu file format v14

[General]
AudioFilename: audio.mp3
AudioLeadIn: 0
PreviewTime: 46946
Countdown: 0
SampleSet: Normal
StackLeniency: 0.7
Mode: 1
LetterboxInBreaks: 0
WidescreenStoryboard: 1

[Editor]
DistanceSpacing: 2.1
BeatDivisor: 4
GridSize: 16
TimelineZoom: 0.9999998

[Metadata]
Title:Cinema
TitleUnicode:シネマ
Artist:Vivid BAD SQUAD x KAITO
ArtistUnicode:Vivid BAD SQUAD × KAITO
Creator:cdh
Version:Muzukashii
Source:プロジェクトセカイ カラフルステージ! feat. 初音ミク
Tags:proseka puroseka sega colorful palette craft egg crypton rhythm game videogame japanese pop 日本語 ayase project sekai colorful stage hatsune miku vocaloid ボーカロイド Akito Shinonome 東雲彰人 KAITO Kohane Azusawa 小豆沢こはね An Shiraishi 白石杏 Toya Aoyagi 青柳冬弥 鷲見 友美ジェナ Tomomi Jiena Sumi 今井文也 Imai Fumiya 伊東健人 Kento Ito 秋奈 Akina
BeatmapID:3004318
BeatmapSetID:1462432

[Difficulty]
HPDrainRate:5
CircleSize:5
OverallDifficulty:5
ApproachRate:5
SliderMultiplier:1.4
SliderTickRate:1

[Events]
//Background and Video events
Video,120,"output.mp4"
0,0,"toya.jpg",0,0
//Break Periods
//Storyboard Layer 0 (Background)
//Storyboard Layer 1 (Fail)
//Storyboard Layer 2 (Pass)
//Storyboard Layer 3 (Foreground)
//Storyboard Layer 4 (Overlay)
//Storyboard Sound Samples

[TimingPoints]
1915,483.870967741935,4,1,0,50,1,0
17156,-100,4,1,0,70,0,0
48366,-100,4,1,0,80,0,1
85140,-100,4,1,0,70,0,0

[HitObjects]
301,184,1915,5,0,0:0:0:0:
273,155,2398,1,8,0:0:0:0:
341,185,3366,1,8,0:0:0:0:
341,175,3850,1,0,0:0:0:0:
204,184,4334,1,8,0:0:0:0:
279,191,5302,1,8,0:0:0:0:
321,178,5785,1,0,0:0:0:0:
392,184,6269,1,8,0:0:0:0:
327,208,7237,1,8,0:0:0:0:
412,189,7721,1,0,0:0:0:0:
268,213,8205,1,8,0:0:0:0:
307,178,8689,1,0,0:0:0:0:
307,178,9173,1,8,0:0:0:0:
319,173,9656,1,0,0:0:0:0:
308,189,9898,1,0,0:0:0:0:
308,189,10019,1,0,0:0:0:0:
231,178,10261,1,8,0:0:0:0:
208,190,10503,1,0,0:0:0:0:
249,207,10745,1,0,0:0:0:0:
319,173,11592,1,8,0:0:0:0:
199,205,11834,1,0,0:0:0:0:
199,205,11955,1,0,0:0:0:0:
311,197,12197,1,8,0:0:0:0:
169,155,12439,1,0,0:0:0:0:
392,168,12802,1,8,0:0:0:0:
194,176,13527,1,8,0:0:0:0:
264,177,13769,1,0,0:0:0:0:
264,177,13890,1,0,0:0:0:0:
302,171,14132,1,0,0:0:0:0:
269,189,14374,1,8,0:0:0:0:
264,213,14616,1,0,0:0:0:0:
281,169,14979,1,0,0:0:0:0:
346,204,15221,1,8,0:0:0:0:
346,194,15705,1,8,0:0:0:0:
304,206,15947,1,0,0:0:0:0:
321,214,16068,1,0,0:0:0:0:
316,184,16431,1,8,0:0:0:0:
192,112,16673,1,0,0:0:0:0:
301,198,16914,1,8,0:0:0:0:
397,195,17398,1,4,0:0:0:0:
244,194,17640,1,0,0:0:0:0:
258,193,17761,1,0,0:0:0:0:
344,214,18003,1,8,0:0:0:0:
330,194,18245,1,0,0:0:0:0:
228,170,18487,1,0,0:0:0:0:
228,170,18608,1,0,0:0:0:0:
96,128,18850,1,0,0:0:0:0:
392,227,19092,1,8,0:0:0:0:
258,240,19334,1,0,0:0:0:0:
297,201,20302,1,8,0:0:0:0:
214,197,20785,1,8,0:0:0:0:
337,192,21269,1,8,0:0:0:0:
241,204,21511,1,0,0:0:0:0:
262,204,21632,1,0,0:0:0:0:
317,226,21874,1,8,0:0:0:0:
216,184,22116,1,0,0:0:0:0:
194,147,22358,1,0,0:0:0:0:
128,128,22479,1,0,0:0:0:0:
327,205,22721,1,8,0:0:0:0:
349,263,22963,1,0,0:0:0:0:
281,256,23205,1,8,0:0:0:0:
346,195,24173,1,8,0:0:0:0:
329,220,24414,1,0,0:0:0:0:
257,176,24656,1,8,0:0:0:0:
374,174,25140,1,0,0:0:0:0:
304,197,25382,1,0,0:0:0:0:
304,197,25503,1,0,0:0:0:0:
374,174,25745,1,8,0:0:0:0:
313,199,25987,1,0,0:0:0:0:
374,201,26229,1,0,0:0:0:0:
309,175,27076,1,8,0:0:0:0:
232,164,27318,1,0,0:0:0:0:
232,164,27439,1,0,0:0:0:0:
309,175,27681,1,8,0:0:0:0:
353,182,27923,1,0,0:0:0:0:
312,204,28285,1,8,0:0:0:0:
297,165,28769,1,8,0:0:0:0:
326,184,29011,1,8,0:0:0:0:
354,190,29253,1,0,0:0:0:0:
332,169,29374,1,0,0:0:0:0:
271,155,29616,1,0,0:0:0:0:
174,203,29858,1,8,0:0:0:0:
322,188,30100,1,8,0:0:0:0:
304,112,30221,1,8,0:0:0:0:
296,232,30463,1,0,0:0:0:0:
251,157,30705,1,8,0:0:0:0:
112,160,30947,1,0,0:0:0:0:
301,174,31673,1,0,0:0:0:0:
362,194,31914,1,8,0:0:0:0:
362,194,32156,1,8,0:0:0:0:
279,228,32398,5,0,0:0:0:0:
355,189,32882,1,0,0:0:0:0:
274,165,33124,1,0,0:0:0:0:
289,206,33366,1,0,0:0:0:0:
289,206,33487,1,0,0:0:0:0:
257,204,33850,1,0,0:0:0:0:
194,95,34092,1,0,0:0:0:0:
213,151,34213,1,0,0:0:0:0:
252,198,34576,1,0,0:0:0:0:
252,198,34818,1,0,0:0:0:0:
266,188,34939,1,0,0:0:0:0:
319,211,35302,1,8,0:0:0:0:
403,185,35785,1,0,0:0:0:0:
267,217,36027,1,0,0:0:0:0:
292,220,36753,1,8,0:0:0:0:
292,220,36995,1,8,0:0:0:0:
292,220,37237,1,8,0:0:0:0:
354,218,37358,1,8,0:0:0:0:
381,209,37721,1,8,0:0:0:0:
292,220,37963,1,8,0:0:0:0:
362,205,38084,1,8,0:0:0:0:
362,205,38447,1,8,0:0:0:0:
292,220,38689,1,8,0:0:0:0:
288,204,38810,1,8,0:0:0:0:
362,205,39173,1,8,0:0:0:0:
403,185,39656,1,0,0:0:0:0:
392,201,39898,1,8,0:0:0:0:
336,217,40624,1,0,0:0:0:0:
306,223,40866,1,0,0:0:0:0:
243,191,40987,1,0,0:0:0:0:
272,175,41108,1,0,0:0:0:0:
356,200,41350,1,8,0:0:0:0:
336,217,41592,1,0,0:0:0:0:
314,211,41834,1,0,0:0:0:0:
284,200,42560,1,8,0:0:0:0:
392,210,42802,1,8,0:0:0:0:
329,170,42923,1,8,0:0:0:0:
227,148,43044,5,8,0:0:0:0:
316,225,43285,1,0,0:0:0:0:
322,185,43527,1,8,0:0:0:0:
257,237,43769,1,0,0:0:0:0:
290,209,44495,1,0,0:0:0:0:
272,250,44737,1,0,0:0:0:0:
255,211,44979,1,8,0:0:0:0:
327,195,45221,1,0,0:0:0:0:
408,178,45463,1,0,0:0:0:0:
283,153,45947,1,8,0:0:0:0:
274,155,46189,1,0,0:0:0:0:
349,200,47156,1,0,0:0:0:0:
291,196,47398,1,8,0:0:0:0:
278,218,47640,1,0,0:0:0:0:
235,172,47882,1,0,0:0:0:0:
278,218,48124,1,0,0:0:0:0:
307,173,48366,1,12,0:0:0:0:
307,173,48850,1,12,0:0:0:0:
279,207,49334,1,0,0:0:0:0:
301,186,49576,1,0,0:0:0:0:
286,175,49818,1,8,0:0:0:0:
194,208,50060,1,8,0:0:0:0:
339,219,50302,1,0,0:0:0:0:
281,188,50785,1,8,0:0:0:0:
281,188,51027,1,0,0:0:0:0:
296,155,51511,1,0,0:0:0:0:
312,184,51753,1,8,0:0:0:0:
301,180,51995,1,0,0:0:0:0:
307,173,52237,1,12,0:0:0:0:
307,173,52721,1,12,0:0:0:0:
279,207,53205,1,8,0:0:0:0:
255,192,53447,1,0,0:0:0:0:
255,192,53689,1,8,0:0:0:0:
304,151,53931,1,8,0:0:0:0:
339,219,54173,1,0,0:0:0:0:
245,200,54414,1,0,0:0:0:0:
271,204,54656,1,8,0:0:0:0:
271,204,54898,1,8,0:0:0:0:
264,176,55382,1,0,0:0:0:0:
301,177,55624,1,8,0:0:0:0:
301,177,55745,1,8,0:0:0:0:
301,177,55866,1,8,0:0:0:0:
307,173,56108,1,12,0:0:0:0:
307,173,56592,1,12,0:0:0:0:
279,207,57076,1,8,0:0:0:0:
307,180,57318,1,0,0:0:0:0:
303,210,57560,1,0,0:0:0:0:
303,210,57802,1,8,0:0:0:0:
229,190,58044,1,0,0:0:0:0:
229,190,58285,1,0,0:0:0:0:
303,210,58527,1,8,0:0:0:0:
273,225,58769,1,8,0:0:0:0:
240,214,59253,1,8,0:0:0:0:
272,196,59737,1,8,0:0:0:0:
292,209,59979,1,0,0:0:0:0:
253,220,60221,1,0,0:0:0:0:
253,220,60342,1,0,0:0:0:0:
297,191,60584,1,8,0:0:0:0:
291,202,60826,1,8,0:0:0:0:
262,189,61068,1,0,0:0:0:0:
270,198,61310,1,8,0:0:0:0:
223,188,61552,1,0,0:0:0:0:
302,195,61673,1,0,0:0:0:0:
262,189,62640,1,0,0:0:0:0:
289,189,62882,1,8,0:0:0:0:
236,197,63124,1,0,0:0:0:0:
274,180,63245,1,0,0:0:0:0:
306,200,63366,1,0,0:0:0:0:
288,200,63608,1,8,0:0:0:0:
317,197,63850,1,12,0:0:0:0:
318,200,64334,1,12,0:0:0:0:
288,206,64818,1,0,0:0:0:0:
249,161,65060,1,8,0:0:0:0:
296,211,65302,5,8,0:0:0:0:
345,209,65544,1,8,0:0:0:0:
237,197,65785,1,0,0:0:0:0:
266,212,66269,1,8,0:0:0:0:
348,240,66511,1,8,0:0:0:0:
263,146,66995,1,0,0:0:0:0:
260,185,67237,1,8,0:0:0:0:
164,176,67479,1,0,0:0:0:0:
307,173,67721,1,12,0:0:0:0:
307,173,68205,1,12,0:0:0:0:
279,207,68689,1,0,0:0:0:0:
316,184,68931,1,8,0:0:0:0:
286,182,69173,1,0,0:0:0:0:
287,185,69414,1,0,0:0:0:0:
339,219,69657,1,8,0:0:0:0:
336,205,69898,1,0,0:0:0:0:
240,187,70140,1,8,0:0:0:0:
409,220,70382,1,0,0:0:0:0:
242,195,70866,1,8,0:0:0:0:
352,194,71108,1,0,0:0:0:0:
254,192,71229,1,0,0:0:0:0:
254,192,71350,1,0,0:0:0:0:
307,173,71592,1,12,0:0:0:0:
307,173,72076,1,12,0:0:0:0:
279,207,72560,1,0,0:0:0:0:
203,221,72802,1,8,0:0:0:0:
273,229,73044,1,0,0:0:0:0:
326,214,73285,1,0,0:0:0:0:
339,219,73528,1,8,0:0:0:0:
366,184,73769,1,0,0:0:0:0:
301,224,74011,1,8,0:0:0:0:
301,224,74253,1,8,0:0:0:0:
240,214,74737,1,8,0:0:0:0:
324,219,75221,1,8,0:0:0:0:
292,209,75463,1,0,0:0:0:0:
349,201,75705,1,0,0:0:0:0:
349,201,75826,1,0,0:0:0:0:
409,214,76068,1,8,0:0:0:0:
341,177,76310,1,8,0:0:0:0:
244,156,76552,1,0,0:0:0:0:
291,202,76794,1,0,0:0:0:0:
321,216,77035,1,8,0:0:0:0:
284,204,77277,1,0,0:0:0:0:
289,189,78124,1,8,0:0:0:0:
360,217,78366,1,0,0:0:0:0:
331,194,78487,1,0,0:0:0:0:
172,161,78608,1,0,0:0:0:0:
306,200,78850,1,8,0:0:0:0:
241,184,79092,1,0,0:0:0:0:
317,197,79334,1,12,0:0:0:0:
318,200,79818,1,12,0:0:0:0:
288,206,80302,1,0,0:0:0:0:
238,217,80544,1,0,0:0:0:0:
324,184,80785,1,8,0:0:0:0:
267,171,81027,1,0,0:0:0:0:
269,178,81269,1,8,0:0:0:0:
267,171,81511,1,0,0:0:0:0:
305,188,81753,1,8,0:0:0:0:
322,170,81995,1,8,0:0:0:0:
347,165,82479,1,8,0:0:0:0:
316,190,82963,1,8,0:0:0:0:
297,190,83205,1,0,0:0:0:0:
361,203,83447,1,0,0:0:0:0:
356,202,83568,1,0,0:0:0:0:
349,206,83810,1,8,0:0:0:0:
349,206,84052,1,8,0:0:0:0:
361,203,84294,1,0,0:0:0:0:
263,225,84656,1,8,0:0:0:0:
263,225,84898,1,0,0:0:0:0:
204,229,85140,1,4,0:0:0:0:
269,208,85382,1,8,0:0:0:0:
269,208,85503,1,8,0:0:0:0:
364,208,85745,1,8,0:0:0:0:
339,190,86108,1,0,0:0:0:0:
372,184,86471,1,8,0:0:0:0:
347,237,86834,1,8,0:0:0:0:
347,198,87076,1,0,0:0:0:0:
291,224,87318,1,0,0:0:0:0:
317,228,87439,1,0,0:0:0:0:
264,198,87681,1,8,0:0:0:0:
354,238,88044,1,0,0:0:0:0:
262,230,88769,1,8,0:0:0:0:
144,194,89011,1,0,0:0:0:0:
269,208,89253,1,8,0:0:0:0:
269,208,89374,1,8,0:0:0:0:
364,208,89616,1,8,0:0:0:0:
339,190,89979,1,0,0:0:0:0:
372,184,90342,1,8,0:0:0:0:
347,237,90705,1,8,0:0:0:0:
347,198,90947,1,0,0:0:0:0:
291,224,91189,1,0,0:0:0:0:
317,228,91310,1,0,0:0:0:0:
264,198,91552,1,0,0:0:0:0:
354,238,91915,1,8,0:0:0:0:
243,189,92035,1,8,0:0:0:0:
277,211,92156,1,8,0:0:0:0:
349,165,92398,1,0,0:0:0:0:
349,165,92519,1,0,0:0:0:0:
204,229,92882,1,0,0:0:0:0:
269,208,93124,1,8,0:0:0:0:
269,208,93245,1,8,0:0:0:0:
364,208,93487,1,8,0:0:0:0:
339,190,93850,1,0,0:0:0:0:
372,184,94213,1,8,0:0:0:0:
347,237,94576,1,8,0:0:0:0:
347,198,94818,1,0,0:0:0:0:
291,224,95060,1,0,0:0:0:0:
317,228,95181,1,0,0:0:0:0:
264,198,95423,1,8,0:0:0:0:
354,238,95786,1,0,0:0:0:0:
262,230,96511,1,8,0:0:0:0:
284,244,96753,1,0,0:0:0:0:
273,202,96995,1,8,0:0:0:0:
273,202,97116,1,8,0:0:0:0:
273,202,97358,1,8,0:0:0:0:
310,199,97721,1,0,0:0:0:0:
263,195,98084,1,8,0:0:0:0:
292,180,98447,1,8,0:0:0:0:
342,179,98931,5,8,0:0:0:0:
367,196,99294,1,8,0:0:0:0:
357,190,99656,1,8,0:0:0:0:
288,173,99898,1,0,0:0:0:0:
310,179,100140,1,8,0:0:0:0:
227,163,100382,5,12,0:0:0:0:
