osu file format v14

[General]
AudioFilename: audio.mp3
AudioLeadIn: 0
PreviewTime: 46946
Countdown: 0
SampleSet: Normal
StackLeniency: 0.7
Mode: 1
LetterboxInBreaks: 0
WidescreenStoryboard: 0

[Editor]
DistanceSpacing: 2.1
BeatDivisor: 2
GridSize: 16
TimelineZoom: 1.16

[Metadata]
Title:Cinema
TitleUnicode:シネマ
Artist:Vivid BAD SQUAD x KAITO
ArtistUnicode:Vivid BAD SQUAD × KAITO
Creator:cdh
Version:Kantan
Source:プロジェクトセカイ カラフルステージ! feat. 初音ミク
Tags:proseka puroseka sega colorful palette craft egg crypton rhythm game videogame japanese pop 日本語 ayase project sekai colorful stage hatsune miku vocaloid ボーカロイド Akito Shinonome 東雲彰人 KAITO Kohane Azusawa 小豆沢こはね An Shiraishi 白石杏 Toya Aoyagi 青柳冬弥 鷲見 友美ジェナ Tomomi Jiena Sumi 今井文也 Imai Fumiya 伊東健人 Kento Ito 秋奈 Akina
BeatmapID:3004268
BeatmapSetID:1462432

[Difficulty]
HPDrainRate:7
CircleSize:5
OverallDifficulty:3
ApproachRate:5
SliderMultiplier:1.4
SliderTickRate:1

[Events]
//Background and Video events
Video,120,"output.mp4"
0,0,"an.jpg",0,0
//Break Periods
//Storyboard Layer 0 (Background)
//Storyboard Layer 1 (Fail)
//Storyboard Layer 2 (Pass)
//Storyboard Layer 3 (Foreground)
//Storyboard Layer 4 (Overlay)
//Storyboard Sound Samples

[TimingPoints]
1915,483.870967741935,4,1,0,50,1,0
16914,-100,4,1,0,70,0,0
48366,-100,4,1,0,80,0,1
85140,-100,4,1,0,70,0,0

[HitObjects]
301,184,1915,5,0,0:0:0:0:
341,185,2398,1,8,0:0:0:0:
341,185,3366,1,8,0:0:0:0:
341,175,3850,1,0,0:0:0:0:
321,178,5785,1,0,0:0:0:0:
392,184,6269,1,8,0:0:0:0:
327,208,7237,1,8,0:0:0:0:
412,189,7721,1,0,0:0:0:0:
319,173,9656,1,0,0:0:0:0:
392,168,10624,1,8,0:0:0:0:
319,173,11592,1,0,0:0:0:0:
392,168,12560,1,8,0:0:0:0:
194,176,13527,1,8,0:0:0:0:
302,171,14495,1,0,0:0:0:0:
302,171,15463,1,8,0:0:0:0:
397,195,17398,1,4,0:0:0:0:
330,194,17882,1,0,0:0:0:0:
412,242,18366,1,8,0:0:0:0:
392,227,18850,1,8,0:0:0:0:
258,240,19334,1,0,0:0:0:0:
312,218,20302,1,8,0:0:0:0:
317,226,21269,1,0,0:0:0:0:
317,226,21753,1,0,0:0:0:0:
334,229,22237,1,8,0:0:0:0:
349,263,22721,1,0,0:0:0:0:
281,256,23205,1,8,0:0:0:0:
374,174,25140,1,0,0:0:0:0:
374,174,25624,1,0,0:0:0:0:
374,201,26108,1,8,0:0:0:0:
309,175,27076,1,8,0:0:0:0:
309,175,27560,1,8,0:0:0:0:
312,204,28044,1,0,0:0:0:0:
326,184,29011,1,8,0:0:0:0:
367,185,29495,1,0,0:0:0:0:
322,188,29979,1,8,0:0:0:0:
327,188,30463,1,8,0:0:0:0:
306,197,30947,1,0,0:0:0:0:
355,189,32882,1,0,0:0:0:0:
354,218,33366,1,8,0:0:0:0:
362,205,34334,1,8,0:0:0:0:
362,205,35302,1,8,0:0:0:0:
403,185,35785,1,0,0:0:0:0:
355,189,36753,1,0,0:0:0:0:
354,218,37237,1,8,0:0:0:0:
362,205,38205,1,8,0:0:0:0:
362,205,39173,1,8,0:0:0:0:
403,185,39656,1,0,0:0:0:0:
336,217,40624,1,0,0:0:0:0:
272,175,41108,1,8,0:0:0:0:
336,217,41592,1,0,0:0:0:0:
284,200,42560,1,8,0:0:0:0:
332,201,43044,1,0,0:0:0:0:
322,185,43527,1,8,0:0:0:0:
290,209,44495,1,0,0:0:0:0:
301,190,45463,1,0,0:0:0:0:
346,179,46431,1,8,0:0:0:0:
307,173,48366,1,12,0:0:0:0:
307,173,48850,1,12,0:0:0:0:
279,207,49334,1,0,0:0:0:0:
339,219,50302,1,8,0:0:0:0:
415,218,51027,1,8,0:0:0:0:
309,195,51753,1,0,0:0:0:0:
307,173,52237,1,12,0:0:0:0:
307,173,52721,1,12,0:0:0:0:
279,207,53205,1,0,0:0:0:0:
339,219,54173,1,8,0:0:0:0:
359,206,55140,1,8,0:0:0:0:
352,194,55624,1,0,0:0:0:0:
307,173,56108,1,12,0:0:0:0:
307,173,56592,1,12,0:0:0:0:
279,207,57076,1,0,0:0:0:0:
339,219,58044,1,8,0:0:0:0:
207,210,59011,1,8,0:0:0:0:
292,209,59979,1,0,0:0:0:0:
291,202,60947,1,8,0:0:0:0:
270,198,61431,1,0,0:0:0:0:
284,204,61914,1,0,0:0:0:0:
289,189,62882,1,8,0:0:0:0:
306,200,63366,1,0,0:0:0:0:
317,197,63850,1,12,0:0:0:0:
318,200,64334,1,12,0:0:0:0:
288,206,64818,1,0,0:0:0:0:
269,178,65785,1,8,0:0:0:0:
292,198,66511,1,8,0:0:0:0:
260,185,67237,1,0,0:0:0:0:
307,173,67721,1,12,0:0:0:0:
307,173,68205,1,12,0:0:0:0:
279,207,68689,1,0,0:0:0:0:
339,219,69657,1,8,0:0:0:0:
242,195,70140,1,8,0:0:0:0:
352,194,71108,1,0,0:0:0:0:
307,173,71592,1,12,0:0:0:0:
307,173,72076,1,12,0:0:0:0:
279,207,72560,1,0,0:0:0:0:
339,219,73528,1,8,0:0:0:0:
242,180,74495,1,8,0:0:0:0:
292,209,75463,1,0,0:0:0:0:
291,202,76431,1,8,0:0:0:0:
270,198,76915,1,0,0:0:0:0:
284,204,77398,1,0,0:0:0:0:
289,189,78366,1,8,0:0:0:0:
306,200,78850,1,0,0:0:0:0:
317,197,79334,1,12,0:0:0:0:
318,200,79818,1,12,0:0:0:0:
288,206,80302,1,0,0:0:0:0:
269,178,81269,1,8,0:0:0:0:
305,188,81753,1,0,0:0:0:0:
322,170,82237,1,8,0:0:0:0:
297,190,83205,1,0,0:0:0:0:
361,203,84173,1,8,0:0:0:0:
204,229,85140,1,4,0:0:0:0:
332,215,86108,1,8,0:0:0:0:
347,237,87076,1,0,0:0:0:0:
352,238,87560,1,0,0:0:0:0:
354,238,88044,1,0,0:0:0:0:
284,244,89011,1,0,0:0:0:0:
318,235,89979,1,8,0:0:0:0:
357,229,90947,1,0,0:0:0:0:
336,226,92398,1,8,0:0:0:0:
242,175,92882,1,0,0:0:0:0:
289,180,93850,1,8,0:0:0:0:
327,189,94818,1,0,0:0:0:0:
337,166,95302,1,8,0:0:0:0:
291,189,95785,1,0,0:0:0:0:
347,185,96753,1,0,0:0:0:0:
311,197,97721,1,8,0:0:0:0:
342,179,98931,5,8,0:0:0:0:
357,190,99656,1,8,0:0:0:0:
227,163,100382,5,12,0:0:0:0:
