osu file format v14

[General]
AudioFilename: audio.ogg
AudioLeadIn: 0
PreviewTime: 46271
Countdown: 0
SampleSet: Soft
StackLeniency: 0.7
Mode: 3
LetterboxInBreaks: 0
SpecialStyle: 0
WidescreenStoryboard: 1

[Editor]
Bookmarks: 16509,31993,47477,84251
DistanceSpacing: 0.9
BeatDivisor: 4
GridSize: 8
TimelineZoom: 1.5

[Metadata]
Title:Cinema
TitleUnicode:シネマ
Artist:Vivid BAD SQUAD x KAITO
ArtistUnicode:Vivid BAD SQUAD × KAITO
Creator:DenYi
Version:Normal
Source:プロジェクトセカイ カラフルステージ! feat. 初音ミク
Tags:project sekai hatsune miku miku: colorful stage! jpop j-pop pop japanese BRMM-10457 Azusawa Kohane 小豆沢こはね Shiraishi An 白石杏 Shinonome Akito 東雲彰人 Aoyagi Toya 青柳冬弥 Fujita Saki 藤田 咲 Fuuga Naoto 風雅 なおと Akina 秋奈 Sumi Tomomi Jena 鷲見友美ジェナ Imai Fumiya 今井文也 Itou Kento 伊東健人 vocaloid video game version ver プロセカ proseka Ayase
BeatmapID:3510770
BeatmapSetID:1717948

[Difficulty]
HPDrainRate:7.5
CircleSize:4
OverallDifficulty:7.5
ApproachRate:5
SliderMultiplier:1.4
SliderTickRate:1

[Events]
//Background and Video events
0,0,"normal.jpg",0,0
//Break Periods
//Storyboard Layer 0 (Background)
//Storyboard Layer 1 (Fail)
//Storyboard Layer 2 (Pass)
//Storyboard Layer 3 (Foreground)
//Storyboard Layer 4 (Overlay)
//Storyboard Sound Samples
Sample,31029,0,"Tom1.wav",50
Sample,61997,0,"Tom1.wav",50
Sample,77481,0,"Tom1.wav",50

[TimingPoints]
1030,483.870967741935,4,2,1,60,1,0
47481,-100,4,2,1,60,0,1
61029,-100,4,2,1,60,0,0
62965,-100,4,2,1,60,0,1
76997,-100,4,2,1,60,0,0
78449,-100,4,2,1,60,0,1
84255,-100,4,2,1,60,0,0

[HitObjects]
448,192,1030,5,0,0:0:0:0:
64,192,1513,1,8,0:0:0:0:
192,192,1513,1,0,0:0:0:0:
320,192,1997,1,0,0:0:0:0:
64,192,2481,1,8,0:0:0:0:
448,192,2481,1,0,0:0:0:0:
192,192,2965,1,0,0:0:0:0:
320,192,3449,1,8,0:0:0:0:
448,192,3449,1,0,0:0:0:0:
64,192,3933,1,0,0:0:0:0:
192,192,4417,1,8,0:0:0:0:
448,192,4417,1,0,0:0:0:0:
320,192,4900,1,0,0:0:0:0:
64,192,5384,1,8,0:0:0:0:
448,192,5384,1,0,0:0:0:0:
192,192,5868,1,0,0:0:0:0:
320,192,6352,1,8,0:0:0:0:
448,192,6352,1,0,0:0:0:0:
192,192,6836,1,0,0:0:0:0:
64,192,7320,1,8,0:0:0:0:
448,192,7320,1,0,0:0:0:0:
320,192,7804,1,0,0:0:0:0:
192,192,8288,1,8,0:0:0:0:
448,192,8288,1,0,0:0:0:0:
64,192,8771,1,2,0:0:0:0:
192,192,9013,1,0,0:0:0:0:
320,192,9255,1,8,0:0:0:0:
448,192,9255,1,0,0:0:0:0:
64,192,9497,1,0,0:0:0:0:
192,192,9739,1,0,0:0:0:0:
448,192,9981,1,2,0:0:0:0:
64,192,10223,1,8,0:0:0:0:
320,192,10223,1,0,0:0:0:0:
192,192,10465,1,0,0:0:0:0:
448,192,10707,1,2,0:0:0:0:
320,192,10949,1,0,0:0:0:0:
64,192,11191,1,8,0:0:0:0:
192,192,11191,1,0,0:0:0:0:
448,192,11433,1,0,0:0:0:0:
64,192,11675,1,0,0:0:0:0:
320,192,11917,1,2,0:0:0:0:
192,192,12159,1,8,0:0:0:0:
448,192,12159,1,0,0:0:0:0:
64,192,12400,1,0,0:0:0:0:
448,192,12642,1,2,0:0:0:0:
320,192,12884,1,0,0:0:0:0:
64,192,13126,1,8,0:0:0:0:
192,192,13126,1,0,0:0:0:0:
448,192,13368,1,0,0:0:0:0:
64,192,13610,1,0,0:0:0:0:
192,192,13852,1,2,0:0:0:0:
320,192,14094,1,8,0:0:0:0:
448,192,14094,1,0,0:0:0:0:
64,192,14336,1,0,0:0:0:0:
320,192,14578,1,2,0:0:0:0:
64,192,14820,1,0,0:0:0:0:
192,192,14820,1,0,0:0:0:0:
448,192,15062,1,2,0:0:0:0:
64,192,15304,1,0,0:0:0:50:Tom2.wav
320,192,15546,1,2,0:0:0:0:
192,192,15788,1,0,0:0:0:50:Tom2.wav
448,192,16029,1,2,0:0:0:0:
320,192,16271,1,0,0:0:0:0:
64,192,16513,1,4,0:0:0:0:
192,192,16513,1,2,0:0:0:0:
64,192,16997,1,8,0:0:0:0:
448,192,16997,1,2,0:0:0:0:
320,192,17481,1,2,0:0:0:0:
64,192,17965,1,8,0:0:0:0:
192,192,17965,1,2,0:0:0:0:
320,192,18449,1,2,0:0:0:0:
64,192,18933,1,8,0:0:0:0:
448,192,18933,1,2,0:0:0:0:
192,192,19417,1,2,0:0:0:0:
320,192,19900,1,8,0:0:0:0:
448,192,19900,1,2,0:0:0:0:
64,192,20384,1,2,0:0:0:0:
192,192,20868,1,8,0:0:0:0:
448,192,20868,1,2,0:0:0:0:
320,192,21352,1,2,0:0:0:0:
64,192,21836,1,8,0:0:0:0:
192,192,21836,1,2,0:0:0:0:
320,192,22320,1,2,0:0:0:0:
192,192,22804,1,8,0:0:0:0:
448,192,22804,1,2,0:0:0:0:
320,192,23288,1,2,0:0:0:0:
448,192,23529,1,0,0:0:0:50:Tom2.wav
192,192,23771,1,10,0:0:0:0:
64,192,24013,1,0,0:0:0:0:
320,192,24255,1,2,0:0:0:0:
448,192,24255,1,4,0:0:0:0:
64,192,24739,1,2,0:0:0:0:
192,192,24739,1,8,0:0:0:0:
320,192,25223,1,2,0:0:0:0:
64,192,25707,1,8,0:0:0:0:
448,192,25707,1,2,0:0:0:0:
320,192,26191,1,2,0:0:0:0:
192,192,26675,1,8,0:0:0:0:
448,192,26675,1,2,0:0:0:0:
64,192,27159,1,2,0:0:0:0:
320,192,27642,1,8,0:0:0:0:
448,192,27642,1,2,0:0:0:0:
192,192,28126,1,2,0:0:0:0:
64,192,28610,1,8,0:0:0:0:
448,192,28610,1,2,0:0:0:0:
320,192,29094,1,2,0:0:0:0:
64,192,29578,1,8,0:0:0:0:
192,192,29578,1,2,0:0:0:0:
448,192,30062,1,2,0:0:0:0:
64,192,30546,1,8,0:0:0:0:
320,192,30546,1,2,0:0:0:0:
192,192,30788,1,0,0:0:0:0:
448,192,31029,1,2,0:0:0:0:
320,192,31271,1,0,0:0:0:50:Tom3.wav
64,192,31513,1,10,0:0:0:0:
192,192,31755,1,0,0:0:0:40:Tom3.wav
320,192,31997,128,2,32239:0:0:0:0:
448,192,31997,1,4,0:0:0:0:
192,192,32239,128,0,32481:0:0:0:0:
64,192,32481,128,8,32723:0:0:0:0:
448,192,32481,1,2,0:0:0:0:
320,192,32723,128,0,32965:0:0:0:0:
192,192,32965,128,2,33207:0:0:0:0:
448,192,33207,128,0,33449:0:0:0:0:
192,192,33449,1,8,0:0:0:0:
320,192,33449,128,2,33691:0:0:0:0:
64,192,33691,128,0,33933:0:0:0:0:
192,192,33933,128,2,34175:0:0:0:0:
448,192,34175,128,0,34417:0:0:0:0:
64,192,34417,128,8,34659:0:0:0:0:
320,192,34417,1,2,0:0:0:0:
192,192,34659,128,0,34900:0:0:0:0:
448,192,34900,128,2,35384:0:0:0:0:
320,192,35142,128,0,35384:0:0:0:0:
64,192,35384,1,8,0:0:0:0:
192,192,35384,1,2,0:0:0:0:
64,192,35626,128,0,35868:0:0:0:0:
448,192,35868,128,2,36110:0:0:0:0:
320,192,36110,128,0,36352:0:0:0:0:
64,192,36352,128,8,36594:0:0:0:0:
192,192,36352,1,2,0:0:0:0:
448,192,36594,128,0,36836:0:0:0:0:
192,192,36836,128,2,37078:0:0:0:0:
320,192,37078,128,0,37320:0:0:0:0:
64,192,37320,128,8,37562:0:0:0:0:
448,192,37320,1,2,0:0:0:0:
192,192,37562,128,0,37804:0:0:0:0:
448,192,37804,128,2,38046:0:0:0:0:
320,192,38046,128,0,38288:0:0:0:0:
192,192,38288,1,8,0:0:0:0:
64,192,38288,128,2,38529:0:0:0:0:
448,192,38529,128,0,38771:0:0:0:0:
192,192,38771,128,2,39255:0:0:0:0:
320,192,39013,128,0,39255:0:0:0:0:
64,192,39255,1,8,0:0:0:0:
448,192,39255,1,2,0:0:0:0:
64,192,39497,1,0,0:0:0:0:
320,192,39739,1,4,0:0:0:0:
448,192,39739,1,2,0:0:0:0:
192,192,39981,1,0,0:0:0:0:
64,192,40223,1,8,0:0:0:0:
320,192,40223,1,2,0:0:0:0:
192,192,40465,1,0,0:0:0:0:
320,192,40707,128,2,41191:0:0:0:0:
192,192,40949,128,0,41191:0:0:0:0:
64,192,41191,1,8,0:0:0:0:
448,192,41191,1,2,0:0:0:0:
448,192,41433,1,0,0:0:0:0:
64,192,41675,1,2,0:0:0:0:
192,192,41675,1,0,0:0:0:0:
320,192,41917,1,0,0:0:0:0:
192,192,42159,1,8,0:0:0:0:
448,192,42159,1,2,0:0:0:0:
320,192,42400,1,0,0:0:0:0:
192,192,42642,128,2,43126:0:0:0:0:
320,192,42884,128,0,43126:0:0:0:0:
64,192,43126,1,8,0:0:0:0:
448,192,43126,1,2,0:0:0:0:
448,192,43368,128,0,43610:0:0:0:0:
64,192,43610,128,2,43852:0:0:0:0:
192,192,43852,128,0,44094:0:0:0:0:
320,192,44094,1,8,0:0:0:0:
448,192,44094,128,2,44336:0:0:0:0:
64,192,44336,128,0,44578:0:0:0:0:
320,192,44578,128,2,44820:0:0:0:0:
192,192,44820,128,0,45062:0:0:0:0:
320,192,45062,1,8,0:0:0:0:
448,192,45062,128,2,45304:0:0:0:0:
64,192,45304,128,0,45546:0:0:0:0:
320,192,45546,1,2,0:0:0:0:
320,192,46029,1,2,0:0:0:0:
320,192,46513,1,2,0:0:0:0:
192,192,46755,1,0,0:0:0:50:Tom3.wav
64,192,46997,1,2,0:0:0:0:
448,192,47118,1,0,0:0:0:0:
320,192,47239,1,0,0:0:0:0:
192,192,47360,1,0,0:0:0:0:
64,192,47481,1,4,0:0:0:0:
448,192,47481,128,2,47723:0:0:0:0:
320,192,47723,1,0,0:0:0:0:
192,192,47965,1,2,0:0:0:0:
448,192,47965,128,8,48207:0:0:0:0:
64,192,48207,1,0,0:0:0:0:
320,192,48449,1,2,0:0:0:0:
320,192,48691,1,0,0:0:0:0:
64,192,48933,1,8,0:0:0:0:
448,192,48933,1,2,0:0:0:0:
64,192,49175,1,0,0:0:0:0:
448,192,49417,128,2,49659:0:0:0:0:
320,192,49659,128,0,49900:0:0:0:0:
192,192,49900,128,2,50142:0:0:0:0:
448,192,49900,1,8,0:0:0:0:
64,192,50142,128,0,50384:0:0:0:0:
320,192,50384,1,2,0:0:0:0:
192,192,50626,1,0,0:0:0:0:
192,192,50868,1,2,0:0:0:0:
448,192,50868,1,8,0:0:0:0:
448,192,51110,1,0,0:0:0:0:
64,192,51352,128,2,51594:0:0:0:0:
320,192,51352,1,0,0:0:0:0:
192,192,51594,1,0,0:0:0:0:
64,192,51836,128,8,52078:0:0:0:0:
320,192,51836,1,2,0:0:0:0:
448,192,52078,1,0,0:0:0:0:
192,192,52320,1,2,0:0:0:0:
192,192,52562,1,0,0:0:0:0:
320,192,52804,1,8,0:0:0:0:
448,192,52804,1,2,0:0:0:0:
320,192,53046,1,0,0:0:0:0:
64,192,53288,128,2,53529:0:0:0:0:
192,192,53529,128,0,53771:0:0:0:0:
64,192,53771,1,2,0:0:0:0:
320,192,53771,128,8,54013:0:0:0:0:
448,192,54013,128,0,54255:0:0:0:0:
64,192,54255,1,2,0:0:0:0:
192,192,54497,1,0,0:0:0:50:Tom3.wav
448,192,54739,1,10,0:0:0:0:
320,192,54860,1,0,0:0:0:0:
64,192,54981,1,0,0:0:0:0:
192,192,55102,1,0,0:0:0:0:
320,192,55223,1,2,0:0:0:0:
448,192,55223,128,4,55465:0:0:0:0:
64,192,55465,1,0,0:0:0:0:
192,192,55707,1,8,0:0:0:0:
448,192,55707,128,2,55949:0:0:0:0:
320,192,55949,1,0,0:0:0:0:
192,192,56191,1,2,0:0:0:0:
192,192,56433,1,0,0:0:0:0:
64,192,56675,1,8,0:0:0:0:
448,192,56675,1,2,0:0:0:0:
448,192,56917,1,0,0:0:0:0:
320,192,57159,128,2,57400:0:0:0:0:
192,192,57400,128,0,57642:0:0:0:0:
64,192,57642,128,2,57884:0:0:0:0:
320,192,57642,1,8,0:0:0:0:
448,192,57884,128,0,58126:0:0:0:0:
192,192,58126,1,2,0:0:0:0:
320,192,58368,128,0,58610:0:0:0:0:
64,192,58610,1,2,0:0:0:0:
448,192,58610,1,8,0:0:0:0:
192,192,58852,1,0,0:0:0:0:
448,192,59094,128,2,59336:0:0:0:0:
64,192,59336,128,0,59578:0:0:0:0:
192,192,59578,128,8,59820:0:0:0:0:
320,192,59578,1,2,0:0:0:0:
448,192,59820,1,0,0:0:0:0:
320,192,60062,128,2,60304:0:0:0:0:
192,192,60304,1,0,0:0:0:0:
64,192,60546,128,8,60788:0:0:0:0:
448,192,60546,1,2,0:0:0:0:
320,192,60788,128,0,61029:0:0:0:0:
64,192,61029,1,2,0:0:0:0:
192,192,61271,1,0,0:0:0:0:
320,192,61513,1,2,0:0:0:0:
448,192,61513,1,8,0:0:0:0:
64,192,61755,1,0,0:0:0:0:
64,192,61997,1,2,0:0:0:0:
448,192,62239,1,0,0:0:0:50:Tom2.wav
64,192,62481,1,10,0:0:0:0:
192,192,62602,1,0,0:0:0:0:
448,192,62723,1,0,0:0:0:0:
320,192,62844,1,0,0:0:0:0:
64,192,62965,1,2,0:0:0:0:
192,192,62965,128,4,63207:0:0:0:0:
448,192,63207,1,0,0:0:0:0:
192,192,63449,128,2,63691:0:0:0:0:
320,192,63449,1,8,0:0:0:0:
64,192,63691,1,0,0:0:0:0:
448,192,63933,128,2,64175:0:0:0:0:
320,192,64175,128,0,64417:0:0:0:0:
192,192,64417,128,2,64659:0:0:0:0:
448,192,64417,1,8,0:0:0:0:
64,192,64659,128,0,64900:0:0:0:0:
320,192,64900,128,2,65142:0:0:0:0:
448,192,65142,128,0,65384:0:0:0:0:
192,192,65384,128,8,65626:0:0:0:0:
320,192,65384,1,2,0:0:0:0:
64,192,65626,128,0,65868:0:0:0:0:
320,192,65868,1,2,0:0:0:0:
448,192,66110,1,0,0:0:0:0:
64,192,66352,1,8,0:0:0:0:
448,192,66352,1,2,0:0:0:0:
64,192,66594,1,0,0:0:0:0:
320,192,66836,128,2,67078:0:0:0:0:
192,192,67078,1,0,0:0:0:0:
64,192,67320,1,2,0:0:0:0:
320,192,67320,128,8,67562:0:0:0:0:
448,192,67562,1,0,0:0:0:0:
64,192,67804,128,2,68046:0:0:0:0:
192,192,68046,128,0,68288:0:0:0:0:
64,192,68288,1,2,0:0:0:0:
320,192,68288,128,8,68529:0:0:0:0:
448,192,68529,128,0,68771:0:0:0:0:
64,192,68771,128,2,69013:0:0:0:0:
320,192,69013,128,0,69255:0:0:0:0:
64,192,69255,1,8,0:0:0:0:
192,192,69255,128,2,69497:0:0:0:0:
448,192,69497,128,0,69739:0:0:0:0:
192,192,69739,1,2,0:0:0:0:
320,192,69981,1,0,0:0:0:50:Tom3.wav
64,192,70223,1,10,0:0:0:0:
192,192,70344,1,0,0:0:0:0:
448,192,70465,1,0,0:0:0:0:
320,192,70586,1,0,0:0:0:0:
64,192,70707,128,2,70949:0:0:0:0:
192,192,70707,1,4,0:0:0:0:
448,192,70949,1,0,0:0:0:0:
64,192,71191,128,2,71433:0:0:0:0:
320,192,71191,1,8,0:0:0:0:
192,192,71433,1,0,0:0:0:0:
448,192,71675,128,2,71917:0:0:0:0:
320,192,71917,128,0,72159:0:0:0:0:
192,192,72159,128,2,72400:0:0:0:0:
448,192,72159,1,8,0:0:0:0:
64,192,72400,128,0,72642:0:0:0:0:
192,192,72642,128,2,72884:0:0:0:0:
320,192,72884,128,0,73126:0:0:0:0:
192,192,73126,1,8,0:0:0:0:
448,192,73126,128,2,73368:0:0:0:0:
64,192,73368,128,0,73610:0:0:0:0:
320,192,73610,1,2,0:0:0:0:
192,192,73852,128,0,74094:0:0:0:0:
64,192,74094,1,8,0:0:0:0:
448,192,74094,1,2,0:0:0:0:
320,192,74336,1,0,0:0:0:0:
192,192,74578,128,2,74820:0:0:0:0:
448,192,74820,128,0,75062:0:0:0:0:
64,192,75062,128,2,75304:0:0:0:0:
192,192,75062,1,8,0:0:0:0:
320,192,75304,1,0,0:0:0:0:
448,192,75546,128,2,75788:0:0:0:0:
64,192,75788,1,0,0:0:0:0:
192,192,76029,1,2,0:0:0:0:
320,192,76029,128,8,76271:0:0:0:0:
64,192,76271,128,0,76513:0:0:0:0:
320,192,76513,1,2,0:0:0:0:
448,192,76755,128,0,76997:0:0:0:0:
64,192,76997,1,8,0:0:0:0:
192,192,76997,1,2,0:0:0:0:
320,192,77239,1,0,0:0:0:0:
320,192,77481,1,2,0:0:0:0:
448,192,77723,1,0,0:0:0:50:Tom2.wav
64,192,77965,1,10,0:0:0:0:
192,192,78086,1,0,0:0:0:0:
320,192,78207,1,0,0:0:0:0:
448,192,78328,1,0,0:0:0:0:
64,192,78449,1,2,0:0:0:0:
192,192,78449,128,4,78691:0:0:0:0:
320,192,78691,1,0,0:0:0:0:
192,192,78933,128,2,79175:0:0:0:0:
448,192,78933,1,8,0:0:0:0:
64,192,79175,1,0,0:0:0:0:
448,192,79417,128,2,79659:0:0:0:0:
320,192,79659,128,0,79900:0:0:0:0:
64,192,79900,128,2,80142:0:0:0:0:
192,192,79900,1,8,0:0:0:0:
320,192,80142,128,0,80384:0:0:0:0:
448,192,80384,128,2,80626:0:0:0:0:
192,192,80626,128,0,80868:0:0:0:0:
64,192,80868,128,8,81110:0:0:0:0:
320,192,80868,1,2,0:0:0:0:
448,192,81110,128,0,81352:0:0:0:0:
192,192,81352,1,2,0:0:0:0:
320,192,81594,128,0,81836:0:0:0:0:
64,192,81836,1,8,0:0:0:0:
448,192,81836,1,2,0:0:0:0:
192,192,82078,1,0,0:0:0:0:
448,192,82320,128,2,82562:0:0:0:0:
320,192,82562,128,0,82804:0:0:0:0:
64,192,82804,128,2,83046:0:0:0:0:
192,192,82804,1,8,0:0:0:0:
320,192,83046,1,0,0:0:0:0:
192,192,83288,128,2,83529:0:0:0:0:
448,192,83529,1,0,0:0:0:0:
64,192,83771,128,2,84013:0:0:0:0:
320,192,83771,1,8,0:0:0:0:
448,192,84013,128,0,84255:0:0:0:0:
64,192,84255,1,2,0:0:0:0:
192,192,84255,1,4,0:0:0:0:
448,192,84497,1,0,0:0:0:0:
64,192,84739,1,8,0:0:0:0:
320,192,84739,1,2,0:0:0:0:
192,192,84981,1,0,0:0:0:0:
448,192,85223,1,2,0:0:0:0:
320,192,85465,1,0,0:0:0:0:
64,192,85707,1,8,0:0:0:0:
192,192,85707,1,2,0:0:0:0:
448,192,85949,1,0,0:0:0:0:
192,192,86191,1,2,0:0:0:0:
320,192,86433,1,0,0:0:0:0:
64,192,86675,1,2,0:0:0:0:
448,192,86675,1,8,0:0:0:0:
192,192,86917,1,0,0:0:0:0:
320,192,87159,1,2,0:0:0:0:
192,192,87400,1,0,0:0:0:0:
64,192,87642,1,2,0:0:0:0:
448,192,87642,1,8,0:0:0:0:
320,192,87884,1,0,0:0:0:0:
448,192,88126,1,2,0:0:0:0:
64,192,88368,1,0,0:0:0:0:
192,192,88610,1,8,0:0:0:0:
320,192,88610,1,2,0:0:0:0:
448,192,88852,1,0,0:0:0:0:
64,192,89094,1,2,0:0:0:0:
192,192,89336,1,0,0:0:0:0:
320,192,89578,1,8,0:0:0:0:
448,192,89578,1,2,0:0:0:0:
64,192,89820,1,0,0:0:0:0:
320,192,90062,1,2,0:0:0:0:
192,192,90304,1,0,0:0:0:0:
64,192,90546,1,2,0:0:0:0:
448,192,90546,1,8,0:0:0:0:
320,192,90788,1,0,0:0:0:0:
192,192,90909,1,0,0:0:0:0:
64,192,91029,1,0,0:0:0:0:
320,192,91150,1,0,0:0:0:0:
448,192,91271,1,2,0:0:0:0:
320,192,91513,1,8,0:0:0:0:
64,192,91634,1,2,0:0:0:0:
192,192,91634,1,4,0:0:0:0:
448,192,91876,1,0,0:0:0:0:
64,192,91997,1,2,0:0:0:0:
192,192,91997,1,4,0:0:0:0:
320,192,92239,1,0,0:0:0:0:
64,192,92481,1,8,0:0:0:0:
448,192,92481,1,2,0:0:0:0:
192,192,92723,1,0,0:0:0:0:
448,192,92965,1,2,0:0:0:0:
320,192,93207,1,0,0:0:0:0:
64,192,93449,1,8,0:0:0:0:
192,192,93449,1,2,0:0:0:0:
448,192,93691,1,0,0:0:0:0:
320,192,93933,1,2,0:0:0:0:
64,192,94175,1,0,0:0:0:0:
192,192,94417,1,8,0:0:0:0:
448,192,94417,1,2,0:0:0:0:
320,192,94659,1,0,0:0:0:0:
64,192,94900,1,2,0:0:0:0:
192,192,95142,1,0,0:0:0:0:
320,192,95384,1,8,0:0:0:0:
448,192,95384,1,2,0:0:0:0:
64,192,95626,1,0,0:0:0:0:
448,192,95868,1,2,0:0:0:0:
320,192,96110,1,0,0:0:0:0:
64,192,96352,1,2,0:0:0:0:
192,192,96352,1,8,0:0:0:0:
448,192,96594,1,0,0:0:0:0:
64,192,96836,1,2,0:0:0:0:
320,192,97078,1,0,0:0:0:0:
192,192,97320,1,2,0:0:0:0:
448,192,97320,1,8,0:0:0:0:
64,192,97562,1,0,0:0:0:0:
448,192,97804,1,0,0:0:0:0:
320,192,97925,1,0,0:0:0:0:
64,192,98046,1,2,0:0:0:0:
192,192,98046,1,4,0:0:0:0:
192,192,98288,1,0,0:0:0:0:
320,192,98409,1,4,0:0:0:0:
448,192,98409,1,2,0:0:0:0:
320,192,98650,1,0,0:0:0:0:
64,192,98771,1,4,0:0:0:0:
192,192,98771,1,2,0:0:0:0:
448,192,99013,1,2,0:0:0:0:
320,192,99255,1,2,0:0:0:0:
192,192,99497,1,2,0:0:0:0:
