osu file format v14

[General]
AudioFilename: audio.ogg
AudioLeadIn: 0
PreviewTime: 46271
Countdown: 0
SampleSet: Soft
StackLeniency: 0.7
Mode: 3
LetterboxInBreaks: 0
SpecialStyle: 0
WidescreenStoryboard: 0

[Editor]
Bookmarks: 16509,31993,47477,84251
DistanceSpacing: 0.9
BeatDivisor: 4
GridSize: 8
TimelineZoom: 2.3

[Metadata]
Title:Cinema
TitleUnicode:シネマ
Artist:Vivid BAD SQUAD x KAITO
ArtistUnicode:Vivid BAD SQUAD × KAITO
Creator:DenYi
Version:Hard
Source:プロジェクトセカイ カラフルステージ! feat. 初音ミク
Tags:project sekai hatsune miku miku: colorful stage! jpop j-pop pop japanese BRMM-10457 Azusawa Kohane 小豆沢こはね Shiraishi An 白石杏 Shinonome Akito 東雲彰人 Aoyagi Toya 青柳冬弥 Fujita Saki 藤田 咲 Fuuga Naoto 風雅 なおと Akina 秋奈 Sumi Tomomi Jena 鷲見友美ジェナ Imai Fumiya 今井文也 Itou Kento 伊東健人 vocaloid video game version ver プロセカ proseka Ayase
BeatmapID:3510768
BeatmapSetID:1717948

[Difficulty]
HPDrainRate:8
CircleSize:4
OverallDifficulty:8
ApproachRate:5
SliderMultiplier:1.4
SliderTickRate:1

[Events]
//Background and Video events
0,0,"hard.jpg",0,0
//Break Periods
//Storyboard Layer 0 (Background)
//Storyboard Layer 1 (Fail)
//Storyboard Layer 2 (Pass)
//Storyboard Layer 3 (Foreground)
//Storyboard Layer 4 (Overlay)
//Storyboard Sound Samples

[TimingPoints]
1030,483.870967741935,4,2,1,60,1,0
47481,-100,4,2,1,60,0,1
61029,-100,4,2,1,60,0,0
62965,-100,4,2,1,60,0,1
76997,-100,4,2,1,60,0,0
78449,-100,4,2,1,60,0,1
84255,-100,4,2,1,60,0,0

[HitObjects]
64,192,1030,128,0,1271:0:0:0:0:
448,192,1030,128,0,1271:0:0:0:0:
64,192,1513,1,8,0:0:0:0:
192,192,1513,1,0,0:0:0:0:
320,192,1997,1,0,0:0:0:0:
64,192,2481,1,8,0:0:0:0:
448,192,2481,1,0,0:0:0:0:
320,192,2965,128,0,3207:0:0:0:0:
448,192,2965,128,0,3207:0:0:0:0:
192,192,3449,1,8,0:0:0:0:
320,192,3449,1,0,0:0:0:0:
64,192,3933,128,0,4175:0:0:0:0:
192,192,3933,128,0,4175:0:0:0:0:
192,192,4417,128,8,4659:0:0:0:0:
320,192,4417,128,0,4659:0:0:0:0:
320,192,4900,128,0,5142:0:0:0:0:
448,192,4900,128,0,5142:0:0:0:0:
64,192,5384,1,8,0:0:0:0:
448,192,5384,1,0,0:0:0:0:
192,192,5868,1,0,0:0:0:0:
320,192,6352,1,8,0:0:0:0:
448,192,6352,1,0,0:0:0:0:
64,192,6836,128,0,7078:0:0:0:0:
192,192,6836,128,0,7078:0:0:0:0:
64,192,7320,1,8,0:0:0:0:
448,192,7320,1,0,0:0:0:0:
320,192,7804,128,0,8046:0:0:0:0:
448,192,7804,128,0,8046:0:0:0:0:
64,192,8288,1,8,0:0:0:0:
448,192,8288,1,0,0:0:0:0:
192,192,8409,1,0,0:0:0:0:
320,192,8529,1,0,0:0:0:0:
448,192,8650,1,0,0:0:0:0:
64,192,8771,1,2,0:0:0:0:
192,192,8771,1,0,0:0:0:0:
64,192,9013,1,0,0:0:0:0:
320,192,9134,1,0,0:0:0:0:
192,192,9255,1,8,0:0:0:0:
448,192,9255,1,0,0:0:0:0:
320,192,9376,1,0,0:0:0:0:
448,192,9618,1,0,0:0:0:0:
320,192,9860,1,0,0:0:0:0:
64,192,9981,1,2,0:0:0:0:
192,192,9981,1,0,0:0:0:0:
320,192,10223,1,8,0:0:0:0:
448,192,10223,1,0,0:0:0:0:
64,192,10344,1,0,0:0:0:0:
192,192,10465,1,0,0:0:0:0:
320,192,10586,1,0,0:0:0:0:
64,192,10707,1,2,0:0:0:0:
448,192,10707,1,0,0:0:0:0:
448,192,10949,1,0,0:0:0:0:
192,192,11070,1,0,0:0:0:0:
64,192,11191,1,8,0:0:0:0:
320,192,11191,1,0,0:0:0:0:
192,192,11312,1,0,0:0:0:0:
64,192,11554,1,0,0:0:0:0:
192,192,11796,1,0,0:0:0:0:
320,192,11917,1,2,0:0:0:0:
448,192,11917,1,0,0:0:0:0:
64,192,12159,1,8,0:0:0:0:
192,192,12159,1,0,0:0:0:0:
448,192,12400,1,0,0:0:0:0:
64,192,12642,1,2,0:0:0:0:
320,192,12642,1,0,0:0:0:0:
320,192,12884,1,0,0:0:0:0:
192,192,13005,1,0,0:0:0:0:
64,192,13126,1,8,0:0:0:0:
448,192,13126,1,0,0:0:0:0:
192,192,13247,1,0,0:0:0:0:
448,192,13489,1,0,0:0:0:0:
320,192,13731,1,0,0:0:0:0:
64,192,13852,1,2,0:0:0:0:
192,192,13852,1,0,0:0:0:0:
320,192,13973,1,0,0:0:0:0:
64,192,14094,1,8,0:0:0:0:
448,192,14094,1,0,0:0:0:0:
448,192,14336,1,0,0:0:0:0:
192,192,14578,1,2,0:0:0:0:
320,192,14578,1,0,0:0:0:0:
64,192,14820,1,0,0:0:0:0:
448,192,14820,1,0,0:0:0:0:
320,192,15062,1,2,0:0:0:0:
192,192,15183,1,0,0:0:0:50:Tom1.wav
64,192,15304,1,0,0:0:0:50:Tom2.wav
192,192,15425,1,0,0:0:0:0:
320,192,15546,1,2,0:0:0:0:
448,192,15546,1,0,0:0:0:0:
320,192,15788,1,0,0:0:0:50:Tom2.wav
192,192,15909,1,0,0:0:0:0:
64,192,16029,1,2,0:0:0:0:
448,192,16029,1,0,0:0:0:0:
320,192,16150,1,0,0:0:0:0:
192,192,16271,1,0,0:0:0:0:
320,192,16392,1,0,0:0:0:0:
64,192,16513,1,4,0:0:0:0:
192,192,16513,1,2,0:0:0:0:
448,192,16513,1,0,0:0:0:0:
320,192,16755,1,0,0:0:0:0:
64,192,16997,1,8,0:0:0:0:
192,192,16997,1,2,0:0:0:0:
192,192,17239,1,0,0:0:0:0:
320,192,17481,1,2,0:0:0:0:
448,192,17481,1,0,0:0:0:0:
64,192,17723,1,0,0:0:0:0:
192,192,17965,1,8,0:0:0:0:
320,192,17965,1,2,0:0:0:0:
320,192,18207,1,0,0:0:0:0:
64,192,18449,1,2,0:0:0:0:
448,192,18449,1,0,0:0:0:0:
192,192,18691,1,0,0:0:0:0:
320,192,18933,1,8,0:0:0:0:
448,192,18933,1,2,0:0:0:0:
448,192,19175,1,0,0:0:0:0:
64,192,19417,1,2,0:0:0:0:
320,192,19417,1,0,0:0:0:0:
192,192,19659,1,0,0:0:0:0:
64,192,19900,1,8,0:0:0:0:
448,192,19900,1,2,0:0:0:0:
64,192,20142,1,0,0:0:0:0:
320,192,20384,1,2,0:0:0:0:
448,192,20384,1,0,0:0:0:0:
192,192,20626,1,0,0:0:0:0:
64,192,20868,1,8,0:0:0:0:
320,192,20868,1,2,0:0:0:0:
320,192,21110,1,0,0:0:0:0:
192,192,21352,1,2,0:0:0:0:
448,192,21352,1,0,0:0:0:0:
64,192,21594,1,0,0:0:0:0:
320,192,21836,1,8,0:0:0:0:
448,192,21836,1,2,0:0:0:0:
448,192,22078,1,0,0:0:0:0:
64,192,22320,1,2,0:0:0:0:
192,192,22320,1,0,0:0:0:0:
320,192,22562,1,0,0:0:0:0:
64,192,22804,1,8,0:0:0:0:
448,192,22804,1,2,0:0:0:0:
64,192,23046,1,0,0:0:0:0:
320,192,23288,1,2,0:0:0:0:
448,192,23288,1,0,0:0:0:0:
64,192,23409,1,0,0:0:0:0:
192,192,23529,1,0,0:0:0:50:Tom2.wav
320,192,23650,1,0,0:0:0:0:
64,192,23771,1,8,0:0:0:0:
192,192,23771,1,2,0:0:0:0:
448,192,23892,1,0,0:0:0:0:
320,192,24013,1,0,0:0:0:0:
192,192,24134,1,0,0:0:0:0:
64,192,24255,1,2,0:0:0:0:
320,192,24255,1,4,0:0:0:0:
448,192,24255,1,0,0:0:0:0:
192,192,24497,1,0,0:0:0:0:
320,192,24739,1,2,0:0:0:0:
448,192,24739,1,8,0:0:0:0:
320,192,24981,1,0,0:0:0:0:
64,192,25223,1,2,0:0:0:0:
192,192,25223,1,0,0:0:0:0:
448,192,25465,1,0,0:0:0:0:
192,192,25707,1,8,0:0:0:0:
320,192,25707,1,2,0:0:0:0:
192,192,25949,1,0,0:0:0:0:
64,192,26191,1,2,0:0:0:0:
448,192,26191,1,0,0:0:0:0:
320,192,26433,1,0,0:0:0:0:
64,192,26675,1,8,0:0:0:0:
192,192,26675,1,2,0:0:0:0:
64,192,26917,1,0,0:0:0:0:
192,192,27159,1,2,0:0:0:0:
448,192,27159,1,0,0:0:0:0:
320,192,27400,1,0,0:0:0:0:
64,192,27642,1,8,0:0:0:0:
448,192,27642,1,2,0:0:0:0:
448,192,27884,1,0,0:0:0:0:
64,192,28126,1,2,0:0:0:0:
192,192,28126,1,0,0:0:0:0:
320,192,28368,1,0,0:0:0:0:
192,192,28610,1,8,0:0:0:0:
448,192,28610,1,2,0:0:0:0:
192,192,28852,1,0,0:0:0:0:
64,192,29094,1,2,0:0:0:0:
448,192,29094,1,0,0:0:0:0:
320,192,29336,1,0,0:0:0:0:
64,192,29578,1,8,0:0:0:0:
192,192,29578,1,2,0:0:0:0:
64,192,29820,1,0,0:0:0:0:
320,192,30062,1,2,0:0:0:0:
448,192,30062,1,0,0:0:0:0:
192,192,30304,1,0,0:0:0:0:
64,192,30546,1,8,0:0:0:0:
448,192,30546,1,2,0:0:0:0:
320,192,30788,1,0,0:0:0:0:
192,192,30909,1,0,0:0:0:0:
64,192,31029,1,2,0:0:0:0:
448,192,31029,1,0,0:0:0:50:Tom1.wav
192,192,31271,1,0,0:0:0:50:Tom3.wav
320,192,31392,1,0,0:0:0:0:
64,192,31513,1,2,0:0:0:0:
448,192,31513,1,8,0:0:0:0:
192,192,31634,1,0,0:0:0:40:Tom2.wav
320,192,31755,1,0,0:0:0:40:Tom3.wav
192,192,31876,1,0,0:0:0:30:Tom3.wav
64,192,31997,128,2,32239:0:0:0:0:
320,192,31997,1,4,0:0:0:0:
448,192,31997,1,0,0:0:0:0:
448,192,32239,128,0,32481:0:0:0:0:
64,192,32481,1,8,0:0:0:0:
320,192,32481,1,2,0:0:0:0:
192,192,32602,128,0,32844:0:0:0:0:
64,192,32844,1,0,0:0:0:0:
192,192,32965,128,2,33207:0:0:0:0:
448,192,32965,1,0,0:0:0:0:
64,192,33207,1,0,0:0:0:0:
192,192,33328,1,0,0:0:0:0:
64,192,33449,1,8,0:0:0:0:
320,192,33449,1,2,0:0:0:0:
448,192,33570,1,0,0:0:0:0:
320,192,33691,128,0,33933:0:0:0:0:
192,192,33933,1,2,0:0:0:0:
448,192,33933,1,0,0:0:0:0:
320,192,34054,128,0,34296:0:0:0:0:
448,192,34296,1,0,0:0:0:0:
64,192,34417,128,8,34659:0:0:0:0:
320,192,34417,1,2,0:0:0:0:
192,192,34659,128,0,34900:0:0:0:0:
320,192,34900,1,2,0:0:0:0:
448,192,34900,128,0,35384:0:0:0:0:
320,192,35142,128,0,35384:0:0:0:0:
64,192,35384,1,8,0:0:0:0:
192,192,35384,1,2,0:0:0:0:
192,192,35626,128,0,35868:0:0:0:0:
64,192,35868,1,2,0:0:0:0:
320,192,35868,128,0,36110:0:0:0:0:
64,192,36110,128,0,36352:0:0:0:0:
192,192,36352,1,8,0:0:0:0:
448,192,36352,1,2,0:0:0:0:
320,192,36473,128,0,36715:0:0:0:0:
448,192,36715,1,0,0:0:0:0:
64,192,36836,1,2,0:0:0:0:
320,192,36836,128,0,37078:0:0:0:0:
448,192,37078,1,0,0:0:0:0:
320,192,37199,1,0,0:0:0:0:
192,192,37320,1,8,0:0:0:0:
448,192,37320,1,2,0:0:0:0:
64,192,37441,1,0,0:0:0:0:
192,192,37562,128,0,37804:0:0:0:0:
64,192,37804,1,2,0:0:0:0:
320,192,37804,1,0,0:0:0:0:
192,192,37925,128,0,38167:0:0:0:0:
64,192,38167,1,0,0:0:0:0:
192,192,38288,1,8,0:0:0:0:
448,192,38288,128,2,38529:0:0:0:0:
320,192,38529,128,0,38771:0:0:0:0:
64,192,38771,128,2,39255:0:0:0:0:
192,192,38771,1,0,0:0:0:0:
192,192,39013,128,0,39255:0:0:0:0:
320,192,39255,1,8,0:0:0:0:
448,192,39255,1,2,0:0:0:0:
64,192,39376,1,0,0:0:0:0:
192,192,39497,1,0,0:0:0:0:
320,192,39618,1,0,0:0:0:0:
64,192,39739,1,4,0:0:0:0:
192,192,39739,1,2,0:0:0:0:
448,192,39739,1,0,0:0:0:0:
448,192,39981,1,0,0:0:0:0:
320,192,40102,1,0,0:0:0:0:
64,192,40223,1,8,0:0:0:0:
192,192,40223,1,2,0:0:0:0:
64,192,40465,1,0,0:0:0:0:
192,192,40586,1,0,0:0:0:0:
320,192,40707,128,2,40949:0:0:0:0:
448,192,40707,128,0,40949:0:0:0:0:
64,192,40949,128,0,41191:0:0:0:0:
192,192,40949,128,0,41191:0:0:0:0:
320,192,41191,1,8,0:0:0:0:
448,192,41191,1,2,0:0:0:0:
64,192,41312,1,0,0:0:0:0:
192,192,41433,1,0,0:0:0:0:
320,192,41554,1,0,0:0:0:0:
64,192,41675,1,2,0:0:0:0:
448,192,41675,1,0,0:0:0:0:
64,192,41917,1,0,0:0:0:0:
192,192,42038,1,0,0:0:0:0:
320,192,42159,1,8,0:0:0:0:
448,192,42159,1,2,0:0:0:0:
448,192,42400,1,0,0:0:0:0:
320,192,42521,1,0,0:0:0:0:
64,192,42642,128,2,42884:0:0:0:0:
192,192,42642,128,0,42884:0:0:0:0:
320,192,42884,128,0,43126:0:0:0:0:
448,192,42884,128,0,43126:0:0:0:0:
64,192,43126,1,8,0:0:0:0:
192,192,43126,1,2,0:0:0:0:
64,192,43368,128,0,43610:0:0:0:0:
192,192,43610,1,2,0:0:0:0:
448,192,43610,128,0,44094:0:0:0:0:
320,192,43852,128,0,44094:0:0:0:0:
64,192,44094,1,8,0:0:0:0:
192,192,44094,128,2,44336:0:0:0:0:
448,192,44336,128,0,44578:0:0:0:0:
64,192,44578,128,2,45062:0:0:0:0:
320,192,44578,1,0,0:0:0:0:
192,192,44820,128,0,45062:0:0:0:0:
320,192,45062,1,8,0:0:0:0:
448,192,45062,1,2,0:0:0:0:
448,192,45304,128,0,46029:0:0:0:0:
64,192,45546,1,2,0:0:0:0:
192,192,45546,1,0,0:0:0:0:
64,192,46029,1,2,0:0:0:0:
192,192,46029,1,0,0:0:0:0:
64,192,46271,1,0,0:0:0:0:
448,192,46271,1,0,0:0:0:0:
320,192,46392,1,0,0:0:0:0:
192,192,46513,1,2,0:0:0:0:
448,192,46513,1,0,0:0:0:0:
64,192,46634,1,0,0:0:0:0:
320,192,46755,1,0,0:0:0:50:Tom3.wav
448,192,46755,1,0,0:0:0:0:
192,192,46876,1,0,0:0:0:0:
64,192,46997,1,2,0:0:0:0:
320,192,46997,1,0,0:0:0:0:
448,192,47118,1,0,0:0:0:0:
64,192,47239,1,0,0:0:0:0:
192,192,47360,1,0,0:0:0:0:
64,192,47481,128,4,47723:0:0:0:0:
320,192,47481,1,2,0:0:0:0:
448,192,47481,128,0,48449:0:0:0:0:
192,192,47965,128,2,48207:0:0:0:0:
320,192,47965,128,8,48449:0:0:0:0:
64,192,48449,128,2,48691:0:0:0:0:
192,192,48449,1,0,0:0:0:0:
192,192,48691,128,0,48933:0:0:0:0:
64,192,48933,1,8,0:0:0:0:
320,192,48933,128,2,49175:0:0:0:0:
64,192,49175,128,0,49417:0:0:0:0:
320,192,49417,1,2,0:0:0:0:
448,192,49417,128,0,49900:0:0:0:0:
320,192,49659,128,0,49900:0:0:0:0:
64,192,49900,128,2,50384:0:0:0:0:
192,192,49900,1,8,0:0:0:0:
192,192,50142,128,0,50384:0:0:0:0:
320,192,50384,1,2,0:0:0:0:
448,192,50384,1,0,0:0:0:0:
448,192,50626,128,0,51110:0:0:0:0:
192,192,50868,1,2,0:0:0:0:
320,192,50868,128,8,51352:0:0:0:0:
192,192,51110,128,0,51352:0:0:0:0:
64,192,51352,128,2,52320:0:0:0:0:
448,192,51352,128,0,51594:0:0:0:0:
192,192,51836,128,8,52320:0:0:0:0:
320,192,51836,128,2,52078:0:0:0:0:
320,192,52320,1,2,0:0:0:0:
448,192,52320,128,0,52562:0:0:0:0:
320,192,52562,128,0,52804:0:0:0:0:
64,192,52804,1,8,0:0:0:0:
192,192,52804,128,2,53046:0:0:0:0:
64,192,53046,128,0,53288:0:0:0:0:
320,192,53288,1,2,0:0:0:0:
448,192,53288,128,0,53771:0:0:0:0:
320,192,53529,128,0,53771:0:0:0:0:
64,192,53771,128,2,54255:0:0:0:0:
192,192,53771,1,8,0:0:0:0:
448,192,53933,1,0,0:0:0:0:
192,192,54013,128,0,54255:0:0:0:0:
320,192,54255,1,2,0:0:0:0:
448,192,54255,1,0,0:0:0:0:
64,192,54376,1,0,0:0:0:0:
192,192,54376,1,0,0:0:0:0:
320,192,54497,1,0,0:0:0:50:Tom3.wav
192,192,54618,1,0,0:0:0:0:
64,192,54739,1,2,0:0:0:0:
448,192,54739,1,8,0:0:0:0:
320,192,54860,1,0,0:0:0:0:
192,192,54981,1,0,0:0:0:0:
320,192,55102,1,0,0:0:0:0:
64,192,55223,128,2,56191:0:0:0:0:
192,192,55223,1,4,0:0:0:0:
448,192,55223,128,0,55465:0:0:0:0:
192,192,55707,128,8,56191:0:0:0:0:
320,192,55707,128,2,55949:0:0:0:0:
320,192,56191,1,2,0:0:0:0:
448,192,56191,128,0,56433:0:0:0:0:
320,192,56433,128,0,56675:0:0:0:0:
64,192,56675,1,8,0:0:0:0:
192,192,56675,128,2,56917:0:0:0:0:
448,192,56917,128,0,57159:0:0:0:0:
64,192,57159,128,2,57642:0:0:0:0:
192,192,57159,1,0,0:0:0:0:
192,192,57400,128,0,57884:0:0:0:0:
320,192,57642,128,2,58126:0:0:0:0:
448,192,57642,1,8,0:0:0:0:
64,192,57884,128,0,58126:0:0:0:0:
192,192,58126,1,2,0:0:0:0:
448,192,58126,1,0,0:0:0:0:
64,192,58368,128,0,58610:0:0:0:0:
448,192,58610,1,2,0:0:0:0:
192,192,58610,1,8,0:0:0:0:
192,192,58852,128,0,59215:0:0:0:0:
320,192,59094,128,2,59457:0:0:0:0:
448,192,59094,1,0,0:0:0:0:
448,192,59336,128,0,59457:0:0:0:0:
64,192,59457,128,0,59578:0:0:0:0:
320,192,59578,1,8,0:0:0:0:
448,192,59578,1,2,0:0:0:0:
192,192,59699,128,0,59941:0:0:0:0:
448,192,59941,128,0,60183:0:0:0:0:
64,192,60062,1,2,0:0:0:0:
192,192,60062,1,0,0:0:0:0:
320,192,60183,128,0,60425:0:0:0:0:
64,192,60425,128,0,60667:0:0:0:0:
192,192,60546,1,8,0:0:0:0:
448,192,60546,1,2,0:0:0:0:
320,192,60667,128,0,60788:0:0:0:0:
192,192,60788,128,0,61029:0:0:0:0:
64,192,61029,1,2,0:0:0:0:
448,192,61029,1,0,0:0:0:0:
320,192,61150,1,0,0:0:0:0:
64,192,61271,1,0,0:0:0:0:
192,192,61392,1,0,0:0:0:0:
320,192,61513,1,2,0:0:0:0:
448,192,61513,1,8,0:0:0:0:
64,192,61634,1,0,0:0:0:0:
320,192,61755,1,0,0:0:0:0:
192,192,61876,1,0,0:0:0:0:
320,192,61997,1,2,0:0:0:0:
448,192,61997,1,0,0:0:0:50:Tom1.wav
64,192,62118,1,0,0:0:0:0:
192,192,62118,1,0,0:0:0:0:
320,192,62239,1,0,0:0:0:50:Tom2.wav
448,192,62360,1,0,0:0:0:50:Tom3.wav
64,192,62481,1,2,0:0:0:0:
192,192,62481,1,8,0:0:0:0:
320,192,62602,1,0,0:0:0:0:
192,192,62723,1,0,0:0:0:0:
320,192,62844,1,0,0:0:0:0:
64,192,62965,128,2,63933:0:0:0:0:
192,192,62965,128,4,63207:0:0:0:0:
448,192,62965,1,0,0:0:0:0:
320,192,63449,128,2,63691:0:0:0:0:
448,192,63449,128,8,63933:0:0:0:0:
192,192,63933,1,2,0:0:0:0:
320,192,63933,128,0,64417:0:0:0:0:
192,192,64175,128,0,64417:0:0:0:0:
64,192,64417,1,2,0:0:0:0:
448,192,64417,128,8,64900:0:0:0:0:
320,192,64659,128,0,64900:0:0:0:0:
64,192,64900,128,2,65142:0:0:0:0:
192,192,64900,1,0,0:0:0:0:
192,192,65142,128,0,65384:0:0:0:0:
320,192,65384,128,8,65626:0:0:0:0:
448,192,65384,1,2,0:0:0:0:
448,192,65626,128,0,65868:0:0:0:0:
64,192,65868,1,2,0:0:0:0:
192,192,65868,1,0,0:0:0:0:
64,192,66110,128,0,66594:0:0:0:0:
192,192,66352,128,8,66836:0:0:0:0:
320,192,66352,1,2,0:0:0:0:
320,192,66594,128,0,66836:0:0:0:0:
64,192,66836,128,2,67078:0:0:0:0:
448,192,66836,128,0,67804:0:0:0:0:
192,192,67320,128,2,67562:0:0:0:0:
320,192,67320,128,8,67804:0:0:0:0:
64,192,67804,128,2,68288:0:0:0:0:
192,192,67804,1,0,0:0:0:0:
320,192,68046,128,0,68288:0:0:0:0:
192,192,68288,128,2,68771:0:0:0:0:
448,192,68288,1,8,0:0:0:0:
448,192,68529,128,0,68771:0:0:0:0:
64,192,68771,128,2,69013:0:0:0:0:
320,192,68771,1,0,0:0:0:0:
192,192,69013,128,0,69255:0:0:0:0:
320,192,69255,128,8,69497:0:0:0:0:
448,192,69255,1,2,0:0:0:0:
448,192,69497,128,0,69739:0:0:0:0:
64,192,69739,1,2,0:0:0:0:
192,192,69739,1,0,0:0:0:0:
320,192,69860,1,0,0:0:0:0:
448,192,69860,1,0,0:0:0:0:
192,192,69981,1,0,0:0:0:50:Tom3.wav
320,192,70102,1,0,0:0:0:0:
64,192,70223,1,8,0:0:0:0:
448,192,70223,1,2,0:0:0:0:
192,192,70344,1,0,0:0:0:0:
320,192,70465,1,0,0:0:0:0:
192,192,70586,1,0,0:0:0:0:
64,192,70707,128,2,71675:0:0:0:0:
320,192,70707,1,4,0:0:0:0:
448,192,70707,128,0,70949:0:0:0:0:
192,192,71191,128,2,71675:0:0:0:0:
320,192,71191,128,8,71433:0:0:0:0:
320,192,71675,1,2,0:0:0:0:
448,192,71675,128,0,71917:0:0:0:0:
320,192,71917,128,0,72159:0:0:0:0:
192,192,72159,128,2,72400:0:0:0:0:
448,192,72159,1,8,0:0:0:0:
64,192,72400,128,0,72642:0:0:0:0:
320,192,72642,1,2,0:0:0:0:
448,192,72642,128,0,73126:0:0:0:0:
320,192,72884,128,0,73368:0:0:0:0:
64,192,73126,1,8,0:0:0:0:
192,192,73126,128,2,73610:0:0:0:0:
448,192,73368,128,0,73610:0:0:0:0:
64,192,73610,1,2,0:0:0:0:
320,192,73610,1,0,0:0:0:0:
448,192,73852,128,0,74094:0:0:0:0:
192,192,74094,1,8,0:0:0:0:
320,192,74094,1,2,0:0:0:0:
320,192,74336,128,0,74699:0:0:0:0:
192,192,74578,128,2,74941:0:0:0:0:
448,192,74578,1,0,0:0:0:0:
64,192,74820,128,0,74941:0:0:0:0:
448,192,74941,128,0,75062:0:0:0:0:
64,192,75062,1,2,0:0:0:0:
192,192,75062,1,8,0:0:0:0:
320,192,75183,128,0,75425:0:0:0:0:
64,192,75425,128,0,75667:0:0:0:0:
320,192,75546,1,2,0:0:0:0:
448,192,75546,1,0,0:0:0:0:
192,192,75667,128,0,75909:0:0:0:0:
448,192,75909,128,0,76150:0:0:0:0:
64,192,76029,1,2,0:0:0:0:
320,192,76029,1,8,0:0:0:0:
192,192,76150,128,0,76271:0:0:0:0:
320,192,76271,128,0,76392:0:0:0:0:
64,192,76392,128,0,76997:0:0:0:0:
192,192,76513,1,2,0:0:0:0:
448,192,76513,1,0,0:0:0:0:
192,192,76755,128,0,76997:0:0:0:0:
320,192,76997,1,8,0:0:0:0:
448,192,76997,1,2,0:0:0:0:
64,192,77118,1,0,0:0:0:0:
320,192,77239,1,0,0:0:0:0:
192,192,77360,1,0,0:0:0:0:
320,192,77481,1,2,0:0:0:0:
448,192,77481,1,0,0:0:0:50:Tom1.wav
64,192,77602,1,0,0:0:0:0:
192,192,77602,1,0,0:0:0:0:
448,192,77723,1,0,0:0:0:50:Tom2.wav
64,192,77844,1,0,0:0:0:50:Tom3.wav
192,192,77965,1,8,0:0:0:0:
320,192,77965,1,2,0:0:0:0:
448,192,78086,1,0,0:0:0:0:
64,192,78207,1,0,0:0:0:0:
448,192,78328,1,0,0:0:0:0:
64,192,78449,128,2,79417:0:0:0:0:
192,192,78449,1,4,0:0:0:0:
320,192,78449,128,0,78691:0:0:0:0:
192,192,78933,128,2,79417:0:0:0:0:
448,192,78933,128,8,79175:0:0:0:0:
320,192,79417,128,2,79900:0:0:0:0:
448,192,79417,1,0,0:0:0:0:
192,192,79659,128,0,79900:0:0:0:0:
64,192,79900,128,2,80384:0:0:0:0:
448,192,79900,1,8,0:0:0:0:
448,192,80142,128,0,80384:0:0:0:0:
192,192,80384,128,2,80868:0:0:0:0:
320,192,80384,1,0,0:0:0:0:
320,192,80626,128,0,81110:0:0:0:0:
64,192,80868,1,8,0:0:0:0:
448,192,80868,128,2,81352:0:0:0:0:
192,192,81110,128,0,81352:0:0:0:0:
64,192,81352,1,2,0:0:0:0:
320,192,81352,1,0,0:0:0:0:
192,192,81594,128,0,81836:0:0:0:0:
320,192,81836,1,8,0:0:0:0:
448,192,81836,1,2,0:0:0:0:
320,192,82078,128,0,82441:0:0:0:0:
192,192,82320,128,2,82683:0:0:0:0:
448,192,82320,1,0,0:0:0:0:
64,192,82562,128,0,82683:0:0:0:0:
448,192,82683,128,0,82804:0:0:0:0:
64,192,82804,1,2,0:0:0:0:
192,192,82804,1,8,0:0:0:0:
320,192,82925,128,0,83167:0:0:0:0:
192,192,83167,128,0,83409:0:0:0:0:
320,192,83288,1,2,0:0:0:0:
448,192,83288,1,0,0:0:0:0:
64,192,83409,128,0,83650:0:0:0:0:
320,192,83650,1,0,0:0:0:0:
192,192,83771,1,2,0:0:0:0:
448,192,83771,128,8,84013:0:0:0:0:
320,192,84013,128,0,84255:0:0:0:0:
64,192,84255,1,2,0:0:0:0:
192,192,84255,1,4,0:0:0:0:
448,192,84255,1,0,0:0:0:0:
320,192,84376,1,0,0:0:0:0:
64,192,84497,1,0,0:0:0:0:
192,192,84618,1,0,0:0:0:0:
320,192,84739,1,8,0:0:0:0:
448,192,84739,1,2,0:0:0:0:
64,192,84860,128,0,84981:0:0:0:0:
192,192,84860,128,0,84981:0:0:0:0:
192,192,85102,128,0,85223:0:0:0:0:
64,192,85223,1,2,0:0:0:0:
320,192,85223,1,0,0:0:0:0:
448,192,85344,1,0,0:0:0:0:
192,192,85465,1,0,0:0:0:0:
64,192,85586,1,0,0:0:0:0:
320,192,85707,1,8,0:0:0:0:
448,192,85707,1,2,0:0:0:0:
192,192,85828,1,0,0:0:0:0:
448,192,85949,1,0,0:0:0:0:
320,192,86070,1,0,0:0:0:0:
64,192,86191,1,2,0:0:0:0:
192,192,86191,1,0,0:0:0:0:
320,192,86312,1,0,0:0:0:0:
64,192,86433,1,0,0:0:0:0:
192,192,86554,1,0,0:0:0:0:
64,192,86675,1,2,0:0:0:0:
320,192,86675,1,8,0:0:0:0:
192,192,86796,128,0,86917:0:0:0:0:
448,192,86796,128,0,86917:0:0:0:0:
192,192,87038,128,0,87159:0:0:0:0:
64,192,87159,1,2,0:0:0:0:
448,192,87159,1,0,0:0:0:0:
320,192,87279,1,0,0:0:0:0:
192,192,87400,1,0,0:0:0:0:
64,192,87521,1,0,0:0:0:0:
320,192,87642,1,2,0:0:0:0:
448,192,87642,1,8,0:0:0:0:
192,192,87763,1,0,0:0:0:0:
320,192,87884,1,0,0:0:0:0:
192,192,88005,1,0,0:0:0:0:
64,192,88126,1,2,0:0:0:0:
448,192,88126,1,0,0:0:0:0:
320,192,88247,1,0,0:0:0:0:
64,192,88368,1,0,0:0:0:0:
192,192,88489,1,0,0:0:0:0:
320,192,88610,1,8,0:0:0:0:
448,192,88610,1,2,0:0:0:0:
64,192,88731,128,0,88852:0:0:0:0:
192,192,88731,128,0,88852:0:0:0:0:
192,192,88973,128,0,89094:0:0:0:0:
64,192,89094,1,2,0:0:0:0:
448,192,89094,1,0,0:0:0:0:
192,192,89215,1,0,0:0:0:0:
320,192,89336,1,0,0:0:0:0:
64,192,89457,1,0,0:0:0:0:
192,192,89578,1,8,0:0:0:0:
448,192,89578,1,2,0:0:0:0:
320,192,89699,1,0,0:0:0:0:
192,192,89820,1,0,0:0:0:0:
64,192,89941,1,0,0:0:0:0:
320,192,90062,1,2,0:0:0:0:
448,192,90062,1,0,0:0:0:0:
192,192,90183,1,0,0:0:0:0:
320,192,90304,1,0,0:0:0:0:
64,192,90425,1,0,0:0:0:0:
192,192,90546,1,2,0:0:0:0:
448,192,90546,1,8,0:0:0:0:
320,192,90667,1,0,0:0:0:0:
64,192,90788,1,0,0:0:0:0:
320,192,90909,1,0,0:0:0:0:
448,192,90909,1,0,0:0:0:0:
64,192,91029,1,0,0:0:0:0:
192,192,91029,1,0,0:0:0:0:
320,192,91150,1,0,0:0:0:0:
64,192,91271,1,2,0:0:0:0:
448,192,91271,1,0,0:0:0:0:
320,192,91513,1,8,0:0:0:0:
64,192,91634,1,2,0:0:0:0:
192,192,91634,1,4,0:0:0:0:
448,192,91634,1,0,0:0:0:0:
192,192,91876,1,0,0:0:0:0:
64,192,91997,1,2,0:0:0:0:
320,192,91997,1,4,0:0:0:0:
448,192,91997,1,0,0:0:0:0:
192,192,92118,1,0,0:0:0:0:
448,192,92239,1,0,0:0:0:0:
320,192,92360,1,0,0:0:0:0:
64,192,92481,1,8,0:0:0:0:
192,192,92481,1,2,0:0:0:0:
320,192,92602,128,0,92723:0:0:0:0:
448,192,92602,128,0,92723:0:0:0:0:
320,192,92844,128,0,92965:0:0:0:0:
192,192,92965,1,2,0:0:0:0:
448,192,92965,1,0,0:0:0:0:
64,192,93086,1,0,0:0:0:0:
320,192,93207,1,0,0:0:0:0:
448,192,93328,1,0,0:0:0:0:
64,192,93449,1,8,0:0:0:0:
192,192,93449,1,2,0:0:0:0:
320,192,93570,1,0,0:0:0:0:
64,192,93691,1,0,0:0:0:0:
192,192,93812,1,0,0:0:0:0:
320,192,93933,1,2,0:0:0:0:
448,192,93933,1,0,0:0:0:0:
64,192,94054,1,0,0:0:0:0:
448,192,94175,1,0,0:0:0:0:
320,192,94296,1,0,0:0:0:0:
192,192,94417,1,8,0:0:0:0:
448,192,94417,1,2,0:0:0:0:
64,192,94538,128,0,94659:0:0:0:0:
320,192,94538,128,0,94659:0:0:0:0:
320,192,94779,128,0,94900:0:0:0:0:
192,192,94900,1,2,0:0:0:0:
448,192,94900,1,0,0:0:0:0:
320,192,95021,1,0,0:0:0:0:
64,192,95142,1,0,0:0:0:0:
192,192,95263,1,0,0:0:0:0:
64,192,95384,1,8,0:0:0:0:
448,192,95384,1,2,0:0:0:0:
320,192,95505,1,0,0:0:0:0:
192,192,95626,1,0,0:0:0:0:
320,192,95747,1,0,0:0:0:0:
64,192,95868,1,2,0:0:0:0:
448,192,95868,1,0,0:0:0:0:
192,192,95989,1,0,0:0:0:0:
320,192,96110,1,0,0:0:0:0:
64,192,96231,1,0,0:0:0:0:
192,192,96352,1,2,0:0:0:0:
320,192,96352,1,8,0:0:0:0:
64,192,96473,128,0,96594:0:0:0:0:
448,192,96473,128,0,96594:0:0:0:0:
448,192,96715,128,0,96836:0:0:0:0:
64,192,96836,1,2,0:0:0:0:
320,192,96836,1,0,0:0:0:0:
448,192,96957,1,0,0:0:0:0:
192,192,97078,1,0,0:0:0:0:
64,192,97199,1,0,0:0:0:0:
320,192,97320,1,2,0:0:0:0:
448,192,97320,1,8,0:0:0:0:
192,192,97441,1,0,0:0:0:0:
320,192,97562,1,0,0:0:0:0:
64,192,97683,1,2,0:0:0:0:
448,192,97683,1,0,0:0:0:0:
320,192,97804,1,0,0:0:0:0:
192,192,97925,1,0,0:0:0:0:
64,192,98046,1,2,0:0:0:0:
320,192,98046,1,4,0:0:0:0:
448,192,98046,1,0,0:0:0:0:
448,192,98288,1,0,0:0:0:0:
64,192,98409,1,4,0:0:0:0:
192,192,98409,1,2,0:0:0:0:
320,192,98409,1,0,0:0:0:0:
64,192,98650,1,0,0:0:0:0:
192,192,98771,1,4,0:0:0:0:
320,192,98771,1,2,0:0:0:0:
448,192,98771,1,0,0:0:0:0:
64,192,99013,1,2,0:0:0:0:
192,192,99013,1,0,0:0:0:0:
192,192,99255,1,2,0:0:0:0:
320,192,99255,1,0,0:0:0:0:
320,192,99497,1,2,0:0:0:0:
448,192,99497,1,0,0:0:0:0:
