osu file format v14

[General]
AudioFilename: audio.ogg
AudioLeadIn: 0
PreviewTime: 46271
Countdown: 0
SampleSet: Soft
StackLeniency: 0.7
Mode: 3
LetterboxInBreaks: 0
SpecialStyle: 0
WidescreenStoryboard: 1

[Editor]
Bookmarks: 16509,31993,47477,84251
DistanceSpacing: 0.9
BeatDivisor: 4
GridSize: 8
TimelineZoom: 1

[Metadata]
Title:Cinema
TitleUnicode:シネマ
Artist:Vivid BAD SQUAD x KAITO
ArtistUnicode:Vivid BAD SQUAD × KAITO
Creator:DenYi
Version:Easy
Source:プロジェクトセカイ カラフルステージ! feat. 初音ミク
Tags:project sekai hatsune miku miku: colorful stage! jpop j-pop pop japanese BRMM-10457 Azusawa Kohane 小豆沢こはね Shiraishi An 白石杏 Shinonome Akito 東雲彰人 Aoyagi Toya 青柳冬弥 Fujita Saki 藤田 咲 Fuuga Naoto 風雅 なおと Akina 秋奈 Sumi Tomomi Jena 鷲見友美ジェナ Imai Fumiya 今井文也 Itou Kento 伊東健人 vocaloid video game version ver プロセカ proseka Ayase
BeatmapID:3510767
BeatmapSetID:1717948

[Difficulty]
HPDrainRate:7
CircleSize:4
OverallDifficulty:7
ApproachRate:5
SliderMultiplier:1.4
SliderTickRate:1

[Events]
//Background and Video events
0,0,"easy.jpg",0,0
//Break Periods
//Storyboard Layer 0 (Background)
//Storyboard Layer 1 (Fail)
//Storyboard Layer 2 (Pass)
//Storyboard Layer 3 (Foreground)
//Storyboard Layer 4 (Overlay)
//Storyboard Sound Samples
Sample,31029,0,"Tom1.wav",50
Sample,61997,0,"Tom1.wav",50
Sample,77481,0,"Tom1.wav",50

[TimingPoints]
1030,483.870967741935,4,2,1,60,1,0
47481,-100,4,2,1,60,0,1
61029,-100,4,2,1,60,0,0
62965,-100,4,2,1,60,0,1
76997,-100,4,2,1,60,0,0
78449,-100,4,2,1,60,0,1
84255,-100,4,2,1,60,0,0

[HitObjects]
64,192,1030,5,0,0:0:0:0:
320,192,1513,1,8,0:0:0:0:
192,192,2481,1,8,0:0:0:0:
448,192,2965,1,0,0:0:0:0:
320,192,3449,1,8,0:0:0:0:
64,192,3933,1,0,0:0:0:0:
192,192,4417,1,8,0:0:0:0:
320,192,4900,1,0,0:0:0:0:
64,192,5384,1,8,0:0:0:0:
448,192,6352,1,8,0:0:0:0:
192,192,6836,1,0,0:0:0:0:
320,192,7320,1,8,0:0:0:0:
192,192,7804,1,0,0:0:0:0:
64,192,8288,1,8,0:0:0:0:
448,192,8771,1,2,0:0:0:0:
192,192,9255,1,8,0:0:0:0:
320,192,9618,1,0,0:0:0:0:
64,192,9981,1,2,0:0:0:0:
448,192,10223,1,8,0:0:0:0:
192,192,10707,1,2,0:0:0:0:
320,192,11191,1,8,0:0:0:0:
64,192,11554,1,0,0:0:0:0:
448,192,11917,1,2,0:0:0:0:
192,192,12159,1,8,0:0:0:0:
320,192,12642,1,2,0:0:0:0:
64,192,13126,1,8,0:0:0:0:
448,192,13489,1,0,0:0:0:0:
192,192,13852,1,2,0:0:0:0:
320,192,14094,1,8,0:0:0:0:
448,192,14578,128,2,15062:0:0:0:0:
320,192,15062,128,2,15546:0:0:0:0:
192,192,15546,128,2,16029:0:0:0:0:
64,192,16029,128,2,16513:0:0:0:0:
448,192,16513,1,6,0:0:0:0:
192,192,16997,1,10,0:0:0:0:
320,192,17481,1,2,0:0:0:0:
64,192,17965,1,10,0:0:0:0:
448,192,18449,1,2,0:0:0:0:
192,192,18933,1,10,0:0:0:0:
320,192,19417,1,2,0:0:0:0:
64,192,19900,1,10,0:0:0:0:
192,192,20384,1,2,0:0:0:0:
448,192,20868,1,10,0:0:0:0:
320,192,21352,1,2,0:0:0:0:
64,192,21836,1,10,0:0:0:0:
448,192,22320,1,2,0:0:0:0:
192,192,22804,1,10,0:0:0:0:
320,192,23288,128,2,23771:0:0:0:0:
64,192,23771,1,10,0:0:0:0:
192,192,24013,1,0,0:0:0:0:
448,192,24255,1,6,0:0:0:0:
64,192,24739,1,10,0:0:0:0:
448,192,25223,1,2,0:0:0:0:
192,192,25707,1,10,0:0:0:0:
320,192,26191,1,2,0:0:0:0:
64,192,26675,1,10,0:0:0:0:
448,192,27159,1,2,0:0:0:0:
192,192,27642,1,10,0:0:0:0:
320,192,28126,1,2,0:0:0:0:
64,192,28610,1,10,0:0:0:0:
192,192,29094,1,2,0:0:0:0:
448,192,29578,1,10,0:0:0:0:
64,192,30062,1,2,0:0:0:0:
448,192,30546,1,10,0:0:0:0:
192,192,30788,1,0,0:0:0:0:
320,192,31029,128,2,31513:0:0:0:0:
64,192,31513,1,10,0:0:0:0:
448,192,31755,1,0,0:0:0:40:Tom3.wav
320,192,31997,1,6,0:0:0:0:
192,192,32481,1,10,0:0:0:0:
448,192,32965,1,2,0:0:0:0:
64,192,33449,1,10,0:0:0:0:
320,192,33933,1,2,0:0:0:0:
192,192,34417,1,10,0:0:0:0:
448,192,34900,1,2,0:0:0:0:
64,192,35384,1,10,0:0:0:0:
192,192,35868,1,2,0:0:0:0:
448,192,36352,1,10,0:0:0:0:
320,192,36836,1,2,0:0:0:0:
192,192,37320,1,10,0:0:0:0:
64,192,37804,1,2,0:0:0:0:
320,192,38288,1,10,0:0:0:0:
192,192,38771,1,2,0:0:0:0:
448,192,39255,1,10,0:0:0:0:
320,192,39497,1,0,0:0:0:0:
64,192,39739,1,6,0:0:0:0:
320,192,40223,1,10,0:0:0:0:
448,192,40707,1,2,0:0:0:0:
192,192,41191,1,10,0:0:0:0:
320,192,41675,1,2,0:0:0:0:
64,192,42159,1,10,0:0:0:0:
448,192,42642,1,2,0:0:0:0:
192,192,43126,1,10,0:0:0:0:
320,192,43610,1,2,0:0:0:0:
64,192,44094,1,10,0:0:0:0:
448,192,44578,1,2,0:0:0:0:
320,192,45062,1,10,0:0:0:0:
192,192,45546,1,2,0:0:0:0:
192,192,46029,1,2,0:0:0:0:
448,192,46513,1,2,0:0:0:0:
64,192,46755,1,0,0:0:0:50:Tom3.wav
320,192,46997,1,2,0:0:0:0:
192,192,47239,1,0,0:0:0:0:
448,192,47481,128,6,47965:0:0:0:0:
64,192,47965,128,10,48449:0:0:0:0:
448,192,48449,1,2,0:0:0:0:
320,192,48691,1,0,0:0:0:0:
192,192,48933,1,10,0:0:0:0:
64,192,49175,1,0,0:0:0:0:
448,192,49417,128,2,49900:0:0:0:0:
192,192,49900,1,10,0:0:0:0:
320,192,50142,128,0,50626:0:0:0:0:
64,192,50626,1,0,0:0:0:0:
192,192,50868,1,10,0:0:0:0:
320,192,51110,1,0,0:0:0:0:
448,192,51352,128,2,51836:0:0:0:0:
64,192,51836,128,10,52320:0:0:0:0:
448,192,52320,1,2,0:0:0:0:
320,192,52562,1,0,0:0:0:0:
192,192,52804,1,10,0:0:0:0:
64,192,53046,1,0,0:0:0:0:
448,192,53288,128,2,53771:0:0:0:0:
192,192,53771,1,10,0:0:0:0:
320,192,54013,128,0,54497:0:0:0:0:
64,192,54497,1,0,0:0:0:50:Tom3.wav
448,192,54739,1,10,0:0:0:0:
320,192,54981,1,0,0:0:0:0:
64,192,55223,128,6,55707:0:0:0:0:
448,192,55707,128,10,56191:0:0:0:0:
64,192,56191,1,2,0:0:0:0:
192,192,56433,1,0,0:0:0:0:
320,192,56675,1,10,0:0:0:0:
448,192,56917,1,0,0:0:0:0:
64,192,57159,128,2,57642:0:0:0:0:
192,192,57642,1,10,0:0:0:0:
448,192,57884,128,0,58368:0:0:0:0:
320,192,58368,1,0,0:0:0:0:
64,192,58610,1,10,0:0:0:0:
448,192,58852,1,0,0:0:0:0:
192,192,59094,128,2,59578:0:0:0:0:
320,192,59578,128,10,60062:0:0:0:0:
192,192,60062,128,2,60546:0:0:0:0:
64,192,60546,128,10,61029:0:0:0:0:
448,192,61029,1,2,0:0:0:0:
320,192,61513,1,10,0:0:0:0:
64,192,61997,1,2,0:0:0:0:
192,192,62239,1,0,0:0:0:50:Tom2.wav
448,192,62481,1,10,0:0:0:0:
320,192,62723,1,0,0:0:0:0:
64,192,62965,128,6,63449:0:0:0:0:
448,192,63449,128,10,63933:0:0:0:0:
64,192,63933,1,2,0:0:0:0:
192,192,64175,1,0,0:0:0:0:
320,192,64417,1,10,0:0:0:0:
448,192,64659,1,0,0:0:0:0:
64,192,64900,128,2,65384:0:0:0:0:
320,192,65384,1,10,0:0:0:0:
192,192,65626,128,0,66110:0:0:0:0:
448,192,66110,1,0,0:0:0:0:
320,192,66352,1,10,0:0:0:0:
192,192,66594,1,0,0:0:0:0:
64,192,66836,128,2,67320:0:0:0:0:
448,192,67320,128,10,67804:0:0:0:0:
64,192,67804,1,2,0:0:0:0:
192,192,68046,1,0,0:0:0:0:
320,192,68288,1,10,0:0:0:0:
448,192,68529,1,0,0:0:0:0:
192,192,68771,128,2,69255:0:0:0:0:
448,192,69255,1,10,0:0:0:0:
320,192,69497,128,0,69981:0:0:0:0:
64,192,69981,1,0,0:0:0:50:Tom3.wav
192,192,70223,1,10,0:0:0:0:
320,192,70465,1,0,0:0:0:0:
448,192,70707,128,6,71191:0:0:0:0:
64,192,71191,128,10,71675:0:0:0:0:
448,192,71675,1,2,0:0:0:0:
320,192,71917,1,0,0:0:0:0:
192,192,72159,1,10,0:0:0:0:
64,192,72400,1,0,0:0:0:0:
448,192,72642,128,2,73126:0:0:0:0:
192,192,73126,1,10,0:0:0:0:
320,192,73368,128,0,73852:0:0:0:0:
64,192,73852,1,0,0:0:0:0:
448,192,74094,1,10,0:0:0:0:
192,192,74336,1,0,0:0:0:0:
64,192,74578,128,2,75062:0:0:0:0:
320,192,75062,128,10,75546:0:0:0:0:
192,192,75546,128,2,76029:0:0:0:0:
448,192,76029,128,10,76513:0:0:0:0:
64,192,76513,128,2,76997:0:0:0:0:
448,192,76997,1,10,0:0:0:0:
320,192,77481,1,2,0:0:0:0:
64,192,77723,1,0,0:0:0:50:Tom2.wav
448,192,77965,1,10,0:0:0:0:
192,192,78207,1,0,0:0:0:0:
320,192,78449,128,6,78933:0:0:0:0:
64,192,78933,128,10,79417:0:0:0:0:
448,192,79417,1,2,0:0:0:0:
320,192,79659,1,0,0:0:0:0:
192,192,79900,1,10,0:0:0:0:
64,192,80142,1,0,0:0:0:0:
448,192,80384,128,2,80868:0:0:0:0:
64,192,80868,1,10,0:0:0:0:
192,192,81110,128,0,81594:0:0:0:0:
320,192,81594,1,0,0:0:0:0:
448,192,81836,1,10,0:0:0:0:
192,192,82078,1,0,0:0:0:0:
64,192,82320,128,2,82804:0:0:0:0:
448,192,82804,128,10,83288:0:0:0:0:
320,192,83288,128,2,83771:0:0:0:0:
192,192,83771,128,10,84255:0:0:0:0:
320,192,84255,128,6,84739:0:0:0:0:
64,192,84739,1,10,0:0:0:0:
192,192,85223,128,2,85707:0:0:0:0:
64,192,85707,1,10,0:0:0:0:
320,192,85949,1,0,0:0:0:0:
448,192,86191,128,2,86675:0:0:0:0:
64,192,86675,1,10,0:0:0:0:
320,192,87159,128,2,87642:0:0:0:0:
448,192,87642,1,10,0:0:0:0:
192,192,87884,1,0,0:0:0:0:
64,192,88126,128,2,88610:0:0:0:0:
448,192,88610,1,10,0:0:0:0:
320,192,89094,128,2,89578:0:0:0:0:
64,192,89578,1,10,0:0:0:0:
448,192,89820,1,0,0:0:0:0:
192,192,90062,128,2,90546:0:0:0:0:
64,192,90546,1,10,0:0:0:0:
448,192,90909,1,0,0:0:0:0:
320,192,91271,1,2,0:0:0:0:
192,192,91634,1,6,0:0:0:0:
448,192,91997,128,6,92481:0:0:0:0:
64,192,92481,1,10,0:0:0:0:
192,192,92965,128,2,93449:0:0:0:0:
64,192,93449,1,10,0:0:0:0:
448,192,93691,1,0,0:0:0:0:
320,192,93933,128,2,94417:0:0:0:0:
192,192,94417,1,10,0:0:0:0:
64,192,94900,128,2,95384:0:0:0:0:
448,192,95384,1,10,0:0:0:0:
320,192,95626,1,0,0:0:0:0:
192,192,95868,128,2,96352:0:0:0:0:
320,192,96352,1,10,0:0:0:0:
64,192,96836,128,2,97320:0:0:0:0:
448,192,97320,1,10,0:0:0:0:
320,192,97562,1,0,0:0:0:0:
192,192,97804,1,0,0:0:0:0:
448,192,98046,1,6,0:0:0:0:
64,192,98409,1,6,0:0:0:0:
448,192,98771,1,6,0:0:0:0:
192,192,99013,1,2,0:0:0:0:
320,192,99255,1,2,0:0:0:0:
192,192,99497,1,2,0:0:0:0:
