osu file format v14

[General]
AudioFilename: audio.ogg
AudioLeadIn: 0
PreviewTime: 94724
Countdown: 0
SampleSet: Normal
StackLeniency: 0.7
Mode: 1
LetterboxInBreaks: 0
WidescreenStoryboard: 1

[Editor]
Bookmarks: 974,20661,35661,50661,73161,88161,103161,118161
DistanceSpacing: 1
BeatDivisor: 2
GridSize: 4
TimelineZoom: 1

[Metadata]
Title:Odo
TitleUnicode:踊
Artist:Vivid BAD SQUAD
ArtistUnicode:Vivid BAD SQUAD
Creator:cdh
Version:KANTAN w/ Seren
Source:プロジェクトセカイ カラフルステージ! feat. 初音ミク
Tags:Project SEKAI COLORFUL STAGE! Hatsune Miku colorful palette mobile rhythm video game cover ado japanese pop electronic jpop j-pop プロセカ Azusawa Kohane Akina Shirashi An Sumi Tomomi Jiena 小豆沢こはね 秋奈 白石杏 鷲見友美ジェナ ビビバス Giga TeddyLoid deco27 DECO*27 [zeth] zethz161 mtntwarz taikoseania ler1211 rinze seren58 qish
BeatmapID:3657458
BeatmapSetID:1785627

[Difficulty]
HPDrainRate:8
CircleSize:5
OverallDifficulty:3.6
ApproachRate:5
SliderMultiplier:1.4
SliderTickRate:1

[Events]
//Background and Video events
0,0,"ann.jpg",0,0
//Break Periods
//Storyboard Layer 0 (Background)
//Storyboard Layer 1 (Fail)
//Storyboard Layer 2 (Pass)
//Storyboard Layer 3 (Foreground)
//Storyboard Layer 4 (Overlay)
//Storyboard Sound Samples

[TimingPoints]
974,468.75,2,1,0,70,1,8
1911,468.75,4,1,0,70,1,0
73161,-100,4,1,0,70,0,1
86286,-100,4,1,0,70,0,0
106911,-100,4,1,0,70,0,1
133161,-100,4,1,0,70,0,0

[HitObjects]
256,192,1911,5,4,0:0:0:0:
256,192,2379,1,8,0:0:0:0:
256,192,3082,1,8,0:0:0:0:
256,192,3786,1,0,0:0:0:0:
256,192,4254,1,0,0:0:0:0:
256,192,4723,1,0,0:0:0:0:
256,192,5661,1,4,0:0:0:0:
256,192,6129,1,8,0:0:0:0:
256,192,6832,1,8,0:0:0:0:
256,192,7536,1,0,0:0:0:0:
256,192,8004,1,0,0:0:0:0:
256,192,8473,1,8,0:0:0:0:
256,192,9411,1,4,0:0:0:0:
256,192,10348,1,4,0:0:0:0:
256,192,11286,1,4,0:0:0:0:
256,192,12223,1,4,0:0:0:0:
256,192,13161,1,4,0:0:0:0:
256,192,13629,1,8,0:0:0:0:
256,192,14332,1,8,0:0:0:0:
256,192,15036,1,0,0:0:0:0:
256,192,15973,1,8,0:0:0:0:
256,192,16442,1,8,0:0:0:0:
256,192,16911,1,0,0:0:0:0:
256,192,18786,1,8,0:0:0:0:
256,192,19254,1,8,0:0:0:0:
256,192,19723,1,0,0:0:0:0:
256,192,20192,1,8,0:0:0:0:
256,192,20661,1,0,0:0:0:0:
256,192,21598,1,8,0:0:0:0:
256,192,22536,1,8,0:0:0:0:
256,192,23004,1,8,0:0:0:0:
256,192,23473,1,0,0:0:0:0:
256,192,24411,1,0,0:0:0:0:
256,192,25348,1,8,0:0:0:0:
256,192,26286,1,0,0:0:0:0:
256,192,26754,1,0,0:0:0:0:
256,192,27223,1,8,0:0:0:0:
256,192,28161,1,0,0:0:0:0:
256,192,28629,1,8,0:0:0:0:
256,192,29098,1,0,0:0:0:0:
256,192,30036,1,8,0:0:0:0:
256,192,30504,1,0,0:0:0:0:
256,192,30973,1,8,0:0:0:0:
256,192,31911,1,0,0:0:0:0:
256,192,32848,1,8,0:0:0:0:
256,192,34020,1,8,0:0:0:0:
256,192,34723,1,0,0:0:0:0:
256,192,35192,1,8,0:0:0:0:
256,192,35661,5,0,0:0:0:0:
256,192,36129,1,0,0:0:0:0:
256,192,36598,1,0,0:0:0:0:
256,192,37536,1,8,0:0:0:0:
256,192,38004,1,8,0:0:0:0:
256,192,38473,1,8,0:0:0:0:
256,192,39411,1,0,0:0:0:0:
256,192,39879,1,8,0:0:0:0:
256,192,40348,1,0,0:0:0:0:
256,192,40817,1,8,0:0:0:0:
256,192,41286,1,0,0:0:0:0:
256,192,42223,1,8,0:0:0:0:
256,192,43161,1,0,0:0:0:0:
256,192,43629,1,0,0:0:0:0:
256,192,44098,1,0,0:0:0:0:
256,192,45036,1,8,0:0:0:0:
256,192,45504,1,8,0:0:0:0:
256,192,45973,1,8,0:0:0:0:
256,192,46911,1,0,0:0:0:0:
256,192,48786,1,8,0:0:0:0:
256,192,49254,1,8,0:0:0:0:
256,192,49723,1,8,0:0:0:0:
256,192,50661,5,4,0:0:0:0:
256,192,51129,1,8,0:0:0:0:
256,192,51832,1,8,0:0:0:0:
256,192,52536,1,0,0:0:0:0:
256,192,53004,1,0,0:0:0:0:
256,192,53473,1,0,0:0:0:0:
256,192,54411,1,4,0:0:0:0:
256,192,54879,1,8,0:0:0:0:
256,192,55582,1,8,0:0:0:0:
256,192,56286,1,0,0:0:0:0:
256,192,56754,1,8,0:0:0:0:
256,192,57223,1,0,0:0:0:0:
256,192,58161,1,4,0:0:0:0:
256,192,59098,1,4,0:0:0:0:
256,192,60036,1,4,0:0:0:0:
256,192,60973,1,4,0:0:0:0:
256,192,61911,1,4,0:0:0:0:
256,192,62848,1,8,0:0:0:0:
256,192,63317,1,8,0:0:0:0:
256,192,63786,1,0,0:0:0:0:
256,192,64723,1,8,0:0:0:0:
256,192,65192,1,8,0:0:0:0:
256,192,65661,1,0,0:0:0:0:
256,192,66598,1,0,0:0:0:0:
256,192,67536,1,0,0:0:0:0:
256,192,68473,1,0,0:0:0:0:
256,192,69411,1,0,0:0:0:0:
256,192,69879,1,0,0:0:0:0:
256,192,70348,1,0,0:0:0:0:
256,192,70817,1,0,0:0:0:0:
256,192,71286,1,4,0:0:0:0:
256,192,73161,5,4,0:0:0:0:
256,192,74098,1,8,0:0:0:0:
256,192,74567,1,8,0:0:0:0:
256,192,75036,1,0,0:0:0:0:
256,192,75973,1,8,0:0:0:0:
256,192,76442,1,8,0:0:0:0:
256,192,76911,1,0,0:0:0:0:
256,192,77379,1,8,0:0:0:0:
256,192,78317,1,8,0:0:0:0:
256,192,78786,1,0,0:0:0:0:
256,192,79254,1,0,0:0:0:0:
256,192,79723,1,8,0:0:0:0:
256,192,80661,1,4,0:0:0:0:
256,192,81598,1,8,0:0:0:0:
256,192,82067,1,8,0:0:0:0:
256,192,82536,1,0,0:0:0:0:
256,192,83473,1,8,0:0:0:0:
256,192,83942,1,8,0:0:0:0:
256,192,84411,1,0,0:0:0:0:
256,192,84879,1,8,0:0:0:0:
256,192,85817,1,8,0:0:0:0:
256,192,86286,1,4,0:0:0:0:
256,192,87223,1,8,0:0:0:0:
256,192,88629,1,0,0:0:0:0:
256,192,89098,1,8,0:0:0:0:
256,192,89567,1,0,0:0:0:0:
256,192,90504,1,0,0:0:0:0:
256,192,90973,1,8,0:0:0:0:
256,192,91442,1,0,0:0:0:0:
256,192,91911,1,12,0:0:0:0:
256,192,92848,1,12,0:0:0:0:
256,192,93786,1,12,0:0:0:0:
256,192,94723,1,12,0:0:0:0:
256,192,95661,1,4,0:0:0:0:
256,192,96598,1,0,0:0:0:0:
256,192,97067,1,8,0:0:0:0:
256,192,97536,1,0,0:0:0:0:
256,192,98473,1,0,0:0:0:0:
256,192,98942,1,8,0:0:0:0:
256,192,99411,1,12,0:0:0:0:
256,192,100348,1,12,0:0:0:0:
256,192,101286,1,12,0:0:0:0:
256,192,102223,5,12,0:0:0:0:
256,192,103161,5,4,0:0:0:0:
256,192,104332,1,4,0:0:0:0:
256,192,105036,1,4,0:0:0:0:
256,192,105504,1,4,0:0:0:0:
256,192,105973,1,4,0:0:0:0:
256,192,106442,1,6,0:0:0:0:
256,192,106911,1,0,0:0:0:0:
256,192,107379,1,8,0:0:0:0:
256,192,108317,1,8,0:0:0:0:
256,192,108786,1,0,0:0:0:0:
256,192,109254,1,0,0:0:0:0:
256,192,109723,1,8,0:0:0:0:
256,192,110661,1,4,0:0:0:0:
256,192,111598,1,8,0:0:0:0:
256,192,112067,1,8,0:0:0:0:
256,192,112536,1,0,0:0:0:0:
256,192,113473,1,8,0:0:0:0:
256,192,113942,1,8,0:0:0:0:
256,192,114411,1,0,0:0:0:0:
256,192,114879,1,8,0:0:0:0:
256,192,115817,1,8,0:0:0:0:
256,192,116286,1,0,0:0:0:0:
256,192,117223,1,8,0:0:0:0:
256,192,118161,5,4,0:0:0:0:
256,192,118629,1,0,0:0:0:0:
256,192,119098,1,8,0:0:0:0:
256,192,120036,1,0,0:0:0:0:
256,192,120973,1,8,0:0:0:0:
256,192,121442,1,8,0:0:0:0:
256,192,121911,1,0,0:0:0:0:
256,192,122848,1,8,0:0:0:0:
256,192,123786,1,0,0:0:0:0:
256,192,124254,1,8,0:0:0:0:
256,192,124723,1,8,0:0:0:0:
256,192,125192,1,8,0:0:0:0:
256,192,125661,1,4,0:0:0:0:
256,192,126598,1,8,0:0:0:0:
256,192,127536,1,0,0:0:0:0:
256,192,128473,1,8,0:0:0:0:
256,192,128942,1,8,0:0:0:0:
256,192,129411,1,0,0:0:0:0:
256,192,129879,1,8,0:0:0:0:
256,192,130817,1,8,0:0:0:0:
256,192,131286,1,0,0:0:0:0:
256,192,132223,1,8,0:0:0:0:
256,192,133161,1,0,0:0:0:0:
256,192,135973,1,8,0:0:0:0:
256,192,136442,1,0,0:0:0:0:
