osu file format v14

[General]
AudioFilename: audio.mp3
AudioLeadIn: 0
PreviewTime: 74870
Countdown: 0
SampleSet: Soft
StackLeniency: 0.7
Mode: 2
LetterboxInBreaks: 0
WidescreenStoryboard: 1

[Editor]
Bookmarks: 17370,32488,47724,62724,77960,108078,123314
DistanceSpacing: 2
BeatDivisor: 4
GridSize: 32
TimelineZoom: 2

[Metadata]
Title:Fragile
TitleUnicode:フラジール
Artist:Vivid BAD SQUAD
ArtistUnicode:Vivid BAD SQUAD
Creator:Sinnoh
Version:Normal
Source:プロジェクトセカイ カラフルステージ! feat. 初音ミク
Tags:project sekai colourful colorful stage ぬゆり nuyuri lanndo featuring hatsune miku vocaloid video game japanese cwc 2021 group stage nm catch world cup 東雲彰人 Shinonome Akito 今井文也 Imai Fumiya 青柳冬弥 Aoyagi Toya 伊東健人 Itou Kent
BeatmapID:3624202
BeatmapSetID:1441990

[Difficulty]
HPDrainRate:3
CircleSize:3
OverallDifficulty:7
ApproachRate:7
SliderMultiplier:2.5
SliderTickRate:2

[Events]
//Background and Video events
0,0,"fujoshi bait.png",0,0
Video,-4500,"videoplayback muted.mp4"
//Break Periods
//Storyboard Layer 0 (Background)
//Storyboard Layer 1 (Fail)
//Storyboard Layer 2 (Pass)
//Storyboard Layer 3 (Foreground)
//Storyboard Layer 4 (Overlay)
//Storyboard Sound Samples

[TimingPoints]
-11,472.44094488189,4,2,0,60,1,0
73689,-166.666666666667,4,2,0,60,0,0
74870,-100,4,2,0,60,0,0
74989,-100,4,2,0,35,0,0
75107,-100,4,2,0,60,0,0
75225,-100,4,2,0,35,0,0
75343,-100,4,2,0,60,0,0
75461,-100,4,2,0,35,0,0
75579,-100,4,2,0,60,0,1
75697,-100,4,2,0,35,0,1
75815,-100,4,2,0,60,0,1
75933,-100,4,2,0,35,0,1
76051,-100,4,2,0,60,0,1
76642,-100,4,2,0,35,0,1
76760,-100,4,2,0,60,0,1
76878,-100,4,2,0,35,0,1
76996,-100,4,2,0,60,0,1
77587,-100,4,2,0,35,0,1
77705,-100,4,2,0,60,0,1
77823,-100,4,2,0,35,0,1
77941,-100,4,2,0,60,0,1
83256,-100,4,2,0,35,0,1
83374,-100,4,2,0,60,0,1
83492,-100,4,2,0,35,0,1
83611,-100,4,2,0,60,0,1
84319,-100,4,2,0,60,0,1
84555,-100,4,2,0,60,0,1
85264,-100,4,2,0,60,0,1
85382,-100,4,2,0,35,0,1
85500,-100,4,2,0,60,0,1
90815,-100,4,2,0,35,0,1
90933,-100,4,2,0,60,0,1
91051,-100,4,2,0,35,0,1
91170,-100,4,2,0,60,0,1
91760,-100,4,2,0,35,0,1
91878,-100,4,2,0,60,0,1
91996,-100,4,2,0,35,0,1
92114,-100,4,2,0,60,0,1
92705,-100,4,2,0,35,0,1
92823,-100,4,2,0,60,0,1
92941,-100,4,2,0,35,0,1
93059,-100,4,2,0,60,0,1
98374,-100,4,2,0,35,0,1
98492,-100,4,2,0,60,0,1
98611,-100,4,2,0,35,0,1
98729,-100,4,2,0,60,0,1
99319,-100,4,2,0,35,0,1
99437,-100,4,2,0,60,0,1
99555,-100,4,2,0,35,0,1
99674,-100,4,2,0,60,0,1
102272,-100,4,2,0,60,0,1
102390,-100,4,2,0,35,0,1
102508,-100,4,2,0,60,0,1
102626,-100,4,2,0,35,0,1
102744,-100,4,2,0,60,0,1
102863,-100,4,2,0,35,0,1
102981,-100,4,2,0,60,0,1
103099,-100,4,2,0,35,0,1
103217,-100,4,2,0,60,0,1
103335,-100,4,2,0,35,0,1
103453,-100,4,2,0,60,0,1
103571,-100,4,2,0,35,0,1
103689,-100,4,2,0,60,0,1
103926,-100,4,2,0,60,0,0
119044,-100,4,2,0,40,0,0

[Colours]
Combo1 : 255,173,91
Combo2 : 87,171,255

[HitObjects]
196,249,15107,5,4,0:0:0:0:
324,258,15343,2,0,L|332:88,1,125,2|8,0:0|0:0,0:0:0:0:
220,159,15815,1,0,0:0:0:0:
124,202,16051,2,0,P|80:138|200:53,1,250,4|8,0:3|0:0,0:0:0:0:
392,307,16996,6,0,L|368:60,1,187.5,6|2,0:3|0:0,0:0:0:0:
257,79,17587,1,2,0:0:0:0:
379,237,17823,2,0,P|401:146|320:100,1,187.5,2|0,0:0|0:0,0:0:0:0:
218,204,18414,2,0,L|232:49,1,125,10|2,0:0|0:0,0:0:0:0:
467,247,18886,6,0,P|487:170|346:36,1,250,4|8,0:0|0:0,0:0:0:0:
281,265,19595,1,0,0:0:0:0:
165,267,19831,2,0,P|120:200|247:100,1,250,4|8,0:3|0:0,0:0:0:0:
381,169,20776,6,0,L|171:119,1,187.5,6|2,0:3|0:0,0:0:0:0:
73,177,21366,2,0,L|99:17,1,125,2|2,0:0|0:0,0:0:0:0:
241,201,21957,1,0,0:0:0:0:
113,211,22193,2,0,L|134:55,1,125,10|2,0:0|0:0,0:0:0:0:
349,77,22666,5,4,0:3:0:0:
454,245,22902,2,0,L|434:107,1,125,2|8,0:0|0:0,0:0:0:0:
321,185,23374,1,0,0:0:0:0:
222,257,23611,2,0,P|224:174|379:81,1,250,4|8,0:3|0:0,0:0:0:0:
155,271,24555,6,0,P|108:198|216:122,1,187.5,6|2,0:3|0:0,0:0:0:0:
293,151,25146,2,0,L|287:17,1,125,2|2,0:0|0:0,0:0:0:0:
118,67,25737,1,0,0:0:0:0:
21,199,25973,2,0,L|146:161,1,125,10|2,0:0|0:0,0:0:0:0:
364,254,26445,6,0,L|382:91,1,125,4|2,0:0|0:0,0:0:0:0:
246,239,26918,2,0,L|226:77,1,125,8|0,0:0|0:0,0:0:0:0:
380,208,27390,2,0,P|437:137|301:34,1,250,4|8,0:3|0:0,0:0:0:0:
157,178,28335,6,0,L|360:75,1,187.5,6|2,0:3|0:0,0:0:0:0:
427,200,28926,2,0,L|286:157,1,125,2|0,0:0|0:0,0:0:0:0:
143,93,29516,1,0,0:0:0:0:
257,232,29752,2,0,L|269:79,1,125,10|2,0:0|0:0,0:0:0:0:
38,67,30225,5,4,0:0:0:0:
46,239,30461,2,0,L|176:179,1,125,2|8,0:0|0:0,0:0:0:0:
274,223,30933,1,0,0:0:0:0:
231,204,31051,2,0,L|84:56,1,187.5,2|2,0:0|0:0,0:0:0:0:
218,136,31642,2,0,L|325:36,1,125,8|0,0:0|0:0,0:0:0:0:
189,277,32114,5,4,0:3:0:0:
326,273,32351,2,0,L|351:119,1,125,2|8,0:0|0:0,0:0:0:0:
220,200,32823,1,0,0:0:0:0:
201,164,32941,2,0,P|208:95|327:51,1,187.5,2|2,0:0|0:0,0:0:0:0:
422,272,33532,2,0,L|405:136,1,125,8|0,0:0|0:0,0:0:0:0:
263,139,34004,5,4,0:3:0:0:
390,62,34240,2,0,L|248:12,1,125,2|10,0:0|0:0,0:0:0:0:
177,203,34713,1,2,0:0:0:0:
229,187,34831,2,0,L|414:82,1,187.5,2|2,0:0|0:0,0:0:0:0:
391,132,35422,2,0,L|405:257,1,125,8|2,0:0|0:0,0:0:0:0:
278,254,35894,5,4,0:3:0:0:
249,100,36130,1,2,0:0:0:0:
381,65,36366,1,10,0:0:0:0:
254,277,36603,2,0,P|198:224|311:137,1,250,2|2,0:0|0:3,0:0:0:0:
432,160,37311,2,0,L|397:20,1,125,10|2,0:0|0:0,0:0:0:0:
198,77,37784,5,4,3:2:0:0:
94,235,38020,1,2,0:0:0:0:
209,260,38256,1,8,0:0:0:0:
87,164,38493,1,0,0:0:0:0:
74,124,38611,2,0,P|99:51|217:38,1,187.5,2|2,0:0|0:0,0:0:0:0:
304,226,39201,2,0,L|312:74,1,125,8|0,0:0|0:0,0:0:0:0:
177,138,39674,5,4,0:3:0:0:
306,63,39910,2,0,L|435:24,1,125,2|8,0:0|0:0,0:0:0:0:
297,287,40382,1,0,0:0:0:0:
233,275,40500,2,0,P|189:207|290:128,1,187.5,2|2,0:0|0:0,0:0:0:0:
375,189,41091,2,0,L|358:30,1,125,8|0,0:0|0:0,0:0:0:0:
232,89,41563,5,4,0:3:0:0:
108,191,41800,1,2,0:0:0:0:
92,128,42036,1,8,0:0:0:0:
219,114,42272,1,0,0:0:0:0:
272,126,42390,2,0,L|438:15,1,187.5,2|0,0:0|0:3,0:0:0:0:
342,281,42981,2,0,L|206:207,1,125,8|0,0:0|0:0,0:0:0:0:
374,179,43453,6,0,P|366:83|362:46,1,125,4|2,0:3|0:0,0:0:0:0:
232,279,43926,2,0,P|240:183|244:146,1,125,8|2,0:0|0:0,0:0:0:0:
121,211,44398,2,0,L|101:69,1,125,6|2,0:3|0:0,0:0:0:0:
243,154,44870,2,0,L|262:-9,1,125,10|2,0:0|0:0,0:0:0:0:
486,164,45343,5,4,0:0:0:0:
356,259,45579,1,2,0:0:0:0:
332,175,45815,1,8,0:0:0:0:
471,162,46052,1,0,0:0:0:0:
484,119,46170,2,0,P|465:31|365:-3,1,187.5,2|2,0:0|0:0,0:0:0:0:
261,302,46760,2,0,L|235:146,1,125,8|0,0:0|0:0,0:0:0:0:
365,140,47233,5,4,0:3:0:0:
241,127,47469,1,2,0:0:0:0:
180,112,47587,1,0,0:0:0:0:
119,98,47705,1,8,0:0:0:0:
255,299,47941,1,2,0:0:0:0:
300,255,48059,2,0,P|320:167|310:62,1,187.5,2|0,0:0|0:0,0:0:0:0:
184,218,48650,2,0,L|167:72,1,125,8|0,0:0|0:0,0:0:0:0:
316,83,49122,5,4,0:3:0:0:
202,172,49359,2,0,L|75:121,1,125,2|8,0:0|0:0,0:0:0:0:
177,277,49831,1,0,0:0:0:0:
226,260,49949,2,0,P|270:203|189:107,1,187.5,2|0,0:0|0:0,0:0:0:0:
98,114,50540,1,8,0:0:0:0:
206,64,50776,1,0,0:0:0:0:
323,273,51012,6,0,L|334:109,1,125,6|2,0:3|0:0,0:0:0:0:
187,146,51485,1,8,0:0:0:0:
328,219,51721,2,0,P|390:186|293:72,1,250,2|2,0:0|0:0,0:0:0:0:
197,65,52429,1,10,0:0:0:0:
265,166,52666,1,2,0:0:0:0:
485,232,52902,5,4,0:0:0:0:
484,140,53138,2,0,L|347:104,1,125,2|8,0:0|0:0,0:0:0:0:
239,250,53611,1,0,0:0:0:0:
199,205,53729,2,0,P|190:141|319:78,1,187.5,2|2,0:0|0:0,0:0:0:0:
403,257,54319,2,0,L|412:125,1,125,8|0,0:0|0:0,0:0:0:0:
276,121,54792,5,4,0:3:0:0:
407,104,55028,1,2,0:0:0:0:
416,52,55264,1,8,0:0:0:0:
282,231,55500,1,0,0:0:0:0:
232,219,55618,2,0,L|88:180,1,125,2|2,0:0|0:0,0:0:0:0:
59,174,55973,1,2,0:0:0:0:
199,215,56209,2,0,L|212:66,1,125,8|0,0:0|0:0,0:0:0:0:
66,78,56681,5,4,0:3:0:0:
182,139,56918,1,2,0:0:0:0:
299,113,57154,1,8,0:0:0:0:
179,257,57390,1,0,0:0:0:0:
116,232,57508,2,0,P|90:181|196:104,1,187.5,2|2,0:0|0:0,0:0:0:0:
290,240,58099,2,0,L|386:136,1,125,10|2,0:0|0:0,0:0:0:0:
230,186,58571,6,0,L|20:52,1,250,4|10,0:3|0:0,0:0:0:0:
149,306,59280,2,0,L|371:188,1,250,2|2,0:0|0:0,0:0:0:0:
251,224,59989,2,0,L|232:86,1,125,8|0,0:0|0:0,0:0:0:0:
454,269,60461,6,0,L|470:102,1,125,4|0,0:0|0:0,0:0:0:0:
344,127,60933,1,8,0:0:0:0:
228,264,61170,2,0,P|200:200|294:105,1,187.5,2|2,0:0|0:0,0:0:0:0:
326,97,61642,1,0,0:0:0:0:
461,121,61878,1,8,0:0:0:0:
112,316,62351,6,0,P|51:187|131:116,1,250,4|8,0:3|0:0,0:0:0:0:
222,93,63059,1,2,0:0:0:0:
276,106,63177,1,2,0:0:0:0:
387,250,63414,2,0,P|385:164|291:84,1,187.5,2|8,0:0|0:0,0:0:0:0:
208,228,64004,1,2,0:0:0:0:
96,249,64240,6,0,L|81:102,1,125,4|0,0:3|0:0,0:0:0:0:
222,109,64713,1,8,0:0:0:0:
99,87,64949,1,2,0:0:0:0:
76,199,65067,2,0,P|68:130|165:81,1,187.5,2|2,0:0|0:0,0:0:0:0:
261,269,65658,2,0,L|279:110,1,125,8|2,0:0|0:0,0:0:0:0:
51,249,66130,6,0,L|35:83,1,125,6|2,0:3|0:0,0:0:0:0:
163,185,66603,2,0,L|176:34,1,125,10|2,0:0|0:0,0:0:0:0:
303,176,67075,2,0,L|335:50,1,125,6|0,0:3|0:0,0:0:0:0:
203,245,67548,2,0,L|82:155,1,125,10|2,0:0|0:0,0:0:0:0:
324,135,68020,6,0,L|479:86,2,125,4|0|8,0:0|0:0|0:0,0:0:0:0:
208,192,68729,1,2,0:0:0:0:
192,159,68847,2,0,P|279:82|353:69,1,187.5,0|0,0:0|0:0,0:0:0:0:
466,271,69437,2,0,L|434:134,1,125,8|0,0:0|0:0,0:0:0:0:
314,165,69910,5,6,0:3:0:0:
435,72,70146,1,2,0:0:0:0:
315,90,70382,1,10,0:0:0:0:
204,202,70618,1,2,0:0:0:0:
204,202,70737,1,0,0:0:0:0:
326,126,70973,1,2,0:0:0:0:
326,126,71091,1,0,0:0:0:0:
208,140,71327,2,0,L|78:52,1,125,8|2,0:0|0:0,0:0:0:0:
332,314,71800,6,0,L|411:208,2,125,6|4|4,0:0|0:3|0:3,0:0:0:0:
136,233,72508,2,0,L|8:158,2,125,0|4|4,1:0|0:3|0:3,0:0:0:0:
349,229,73217,2,4,L|429:106,1,125,0|4,1:0|0:3,0:0:0:0:
220,107,73689,5,4,0:0:0:0:
72,226,75579,6,0,P|193:179|227:168,1,125,4|2,0:0|0:0,0:0:0:0:
321,166,76051,2,0,L|171:128,1,125,10|0,0:0|0:0,0:0:0:0:
72,226,76524,2,0,P|193:179|227:168,1,125,6|2,0:3|0:0,0:0:0:0:
321,166,76996,2,0,L|171:128,1,125,8|0,0:0|0:0,0:0:0:0:
87,321,77469,6,0,L|68:185,1,125,6|2,0:3|0:0,0:0:0:0:
190,183,77941,2,0,L|263:149,1,62.5,10|2,0:0|0:0,0:0:0:0:
132,267,78296,2,0,P|80:202|162:127,1,187.5,2|2,0:0|0:0,0:0:0:0:
279,163,78886,2,0,L|376:70,1,125,8|0,0:0|0:0,0:0:0:0:
166,302,79359,6,0,L|134:158,1,125,4|0,0:3|0:0,0:0:0:0:
267,159,79831,2,0,L|289:46,1,62.5,10|2,0:0|0:0,0:0:0:0:
152,221,80185,2,0,L|23:67,1,187.5,2|0,0:0|0:0,0:0:0:0:
157,90,80776,2,0,L|286:27,1,125,8|0,0:0|0:0,0:0:0:0:
133,286,81248,6,0,P|95:201|229:111,1,250,4|8,0:3|0:0,0:0:0:0:
321,131,81957,1,0,0:0:0:0:
432,196,82193,1,4,0:3:0:0:
280,340,82429,2,0,L|291:177,1,125,2|10,0:0|0:0,0:0:0:0:
421,174,82902,1,2,0:0:0:0:
216,154,83138,6,0,L|77:118,1,125,6|2,0:3|0:0,0:0:0:0:
236,115,83611,2,0,L|375:79,1,125,8|0,0:0|0:0,0:0:0:0:
216,154,84083,2,0,L|77:118,1,125,6|2,0:3|0:0,0:0:0:0:
236,115,84556,2,0,L|375:79,1,125,8|2,0:0|0:0,0:0:0:0:
220,332,85028,6,0,L|225:172,1,125,4|2,0:3|0:0,0:0:0:0:
349,176,85500,2,0,L|346:73,1,62.5,10|2,0:0|0:0,0:0:0:0:
219,117,85855,2,0,P|127:82|65:7,1,187.5,2|0,0:0|0:0,0:0:0:0:
153,199,86445,2,0,L|283:158,1,125,8|0,0:0|0:0,0:0:0:0:
489,244,86918,6,0,L|467:88,1,125,6|0,0:3|0:0,0:0:0:0:
343,216,87390,2,0,L|318:121,1,62.5,10|2,0:0|0:0,0:0:0:0:
463,206,87744,2,0,P|459:126|360:96,1,187.5,2|0,0:0|0:0,0:0:0:0:
250,259,88335,2,0,L|239:114,1,125,8|0,0:0|0:0,0:0:0:0:
366,84,88807,5,4,0:3:0:0:
247,179,89044,1,2,0:0:0:0:
188,156,89162,1,0,0:0:0:0:
127,290,89280,2,0,P|101:222|235:110,1,250,8|4,0:0|0:3,0:0:0:0:
345,144,89989,2,0,L|469:82,2,125,2|10|2,0:0|0:0|0:0,0:0:0:0:
159,284,90697,6,0,L|173:115,1,125,6|2,0:0|0:0,0:0:0:0:
297,118,91170,2,0,L|433:101,1,125,8|0,0:0|0:0,0:0:0:0:
282,292,91642,2,0,L|268:143,1,125,6|2,0:3|0:0,0:0:0:0:
142,112,92114,2,0,L|15:56,1,125,8|2,0:0|0:0,0:0:0:0:
151,324,92587,6,0,L|277:211,1,125,6|2,0:3|0:0,0:0:0:0:
130,180,93059,2,0,L|162:96,1,62.5,10|2,0:0|0:0,0:0:0:0:
283,141,93414,2,0,L|485:68,1,187.5,2|0,0:0|0:0,0:0:0:0:
350,281,94004,2,0,L|208:183,1,125,8|0,0:0|0:0,0:0:0:0:
452,212,94477,6,0,L|443:81,1,125,6|2,0:3|0:0,0:0:0:0:
315,212,94949,2,0,L|217:172,1,62.5,10|2,0:0|0:0,0:0:0:0:
404,221,95303,2,0,P|401:127|309:78,1,187.5,2|0,0:0|0:0,0:0:0:0:
195,107,95894,2,0,L|353:42,1,125,8|0,0:0|0:0,0:0:0:0:
444,251,96366,6,0,P|429:168|248:91,1,250,4|8,0:3|0:0,0:0:0:0:
191,149,97075,1,0,0:0:0:0:
100,85,97311,1,4,0:3:0:0:
210,93,97548,2,0,L|346:46,2,125,2|10|2,0:0|0:0|0:0,0:0:0:0:
29,297,98256,6,0,L|46:136,1,125,6|2,0:0|0:0,0:0:0:0:
177,147,98729,2,0,L|302:130,1,125,8|0,0:0|0:0,0:0:0:0:
433,290,99201,2,0,L|416:129,1,125,6|2,0:3|0:0,0:0:0:0:
300,130,99674,2,0,L|175:113,1,125,8|0,0:0|0:0,0:0:0:0:
307,285,100146,6,0,L|295:129,1,125,4|0,0:3|0:0,0:0:0:0:
171,113,100618,2,0,L|183:18,1,62.5,10|2,0:0|0:0,0:0:0:0:
302,197,100973,2,0,P|319:134|218:71,1,187.5,2|2,0:0|0:0,0:0:0:0:
109,209,101563,2,0,P|124:146|224:107,1,125,8|2,0:0|0:0,0:0:0:0:
374,146,102036,6,0,L|497:74,2,125,0|4|4,1:3|0:3|0:3,0:0:0:0:
162,165,102744,2,0,L|39:93,2,125,0|4|4,1:0|0:3|0:3,0:0:0:0:
368,288,103453,2,0,L|377:143,1,125,0|4,1:3|0:3,0:0:0:0:
161,84,103926,5,4,0:0:0:0:
363,290,105815,5,4,0:0:0:0:
234,281,106051,2,0,L|224:123,1,125,2|8,0:0|0:0,0:0:0:0:
331,125,106524,1,0,0:0:0:0:
446,185,106760,2,0,P|453:100|315:27,1,250,4|8,0:3|0:0,0:0:0:0:
111,206,107705,6,0,L|314:137,1,187.5,6|2,0:3|0:0,0:0:0:0:
409,100,108296,1,2,0:0:0:0:
292,57,108532,1,2,0:0:0:0:
135,226,108886,1,0,0:0:0:0:
67,149,109122,2,0,L|160:52,1,125,10|2,0:0|0:0,0:0:0:0:
345,207,109595,5,4,0:0:0:0:
444,193,109831,2,0,L|443:54,1,125,2|8,0:0|0:0,0:0:0:0:
297,179,110303,1,0,0:0:0:0:
200,261,110540,2,0,P|193:161|339:81,1,250,4|8,0:3|0:0,0:0:0:0:
490,157,111485,6,0,L|274:73,1,187.5,6|2,0:3|0:0,0:0:0:0:
193,109,112075,1,2,0:0:0:0:
308,177,112311,1,2,0:0:0:0:
125,275,112666,2,0,L|113:142,1,125,0|10,0:0|0:0,0:0:0:0:
236,117,113138,1,2,0:0:0:0:
460,264,113374,5,4,0:0:0:0:
479,165,113611,2,0,L|341:108,1,125,2|8,0:0|0:0,0:0:0:0:
243,185,114083,1,0,0:0:0:0:
368,269,114319,2,0,P|414:217|276:101,1,250,4|8,0:3|0:0,0:0:0:0:
75,241,115264,6,0,P|76:165|183:83,1,187.5,6|2,0:3|0:0,0:0:0:0:
275,202,115855,2,0,L|285:54,1,125,2|2,0:0|0:0,0:0:0:0:
118,86,116445,1,0,0:0:0:0:
240,204,116681,2,0,L|250:57,1,125,10|2,0:0|0:0,0:0:0:0:
37,71,117154,5,4,0:0:0:0:
37,198,117390,2,0,L|180:133,1,125,2|8,0:0|0:0,0:0:0:0:
292,102,117863,1,0,0:0:0:0:
150,300,118099,2,0,P|85:251|204:140,1,250,4|8,0:3|0:0,0:0:0:0:
256,192,119044,12,0,120697,0:0:0:0:
