osu file format v14

[General]
AudioFilename: audio.mp3
AudioLeadIn: 0
PreviewTime: -1
Countdown: 0
SampleSet: Soft
StackLeniency: 0.2
Mode: 0
LetterboxInBreaks: 0
WidescreenStoryboard: 0

[Editor]
Bookmarks: 50110,84470
DistanceSpacing: 0.6
BeatDivisor: 4
GridSize: 32
TimelineZoom: 2.899999

[Metadata]
Title:Massive Fire
TitleUnicode:Massive Fire
Artist:Vitnoise
ArtistUnicode:Vitnoise
Creator:kyle
Version:Massive
Source:Touhou Drum & Bass Arena 2018
Tags:touhou
BeatmapID:1910662
BeatmapSetID:914828

[Difficulty]
HPDrainRate:6
CircleSize:4.1
OverallDifficulty:8.6
ApproachRate:9.5
SliderMultiplier:1.4
SliderTickRate:1

[Events]
//Background and Video events
0,0,"wallpaper-2896271.jpg",0,0
//Break Periods
//Storyboard Layer 0 (Background)
//Storyboard Layer 1 (Fail)
//Storyboard Layer 2 (Pass)
//Storyboard Layer 3 (Foreground)
//Storyboard Sound Samples

[TimingPoints]
488,348.837209302326,4,2,0,100,1,0
39208,-100,4,2,0,50,0,0
48976,-83.3333333333333,4,2,0,50,0,0
49848,-100,4,2,0,50,0,0
50720,-83.3333333333333,4,2,0,50,0,0
54557,-71.4285714285714,4,2,0,50,0,0
54906,-100,4,2,0,50,0,0
55429,-71.4285714285714,4,2,0,50,0,0
67203,-37.037037037037,4,2,0,50,0,0
68511,-71.4285714285714,4,2,0,50,0,0
68860,-37.037037037037,4,2,0,50,0,0
74092,-71.4285714285714,4,2,0,50,0,0
74441,-37.037037037037,4,2,0,50,0,0
76883,-71.4285714285714,4,2,0,50,0,0
77232,-37.037037037037,4,2,0,50,0,0
77581,-71.4285714285714,4,2,0,50,0,0
89354,-37.037037037037,4,2,0,50,0,0

[HitObjects]
49,146,39208,5,0,0:0:0:0:
43,154,39382,1,0,0:0:0:0:
88,11,39557,2,0,L|42:64,1,70
132,114,39907,5,0,0:0:0:0:
126,122,40082,1,0,0:0:0:0:
139,196,40604,5,0,0:0:0:0:
133,204,40778,1,0,0:0:0:0:
229,246,40953,1,0,0:0:0:0:
146,278,41301,5,0,0:0:0:0:
140,286,41475,1,0,0:0:0:0:
153,360,41998,5,0,0:0:0:0:
147,368,42174,1,0,0:0:0:0:
243,310,42347,2,0,L|295:251,1,70
338,367,42696,5,0,0:0:0:0:
332,359,42870,1,0,0:0:0:0:
147,368,43394,5,0,0:0:0:0:
153,360,43568,1,0,0:0:0:0:
57,318,43743,1,0,0:0:0:0:
338,367,44091,5,0,0:0:0:0:
332,359,44267,1,0,0:0:0:0:
147,368,44790,5,0,0:0:0:0:
141,360,44964,1,0,0:0:0:0:
64,311,45139,2,0,L|17:258,1,70
163,146,45488,5,0,0:0:0:0:
43,154,45662,1,0,0:0:0:0:
169,154,45836,1,0,0:0:0:0:
59,202,46010,1,0,0:0:0:0:
175,162,46185,1,0,0:0:0:0:
175,314,46360,2,0,P|215:308|266:282,1,70
349,146,46708,5,0,0:0:0:0:
469,154,46882,1,0,0:0:0:0:
343,154,47056,1,0,0:0:0:0:
453,202,47232,1,0,0:0:0:0:
453,354,47406,2,0,P|413:348|362:322,1,70
175,314,47755,5,0,0:0:0:0:
242,297,47929,2,0,P|276:276|314:233,1,70
181,170,48278,1,0,0:0:0:0:
94,252,48452,1,0,0:0:0:0:
41,104,48627,1,0,0:0:0:0:
35,112,48714,1,0,0:0:0:0:
29,120,48801,1,0,0:0:0:0:
198,213,48976,2,0,P|162:159|163:116,1,83.9999974365235
202,262,49325,5,0,0:0:0:0:
82,268,49499,1,0,0:0:0:0:
180,172,49674,1,0,0:0:0:0:
234,22,49848,2,0,P|254:60|256:88,1,70
354,123,50110,1,0,0:0:0:0:
360,131,50197,1,0,0:0:0:0:
488,159,50371,1,0,0:0:0:0:
385,211,50546,1,0,0:0:0:0:
305,293,50720,6,0,L|204:310,1,83.9999974365235
147,373,51069,2,0,L|247:396,1,83.9999974365235
305,293,51418,1,0,0:0:0:0:
263,301,51505,1,0,0:0:0:0:
221,309,51592,1,0,0:0:0:0:
147,373,51767,2,0,L|46:354,1,83.9999974365235
58,248,52115,6,0,L|141:235,1,83.9999974365235
52,168,52464,1,0,0:0:0:0:
135,155,52639,1,0,0:0:0:0:
293,75,52813,1,0,0:0:0:0:
251,83,52900,1,0,0:0:0:0:
209,91,52987,1,0,0:0:0:0:
367,139,53162,2,0,L|345:245,1,83.9999974365235
272,346,53511,6,0,L|254:263,1,83.9999974365235
352,331,53860,1,0,0:0:0:0:
420,270,54034,1,0,0:0:0:0:
384,245,54121,1,0,0:0:0:0:
349,221,54208,1,0,0:0:0:0:
438,90,54383,1,0,0:0:0:0:
367,139,54557,2,0,P|306:106|244:112,1,97.9999970092774
224,192,54906,6,0,L|306:192,2,70
71,82,55429,1,0,0:0:0:0:
92,270,55604,1,0,0:0:0:0:
221,74,55778,1,0,0:0:0:0:
244,35,55865,1,0,0:0:0:0:
268,1,55952,1,0,0:0:0:0:
294,192,56127,1,0,0:0:0:0:
233,279,56301,2,0,P|185:272|145:245,1,97.9999970092774
189,253,57348,6,0,P|153:220|134:175,1,97.9999970092774
314,76,57697,6,0,L|187:76,1,97.9999970092774
122,60,58046,1,0,0:0:0:0:
326,92,58220,2,0,L|377:92,5,48.9999985046387
166,207,58743,2,0,P|154:160|162:112,1,97.9999970092774
308,68,59092,6,0,L|181:68,1,97.9999970092774
110,44,59441,1,0,0:0:0:0:
86,144,59615,1,0,0:0:0:0:
80,152,59703,1,0,0:0:0:0:
41,104,59790,1,0,0:0:0:0:
35,112,59877,1,0,0:0:0:0:
29,120,59964,1,0,0:0:0:0:
172,155,60139,2,0,P|187:109|221:74,1,97.9999970092774
302,60,60488,6,0,L|204:60,1,97.9999970092774
408,36,60836,1,0,0:0:0:0:
432,136,61011,2,0,L|428:192,1,48.9999985046387
354,224,61185,2,0,L|358:168,1,48.9999985046387
375,373,61360,1,0,0:0:0:0:
204,324,61534,6,0,L|302:324,1,97.9999970092774
205,116,61883,2,0,P|243:85|290:74,1,97.9999970092774
426,144,62231,5,0,0:0:0:0:
432,152,62319,1,0,0:0:0:0:
471,104,62406,1,0,0:0:0:0:
477,112,62494,1,0,0:0:0:0:
483,120,62581,1,0,0:0:0:0:
489,176,62668,5,0,0:0:0:0:
483,184,62755,1,0,0:0:0:0:
432,216,62842,1,0,0:0:0:0:
438,224,62929,1,0,0:0:0:0:
444,232,63017,1,0,0:0:0:0:
401,275,63104,5,0,0:0:0:0:
395,283,63191,1,0,0:0:0:0:
285,296,63278,1,0,0:0:0:0:
219,312,63365,5,0,0:0:0:0:
177,320,63452,1,0,0:0:0:0:
135,328,63540,1,0,0:0:0:0:
93,336,63628,1,0,0:0:0:0:
51,344,63714,1,0,0:0:0:0:
0,303,63801,5,0,0:0:0:0:
36,281,63889,1,0,0:0:0:0:
73,259,63975,1,0,0:0:0:0:
110,237,64063,1,0,0:0:0:0:
146,215,64150,1,0,0:0:0:0:
133,150,64238,5,0,0:0:0:0:
175,156,64324,1,0,0:0:0:0:
217,163,64412,1,0,0:0:0:0:
259,170,64500,1,0,0:0:0:0:
301,177,64587,1,0,0:0:0:0:
426,144,64674,5,0,0:0:0:0:
471,104,64761,1,0,0:0:0:0:
511,149,64848,1,0,0:0:0:0:
466,189,64935,1,0,0:0:0:0:
341,222,65022,5,0,0:0:0:0:
381,267,65109,1,0,0:0:0:0:
336,307,65196,1,0,0:0:0:0:
296,262,65283,1,0,0:0:0:0:
171,295,65371,5,0,0:0:0:0:
126,335,65458,1,0,0:0:0:0:
86,290,65545,1,0,0:0:0:0:
131,250,65632,1,0,0:0:0:0:
98,125,65720,5,0,0:0:0:0:
58,80,65807,1,0,0:0:0:0:
103,40,65894,1,0,0:0:0:0:
143,85,65981,1,0,0:0:0:0:
268,52,66069,5,0,0:0:0:0:
318,27,66156,1,0,0:0:0:0:
375,93,66243,5,0,0:0:0:0:
431,99,66330,1,0,0:0:0:0:
442,187,66418,5,0,0:0:0:0:
487,223,66505,1,0,0:0:0:0:
447,303,66592,5,0,0:0:0:0:
465,357,66679,1,0,0:0:0:0:
244,52,66941,5,0,0:0:0:0:
65,303,67115,1,0,0:0:0:0:
83,249,67203,2,0,P|205:327|330:333,1,189.000000720978
228,255,67464,2,0,P|321:246|412:271,1,189.000000720978
433,52,67726,6,0,L|260:52,1,94.5000003604889
439,36,67900,1,0,0:0:0:0:
206,110,67988,2,0,L|300:110,1,94.5000003604889
433,168,68249,2,0,L|338:168,1,94.5000003604889
445,120,68511,6,0,B|494:40|327:99|343:-2,1,146.999995513916
206,226,68860,2,0,L|300:226,1,94.5000003604889
132,114,69208,1,0,0:0:0:0:
366,254,69557,6,0,L|271:254,1,94.5000003604889
139,196,69819,2,0,L|233:196,1,94.5000003604889
373,336,70255,1,0,0:0:0:0:
146,278,70517,6,0,L|240:278,1,94.5000003604889
373,220,70778,2,0,L|200:220,1,94.5000003604889
146,162,71040,2,0,L|240:162,1,94.5000003604889
153,360,71301,6,0,L|252:360,1,94.5000003604889
387,32,71650,1,0,0:0:0:0:
125,32,71999,1,0,0:0:0:0:
366,278,72348,6,0,L|272:278,1,94.5000003604889
279,196,72610,2,0,L|373:196,1,94.5000003604889
212,122,72784,1,0,0:0:0:0:
292,130,72871,1,0,0:0:0:0:
132,114,73046,1,0,0:0:0:0:
79,332,73307,6,0,L|252:332,1,94.5000003604889
306,274,73569,2,0,L|212:274,1,94.5000003604889
79,216,73830,2,0,L|174:216,1,94.5000003604889
445,120,74092,6,0,B|494:40|327:99|343:-2,1,146.999995513916
206,226,74441,2,0,L|300:226,1,94.5000003604889
373,196,74789,5,0,0:0:0:0:
306,158,75139,2,0,L|211:158,1,94.5000003604889
366,278,75400,2,0,L|480:278,1,94.5000003604889
79,100,75662,2,0,L|174:100,1,94.5000003604889
67,116,75836,1,0,0:0:0:0:
359,360,76098,6,0,L|473:360,1,94.5000003604889
460,278,76360,2,0,L|366:278,1,94.5000003604889
372,195,76621,2,0,L|467:196,1,94.5000003604889
60,107,76883,6,0,B|18:40|185:99|159:41,1,146.999995513916
300,226,77232,2,0,L|206:226,1,94.5000003604889
451,107,77581,2,0,B|448:158|434:197|434:197|455:275|405:321|405:321|337:304|289:323|289:323,1,342.999989532471
132,114,78278,1,0,0:0:0:0:
212,122,78365,1,0,0:0:0:0:
292,130,78453,1,0,0:0:0:0:
36,162,78627,6,0,L|107:171,1,48.9999985046387
245,191,78801,5,0,0:0:0:0:
165,183,78889,2,0,L|156:244,1,48.9999985046387
376,251,79062,5,0,0:0:0:0:
296,243,79150,2,0,L|287:304,1,48.9999985046387
510,310,79325,5,0,0:0:0:0:
430,302,79413,2,0,L|421:363,1,48.9999985046387
489,136,79586,1,0,0:0:0:0:
409,128,79674,2,0,P|335:173|308:245,1,146.999995513916
132,114,80022,1,0,0:0:0:0:
126,122,80110,1,0,0:0:0:0:
120,130,80197,1,0,0:0:0:0:
114,138,80284,1,0,0:0:0:0:
107,224,80370,5,0,0:0:0:0:
27,216,80458,2,0,L|18:277,1,48.9999985046387
148,299,80633,5,0,0:0:0:0:
77,336,80721,2,0,L|102:392,1,48.9999985046387
224,341,80894,5,0,0:0:0:0:
184,410,80982,2,0,L|236:443,1,48.9999985046387
310,334,81156,5,0,0:0:0:0:
317,342,81243,1,0,0:0:0:0:
323,350,81331,1,0,0:0:0:0:
379,281,81418,5,0,0:0:0:0:
388,284,81505,1,0,0:0:0:0:
427,195,81592,5,0,0:0:0:0:
347,203,81679,2,0,L|339:154,1,48.9999985046387
427,195,81854,5,0,0:0:0:0:
432,114,81941,2,0,L|480:114,1,48.9999985046387
427,195,82116,5,0,0:0:0:0:
508,211,82203,2,0,L|499:259,1,48.9999985046387
456,345,82377,5,0,0:0:0:0:
450,353,82464,1,0,0:0:0:0:
369,337,82551,1,0,0:0:0:0:
288,321,82639,1,0,0:0:0:0:
207,305,82726,1,0,0:0:0:0:
346,179,82813,5,0,0:0:0:0:
307,193,82900,1,0,0:0:0:0:
269,209,82988,1,0,0:0:0:0:
230,224,83075,1,0,0:0:0:0:
248,115,83162,5,0,0:0:0:0:
242,123,83249,1,0,0:0:0:0:
236,131,83336,1,0,0:0:0:0:
112,197,83424,5,0,0:0:0:0:
31,213,83511,2,0,L|39:261,1,48.9999985046387
126,289,83685,5,0,0:0:0:0:
207,305,83772,2,0,L|198:353,1,48.9999985046387
288,321,83947,5,0,0:0:0:0:
369,337,84034,1,0,0:0:0:0:
385,256,84121,1,0,0:0:0:0:
304,240,84208,1,0,0:0:0:0:
298,232,84296,5,0,0:0:0:0:
314,151,84383,1,0,0:0:0:0:
395,135,84470,2,0,L|386:86,1,48.9999985046387
174,173,84645,5,0,0:0:0:0:
235,116,84732,2,0,L|201:79,1,48.9999985046387
51,192,84906,5,0,0:0:0:0:
68,111,84993,2,0,L|20:98,1,48.9999985046387
84,303,85168,1,0,0:0:0:0:
9,279,85255,5,0,0:0:0:0:
96,287,85342,1,0,0:1:0:0:
183,295,85429,1,0,0:0:0:0:
264,311,85516,1,0,0:0:0:0:
351,319,85604,5,0,0:0:0:0:
357,311,85691,1,0,0:0:0:0:
363,303,85778,1,0,0:0:0:0:
369,295,85865,1,0,0:0:0:0:
456,303,85953,5,0,0:0:0:0:
472,222,86040,2,0,L|508:153,1,48.9999985046387
375,287,86214,5,0,0:0:0:0:
391,206,86301,2,0,L|427:137,1,48.9999985046387
294,271,86476,5,0,0:0:0:0:
310,190,86563,2,0,L|346:121,1,48.9999985046387
504,7,86738,6,0,B|476:38|476:38|433:48|433:48|396:89,1,97.9999970092774
348,65,86999,2,0,L|305:42,1,48.9999985046387
236,162,87174,5,0,0:0:0:0:
155,178,87261,2,0,L|111:200,1,48.9999985046387
220,81,87435,5,0,0:0:0:0:
139,97,87522,2,0,L|95:119,1,48.9999985046387
204,0,87697,5,0,0:0:0:0:
123,16,87784,2,0,L|79:38,1,48.9999985046387
139,97,87958,5,0,0:0:0:0:
220,81,88046,1,0,0:0:0:0:
236,162,88133,1,0,0:0:0:0:
155,178,88220,2,0,L|111:200,1,48.9999985046387
349,146,88394,5,0,0:0:0:0:
469,154,88568,1,0,0:0:0:0:
343,154,88742,1,0,0:0:0:0:
453,202,88918,1,0,0:0:0:0:
337,162,89092,1,0,0:0:0:0:
423,244,89268,1,0,0:0:0:0:
453,354,89441,2,0,P|421:374|457:312,1,189.000000720978
221,281,89790,1,0,0:0:0:0:
