osu file format v14

[General]
AudioFilename: audio.mp3
AudioLeadIn: 0
PreviewTime: 29629
Countdown: 0
SampleSet: Soft
StackLeniency: 0.7
Mode: 0
LetterboxInBreaks: 0
WidescreenStoryboard: 0

[Editor]
DistanceSpacing: 0.5
BeatDivisor: 4
GridSize: 4
TimelineZoom: 2

[Metadata]
Title:Three White Horses
TitleUnicode:Три белых коня
Artist:Vitas
ArtistUnicode:Vitas
Creator:semfi
Version:Gift
Source:Чародеи
Tags:parad0xa paradoxa hacpaho djulus maruoko delette русский поп russian pop larisa dolina лариса долина Евгений Крылатов evgeniy yevgeniy krylatov charodei Tri belykh konya витас belyh belih
BeatmapID:3931719
BeatmapSetID:1906638

[Difficulty]
HPDrainRate:5.3
CircleSize:4
OverallDifficulty:8.3
ApproachRate:8.5
SliderMultiplier:1.6
SliderTickRate:1

[Events]
//Background and Video events
0,0,"hny.jpg",0,0
//Break Periods
//Storyboard Layer 0 (Background)
//Storyboard Layer 1 (Fail)
//Storyboard Layer 2 (Pass)
//Storyboard Layer 3 (Foreground)
//Storyboard Layer 4 (Overlay)
//Storyboard Sound Samples

[TimingPoints]
1111,370.37037037037,4,2,1,70,1,0
1111,-90.9090909090909,4,2,1,70,0,0
1388,-90.9090909090909,4,2,1,5,0,0
1481,-90.9090909090909,4,2,1,70,0,0
2129,-90.9090909090909,4,2,1,5,0,0
2222,-90.9090909090909,4,2,1,70,0,0
2777,-90.9090909090909,4,2,1,5,0,0
2870,-90.9090909090909,4,2,1,70,0,0
3055,-90.9090909090909,4,2,1,5,0,0
3148,-90.9090909090909,4,2,1,70,0,0
3610,-90.9090909090909,4,2,1,5,0,0
3703,-90.9090909090909,4,2,1,70,0,0
4351,-90.9090909090909,4,2,1,5,0,0
4444,-90.9090909090909,4,2,1,70,0,0
6018,-90.9090909090909,4,2,1,5,0,0
6111,-90.9090909090909,4,2,1,70,0,0
6388,-90.9090909090909,4,2,1,5,0,0
6481,-90.9090909090909,4,2,1,70,0,0
7314,-90.9090909090909,4,2,1,5,0,0
7407,-90.9090909090909,4,2,1,70,0,0
8055,-90.9090909090909,4,2,1,5,0,0
8148,-90.9090909090909,4,2,1,70,0,0
9536,-90.9090909090909,4,2,1,5,0,0
9629,-90.9090909090909,4,2,1,70,0,0
10277,-90.9090909090909,4,2,1,5,0,0
10370,-90.9090909090909,4,2,1,70,0,0
12962,-125,4,2,1,60,0,0
27685,-125,4,2,1,5,0,0
27777,-125,4,2,1,60,0,0
29536,-125,4,2,1,5,0,0
29629,-200,4,2,1,70,0,0
30370,-125,4,2,1,70,0,0
30740,-90.9090909090909,4,2,1,75,0,1
31018,-90.9090909090909,4,2,1,5,0,1
31110,-90.9090909090909,4,2,1,75,0,1
32499,-90.9090909090909,4,2,1,5,0,1
32591,-90.9090909090909,4,2,1,75,0,1
41481,-166.666666666667,4,2,1,75,0,0
42222,-125,4,2,1,75,0,0
42592,-90.9090909090909,4,2,1,80,0,1
42870,-90.9090909090909,4,2,1,5,0,1
42962,-90.9090909090909,4,2,1,80,0,1
44351,-90.9090909090909,4,2,1,5,0,1
44443,-90.9090909090909,4,2,1,80,0,1
52962,-200,4,2,1,70,0,0
58888,-125,4,2,1,60,0,0
75462,-125,4,2,1,5,0,0
75555,-200,4,2,1,70,0,0
76296,-125,4,2,1,75,0,0
76666,-90.9090909090909,4,2,1,80,0,1
76944,-90.9090909090909,4,2,1,5,0,1
77036,-90.9090909090909,4,2,1,80,0,1
78425,-90.9090909090909,4,2,1,5,0,1
78517,-90.9090909090909,4,2,1,80,0,1
87407,-166.666666666667,4,2,1,80,0,0
88518,-90.9090909090909,4,2,1,80,0,1
88796,-90.9090909090909,4,2,1,80,0,1
88888,-90.9090909090909,4,2,1,80,0,1
90277,-90.9090909090909,4,2,1,80,0,1
90369,-90.9090909090909,4,2,1,80,0,1
100370,-200,4,2,1,50,0,0
103240,-200,4,2,1,50,0,0
103333,-200,4,2,1,50,0,0
112222,-125,4,2,1,60,0,0
127036,-125,4,2,1,70,0,0
128518,-125,4,2,1,75,0,0
128796,-125,4,2,1,5,0,0
128888,-200,4,2,1,75,0,0
129629,-125,4,2,1,75,0,0
129999,-90.9090909090909,4,2,1,80,0,1
130277,-90.9090909090909,4,2,1,5,0,1
130369,-90.9090909090909,4,2,1,80,0,1
131759,-90.9090909090909,4,2,1,5,0,1
131851,-90.9090909090909,4,2,1,80,0,1
140740,750,4,2,1,70,1,0
140740,-200,4,2,1,70,0,0
142052,-200,4,2,1,70,0,0
142240,-200,4,2,1,70,0,0
143517,1000,4,2,1,60,1,0
143517,-125,4,2,1,60,0,0
145017,937.5,4,2,1,60,1,0
145017,-125,4,2,1,60,0,0
146420,857.142857142857,4,2,1,60,1,0
146420,-125,4,2,1,60,0,0
147277,821.917808219178,4,2,1,60,1,0
147277,-125,4,2,1,60,0,0
148489,759.493670886076,4,2,1,60,1,0
148489,-125,4,2,1,60,0,0
149628,705.882352941176,4,2,1,60,1,0
149628,-125,4,2,1,60,0,0
150333,674.157303370787,4,2,1,60,1,0
150333,-125,4,2,1,60,0,0
151344,645.161290322581,4,2,1,60,1,0
151344,-125,4,2,1,60,0,0
152311,582.52427184466,4,2,1,60,1,0
152311,-125,4,2,1,60,0,0
152914,571.428571428571,4,2,1,60,1,0
152914,-125,4,2,1,60,0,0
153771,545.454545454546,4,2,1,60,1,0
153771,-166.666666666667,4,2,1,60,0,0
155134,487.80487804878,4,2,1,65,1,0
155134,-125,4,2,1,65,0,0
155865,487.80487804878,4,2,1,65,1,0
155865,-125,4,2,1,65,0,0
156596,483.870967741935,4,2,1,65,1,0
156596,-142.857142857143,4,2,1,65,0,0
157079,454.545454545455,4,2,1,70,1,0
157079,-125,4,2,1,70,0,0
157760,416.666666666667,4,2,1,70,1,0
157760,-125,4,2,1,70,0,0
158810,397.350993377483,4,2,1,75,1,0
158810,-125,4,2,1,75,0,0
159612,392.156862745098,4,2,1,75,1,0
159612,-125,4,2,1,75,0,0
160386,370.37037037037,4,2,1,75,1,0
160386,-125,4,2,1,75,0,0
160663,-125,4,2,1,5,0,0
160756,-200,4,2,1,75,0,0
161497,-125,4,2,1,75,0,0
161867,-83.3333333333333,4,2,1,80,0,1
162145,-83.3333333333333,4,2,1,5,0,1
162237,-83.3333333333333,4,2,1,80,0,1
163626,-83.3333333333333,4,2,1,5,0,1
163718,-83.3333333333333,4,2,1,80,0,1
173348,-83.3333333333333,4,2,1,80,0,0
173626,-83.3333333333333,4,2,1,5,0,0
173719,-76.9230769230769,4,2,1,85,0,1
173997,-76.9230769230769,4,2,1,5,0,1
174089,-76.9230769230769,4,2,1,85,0,1
174737,-76.9230769230769,4,2,1,5,0,1
174829,-76.9230769230769,4,2,1,85,0,1
176682,-100,4,2,1,80,0,1
179645,-83.3333333333333,4,2,1,80,0,0
181034,-166.666666666667,4,2,1,5,0,0
181126,-166.666666666667,4,2,1,80,0,0

[Colours]
Combo1 : 255,155,89
Combo2 : 164,221,255
Combo3 : 27,207,245
Combo4 : 255,28,33

[HitObjects]
240,82,1111,6,0,B|185:98|193:122|120:141,1,132.00000402832,6|0,3:2|0:0,0:0:0:0:
102,120,1481,1,10,0:0:0:0:
268,217,1666,1,2,0:0:0:0:
185,384,1851,2,0,P|161:332|180:257,1,132.00000402832,2|0,3:0|0:0,0:0:0:0:
272,223,2222,1,8,0:0:0:0:
78,346,2407,1,2,0:0:0:0:
272,223,2592,6,0,P|316:242|357:248,1,88.000002685547,2|0,3:0|0:0,0:0:0:0:
419,266,2870,2,0,P|375:273|335:290,1,88.000002685547,2|0,0:0|0:0,0:0:0:0:
309,320,3148,1,2,0:0:0:0:
440,173,3333,2,0,L|420:30,1,132.00000402832,2|0,3:0|0:0,0:0:0:0:
398,11,3703,1,10,0:0:0:0:
311,88,3888,1,2,0:0:0:0:
216,19,4073,6,0,P|159:24|75:80,1,132.00000402832,2|0,3:2|0:0,0:0:0:0:
6,23,4444,1,10,0:0:0:0:
185,158,4629,1,2,0:0:0:0:
7,23,4814,2,0,P|18:68|27:127,1,88.000002685547,2|0,3:0|0:0,0:0:0:0:
185,158,5185,2,0,P|183:136|173:116,1,44.0000013427735,10|0,0:0|0:0,0:0:0:0:
13,230,5370,2,0,P|3:250|3:272,1,44.0000013427735,2|0,0:0|0:0,0:0:0:0:
115,369,5555,5,2,3:2:0:0:
240,274,5740,2,0,B|295:289|291:318|367:338,1,132.00000402832,2|0,0:0|0:0,0:0:0:0:
437,339,6110,2,0,P|373:350|291:393,1,132.00000402832,2|0,0:0|0:0,0:0:0:0:
217,365,6481,1,2,0:0:0:0:
349,198,6666,1,8,0:0:0:0:
362,203,6759,1,2,0:0:0:0:
165,145,6944,1,0,0:0:0:0:
148,151,7036,6,0,P|111:203|104:278,1,132.00000402832,2|0,3:2|0:0,0:0:0:0:
142,330,7407,1,10,0:0:0:0:
16,195,7592,1,2,0:0:0:0:
222,96,7777,2,0,P|265:124|358:129,1,132.00000402832,2|0,3:0|0:0,0:0:0:0:
406,84,8148,1,10,0:0:0:0:
406,84,8518,6,0,P|426:37|422:-4,1,88.000002685547,2|0,3:0|0:0,0:0:0:0:
306,42,8888,1,10,0:0:0:0:
483,133,9073,1,2,0:0:0:0:
354,246,9259,2,0,P|298:253|222:310,1,132.00000402832,2|0,0:0|0:0,0:0:0:0:
215,321,9629,1,8,0:0:0:0:
355,377,9814,1,2,0:0:0:0:
263,176,9999,6,0,P|241:129|256:45,1,132.00000402832,2|0,3:0|0:0,0:0:0:0:
319,18,10370,1,10,0:0:0:0:
156,135,10555,1,2,0:0:0:0:
409,229,10740,2,0,P|404:191|394:134,1,88.000002685547,2|0,3:0|0:0,0:0:0:0:
347,353,11110,1,10,0:0:0:0:
265,278,11296,1,2,0:0:0:0:
143,357,11481,5,2,3:2:0:0:
102,255,11666,1,0,0:0:0:0:
274,91,11851,1,8,0:0:0:0:
195,180,12036,2,0,P|91:155|5:139,1,176.000005371094,2|0,0:0|3:0,0:0:0:0:
168,0,12592,2,0,P|178:44|185:92,1,88.000002685547,10|0,0:0|0:0,0:0:0:0:
267,244,12962,6,0,P|292:206|283:125,1,128,6|10,3:2|1:0,0:0:0:0:
195,180,13518,2,0,B|139:189|143:227|73:239,1,128,2|2,0:0|0:0,0:0:0:0:
34,182,14073,1,10,1:0:0:0:
34,182,14259,1,2,0:0:0:0:
181,277,14444,6,0,P|190:313|193:343,1,64,2|0,3:0|0:0,0:0:0:0:
124,384,14814,1,10,1:0:0:0:
275,312,14999,2,0,B|331:321|327:359|397:371,1,128,2|2,0:0|0:0,0:0:0:0:
387,369,15740,1,0,0:0:0:0:
455,321,15925,5,0,3:0:0:0:
411,170,16110,1,2,0:0:0:0:
389,242,16296,1,10,1:0:0:0:
293,310,16481,5,2,0:0:0:0:
271,238,16667,1,2,3:0:0:0:
199,211,16851,1,2,0:0:0:0:
126,235,17036,1,10,1:0:0:0:
81,297,17222,2,0,L|73:339,1,32,2|0,0:0|0:0,0:0:0:0:
124,234,17407,6,0,L|108:96,1,128,2|8,3:2|0:0,0:0:0:0:
62,50,17962,1,2,0:0:0:0:
62,50,18333,2,0,P|30:65|-3:66,1,64,2|8,0:0|0:0,0:0:0:0:
193,135,18703,1,0,0:0:0:0:
193,135,18796,1,0,0:0:0:0:
193,135,18888,6,0,P|259:140|319:169,1,128,2|10,3:2|1:0,0:0:0:0:
413,132,19444,2,0,L|426:-4,1,128,2|2,0:0|0:0,0:0:0:0:
331,57,19999,1,10,1:0:0:0:
505,143,20185,2,0,L|499:87,1,32,2|0,0:0|0:0,0:0:0:0:
429,290,20370,1,2,3:2:0:0:
442,202,20555,6,0,P|410:206|382:220,1,64,2|8,0:0|1:0,0:0:0:0:
328,358,20925,2,0,P|324:324|318:286,1,64,2|0,0:0|3:0,0:0:0:0:
212,194,21296,2,0,P|240:207|272:211,1,64,2|8,0:0|1:0,0:0:0:0:
68,278,21666,1,0,0:0:0:0:
126,356,21851,6,0,P|155:310|144:226,1,128,2|10,3:2|1:0,0:0:0:0:
96,64,22407,2,0,P|67:110|78:193,1,128,2|2,0:0|0:0,0:0:0:0:
151,239,22962,1,10,1:0:0:0:
204,135,23148,2,0,L|165:142,1,32,2|0,0:0|0:0,0:0:0:0:
283,255,23333,6,0,L|365:273,1,64,2|0,3:2|0:0,0:0:0:0:
456,170,23703,1,10,1:0:0:0:
403,62,23888,2,0,P|370:91|368:178,1,128,2|2,0:0|0:0,0:0:0:0:
364,170,24629,1,2,0:0:0:0:
280,85,24814,5,2,3:0:0:0:
214,122,24999,1,0,0:0:0:0:
117,195,25185,1,10,1:0:0:0:
183,232,25370,1,2,0:0:0:0:
204,305,25555,1,2,3:0:0:0:
165,371,25740,1,2,0:0:0:0:
89,383,25925,1,10,1:0:0:0:
37,326,26110,2,0,L|49:273,1,32,2|0,0:0|0:0,0:0:0:0:
119,218,26296,6,0,P|150:221|181:230,1,64,2|0,3:2|0:0,0:0:0:0:
177,335,26666,2,0,P|207:326|239:322,1,64,10|0,1:0|1:0,0:0:0:0:
408,301,27036,1,2,0:3:0:0:
408,301,27407,2,0,P|385:341|338:346,1,96,10|0,1:3|1:3,0:3:0:0:
327,331,27777,6,0,L|346:179,1,128,6|8,3:1|1:0,0:0:0:0:
295,59,28333,1,0,0:0:0:0:
295,59,28518,2,0,L|307:140,1,64,0|0,3:0|0:0,0:0:0:0:
401,133,28888,2,0,P|422:134|470:114,1,64,8|0,1:0|0:0,0:0:0:0:
248,225,29259,2,0,P|214:204|149:206,1,96,4|0,3:1|0:0,0:0:0:0:
125,185,29629,6,0,L|147:321,1,120,2|0,0:0|0:0,0:0:0:0:
240,384,30370,2,0,P|257:348|252:321,1,64,10|0,0:0|0:0,0:0:0:0:
337,252,30740,6,0,B|397:269|385:297|458:313,1,132.00000402832,6|0,3:2|0:0,0:0:0:0:
512,262,31110,1,10,0:0:0:0:
440,153,31296,1,2,0:0:0:0:
428,139,31388,1,0,0:0:0:0:
426,121,31481,2,0,L|443:25,1,88.000002685547,2|0,3:0|0:0,0:0:0:0:
303,147,31851,2,0,L|260:137,1,44.0000013427735,10|0,0:0|0:0,0:0:0:0:
217,323,32036,2,0,L|259:313,1,44.0000013427735,2|0,0:0|0:0,0:0:0:0:
110,144,32222,6,0,L|90:302,1,132.00000402832,2|0,3:2|0:0,0:0:0:0:
42,339,32592,1,10,0:0:0:0:
210,224,32777,1,2,0:0:0:0:
224,213,32870,1,0,0:0:0:0:
241,211,32962,2,0,L|329:230,1,88.000002685547,2|0,3:0|0:0,0:0:0:0:
464,328,33333,2,0,P|427:356|377:351,1,88.000002685547,8|2,0:0|0:0,0:0:0:0:
371,346,33610,1,0,0:0:0:0:
358,333,33703,6,0,P|315:313|196:374,1,176.000005371094,2|10,3:2|0:0,0:0:0:0:
65,289,34259,1,2,0:0:0:0:
183,122,34444,2,0,P|199:160|199:206,1,88.000002685547,2|0,3:0|0:0,0:0:0:0:
274,73,34814,1,10,0:0:0:0:
94,186,34999,1,2,0:0:0:0:
292,291,35185,5,2,3:2:0:0:
95,188,35370,2,0,P|56:194|5:215,1,88.000002685547,0|8,0:0|0:0,0:0:0:0:
190,6,35740,2,0,P|223:50|343:47,1,176.000005371094,2|0,0:0|0:0,0:0:0:0:
477,8,36296,2,0,L|458:99,1,88.000002685547,10|0,0:0|0:0,0:0:0:0:
464,110,36573,1,0,0:0:0:0:
473,125,36666,5,2,3:2:0:0:
332,229,36851,2,0,P|316:188|329:142,1,88.000002685547,2|8,0:0|0:0,0:0:0:0:
472,281,37222,1,2,0:0:0:0:
472,281,37314,1,0,0:0:0:0:
472,281,37407,1,2,3:0:0:0:
268,344,37592,2,0,P|315:352|352:367,1,88.000002685547,2|8,0:0|0:0,0:0:0:0:
216,140,37962,1,2,0:0:0:0:
102,244,38148,5,2,3:0:0:0:
33,163,38333,1,2,0:0:0:0:
71,64,38518,1,10,0:0:0:0:
168,23,38703,2,0,P|248:28|323:90,1,176.000005371094,2|0,0:0|0:0,0:0:0:0:
418,229,39259,2,0,P|424:185|435:143,1,88.000002685547,8|2,0:0|0:0,0:0:0:0:
446,128,39536,1,0,0:0:0:0:
460,117,39629,5,2,3:0:0:0:
299,204,39814,2,0,P|310:246|316:289,1,88.000002685547,2|8,0:0|0:0,0:0:0:0:
399,364,40185,1,2,0:0:0:0:
414,372,40277,1,0,0:0:0:0:
431,374,40370,1,2,3:0:0:0:
215,280,40555,2,0,P|167:290|126:312,1,88.000002685547,2|8,0:0|0:0,0:0:0:0:
41,217,40925,1,2,0:0:0:0:
32,201,41018,1,0,0:0:0:0:
33,183,41110,2,0,L|55:79,1,88.000002685547,2|0,3:0|0:0,0:0:0:0:
199,0,41481,6,0,P|228:39|205:129,1,143.999995605469,14|0,0:0|0:0,0:0:0:0:
191,140,42222,2,0,P|160:129|128:125,1,64,10|0,0:0|0:0,0:0:0:0:
296,193,42592,6,0,P|336:225|435:209,1,132.00000402832,6|0,3:2|0:0,0:0:0:0:
467,157,42962,1,10,0:0:0:0:
352,2,43148,1,2,0:0:0:0:
343,17,43240,1,0,0:0:0:0:
342,34,43333,2,0,L|354:138,1,88.000002685547,2|0,3:0|0:0,0:0:0:0:
490,280,43703,2,0,L|500:214,1,44.0000013427735,10|0,0:0|0:0,0:0:0:0:
338,375,43888,2,0,L|392:387,1,44.0000013427735,2|0,0:0|0:0,0:0:0:0:
254,214,44073,6,0,P|189:207|136:244,1,132.00000402832,2|0,3:2|0:0,0:0:0:0:
86,301,44444,1,10,0:0:0:0:
10,179,44629,1,2,0:0:0:0:
13,161,44722,1,0,0:0:0:0:
18,144,44814,2,0,L|37:52,1,88.000002685547,2|0,3:0|0:0,0:0:0:0:
212,0,45185,2,0,P|230:46|219:91,1,88.000002685547,8|2,0:0|0:0,0:0:0:0:
212,96,45462,1,0,0:0:0:0:
201,110,45555,6,0,B|287:127|261:160|364:189,1,176.000005371094,2|10,3:2|0:0,0:0:0:0:
472,95,46110,1,2,0:0:0:0:
344,0,46296,2,0,P|335:48|334:93,1,88.000002685547,2|0,3:0|0:0,0:0:0:0:
507,180,46666,1,10,0:0:0:0:
294,301,46851,1,2,0:0:0:0:
507,180,47036,5,2,3:2:0:0:
401,376,47222,2,0,P|409:324|410:278,1,88.000002685547,0|8,0:0|0:0,0:0:0:0:
241,210,47592,2,0,B|155:227|180:260|77:289,1,176.000005371094,2|0,0:0|0:0,0:0:0:0:
6,114,48148,2,0,P|54:121|99:135,1,88.000002685547,10|0,0:0|0:0,0:0:0:0:
104,143,48425,1,0,0:0:0:0:
117,153,48518,5,2,3:2:0:0:
230,82,48703,2,0,P|248:32|231:-15,1,88.000002685547,2|8,0:0|0:0,0:0:0:0:
119,33,49073,1,2,0:0:0:0:
119,33,49166,1,0,0:0:0:0:
119,33,49259,1,2,3:0:0:0:
287,183,49444,2,0,P|247:189|201:212,1,88.000002685547,2|8,0:0|0:0,0:0:0:0:
350,79,49814,1,2,0:0:0:0:
473,239,49999,5,2,3:0:0:0:
373,202,50185,1,2,0:0:0:0:
293,271,50370,1,10,0:0:0:0:
298,376,50555,2,0,P|348:338|463:356,1,176.000005371094,2|0,0:0|0:0,0:0:0:0:
374,201,51110,2,0,P|379:150|389:113,1,88.000002685547,8|2,0:0|0:0,0:0:0:0:
396,98,51388,1,0,0:0:0:0:
409,86,51481,5,2,3:0:0:0:
280,180,51666,2,0,P|236:203|186:199,1,88.000002685547,2|8,0:0|0:0,0:0:0:0:
28,261,52036,1,2,0:0:0:0:
44,264,52129,1,0,0:0:0:0:
59,273,52221,1,2,3:0:0:0:
143,373,52407,2,0,L|160:281,1,88.000002685547,2|8,0:0|0:0,0:0:0:0:
351,323,52777,1,2,0:0:0:0:
351,323,52870,1,0,0:0:0:0:
351,323,52962,6,0,L|308:4,1,320,6|2,3:2|3:0,0:0:0:0:
206,264,54999,1,2,0:0:0:0:
206,264,55185,2,0,B|147:274|154:301|85:317,1,120,2|2,3:2|0:0,0:0:0:0:
24,283,55925,1,2,3:2:0:0:
256,192,56018,12,10,58518,0:0:0:0:
279,324,58888,6,0,P|341:330|391:369,1,128,6|10,3:2|1:0,0:0:0:0:
462,321,59444,2,0,L|443:168,1,128,2|2,0:0|0:0,0:0:0:0:
488,109,59999,1,10,1:0:0:0:
488,109,60185,1,2,0:0:0:0:
390,87,60370,6,0,L|311:104,1,64,2|0,3:0|0:0,0:0:0:0:
237,51,60740,1,10,1:0:0:0:
162,112,60925,2,0,P|136:169|144:232,1,128,2|2,0:0|0:0,0:0:0:0:
144,232,61666,1,0,0:0:0:0:
64,291,61851,5,0,3:0:0:0:
138,340,62036,1,2,0:0:0:0:
221,377,62222,1,10,1:0:0:0:
295,328,62407,1,2,0:0:0:0:
335,164,62592,5,2,3:0:0:0:
252,154,62777,1,2,0:0:0:0:
195,215,62962,1,10,1:0:0:0:
221,294,63148,2,0,L|214:334,1,32,2|0,0:0|0:0,0:0:0:0:
295,325,63333,6,0,L|441:293,1,128,2|8,3:2|0:0,0:0:0:0:
512,321,63888,1,2,0:0:0:0:
512,321,64259,2,0,L|500:393,1,64,2|8,0:0|0:0,0:0:0:0:
393,210,64629,1,0,0:0:0:0:
393,210,64722,1,0,0:0:0:0:
393,210,64814,6,0,P|381:149|415:82,1,128,2|10,3:2|1:0,0:0:0:0:
270,22,65370,2,0,P|282:83|248:150,1,128,2|2,0:0|0:0,0:0:0:0:
166,198,65925,1,10,1:0:0:0:
88,142,66110,2,0,L|95:100,1,32,2|0,0:0|0:0,0:0:0:0:
163,53,66296,1,2,3:2:0:0:
257,142,66481,2,0,P|290:127|330:127,1,64,2|8,0:0|1:0,0:0:0:0:
382,0,66851,2,0,P|393:29|391:61,1,64,2|0,0:0|3:0,0:0:0:0:
472,173,67222,2,0,P|439:158|399:158,1,64,2|8,0:0|1:0,0:0:0:0:
239,263,67592,1,0,0:0:0:0:
336,242,67777,6,0,P|311:207|319:124,1,128,2|10,3:2|1:0,0:0:0:0:
399,313,68333,2,0,P|460:306|512:342,1,128,2|2,0:0|0:0,0:0:0:0:
335,373,68888,1,10,1:0:0:0:
335,373,69073,1,2,0:0:0:0:
270,314,69259,6,0,L|182:329,1,64,2|0,3:2|0:0,0:0:0:0:
29,275,69629,1,10,1:0:0:0:
99,378,69814,2,0,P|93:363|92:347,1,32,2|0,0:0|0:0,0:0:0:0:
156,276,69999,1,0,3:0:0:0:
97,224,70185,1,2,0:0:0:0:
171,190,70370,1,8,1:0:0:0:
171,191,70740,6,0,L|161:101,1,64,0|0,3:0|0:0,0:0:0:0:
213,38,71110,1,10,1:0:0:0:
274,123,71296,1,2,0:0:0:0:
366,189,71481,5,2,3:0:0:0:
431,144,71666,1,2,0:0:0:0:
504,185,71851,1,8,1:0:0:0:
494,273,72036,1,2,0:0:0:0:
423,314,72222,6,0,P|393:304|361:301,1,64,2|0,3:2|1:0,0:0:0:0:
260,198,72592,2,0,P|291:194|322:184,1,64,8|2,1:0|1:0,0:0:0:0:
251,367,72962,2,0,P|282:370|313:380,1,64,2|0,3:2|1:0,0:0:0:0:
225,271,73333,1,2,0:0:0:0:
162,344,73518,1,2,0:0:0:0:
162,344,73703,6,0,L|143:192,1,128,6|8,3:1|1:0,0:0:0:0:
114,147,74259,1,0,0:0:0:0:
114,147,74444,2,0,P|92:146|46:122,1,64,0|0,3:0|0:0,0:0:0:0:
80,303,74814,2,0,P|58:303|12:327,1,64,8|0,1:0|0:0,0:0:0:0:
215,257,75185,2,0,P|258:255|321:283,1,96,4|0,3:1|0:0,0:0:0:0:
324,292,75555,6,0,P|347:243|332:179,1,120,2|0,0:0|0:0,0:0:0:0:
286,107,76296,2,0,L|297:23,1,64,10|0,0:0|0:0,0:0:0:0:
165,17,76666,6,0,L|187:158,1,132.00000402832,6|0,3:2|0:0,0:0:0:0:
134,224,77036,1,10,0:0:0:0:
262,306,77222,1,2,0:0:0:0:
268,317,77314,1,0,0:0:0:0:
267,330,77407,2,0,P|221:342|172:370,1,88.000002685547,2|0,3:0|0:0,0:0:0:0:
443,373,77777,2,0,L|485:384,1,44.0000013427735,10|0,0:0|0:0,0:0:0:0:
382,189,77962,2,0,P|388:166|390:121,1,44.0000013427735,2|0,0:0|0:0,0:0:0:0:
267,330,78148,6,0,B|210:334|198:367|136:373,1,132.00000402832,2|0,3:2|0:0,0:0:0:0:
64,329,78518,1,10,0:0:0:0:
147,221,78703,1,2,0:0:0:0:
158,207,78796,1,0,0:0:0:0:
162,190,78888,2,0,L|144:90,1,88.000002685547,2|0,3:0|0:0,0:0:0:0:
338,23,79259,2,0,L|320:123,1,88.000002685547,8|2,0:0|0:0,0:0:0:0:
326,126,79536,1,0,0:0:0:0:
339,137,79629,6,0,B|422:147|408:183|509:192,1,176.000005371094,2|10,3:2|0:0,0:0:0:0:
247,253,80185,1,2,0:0:0:0:
359,366,80370,2,0,P|368:326|359:268,1,88.000002685547,2|0,3:0|0:0,0:0:0:0:
241,155,80740,1,10,0:0:0:0:
458,264,80925,1,2,0:0:0:0:
240,371,81110,5,2,3:2:0:0:
418,167,81296,2,0,P|451:179|505:190,1,88.000002685547,0|8,0:0|0:0,0:0:0:0:
247,257,81666,2,0,P|179:253|96:324,1,176.000005371094,2|0,0:0|0:0,0:0:0:0:
286,38,82222,2,0,L|298:126,1,88.000002685547,10|0,0:0|0:0,0:0:0:0:
304,141,82499,1,0,0:0:0:0:
313,155,82592,5,2,3:2:0:0:
134,114,82777,2,0,P|93:126|49:131,1,88.000002685547,2|8,0:0|0:0,0:0:0:0:
255,270,83148,1,2,0:0:0:0:
255,270,83240,1,0,0:0:0:0:
255,270,83333,1,2,3:0:0:0:
83,384,83518,2,0,P|74:336|88:293,1,88.000002685547,2|8,0:0|0:0,0:0:0:0:
205,193,83888,1,2,0:0:0:0:
59,38,84073,5,2,3:0:0:0:
133,113,84259,1,2,0:0:0:0:
21,220,84444,1,10,0:0:0:0:
174,335,84629,2,0,P|240:287|355:292,1,176.000005371094,2|0,0:0|0:0,0:0:0:0:
456,174,85185,2,0,L|365:152,1,88.000002685547,8|2,0:0|0:0,0:0:0:0:
353,149,85462,1,0,0:0:0:0:
335,144,85555,5,2,3:0:0:0:
479,2,85740,2,0,P|489:51|492:94,1,88.000002685547,2|8,0:0|0:0,0:0:0:0:
326,255,86110,1,2,0:0:0:0:
326,255,86203,1,0,0:0:0:0:
326,255,86296,1,2,3:0:0:0:
395,339,86481,2,0,P|436:361|490:363,1,88.000002685547,2|8,0:0|0:0,0:0:0:0:
242,224,86851,1,2,0:0:0:0:
228,235,86944,1,0,0:0:0:0:
211,241,87036,2,0,L|88:218,1,88.000002685547,2|0,3:0|0:0,0:0:0:0:
383,130,87407,6,0,P|402:95|373:-4,1,143.999995605469,14|0,0:0|0:0,0:0:0:0:
376,0,88148,2,0,P|367:27|366:50,1,47.9999985351563,8|0,0:0|0:0,0:0:0:0:
467,215,88518,6,0,P|420:211|342:253,1,132.00000402832,6|0,3:2|0:0,0:0:0:0:
278,194,88888,1,10,0:0:0:0:
367,371,89073,1,2,0:0:0:0:
379,384,89166,1,0,0:0:0:0:
396,381,89259,2,0,P|419:338|412:300,1,88.000002685547,2|0,3:0|0:0,0:0:0:0:
329,97,89629,2,0,L|341:41,1,44.0000013427735,10|0,0:0|0:0,0:0:0:0:
467,215,89814,2,0,L|523:227,1,44.0000013427735,2|0,0:0|0:0,0:0:0:0:
265,296,89999,6,0,P|209:262|144:262,1,132.00000402832,2|0,3:2|0:0,0:0:0:0:
81,315,90370,1,10,0:0:0:0:
209,151,90555,1,2,0:0:0:0:
222,140,90648,1,0,0:0:0:0:
239,138,90740,2,0,L|328:157,1,88.000002685547,2|0,3:0|0:0,0:0:0:0:
28,0,91110,2,0,P|2:43|11:92,1,88.000002685547,8|2,0:0|0:0,0:0:0:0:
16,92,91388,1,0,0:0:0:0:
29,103,91481,6,0,L|-4:293,1,176.000005371094,2|10,3:2|0:0,0:0:0:0:
261,234,92036,1,2,0:0:0:0:
169,342,92222,2,0,L|162:255,1,88.000002685547,2|0,3:0|0:0,0:0:0:0:
271,384,92592,1,10,0:0:0:0:
63,304,92777,1,2,0:0:0:0:
271,383,92962,5,2,3:2:0:0:
209,151,93148,2,0,L|116:173,1,88.000002685547,0|8,0:0|0:0,0:0:0:0:
330,289,93518,2,0,L|512:328,1,176.000005371094,2|0,0:0|0:0,0:0:0:0:
316,38,94073,2,0,L|294:155,1,88.000002685547,10|0,0:0|0:0,0:0:0:0:
307,140,94351,1,0,0:0:0:0:
319,152,94444,5,6,3:1:0:0:
214,310,94629,2,0,P|171:316|133:338,1,88.000002685547,2|8,0:0|0:0,0:0:0:0:
200,196,94999,1,2,0:0:0:0:
200,196,95092,1,0,0:0:0:0:
200,196,95185,1,2,3:0:0:0:
363,271,95370,2,0,L|349:358,1,88.000002685547,2|8,0:0|0:0,0:0:0:0:
422,148,95740,1,2,0:0:0:0:
268,278,95925,5,2,3:0:0:0:
200,196,96110,1,2,0:0:0:0:
97,221,96296,1,10,0:0:0:0:
39,309,96481,2,0,P|62:360|182:352,1,176.000005371094,2|0,0:0|0:0,0:0:0:0:
290,189,97036,2,0,L|276:102,1,88.000002685547,8|2,0:0|0:0,0:0:0:0:
273,89,97314,1,0,0:0:0:0:
271,75,97407,5,2,3:0:0:0:
382,223,97592,2,0,P|421:240|465:239,1,88.000002685547,2|8,0:0|0:0,0:0:0:0:
304,355,97962,1,2,0:0:0:0:
304,355,98055,1,0,0:0:0:0:
304,355,98148,1,2,3:0:0:0:
199,252,98333,2,0,P|156:262|122:290,1,88.000002685547,2|8,0:0|0:0,0:0:0:0:
11,93,98703,1,2,0:0:0:0:
11,93,98796,1,0,0:0:0:0:
11,93,98888,6,0,P|44:120|87:131,1,88.000002685547,6|0,3:2|0:0,0:0:0:0:
370,67,99259,1,10,0:0:0:0:
347,29,99351,1,2,0:0:0:0:
303,20,99444,1,2,0:0:0:0:
262,36,99536,1,2,0:0:0:0:
238,73,99629,6,0,L|250:140,1,44.0000013427735,2|2,3:0|0:0,0:0:0:0:
301,295,99814,2,0,P|309:274|308:253,1,44.0000013427735,2|2,0:0|0:0,0:0:0:0:
203,216,99999,2,0,L|160:226,1,44.0000013427735,10|2,0:0|0:0,0:0:0:0:
340,133,100185,2,0,L|387:145,1,44.0000013427735,2|2,0:0|0:0,0:0:0:0:
448,197,100370,6,0,L|445:216,3,20,6|2|2|2,3:2|0:0|0:0|0:0,0:0:0:0:
433,233,100740,1,8,0:0:0:0:
490,325,100925,1,2,0:0:0:0:
391,381,101110,2,0,L|301:363,1,80,2|8,0:0|1:0,0:0:0:0:
252,312,101666,1,2,0:0:0:0:
178,348,101851,5,2,3:2:0:0:
176,353,101944,1,2,0:0:0:0:
176,358,102036,1,2,0:0:0:0:
174,363,102129,1,2,0:0:0:0:
173,368,102222,2,0,L|216:381,1,40,8|2,0:0|0:0,0:0:0:0:
80,302,102592,2,0,L|41:313,1,40,2|8,0:0|1:0,0:0:0:0:
181,240,102962,2,0,P|184:211|170:176,1,60,8|0,1:0|0:0,0:0:0:0:
142,165,103333,6,0,L|108:172,3,20,2|2|2|2,3:2|0:0|0:0|0:0,0:0:0:0:
164,139,103703,1,8,0:0:0:0:
242,73,103888,1,2,0:0:0:0:
154,24,104073,2,0,L|102:34,1,40,2|8,0:0|1:0,0:0:0:0:
242,73,104444,2,0,L|294:83,1,40,8|2,1:0|0:0,0:0:0:0:
368,37,104814,5,2,3:2:0:0:
421,114,104999,1,2,0:0:0:0:
335,167,105185,2,0,L|340:217,2,40,10|0|0,0:0|3:0|0:0,0:0:0:0:
413,264,105740,1,0,3:0:0:0:
413,264,105925,2,0,L|459:272,1,40,10|0,0:0|0:0,0:0:0:0:
354,354,106296,6,0,L|322:361,3,20,2|2|2|2,3:2|0:0|0:0|0:0,0:0:0:0:
309,378,106666,1,8,0:0:0:0:
248,297,106851,1,2,0:0:0:0:
171,368,107036,2,0,P|135:386|96:384,1,80,2|8,0:0|1:0,0:0:0:0:
38,313,107592,1,2,0:0:0:0:
100,236,107777,5,2,3:2:0:0:
105,237,107870,1,2,0:0:0:0:
110,238,107962,1,2,0:0:0:0:
115,239,108055,1,2,0:0:0:0:
120,240,108148,2,0,L|128:296,1,40,8|2,0:0|0:0,0:0:0:0:
200,190,108518,2,0,L|193:142,1,40,2|8,0:0|1:0,0:0:0:0:
122,102,108888,2,0,L|68:111,1,40,8|0,1:0|0:0,0:0:0:0:
283,219,109259,5,2,0:0:0:0:
283,219,109629,5,10,0:0:0:0:
349,173,109814,1,2,0:0:0:0:
424,199,109999,1,2,0:0:0:0:
424,199,110370,5,10,0:0:0:0:
405,121,110555,1,2,0:0:0:0:
388,42,110740,1,2,3:2:0:0:
388,42,111110,1,4,3:2:0:0:
388,42,112222,5,6,3:2:0:0:
265,135,112407,2,0,L|275:203,1,64,2|8,0:0|1:0,0:0:0:0:
356,257,112777,2,0,P|416:252|476:293,1,128,2|2,0:0|0:0,0:0:0:0:
298,342,113333,1,10,1:0:0:0:
298,342,113518,1,2,0:0:0:0:
224,295,113703,6,0,L|97:315,2,128,2|10|2,3:0|1:0|3:0,0:0:0:0:
298,342,114629,1,2,0:0:0:0:
225,380,114814,1,8,1:0:0:0:
298,342,114999,1,0,0:0:0:0:
229,294,115185,5,0,3:0:0:0:
275,224,115370,1,2,0:0:0:0:
345,267,115555,1,10,1:0:0:0:
360,61,115740,1,2,0:0:0:0:
315,123,115925,1,2,3:0:0:0:
241,143,116110,1,2,0:0:0:0:
167,120,116296,1,10,1:0:0:0:
132,51,116481,2,0,L|137:15,1,32,2|0,0:0|0:0,0:0:0:0:
167,120,116666,6,0,L|143:262,1,128,2|8,3:2|0:0,0:0:0:0:
147,351,117222,1,2,0:0:0:0:
62,297,117407,2,0,P|30:301|0:310,1,64,0|2,3:0|0:0,0:0:0:0:
63,170,117777,2,0,P|31:165|0:156,1,64,8|0,0:0|0:0,0:0:0:0:
161,235,118148,5,2,3:2:0:0:
161,235,118333,2,0,L|236:220,1,64,0|10,0:0|1:0,0:0:0:0:
293,122,118703,2,0,P|356:124|410:157,1,128,2|2,0:0|0:0,0:0:0:0:
485,109,119259,1,10,1:0:0:0:
428,240,119444,2,0,L|431:271,1,32,2|0,0:0|0:0,0:0:0:0:
316,384,119629,6,0,P|305:342|309:315,1,64,2|0,3:2|0:0,0:0:0:0:
388,344,119999,1,10,1:0:0:0:
227,380,120185,2,0,L|141:362,1,64,2|0,0:0|3:0,0:0:0:0:
56,287,120555,2,0,L|118:273,1,64,2|8,0:0|1:0,0:0:0:0:
220,212,120925,1,0,0:0:0:0:
120,152,121110,5,2,3:2:0:0:
212,51,121296,2,0,L|220:127,1,64,2|8,0:0|1:0,0:0:0:0:
309,220,121666,2,0,P|319:178|315:151,1,64,2|0,0:0|3:0,0:0:0:0:
372,59,122036,1,2,0:0:0:0:
218,114,122222,1,10,1:0:0:0:
407,191,122407,2,0,L|461:179,1,32,2|0,0:0|0:0,0:0:0:0:
372,290,122592,6,0,L|450:310,1,64,2|0,3:2|0:0,0:0:0:0:
294,358,122962,1,10,1:0:0:0:
232,283,123148,2,0,P|170:273|120:311,2,128,2|2|0,0:0|0:0|0:0,0:0:0:0:
301,224,124073,6,0,L|289:80,1,128,0|10,3:0|1:0,0:0:0:0:
347,31,124629,1,2,0:0:0:0:
206,127,124814,1,2,3:0:0:0:
139,71,124999,1,2,0:0:0:0:
222,39,125185,1,8,1:0:0:0:
113,153,125370,2,0,L|58:165,1,32,2|0,0:0|0:0,0:0:0:0:
196,223,125555,6,0,P|258:222|310:257,1,128,2|8,3:2|1:0,0:0:0:0:
366,330,126110,1,2,0:0:0:0:
420,253,126296,2,0,P|418:219|401:107,1,128,2|8,3:0|1:0,0:0:0:0:
402,10,126851,1,2,0:0:0:0:
402,10,126944,1,0,0:0:0:0:
402,10,127036,6,0,P|435:44|528:51,1,128,6|8,3:1|1:0,0:0:0:0:
326,149,127592,1,0,0:0:0:0:
253,78,127777,2,0,L|267:3,1,64,0|0,3:0|0:0,0:0:0:0:
326,149,128148,2,0,P|362:160|394:161,1,64,8|0,1:0|0:0,0:0:0:0:
224,190,128518,2,0,P|197:174|122:175,1,96,4|0,3:1|0:0,0:0:0:0:
99,166,128888,6,0,L|117:285,1,120,2|0,0:0|0:0,0:0:0:0:
74,373,129629,2,0,L|10:384,1,64,10|0,0:0|0:0,0:0:0:0:
214,296,129999,6,0,B|270:310|261:336|342:358,1,132.00000402832,6|0,3:2|0:0,0:0:0:0:
393,294,130370,1,10,0:0:0:0:
316,180,130555,1,2,0:0:0:0:
310,171,130648,1,0,0:0:0:0:
305,163,130740,2,0,P|309:121|326:72,1,88.000002685547,2|0,3:0|0:0,0:0:0:0:
243,9,131110,2,0,L|199:15,1,44.0000013427735,10|0,0:0|0:0,0:0:0:0:
405,134,131296,2,0,L|448:140,1,44.0000013427735,2|0,0:0|0:0,0:0:0:0:
221,222,131481,6,0,B|161:225|160:255|91:264,1,132.00000402832,2|0,3:2|0:0,0:0:0:0:
27,229,131851,1,10,0:0:0:0:
222,369,132036,1,2,0:0:0:0:
239,382,132129,1,0,0:0:0:0:
260,384,132222,2,0,P|276:327|280:295,1,88.000002685547,2|0,3:0|0:0,0:0:0:0:
174,39,132592,2,0,P|158:96|154:128,1,88.000002685547,8|2,0:0|0:0,0:0:0:0:
162,144,132870,1,0,0:0:0:0:
175,161,132962,6,0,P|231:201|357:188,1,176.000005371094,2|10,3:2|0:0,0:0:0:0:
420,117,133518,1,2,0:0:0:0:
287,16,133703,2,0,P|274:75|271:108,1,88.000002685547,2|0,3:0|0:0,0:0:0:0:
472,228,134073,1,10,0:0:0:0:
250,310,134259,1,2,0:0:0:0:
452,368,134444,5,2,3:2:0:0:
382,161,134629,2,0,P|387:117|397:74,1,88.000002685547,0|8,0:0|0:0,0:0:0:0:
250,310,134999,2,0,B|164:323|175:360|74:372,1,176.000005371094,2|0,0:0|0:0,0:0:0:0:
335,233,135555,2,0,P|378:238|421:254,1,88.000002685547,10|0,0:0|0:0,0:0:0:0:
436,267,135833,1,0,0:0:0:0:
448,284,135925,5,2,3:2:0:0:
291,146,136110,2,0,P|281:103|301:47,1,88.000002685547,2|8,0:0|0:0,0:0:0:0:
391,8,136481,1,2,0:0:0:0:
391,8,136573,1,0,0:0:0:0:
391,8,136666,1,2,3:0:0:0:
192,124,136851,2,0,L|98:105,1,88.000002685547,2|8,0:0|0:0,0:0:0:0:
1,80,137222,1,2,0:0:0:0:
1,80,137314,1,0,0:0:0:0:
1,80,137407,5,2,3:0:0:0:
173,199,137592,1,2,0:0:0:0:
0,299,137777,1,10,0:0:0:0:
173,199,137962,2,0,B|259:212|248:249|349:261,1,176.000005371094,2|0,0:0|0:0,0:0:0:0:
512,148,138518,2,0,P|469:126|425:132,1,88.000002685547,8|2,0:0|0:0,0:0:0:0:
411,141,138796,1,0,0:0:0:0:
399,159,138888,5,2,3:0:0:0:
441,351,139073,2,0,P|451:299|452:256,1,88.000002685547,2|8,0:0|0:0,0:0:0:0:
318,40,139444,1,2,0:0:0:0:
303,56,139536,1,0,0:0:0:0:
298,77,139629,2,0,P|300:120|309:163,1,88.000002685547,2|2,3:0|0:0,0:0:0:0:
189,291,139999,1,8,0:0:0:0:
400,162,140185,1,2,0:0:0:0:
180,74,140370,5,2,3:0:0:0:
180,74,140740,2,0,P|135:116|130:207,1,140,6|0,3:2|0:0,0:0:0:0:
120,306,142240,2,0,P|87:312|46:348,1,80,2|2,0:0|0:0,0:0:0:0:
206,245,143517,6,0,B|261:258|256:292|334:313,1,128,2|10,3:0|1:0,0:0:0:0:
362,384,145017,1,2,0:0:0:0:
421,323,145251,1,2,1:0:0:0:
374,247,145485,2,0,P|359:189|375:137,1,96,0|0,3:2|0:0,0:0:0:0:
423,95,146420,1,10,1:0:0:0:
423,95,146848,1,2,1:0:0:0:
366,154,147062,1,2,1:0:0:0:
313,79,147277,6,0,B|258:92|263:126|185:147,1,128,2|10,3:2|1:0,0:0:0:0:
117,96,148489,1,2,0:0:0:0:
186,48,148678,1,2,0:0:0:0:
203,137,148868,2,0,L|186:260,1,96,0|0,3:2|0:0,0:0:0:0:
122,276,149628,1,8,1:0:0:0:
122,276,149980,1,2,0:0:0:0:
122,276,150333,6,0,P|189:281|239:323,1,128,2|10,3:2|1:0,0:0:0:0:
286,380,151344,1,2,0:0:0:0:
358,327,151666,2,0,L|341:185,1,128,2|10,3:2|1:0,0:0:0:0:
268,131,152602,1,2,3:2:0:0:
358,67,152914,6,0,P|408:105|471:108,1,128,2|8,3:2|1:0,0:0:0:0:
267,129,153771,2,0,P|210:131|165:166,1,95.9999970703126,0|0,0:0|3:2,0:0:0:0:
46,137,154589,1,10,1:0:0:0:
46,137,155134,6,0,L|63:284,1,128,2|8,3:2|1:0,0:0:0:0:
238,330,155865,1,2,1:0:0:0:
126,362,156108,1,2,3:0:0:0:
174,257,156352,2,0,L|180:179,1,64,2|8,0:0|1:0,0:0:0:0:
238,330,156837,1,2,0:0:0:0:
238,330,156958,1,0,0:0:0:0:
238,330,157079,5,2,3:2:0:0:
332,384,157306,2,0,L|405:371,1,64,2|8,0:0|0:0,0:0:0:0:
323,220,157760,1,2,3:2:0:0:
323,220,157864,1,0,0:0:0:0:
323,220,157968,2,0,P|309:248|308:280,1,64,2|0,3:2|0:0,0:0:0:0:
395,169,158385,2,0,L|458:179,1,64,8|2,0:0|0:0,0:0:0:0:
224,264,158810,6,0,L|96:287,1,128,2|8,3:2|0:0,0:0:0:0:
25,238,159406,1,2,0:0:0:0:
104,172,159612,2,0,L|93:94,1,64,2|0,3:2|0:0,0:0:0:0:
187,186,160004,1,10,0:0:0:0:
16,123,160200,1,2,0:0:0:0:
187,186,160386,2,0,L|286:164,1,96,2|0,3:2|0:0,0:0:0:0:
309,176,160756,6,0,P|336:123|316:62,1,120,14|0,0:0|0:0,0:0:0:0:
219,12,161497,2,0,L|230:82,1,64,10|0,3:2|0:0,0:0:0:0:
95,235,161867,6,0,L|122:85,1,143.999995605469,6|0,3:2|0:0,0:0:0:0:
75,29,162237,1,10,0:0:0:0:
209,176,162423,1,2,0:0:0:0:
222,189,162515,1,0,0:0:0:0:
240,193,162608,2,0,P|287:194|333:179,1,95.9999970703126,2|0,3:0|0:0,0:0:0:0:
445,89,162978,2,0,P|450:64|454:36,1,47.9999985351563,10|0,0:0|0:0,0:0:0:0:
467,249,163163,2,0,P|493:250|523:268,1,47.9999985351563,2|0,0:0|0:0,0:0:0:0:
328,333,163348,6,0,B|263:333|259:369|190:379,1,143.999995605469,2|0,3:2|0:0,0:0:0:0:
122,337,163719,1,10,0:0:0:0:
227,223,163904,1,2,0:0:0:0:
237,206,163997,1,0,0:0:0:0:
240,187,164089,2,0,P|234:140|219:73,1,95.9999970703126,2|0,3:0|0:0,0:0:0:0:
299,10,164460,1,8,0:0:0:0:
124,136,164645,1,2,0:0:0:0:
324,252,164830,6,0,P|398:201|504:232,1,191.999994140625,2|10,3:2|0:0,0:0:0:0:
422,304,165386,1,2,0:0:0:0:
337,130,165571,2,0,P|330:83|349:27,1,95.9999970703126,2|0,3:0|0:0,0:0:0:0:
431,99,165941,1,10,0:0:0:0:
246,194,166126,1,2,0:0:0:0:
431,99,166311,5,2,3:2:0:0:
254,5,166497,2,0,P|201:19|139:26,1,95.9999970703126,0|8,0:0|0:0,0:0:0:0:
40,178,166867,2,0,P|109:187|125:298,1,191.999994140625,2|0,0:0|0:0,0:0:0:0:
42,384,167423,2,0,P|31:337|35:289,1,95.9999970703126,10|0,0:0|0:0,0:0:0:0:
44,273,167700,1,0,0:0:0:0:
58,259,167793,5,2,3:2:0:0:
187,359,167978,2,0,P|229:349|281:343,1,95.9999970703126,2|8,0:0|0:0,0:0:0:0:
354,214,168348,1,2,0:0:0:0:
354,214,168441,1,0,0:0:0:0:
354,214,168534,1,2,3:0:0:0:
425,384,168719,2,0,P|455:341|449:299,1,95.9999970703126,2|8,0:0|0:0,0:0:0:0:
238,126,169089,1,2,0:0:0:0:
238,126,169182,1,0,0:0:0:0:
238,126,169274,5,2,3:0:0:0:
453,199,169460,1,2,0:0:0:0:
281,342,169645,1,10,0:0:0:0:
453,199,169830,2,0,L|429:-15,1,191.999994140625,2|0,0:0|0:0,0:0:0:0:
302,87,170386,2,0,L|191:67,1,95.9999970703126,8|2,0:0|0:0,0:0:0:0:
191,60,170663,5,0,0:0:0:0:
174,49,170756,1,2,3:0:0:0:
249,175,170941,2,0,P|234:214|229:285,1,95.9999970703126,2|8,0:0|0:0,0:0:0:0:
297,350,171311,1,2,0:0:0:0:
313,360,171404,1,0,0:0:0:0:
331,363,171497,1,2,3:0:0:0:
134,251,171682,2,0,P|88:260|27:283,1,95.9999970703126,2|8,0:0|0:0,0:0:0:0:
331,120,172052,1,2,0:0:0:0:
349,123,172145,1,0,0:0:0:0:
365,133,172237,5,2,3:0:0:0:
365,133,172608,2,0,L|350:237,1,95.9999970703126,8|0,0:0|0:0,0:0:0:0:
446,103,172978,1,0,3:0:0:0:
266,186,173163,1,0,0:0:0:0:
476,332,173348,2,0,B|438:334|411:302|411:302|376:291|341:314,1,143.999995605469,10|0,0:0|0:0,0:0:0:0:
323,323,173719,6,0,B|247:324|253:378|176:385,1,155.999992858887,6|0,3:2|0:0,0:0:0:0:
104,384,174089,2,0,P|93:305|81:270,1,103.999995239258,8|0,0:0|0:0,0:0:0:0:
117,0,174460,2,0,P|179:48|173:142,1,155.999992858887,2|0,3:0|0:0,0:0:0:0:
130,176,174830,2,0,B|112:196|112:196|34:179,1,103.999995239258,10|0,0:0|0:0,0:0:0:0:
272,246,175200,6,0,B|313:256|359:210|359:210|381:278|447:299,2,207.999990478516,6|8|2,3:1|0:0|3:2,0:0:0:0:
470,183,176126,1,0,0:0:0:0:
260,26,176311,2,0,B|243:54|243:54|257:124,1,103.999995239258,10|0,0:0|0:0,0:0:0:0:
319,346,176682,5,6,3:2:0:0:
256,192,176867,12,8,179274,1:0:0:0:
335,302,179645,6,0,B|347:255|347:255|265:249|265:249|335:187|335:187|311:177|311:177|354:140|354:140|374:92|374:92|388:143|388:143|426:186|426:186|401:192|401:192|462:263|462:263|380:256|380:256|385:306,1,719.999978027344,4|0,3:2|0:0,0:0:0:0:
358,355,181126,5,4,3:2:0:0:
