osu file format v14

[General]
AudioFilename: audio.mp3
AudioLeadIn: 0
PreviewTime: 29629
Countdown: 0
SampleSet: Soft
StackLeniency: 0.7
Mode: 0
LetterboxInBreaks: 0
WidescreenStoryboard: 1

[Editor]
DistanceSpacing: 1.12
BeatDivisor: 4
GridSize: 8
TimelineZoom: 1.4

[Metadata]
Title:Three White Horses
TitleUnicode:Три белых коня
Artist:Vitas
ArtistUnicode:Vitas
Creator:semfi
Version:Djulus' Hard
Source:Чародеи
Tags:parad0xa paradoxa hacpaho djulus maruoko delette русский поп russian pop larisa dolina лариса долина Евгений Крылатов evgeniy yevgeniy krylatov charodei Tri belykh konya витас belyh belih
BeatmapID:3931718
BeatmapSetID:1906638

[Difficulty]
HPDrainRate:4
CircleSize:4
OverallDifficulty:7
ApproachRate:8
SliderMultiplier:1.4
SliderTickRate:1

[Events]
//Background and Video events
0,0,"hny.jpg",0,0
//Break Periods
2,100370,110740
//Storyboard Layer 0 (Background)
//Storyboard Layer 1 (Fail)
//Storyboard Layer 2 (Pass)
//Storyboard Layer 3 (Foreground)
//Storyboard Layer 4 (Overlay)
//Storyboard Sound Samples

[TimingPoints]
1111,370.37037037037,4,2,1,70,1,0
1111,-100,4,2,1,70,0,0
12962,-133.333333333333,4,2,1,60,0,0
29629,-133.333333333333,4,2,1,70,0,0
30740,-100,4,2,1,75,0,1
42592,-100,4,2,1,80,0,1
52962,-111.111111111111,4,2,1,70,0,0
58888,-125,4,2,1,60,0,0
70740,-111.111111111111,4,2,1,60,0,0
75555,-111.111111111111,4,2,1,70,0,0
76296,-111.111111111111,4,2,1,75,0,0
76666,-100,4,2,1,80,0,1
100370,-111.111111111111,4,2,1,50,0,0
112222,-117.647058823529,4,2,1,60,0,0
124073,-111.111111111111,4,2,1,60,0,0
127036,-111.111111111111,4,2,1,70,0,0
128518,-111.111111111111,4,2,1,75,0,0
129999,-100,4,2,1,80,0,1
140740,750,4,2,1,70,1,0
140740,-50,4,2,1,70,0,0
143517,1000,4,2,1,60,1,0
143517,-50,4,2,1,60,0,0
145017,937.5,4,2,1,60,1,0
145017,-62.5,4,2,1,60,0,0
146420,857.142857142857,4,2,1,60,1,0
146420,-62.5,4,2,1,60,0,0
147277,821.917808219178,4,2,1,60,1,0
147277,-50,4,2,1,60,0,0
148489,759.493670886076,4,2,1,60,1,0
148489,-71.4285714285714,4,2,1,60,0,0
149628,705.882352941176,4,2,1,60,1,0
149628,-57.1428571428571,4,2,1,60,0,0
150333,674.157303370787,4,2,1,60,1,0
150333,-66.6666666666667,4,2,1,60,0,0
151344,645.161290322581,4,2,1,60,1,0
151344,-76.9230769230769,4,2,1,60,0,0
152311,582.52427184466,4,2,1,60,1,0
152311,-83.3333333333333,4,2,1,60,0,0
152914,571.428571428571,4,2,1,60,1,0
152914,-90.9090909090909,4,2,1,60,0,0
153771,545.454545454546,4,2,1,60,1,0
153771,-90.9090909090909,4,2,1,60,0,0
155134,487.80487804878,4,2,1,65,1,0
155865,487.80487804878,4,2,1,65,1,0
155865,-90.9090909090909,4,2,1,65,0,0
156596,483.870967741935,4,2,1,65,1,0
156596,-66.6666666666667,4,2,1,65,0,0
157079,454.545454545455,4,2,1,70,1,0
157760,416.666666666667,4,2,1,70,1,0
158810,397.350993377483,4,2,1,75,1,0
159406,-71.4285714285714,4,2,1,75,0,0
159612,392.156862745098,4,2,1,75,1,0
160386,370.37037037037,4,2,1,75,1,0
160386,-100,4,2,1,75,0,0
161867,-100,4,2,1,80,0,1
173719,-100,4,2,1,85,0,1
176682,-100,4,2,1,80,0,1
179645,-100,4,2,1,80,0,0

[Colours]
Combo1 : 255,155,89
Combo2 : 164,221,255
Combo3 : 27,207,245
Combo4 : 255,28,33

[HitObjects]
116,333,1111,6,0,P|100:300|127:203,1,140,6|10,3:2|0:0,0:0:0:0:
195,173,1666,1,2,0:0:0:0:
140,118,1851,2,0,P|124:82|134:47,1,70,2|0,3:0|0:0,0:0:0:0:
201,19,2222,1,8,0:0:0:0:
201,19,2407,1,2,0:0:0:0:
261,66,2592,6,0,P|314:50|375:35,1,105,2|2,3:0|0:0,0:0:0:0:
362,37,2962,1,8,0:0:0:0:
436,78,3148,1,2,0:0:0:0:
382,133,3333,1,2,3:0:0:0:
477,318,3703,1,10,0:0:0:0:
327,220,4073,6,0,P|382:179|449:189,1,140,2|10,3:2|0:0,0:0:0:0:
512,252,4629,1,2,0:0:0:0:
512,252,4814,2,0,L|495:334,1,70,2|0,3:0|0:0,0:0:0:0:
435,367,5185,1,10,0:0:0:0:
435,367,5370,1,2,0:0:0:0:
373,320,5555,6,0,L|222:294,1,140,2|8,3:2|0:0,0:0:0:0:
173,342,6110,1,2,0:0:0:0:
84,221,6481,1,2,0:0:0:0:
84,221,6666,2,0,L|97:140,1,70,8|0,0:0|0:0,0:0:0:0:
152,100,7036,6,0,P|199:142|198:225,1,140,2|10,3:2|0:0,0:0:0:0:
267,265,7592,1,2,0:0:0:0:
267,265,7777,2,0,P|298:242|336:240,1,70,2|0,3:0|0:0,0:0:0:0:
400,266,8148,1,10,0:0:0:0:
434,116,8518,6,0,L|291:150,1,140,2|10,3:0|0:0,0:0:0:0:
224,125,9073,1,2,0:0:0:0:
274,66,9259,2,0,P|282:44|273:-4,1,70,2|0,0:0|0:0,0:0:0:0:
161,51,9629,1,0,0:0:0:0:
161,51,9999,6,0,L|197:212,1,140,2|10,3:0|0:0,0:0:0:0:
132,237,10555,1,2,0:0:0:0:
190,286,10740,2,0,P|226:276|319:333,1,140,2|10,3:0|0:0,0:0:0:0:
369,372,11296,1,2,0:0:0:0:
444,312,11481,6,0,L|466:159,1,140,2|8,3:2|0:0,0:0:0:0:
411,117,12036,1,0,0:0:0:0:
445,47,12222,2,0,P|481:36|523:27,2,70,0|0|10,3:0|3:0|0:0,0:0:0:0:
333,122,12962,6,0,P|281:132|246:87,1,105.000004005432,6|10,3:2|1:0,0:0:0:0:
189,44,13518,1,2,0:0:0:0:
189,44,13888,2,0,P|165:35|127:25,2,52.5000020027162,2|10|2,0:0|1:0|0:0,0:0:0:0:
248,97,14444,2,0,P|234:151|221:210,1,105.000004005432,2|10,3:0|1:0,0:0:0:0:
154,238,14999,2,0,P|127:206|48:209,1,105.000004005432,2|2,0:0|0:0,0:0:0:0:
8,248,15555,1,8,1:0:0:0:
202,336,16110,5,2,0:0:0:0:
202,336,16296,2,0,P|240:326|268:340,1,52.5000020027162,10|2,1:0|0:0,0:0:0:0:
320,291,16666,2,0,P|317:265|310:234,2,52.5000020027162,2|2|10,3:0|0:0|1:0,0:0:0:0:
452,376,17407,2,0,L|479:260,1,105.000004005432,2|8,3:2|0:0,0:0:0:0:
436,205,17962,2,0,P|406:210|380:215,2,52.5000020027162,2|0|2,0:0|3:0|0:0,0:0:0:0:
489,146,18518,1,8,0:0:0:0:
489,146,18888,6,0,P|437:134|401:74,1,105.000004005432,2|10,3:2|1:0,0:0:0:0:
334,61,19444,2,0,P|308:78|278:83,1,52.5000020027162,2|0,0:0|3:0,0:0:0:0:
219,54,19814,1,2,0:0:0:0:
219,54,19999,1,10,1:0:0:0:
114,172,20370,2,0,P|128:228|138:294,1,105.000004005432,2|8,3:2|1:0,0:0:0:0:
198,322,20925,2,0,P|229:295|225:223,1,105.000004005432,2|2,0:0|0:0,0:0:0:0:
231,234,21481,1,8,1:0:0:0:
90,163,21851,6,0,P|71:129|102:61,1,105.000004005432,2|10,3:2|1:0,0:0:0:0:
156,25,22407,2,0,P|190:39|211:45,1,52.5000020027162,2|0,0:0|3:0,0:0:0:0:
280,14,22777,1,2,0:0:0:0:
280,14,22962,1,10,1:0:0:0:
387,129,23333,2,0,P|372:176|358:242,1,105.000004005432,2|10,3:2|1:0,0:0:0:0:
416,284,23888,2,0,P|460:288|492:354,1,105.000004005432,2|2,0:0|0:0,0:0:0:0:
492,335,24444,1,8,1:0:0:0:
338,366,24814,6,0,L|214:337,1,105.000004005432,2|10,3:0|1:0,0:0:0:0:
180,285,25370,1,2,0:0:0:0:
180,285,25555,2,0,L|171:224,1,52.5000020027162,2|2,3:0|0:0,0:0:0:0:
113,180,25925,2,0,P|89:203|81:227,1,52.5000020027162,10|2,1:0|0:0,0:0:0:0:
26,277,26296,2,0,P|29:219|-6:166,2,105.000004005432,2|10|2,3:2|1:0|3:0,0:0:0:0:
159,360,27407,2,0,P|202:356|226:345,1,52.5000020027162,10|0,1:0|0:0,0:0:0:0:
270,302,27777,6,0,P|315:324|376:332,1,105.000004005432,6|8,3:1|1:0,0:0:0:0:
448,357,28333,1,0,0:0:0:0:
448,357,28518,2,0,L|429:247,1,105.000004005432,0|8,3:0|1:0,0:0:0:0:
480,192,29073,1,0,0:0:0:0:
427,133,29259,2,0,P|396:127|371:128,1,52.5000020027162,4|0,3:1|0:0,0:0:0:0:
308,85,29629,6,0,P|281:121|209:116,1,105.000004005432,2|0,0:0|3:0,0:0:0:0:
90,41,30370,1,10,0:0:0:0:
25,180,30740,6,0,P|105:184|174:216,1,140,6|10,3:2|0:0,0:0:0:0:
235,190,31296,1,2,0:0:0:0:
262,261,31481,2,0,P|291:285|323:288,1,70,2|0,3:0|0:0,0:0:0:0:
441,245,31851,1,10,0:0:0:0:
441,245,32036,1,2,0:0:0:0:
405,313,32222,6,0,P|392:234|378:166,1,140,2|10,3:2|0:0,0:0:0:0:
431,118,32777,1,2,0:0:0:0:
431,118,32962,2,0,P|366:132|316:72,1,140,2|8,3:0|0:0,0:0:0:0:
276,18,33518,1,2,0:0:0:0:
202,39,33703,6,0,P|166:73|170:174,1,140,2|10,3:2|0:0,0:0:0:0:
145,237,34259,1,2,0:0:0:0:
145,237,34444,2,0,P|208:225|292:218,1,140,2|10,3:0|0:0,0:0:0:0:
349,178,34999,1,2,0:0:0:0:
397,238,35185,6,0,L|380:318,1,70,2|0,3:2|0:0,0:0:0:0:
443,353,35555,1,8,0:0:0:0:
504,306,35740,2,0,P|492:212|484:149,1,140,2|0,0:0|0:0,0:0:0:0:
477,90,36296,1,10,0:0:0:0:
477,90,36666,6,0,P|424:101|371:76,1,105,2|0,3:2|0:0,0:0:0:0:
378,82,37036,1,8,0:0:0:0:
315,37,37222,1,2,0:0:0:0:
270,99,37407,2,0,L|281:177,1,70,2|2,3:0|0:0,0:0:0:0:
189,176,37777,2,0,L|174:253,1,70,8|2,0:0|0:0,0:0:0:0:
112,288,38148,5,2,3:0:0:0:
44,241,38333,1,2,0:0:0:0:
112,288,38518,1,10,0:0:0:0:
141,364,38703,2,0,P|188:337|278:346,1,140,2|0,0:0|0:0,0:0:0:0:
339,305,39259,2,0,L|321:233,1,70,8|2,0:0|0:0,0:0:0:0:
450,213,39629,6,0,L|426:358,1,140,2|8,3:0|0:0,0:0:0:0:
355,380,40185,1,2,0:0:0:0:
339,305,40370,2,0,P|294:277|229:285,1,105,2|2,3:0|0:0,0:0:0:0:
211,256,40740,1,8,0:0:0:0:
165,318,40925,1,2,0:0:0:0:
102,273,41110,1,2,3:0:0:0:
102,273,41481,6,0,B|130:202|76:143,2,140,14|0|8,0:0|3:0|0:0,0:0:0:0:
224,178,42592,6,0,B|289:167|285:135|364:136,1,140,6|10,3:2|0:0,0:0:0:0:
419,91,43148,1,2,0:0:0:0:
475,143,43333,2,0,L|457:219,1,70,2|0,3:0|0:0,0:0:0:0:
508,276,43703,1,10,0:0:0:0:
508,276,43888,1,2,0:0:0:0:
425,347,44073,6,0,B|336:328|336:328|325:346|302:363,1,140,2|10,3:2|0:0,0:0:0:0:
237,319,44629,1,2,0:0:0:0:
173,363,44814,2,0,P|146:339|148:238,1,140,2|8,3:0|0:0,0:0:0:0:
201,189,45370,1,2,0:0:0:0:
142,138,45555,6,0,B|54:159|54:159|2:111,1,140,2|10,3:2|0:0,0:0:0:0:
73,72,46110,1,2,0:0:0:0:
73,72,46296,2,0,P|105:53|142:48,1,70,2|0,3:0|0:0,0:0:0:0:
205,13,46666,2,0,P|246:28|265:55,1,70,10|2,0:0|0:0,0:0:0:0:
312,115,47036,5,2,3:2:0:0:
251,162,47222,1,0,0:0:0:0:
312,115,47407,1,8,0:0:0:0:
349,182,47592,2,0,P|411:180|482:235,1,140,2|0,0:0|0:0,0:0:0:0:
499,295,48148,1,10,0:0:0:0:
464,111,48518,6,0,P|476:58|486:4,1,105,2|0,3:2|0:0,0:0:0:0:
485,8,48888,1,8,0:0:0:0:
407,0,49074,1,2,0:0:0:0:
368,66,49259,2,0,P|333:53|285:56,1,70,2|2,3:0|0:0,0:0:0:0:
239,99,49629,2,0,L|255:167,1,70,8|2,0:0|0:0,0:0:0:0:
161,225,49999,5,2,3:0:0:0:
101,175,50185,1,2,0:0:0:0:
161,225,50370,1,10,0:0:0:0:
93,261,50555,2,0,P|47:298|47:377,1,140,2|0,0:0|0:0,0:0:0:0:
121,362,51110,1,8,0:0:0:0:
121,362,51481,6,0,P|196:348|278:335,1,140,2|8,3:0|0:0,0:0:0:0:
310,279,52037,1,2,0:0:0:0:
365,331,52222,1,2,3:0:0:0:
426,279,52407,2,0,P|438:241|428:203,2,70,2|8|2,0:0|0:0|0:0,0:0:0:0:
512,333,52962,5,6,3:2:0:0:
356,196,53333,2,0,B|337:120|337:120|382:82,1,125.999996154785,8|0,1:0|3:0,0:0:0:0:
442,47,53888,1,0,0:0:0:0:
373,8,54073,2,0,L|298:21,1,62.9999980773926,8|0,1:0|0:0,0:0:0:0:
245,63,54444,6,0,P|249:122|250:203,1,125.999996154785,0|8,3:0|1:0,0:0:0:0:
184,231,54999,1,2,0:0:0:0:
184,231,55185,2,0,P|148:203|61:211,1,125.999996154785,2|8,3:2|1:0,0:0:0:0:
3,244,55740,1,2,0:0:0:0:
3,244,55925,1,2,3:2:0:0:
256,192,56110,12,0,58148,3:0:0:0:
229,99,58888,6,0,L|339:82,1,112,6|10,3:2|1:0,0:0:0:0:
387,144,59444,2,0,L|367:211,1,56,2|0,0:0|3:0,0:0:0:0:
428,258,59814,1,2,0:0:0:0:
428,258,59999,2,0,P|475:227|474:164,1,112,10|2,1:0|3:0,0:0:0:0:
455,24,60740,1,10,1:0:0:0:
455,24,60925,2,0,L|390:41,1,56,2|0,0:0|3:0,0:0:0:0:
339,82,61296,2,0,P|310:74|279:67,2,56,2|8|0,0:0|1:0|0:0,0:0:0:0:
387,144,61851,6,0,L|261:170,1,112,0|10,3:0|1:0,0:0:0:0:
227,227,62407,1,2,0:0:0:0:
227,227,62592,2,0,L|241:293,1,56,2|2,3:0|0:0,0:0:0:0:
176,329,62962,2,0,P|142:318|119:313,1,56,10|2,1:0|0:0,0:0:0:0:
54,354,63333,2,0,P|31:325|46:248,1,112,2|8,3:2|0:0,0:0:0:0:
80,187,63888,2,0,P|75:159|65:123,2,56,2|0|2,0:0|3:0|0:0,0:0:0:0:
156,212,64444,1,8,0:0:0:0:
293,287,64814,6,0,P|340:294|417:312,1,112,2|10,3:2|1:0,0:0:0:0:
467,353,65370,2,0,P|487:330|491:303,1,56,2|0,0:0|3:0,0:0:0:0:
463,237,65740,1,2,0:0:0:0:
463,237,65925,2,0,L|449:175,1,56,10|2,1:0|0:0,0:0:0:0:
503,124,66296,2,0,P|466:87|403:85,1,112,2|8,3:2|1:0,0:0:0:0:
345,129,66851,2,0,L|325:248,1,112,2|2,0:0|0:0,0:0:0:0:
326,239,67407,1,8,1:0:0:0:
192,157,67777,6,0,P|137:169|82:178,1,112,2|10,3:2|1:0,0:0:0:0:
26,121,68333,2,0,L|44:66,1,56,2|0,0:0|3:0,0:0:0:0:
108,23,68703,1,2,0:0:0:0:
108,23,68888,1,10,1:0:0:0:
192,157,69259,2,0,P|213:190|197:265,1,112,2|10,3:2|1:0,0:0:0:0:
146,314,69814,1,2,0:0:0:0:
210,358,69999,2,0,P|266:347|331:338,1,112,0|8,3:0|1:0,0:0:0:0:
473,377,70740,6,0,B|504:349|504:349|480:259,1,125.999996154785,0|10,3:0|1:0,0:0:0:0:
411,232,71296,1,2,0:0:0:0:
467,176,71481,2,0,P|473:144|479:112,1,62.9999980773926,2|2,3:0|0:0,0:0:0:0:
507,43,71851,1,8,1:0:0:0:
507,43,72036,1,2,0:0:0:0:
396,81,72222,6,0,P|346:87|293:28,1,125.999996154785,2|8,3:2|1:0,0:0:0:0:
225,13,72777,1,2,0:0:0:0:
225,13,72962,1,2,3:0:0:0:
156,155,73333,2,0,L|172:225,1,62.9999980773926,10|2,1:0|0:0,0:0:0:0:
114,272,73703,6,0,B|32:251|32:251|-4:280,1,125.999996154785,6|8,3:1|1:0,0:0:0:0:
170,369,74444,2,0,L|301:359,1,125.999996154785,0|8,3:0|1:0,0:0:0:0:
345,298,74999,1,0,0:0:0:0:
345,298,75185,2,0,P|355:252|288:189,1,125.999996154785,4|2,3:1|0:0,0:0:0:0:
164,131,75925,1,0,3:0:0:0:
164,131,76296,1,10,0:0:0:0:
365,14,76666,6,0,B|399:39|399:39|372:148,1,140,6|10,3:2|0:0,0:0:0:0:
419,197,77222,1,2,0:0:0:0:
493,176,77407,2,0,P|508:143|503:103,1,70,2|0,3:0|0:0,0:0:0:0:
422,200,77777,2,0,L|435:274,1,70,10|2,0:0|0:0,0:0:0:0:
383,327,78148,6,0,P|320:319|234:313,1,140,2|10,3:2|0:0,0:0:0:0:
181,358,78703,1,2,0:0:0:0:
181,358,78888,2,0,P|115:352|92:267,1,140,2|8,3:0|0:0,0:0:0:0:
86,213,79444,1,2,0:0:0:0:
21,170,79629,6,0,L|177:157,1,140,2|10,3:2|0:0,0:0:0:0:
160,158,80185,1,2,0:0:0:0:
221,215,80370,2,0,P|255:173|238:87,1,140,2|10,3:0|0:0,0:0:0:0:
185,40,80925,1,2,0:0:0:0:
285,12,81110,6,0,L|357:32,1,70,2|0,3:2|0:0,0:0:0:0:
425,6,81481,1,8,0:0:0:0:
431,82,81666,2,0,P|418:148|407:220,1,140,2|0,0:0|0:0,0:0:0:0:
451,289,82222,1,10,0:0:0:0:
451,289,82592,6,0,P|387:313|343:345,1,105,2|0,3:2|0:0,0:0:0:0:
356,334,82962,1,8,0:0:0:0:
287,370,83148,1,2,0:0:0:0:
239,309,83333,2,0,P|236:272|253:227,1,70,2|2,3:0|0:0,0:0:0:0:
190,162,83703,1,8,0:0:0:0:
190,162,84073,5,2,3:0:0:0:
126,205,84259,1,2,0:0:0:0:
77,145,84444,1,10,0:0:0:0:
126,205,84629,2,0,P|136:274|145:352,1,140,2|0,0:0|0:0,0:0:0:0:
214,376,85185,2,0,P|236:354|245:313,1,70,8|2,0:0|0:0,0:0:0:0:
304,268,85555,6,0,B|361:280|372:245|448:263,1,140,2|8,3:0|0:0,0:0:0:0:
503,214,86110,1,2,0:0:0:0:
503,214,86296,2,0,L|486:139,1,70,2|2,3:0|0:0,0:0:0:0:
427,106,86666,1,8,0:0:0:0:
427,106,86851,1,2,0:0:0:0:
463,38,87036,1,2,3:0:0:0:
316,85,87407,5,14,0:0:0:0:
316,85,88148,1,8,0:0:0:0:
184,165,88518,6,0,P|141:133|55:144,1,140,6|10,3:2|0:0,0:0:0:0:
12,203,89073,1,2,0:0:0:0:
12,203,89259,2,0,P|21:249|23:276,1,70,2|0,3:0|0:0,0:0:0:0:
83,318,89629,1,10,0:0:0:0:
143,270,89814,1,2,0:0:0:0:
198,323,89999,6,0,P|286:313|355:311,1,140,2|10,3:2|0:0,0:0:0:0:
383,248,90555,1,2,0:0:0:0:
440,299,90740,2,0,P|467:268|464:165,1,140,2|8,3:0|0:0,0:0:0:0:
415,124,91296,1,2,0:0:0:0:
415,124,91481,6,0,B|327:145|327:145|275:97,1,140,2|10,3:2|0:0,0:0:0:0:
303,38,92036,1,2,0:0:0:0:
303,38,92222,2,0,P|262:15|236:17,1,70,2|0,3:0|0:0,0:0:0:0:
176,63,92592,2,0,L|189:139,1,70,10|2,0:0|0:0,0:0:0:0:
55,212,92962,6,0,P|28:170|34:136,1,70,2|0,3:2|0:0,0:0:0:0:
100,115,93333,1,8,0:0:0:0:
100,115,93518,2,0,P|149:163|155:241,1,140,2|0,0:0|0:0,0:0:0:0:
114,297,94074,1,10,0:0:0:0:
286,368,94444,6,0,L|411:347,1,105,6|0,3:1|0:0,0:0:0:0:
425,365,94814,1,8,0:0:0:0:
484,313,94999,1,2,0:0:0:0:
484,313,95185,2,0,P|495:280|483:239,1,70,2|2,3:0|0:0,0:0:0:0:
434,189,95555,2,0,L|356:208,1,70,8|2,0:0|0:0,0:0:0:0:
229,140,95925,5,2,3:0:0:0:
197,68,96110,1,2,0:0:0:0:
258,19,96296,2,0,P|282:34|288:85,1,70,10|2,0:0|0:0,0:0:0:0:
229,140,96666,2,0,P|223:207|216:282,1,140,0|8,3:0|0:0,0:0:0:0:
216,279,97407,6,0,P|166:268|86:309,1,140,2|8,3:0|0:0,0:0:0:0:
32,360,97963,1,2,0:0:0:0:
32,360,98148,1,2,3:0:0:0:
3,287,98333,2,0,L|21:213,1,70,2|8,0:0|0:0,0:0:0:0:
95,188,98703,1,2,0:0:0:0:
95,188,98888,6,0,P|115:147|89:86,1,105,6|0,3:2|0:0,0:0:0:0:
64,69,99259,2,0,L|209:93,2,140,10|2|10,0:0|3:0|0:0,0:0:0:0:
162,113,112222,6,0,P|134:96|47:132,1,119.000002269745,6|8,3:2|1:0,0:0:0:0:
15,185,112777,2,0,L|35:250,1,59.5000011348725,2|0,0:0|3:0,0:0:0:0:
184,315,113333,1,10,1:0:0:0:
184,315,113518,1,2,0:0:0:0:
90,349,113703,2,0,B|97:287|119:301|113:225,1,119.000002269745,2|10,3:0|1:0,0:0:0:0:
232,129,114444,1,2,3:0:0:0:
232,129,114629,2,0,P|266:166|261:244,1,119.000002269745,2|0,0:0|0:0,0:0:0:0:
319,292,115185,6,0,L|455:271,1,119.000002269745,0|10,3:0|1:0,0:0:0:0:
494,219,115740,1,2,0:0:0:0:
494,219,115925,2,0,P|499:190|492:153,1,59.5000011348725,2|2,3:0|0:0,0:0:0:0:
445,97,116296,1,10,1:0:0:0:
310,180,116666,2,0,B|287:175|274:167|274:167|175:189,1,119.000002269745,2|8,3:2|0:0,0:0:0:0:
129,139,117222,2,0,L|148:73,2,59.5000011348725,2|0|2,0:0|3:0|0:0,0:0:0:0:
65,186,117777,1,8,0:0:0:0:
65,186,118148,6,0,P|47:235|76:304,1,119.000002269745,2|10,3:2|1:0,0:0:0:0:
120,355,118703,2,0,P|149:337|240:338,1,119.000002269745,2|2,0:0|0:0,0:0:0:0:
307,372,119259,1,10,1:0:0:0:
307,372,119444,1,2,0:0:0:0:
371,326,119629,2,0,L|345:196,1,119.000002269745,2|10,3:2|1:0,0:0:0:0:
407,157,120185,2,0,P|440:182|452:257,1,119.000002269745,2|2,0:0|0:0,0:0:0:0:
452,255,120740,1,8,1:0:0:0:
261,193,121110,6,0,P|242:163|262:83,1,119.000002269745,2|8,3:2|1:0,0:0:0:0:
331,53,121666,2,0,P|360:61|398:68,2,59.5000011348725,2|0|2,0:0|3:0|0:0,0:0:0:0:
265,7,122222,1,10,1:0:0:0:
132,92,122592,2,0,P|90:136|84:207,1,119.000002269745,2|10,3:2|1:0,0:0:0:0:
127,255,123148,2,0,L|188:241,1,59.5000011348725,2|0,0:0|3:0,0:0:0:0:
252,291,123518,1,2,0:0:0:0:
252,291,123703,1,8,1:0:0:0:
383,365,124073,6,0,P|436:331|512:331,1,125.999996154785,0|10,3:0|1:0,0:0:0:0:
479,253,124629,1,2,0:0:0:0:
458,180,124814,2,0,P|429:187|388:193,1,62.9999980773926,2|2,3:0|0:0,0:0:0:0:
349,252,125184,1,8,1:0:0:0:
349,252,125369,1,2,0:0:0:0:
283,172,125555,6,0,L|311:41,1,125.999996154785,2|8,3:2|1:0,0:0:0:0:
381,20,126110,1,2,0:0:0:0:
381,20,126295,1,2,3:0:0:0:
223,80,126666,2,0,P|186:88|146:94,1,62.9999980773926,8|2,1:0|0:0,0:0:0:0:
89,67,127036,6,0,P|129:132|116:189,1,125.999996154785,6|8,3:1|1:0,0:0:0:0:
6,275,127777,2,0,L|19:339,1,62.9999980773926,0|0,3:0|0:0,0:0:0:0:
90,362,128148,2,0,L|114:294,1,62.9999980773926,8|0,1:0|0:0,0:0:0:0:
183,273,128518,1,4,3:1:0:0:
306,359,128888,6,0,P|360:285|354:228,1,125.999996154785,2|0,0:0|3:0,0:0:0:0:
277,136,129629,1,10,0:0:0:0:
277,136,129999,6,0,B|257:49|257:49|308:21,1,140,6|10,3:2|0:0,0:0:0:0:
382,30,130555,1,2,0:0:0:0:
382,30,130740,2,0,L|362:107,1,70,2|0,3:0|0:0,0:0:0:0:
423,147,131110,2,0,P|455:139|498:149,1,70,10|2,0:0|0:0,0:0:0:0:
507,221,131481,6,0,P|464:253|379:236,1,140,2|10,3:2|0:0,0:0:0:0:
314,273,132036,1,2,0:0:0:0:
314,273,132222,2,0,P|274:270|213:319,1,105,2|0,3:0|0:0,0:0:0:0:
197,334,132592,2,0,L|179:261,1,70,8|2,0:0|0:0,0:0:0:0:
81,221,132962,6,0,P|53:181|90:79,1,140,2|10,3:2|0:0,0:0:0:0:
28,37,133518,1,2,0:0:0:0:
28,37,133703,2,0,L|177:64,1,140,2|10,3:0|0:0,0:0:0:0:
238,35,134258,1,2,0:0:0:0:
305,124,134444,6,0,L|288:204,1,70,2|0,3:2|0:0,0:0:0:0:
233,245,134814,1,8,0:0:0:0:
296,291,134999,2,0,P|340:276|426:312,1,140,2|0,0:0|0:0,0:0:0:0:
487,354,135555,1,10,0:0:0:0:
439,204,135925,6,0,L|461:96,1,105,2|0,3:2|0:0,0:0:0:0:
459,101,136296,1,8,0:0:0:0:
496,31,136481,1,2,0:0:0:0:
419,15,136666,2,0,P|394:30|386:80,2,70,2|2|8,3:0|0:0|0:0,0:0:0:0:
509,181,137407,5,2,3:0:0:0:
439,217,137592,2,0,L|361:197,1,70,2|10,0:0|0:0,0:0:0:0:
317,256,137962,2,0,P|255:281|190:244,1,140,2|0,0:0|0:0,0:0:0:0:
132,199,138518,1,8,0:0:0:0:
132,199,138888,6,0,L|170:54,1,140,2|8,3:0|0:0,0:0:0:0:
232,19,139444,1,2,0:0:0:0:
295,64,139629,2,0,P|315:99|309:176,1,105,2|2,3:0|0:0,0:0:0:0:
291,194,139999,2,0,L|368:184,1,70,8|2,0:0|0:0,0:0:0:0:
426,140,140370,1,2,3:0:0:0:
426,140,140740,5,6,3:2:0:0:
256,192,140927,12,2,143517,3:0:0:0:
148,286,144517,5,10,1:0:0:0:
148,286,145017,1,2,0:0:0:0:
287,147,145485,2,0,P|326:133|419:170,1,112,0|0,3:2|3:2,0:0:0:0:
480,292,146420,2,0,L|501:182,1,112,10|2,1:0|1:0,0:0:0:0:
449,68,147277,5,2,3:2:0:0:
452,71,148098,1,10,1:0:0:0:
393,147,148489,2,0,P|371:197|391:249,2,97.9999970092774,2|2|0,0:0|3:2|0:0,0:0:0:0:
229,56,149628,5,10,1:0:0:0:
140,93,149980,1,2,0:0:0:0:
49,127,150333,2,0,B|32:193|68:217|46:285,1,157.500006008148,2|0,3:2|0:0,0:0:0:0:
18,313,151007,1,10,1:0:0:0:
107,371,151344,2,0,L|208:348,1,90.9999958343508,2|2,0:0|3:2,0:0:0:0:
303,374,151989,5,0,0:0:0:0:
303,374,152311,2,0,P|315:328|304:288,1,83.9999974365235,10|2,1:0|3:2,0:0:0:0:
211,213,152914,6,0,P|223:146|240:43,1,154.000004699707,2|10,3:2|1:0,0:0:0:0:
355,28,153771,1,2,0:0:0:0:
355,28,154043,2,0,P|389:39|441:59,2,77.0000023498536,0|2|8,3:2|3:2|1:2,0:0:0:0:
151,146,155134,6,0,B|93:193|16:157,1,140,2|8,3:2|1:0,0:0:0:0:
0,254,155865,1,2,1:0:0:0:
0,254,156108,2,0,P|39:258|91:266,1,77.0000023498536,2|2,3:0|0:0,0:0:0:0:
158,337,156596,1,8,1:0:0:0:
158,337,157079,6,0,P|218:343|271:283,1,140,2|8,3:2|0:0,0:0:0:0:
334,231,157760,2,0,P|325:194|315:141,1,70,2|2,3:2|3:2,0:0:0:0:
375,106,158176,1,0,0:0:0:0:
440,150,158385,1,8,0:0:0:0:
248,99,158810,6,0,P|207:84|112:153,1,140,2|8,3:1|0:0,0:0:0:0:
63,178,159406,1,2,0:0:0:0:
63,178,159612,2,0,L|72:249,1,70,2|0,3:2|0:0,0:0:0:0:
34,315,160004,1,10,0:0:0:0:
34,315,160200,1,2,0:0:0:0:
117,363,160386,5,2,3:2:0:0:
242,268,160756,2,0,P|232:195|223:119,2,140,14|2|10,0:0|3:2|3:2,0:0:0:0:
371,357,161867,6,0,P|421:325|411:242,1,140,6|10,3:2|0:0,0:0:0:0:
363,194,162423,1,2,0:0:0:0:
363,194,162608,2,0,P|348:164|361:112,1,70,2|0,3:0|0:0,0:0:0:0:
412,79,162978,2,0,P|446:69|495:58,1,70,10|2,0:0|0:0,0:0:0:0:
333,27,163348,6,0,P|259:13|184:1,1,140,2|10,3:2|0:0,0:0:0:0:
131,49,163904,1,2,0:0:0:0:
131,49,164089,2,0,P|142:76|151:119,1,70,2|0,3:0|0:0,0:0:0:0:
84,158,164460,2,0,P|61:104|56:75,1,70,8|2,0:0|0:0,0:0:0:0:
225,121,164830,6,0,P|254:198|222:246,1,140,2|10,3:2|0:0,0:0:0:0:
174,301,165386,1,2,0:0:0:0:
235,349,165571,2,0,P|296:339|383:328,1,140,2|10,3:0|0:0,0:0:0:0:
443,365,166126,1,2,0:0:0:0:
496,274,166311,6,0,L|481:197,1,70,2|0,3:2|0:0,0:0:0:0:
417,171,166682,1,8,0:0:0:0:
417,171,166867,2,0,P|430:102|440:33,1,140,2|0,0:0|0:0,0:0:0:0:
368,16,167423,1,10,0:0:0:0:
368,16,167793,6,0,P|318:41|267:29,1,105,2|0,3:2|0:0,0:0:0:0:
238,11,168163,1,8,0:0:0:0:
189,72,168348,1,2,0:0:0:0:
189,72,168534,2,0,L|206:151,1,70,2|2,3:0|0:0,0:0:0:0:
270,181,168904,2,0,P|290:214|294:248,1,70,8|2,0:0|0:0,0:0:0:0:
202,346,169274,5,2,3:0:0:0:
155,282,169460,1,2,0:0:0:0:
202,346,169645,1,10,0:0:0:0:
280,342,169830,2,0,B|330:325|330:325|425:350,1,140,2|0,0:0|0:0,0:0:0:0:
491,329,170386,2,0,L|474:248,1,70,8|2,0:0|0:0,0:0:0:0:
408,222,170756,6,0,P|383:171|408:104,1,105,2|2,3:0|0:0,0:0:0:0:
418,96,171126,2,0,P|379:87|341:75,1,70,8|2,0:0|0:0,0:0:0:0:
287,30,171497,1,2,3:0:0:0:
218,67,171682,2,0,P|198:91|202:146,1,70,2|8,0:0|0:0,0:0:0:0:
238,193,172052,1,2,0:0:0:0:
154,271,172237,6,0,P|100:286|14:224,2,140,2|8|0,3:0|0:0|3:0,0:0:0:0:
236,276,173163,1,0,0:0:0:0:
236,276,173348,2,0,L|218:354,1,70,10|0,0:0|0:0,0:0:0:0:
331,372,173719,6,0,L|294:92,1,280,6|2,3:2|3:0,0:0:0:0:
343,32,174645,1,0,0:0:0:0:
343,32,174830,2,0,P|370:58|380:89,1,70,10|0,0:0|0:0,0:0:0:0:
386,193,175200,6,0,P|444:156|512:166,2,140,6|8|2,3:1|0:0|3:2,0:0:0:0:
341,257,176126,1,0,0:0:0:0:
285,311,176311,2,0,L|209:301,1,70,10|0,0:0|0:0,0:0:0:0:
155,352,176682,6,0,P|169:278|182:202,1,140,6|8,3:2|1:0,0:0:0:0:
256,192,177237,12,6,179645,3:2:0:0:
256,192,179737,12,6,181126,3:2:0:0:
