osu file format v14

[General]
AudioFilename: audio.mp3
AudioLeadIn: 0
PreviewTime: -1
Countdown: 0
SampleSet: Normal
StackLeniency: 0.7
Mode: 0
LetterboxInBreaks: 0
WidescreenStoryboard: 0

[Editor]
DistanceSpacing: 1.1
BeatDivisor: 4
GridSize: 4
TimelineZoom: 1.6

[Metadata]
Title:7th element (Natal Remix) Eletrofunk
TitleUnicode:7th element (Natal Remix) Eletrofunk
Artist:Vitas
ArtistUnicode:Vitas
Creator:DoAcre
Version:BLBLBLBLBL MERRY CHRISTMAS
Source:
Tags:
BeatmapID:1490048
BeatmapSetID:704356

[Difficulty]
HPDrainRate:5.6
CircleSize:4
OverallDifficulty:8
ApproachRate:9.4
SliderMultiplier:1.4
SliderTickRate:1

[Events]
//Background and Video events
0,0,"ny2009.jpg",0,0
//Break Periods
//Storyboard Layer 0 (Background)
//Storyboard Layer 1 (Fail)
//Storyboard Layer 2 (Pass)
//Storyboard Layer 3 (Foreground)
//Storyboard Sound Samples

[TimingPoints]
4294,463.320463320463,4,1,0,80,1,0
4988,-100,4,1,0,5,0,0
5220,-100,4,1,0,80,0,0
8695,-100,4,1,0,5,0,0
8927,-100,4,1,0,80,0,0
11591,-100,4,1,0,5,0,0
11678,463.320463320463,4,1,0,80,1,0
11678,-100,4,1,0,80,0,0
21639,-100,4,1,0,5,0,0
21755,-100,4,1,0,80,0,0
35191,-100,4,1,0,5,0,0
35307,-100,4,1,0,80,0,0
46890,-100,4,1,0,5,0,0

[Colours]
Combo1 : 255,255,255
Combo2 : 0,185,0
Combo3 : 217,0,0

[HitObjects]
127,141,4294,5,0,0:0:0:0:
223,113,4525,1,0,0:0:0:0:
310,153,4757,2,0,P|348:157|389:185,1,70
317,239,5220,1,0,0:0:0:0:
221,211,5452,1,0,0:0:0:0:
128,252,5683,6,0,P|93:253|59:243,1,70
117,153,6147,1,0,0:0:0:0:
179,72,6378,1,0,0:0:0:0:
113,1,6610,1,0,0:0:0:0:
113,1,6958,1,0,0:0:0:0:
46,108,7073,2,0,B|36:183|36:183|66:260,1,140
328,316,8000,5,0,0:0:0:0:
372,222,8232,1,0,0:0:0:0:
313,140,8463,2,0,P|303:87|312:55,1,70
433,6,8927,1,0,0:0:0:0:
389,100,9158,1,0,0:0:0:0:
448,182,9390,6,0,P|458:235|449:267,1,70
220,317,9853,5,0,0:0:0:0:
312,194,10085,1,0,0:0:0:0:
403,318,10317,1,0,0:0:0:0:
311,181,10548,1,0,0:0:0:0:
212,327,10780,1,0,0:0:0:0:
212,327,11243,6,0,P|151:317|88:331,1,105
408,312,11678,1,0,0:0:0:0:
160,232,11909,1,0,0:0:0:0:
394,223,12141,2,0,P|428:225|460:239,1,70
192,136,12604,1,0,0:0:0:0:
168,368,12836,1,0,0:0:0:0:
280,136,13067,6,0,P|352:128|368:136,1,70
40,200,13531,1,0,0:0:0:0:
336,212,13762,1,0,0:0:0:0:
76,60,13994,1,0,0:0:0:0:
76,332,14226,1,0,0:0:0:0:
176,88,14457,2,0,B|172:48|196:12,1,70
320,348,14921,5,0,0:0:0:0:
264,76,15152,1,0,0:0:0:0:
152,336,15384,2,0,L|156:284,1,35
288,212,15616,2,0,L|248:164,1,35
116,104,15847,2,0,P|112:160|124:192,1,70
364,264,16311,2,0,L|416:256,1,35
184,216,16542,2,0,L|200:264,1,35
316,116,16774,6,0,P|312:64|296:36,1,70
84,300,17237,1,0,0:0:0:0:
272,268,17469,1,0,0:0:0:0:
460,232,17701,1,0,0:0:0:0:
216,328,17932,1,0,0:0:0:0:
380,144,18164,2,0,B|374:223|374:223|378:228|378:228|373:231|373:231|368:311,1,140
160,132,19091,6,0,P|124:120|68:128,2,70
420,340,19786,1,0,0:0:0:0:
112,268,20017,2,0,P|108:228|124:184,2,70
40,32,20712,1,0,0:0:0:0:
256,132,20944,1,0,0:0:0:0:
408,224,21176,1,0,0:0:0:0:
496,368,21407,2,0,B|464:356|464:356|400:352,1,70
336,256,21755,1,0,0:0:0:0:
336,136,21871,2,0,B|336:88|336:88|356:40,1,70
88,208,22334,5,0,0:0:0:0:
452,200,22566,1,0,0:0:0:0:
172,116,22797,1,0,0:0:0:0:
208,320,23029,1,0,0:0:0:0:
336,136,23261,2,0,P|338:179|344:216,1,70
80,260,23724,1,0,0:0:0:0:
116,56,23955,1,0,0:0:0:0:
244,240,24187,2,0,P|245:205|249:170,1,70
448,228,24650,6,0,P|416:240|400:244,1,35
64,180,24882,2,0,P|96:168|112:164,1,35
438,260,25114,2,0,P|405:267|388:268,1,35
69,146,25346,2,0,P|102:140|119:139,1,35
424,291,25577,2,0,P|389:291|352:284,1,70
79,115,26040,1,0,0:0:0:0:
344,76,26272,1,0,0:0:0:0:
224,328,26504,6,0,P|216:268|224:232,1,70
208,120,26851,1,0,0:0:0:0:
88,48,26967,2,0,P|88:88|80:144,1,70
140,244,27430,2,0,P|168:200|208:184,1,70
424,164,27894,1,0,0:0:0:0:
217,259,28125,6,0,P|236:287|264:308,1,70
304,180,28473,2,0,L|312:132,1,35
200,24,28705,2,0,L|208:72,1,35
344,268,29052,1,0,0:0:0:0:
156,216,29284,2,0,P|96:204|60:208,1,70
360,60,29747,1,0,0:0:0:0:
208,312,29979,1,0,0:0:0:0:
480,240,30210,5,0,0:0:0:0:
304,160,30442,1,0,0:0:0:0:
108,276,30674,2,0,P|52:268|12:252,1,70
240,8,31137,1,0,0:0:0:0:
368,216,31369,1,0,0:0:0:0:
228,384,31600,2,0,P|224:332|212:308,1,70
136,72,32064,5,0,0:0:0:0:
404,248,32295,1,0,0:0:0:0:
116,252,32527,1,0,0:0:0:0:
396,80,32759,1,0,0:0:0:0:
260,336,32990,2,0,P|256:272|264:240,1,70
232,44,33454,1,0,0:0:0:0:
332,304,33685,1,0,0:0:0:0:
332,304,33917,5,0,0:0:0:0:
196,172,34149,1,0,0:0:0:0:
80,356,34380,2,0,P|88:288|72:264,1,70
296,144,34844,2,0,P|340:160|412:156,1,105
460,200,35307,2,0,P|421:203|380:216,1,70
128,296,35770,5,0,0:0:0:0:
336,344,36002,1,0,0:0:0:0:
296,112,36233,2,0,P|280:168|288:208,1,70
472,48,36697,2,0,B|440:39|408:55|408:55|384:16|336:16,1,140
484,224,37392,5,0,0:0:0:0:
340,88,37623,1,0,0:0:0:0:
156,136,37855,1,0,0:0:0:0:
256,144,37971,1,0,0:0:0:0:
336,200,38087,2,0,P|336:240|320:292,1,70
136,356,38550,6,0,P|128:320|140:264,1,70
476,212,39013,1,0,0:0:0:0:
64,176,39245,1,0,0:0:0:0:
424,296,39477,1,0,0:0:0:0:
48,340,39708,1,0,0:0:0:0:
384,144,39940,1,0,0:0:0:0:
208,56,40172,1,0,0:0:0:0:
240,240,40403,6,0,P|288:236|328:252,1,70
280,24,40867,1,0,0:0:0:0:
272,336,41098,1,0,0:0:0:0:
256,192,41214,12,0,46890,0:0:0:0:
