osu file format v14

[General]
AudioFilename: audio.mp3
AudioLeadIn: 0
PreviewTime: 172951
Countdown: 0
SampleSet: Soft
StackLeniency: 0.3
Mode: 0
LetterboxInBreaks: 0
WidescreenStoryboard: 0

[Editor]
Bookmarks: 7038,19560,25821,32082,38377,44604,57125,69647,75908,88430,100951,105647,110343,125995,129125,135386,141647,154169,166691,191734,194864,201125
DistanceSpacing: 0.5
BeatDivisor: 8
GridSize: 8
TimelineZoom: 2.699999

[Metadata]
Title:Malhari
TitleUnicode:Malhari
Artist:Vishal Dadlani, Sanjay Leela Bhansali, Prashant Ingole
ArtistUnicode:Vishal Dadlani, Sanjay Leela Bhansali, Prashant Ingole
Creator:iamVill
Version:Victory!
Source:
Tags:
BeatmapID:1876330
BeatmapSetID:898194

[Difficulty]
HPDrainRate:3
CircleSize:4
OverallDifficulty:9
ApproachRate:9.7
SliderMultiplier:1.7
SliderTickRate:1

[Events]
//Background and Video events
0,0,"723719.jpg",0,0
//Break Periods
2,7238,12777
2,106169,109821
2,135586,141125
2,154369,166169
//Storyboard Layer 0 (Background)
//Storyboard Layer 1 (Fail)
//Storyboard Layer 2 (Pass)
//Storyboard Layer 3 (Foreground)
//Storyboard Layer 4 (Overlay)
//Storyboard Sound Samples

[TimingPoints]
778,260.869565217391,3,2,0,70,1,0
38343,-100,3,2,0,70,0,1
44604,-100,3,2,0,70,0,0
100951,-100,3,2,0,70,0,1
105647,-100,3,2,0,70,0,0
166691,-100,3,2,0,70,0,1
172951,-100,3,2,0,70,0,0

[HitObjects]
129,84,778,5,8,0:0:0:0:
463,165,2343,1,8,0:0:0:0:
113,316,3908,1,8,0:0:0:0:
275,18,4691,1,0,0:0:0:0:
348,326,5473,5,8,0:0:0:0:
151,52,5864,1,8,0:0:0:0:
474,272,6256,1,8,0:0:0:0:
7,94,6647,1,8,0:0:0:0:
256,192,7038,5,12,0:0:0:0:
256,192,13299,5,14,0:0:0:0:
397,39,14864,5,14,0:0:0:0:
322,359,15908,5,12,0:0:0:0:
142,345,16169,1,8,0:0:0:0:
486,219,16430,1,8,0:0:0:0:
123,160,17212,5,8,0:0:0:0:
123,160,17995,5,12,0:0:0:0:
123,160,18256,1,4,0:0:0:0:
211,93,18386,1,8,0:0:0:0:
224,203,18517,1,8,0:0:0:0:
109,50,18647,1,2,0:0:0:0:
342,47,18777,5,8,0:0:0:0:
342,47,19038,1,4,0:0:0:0:
430,114,19168,1,8,0:0:0:0:
443,4,19299,1,8,0:0:0:0:
327,166,19430,1,2,0:0:0:0:
442,325,19560,5,8,0:0:0:0:
288,366,19821,1,2,0:0:0:0:
453,304,19951,1,2,0:0:0:0:
57,327,20343,5,0,0:0:0:0:
224,366,20604,1,2,0:0:0:0:
308,150,20734,1,2,0:0:0:0:
442,59,21125,5,0,0:0:0:0:
288,18,21386,1,2,0:0:0:0:
330,265,21516,1,2,0:0:0:0:
70,59,21908,5,0,0:0:0:0:
224,18,22169,1,2,0:0:0:0:
330,265,22299,1,2,0:0:0:0:
442,325,22691,5,0,0:0:0:0:
288,366,22952,1,2,0:0:0:0:
78,64,23082,1,2,0:0:0:0:
338,51,23473,5,0,0:0:0:0:
238,235,23734,1,2,0:0:0:0:
511,47,23864,1,2,0:0:0:0:
256,192,24256,5,0,0:0:0:0:
224,366,24517,1,2,0:0:0:0:
152,100,24647,1,2,0:0:0:0:
256,192,25038,5,0,0:0:0:0:
158,101,25299,1,2,0:0:0:0:
397,327,25430,1,2,0:0:0:0:
392,332,25821,5,0,0:0:0:0:
447,268,25951,1,0,0:0:0:0:
168,255,26082,1,0,0:0:0:0:
214,90,26343,1,0,0:0:0:0:
92,285,26604,5,0,0:0:0:0:
104,201,26734,1,0,0:0:0:0:
168,255,26864,1,0,0:0:0:0:
87,294,26995,1,0,0:0:0:0:
101,192,27125,1,0,0:0:0:0:
178,257,27256,1,0,0:0:0:0:
373,200,27386,5,0,0:0:0:0:
334,361,27647,1,0,0:0:0:0:
334,361,27777,1,0,0:0:0:0:
255,173,27995,1,0,0:0:0:0:
222,44,28169,5,0,0:0:0:0:
422,200,28299,1,0,0:0:0:0:
186,296,28430,1,0,0:0:0:0:
218,28,28560,5,0,0:0:0:0:
439,200,28690,1,0,0:0:0:0:
178,307,28821,1,0,0:0:0:0:
396,43,28951,5,0,0:0:0:0:
40,50,29212,1,0,0:0:0:0:
482,109,29473,1,0,0:0:0:0:
111,364,29734,5,0,0:0:0:0:
176,33,29864,1,0,0:0:0:0:
345,307,29995,1,0,0:0:0:0:
176,33,30125,1,0,0:0:0:0:
25,311,30256,1,0,0:0:0:0:
181,33,30386,1,0,0:0:0:0:
263,366,30517,5,0,0:0:0:0:
426,135,30777,1,0,0:0:0:0:
426,135,30908,1,0,0:0:0:0:
426,135,31299,1,0,0:0:0:0:
110,215,32082,5,0,0:0:0:0:
308,54,32212,1,0,0:0:0:0:
348,306,32343,1,0,0:0:0:0:
118,139,32473,5,0,0:0:0:0:
370,99,32603,1,0,0:0:0:0:
279,337,32734,1,0,0:0:0:0:
163,77,32864,5,0,0:0:0:0:
401,168,32994,1,0,0:0:0:0:
203,329,33125,1,0,0:0:0:0:
232,46,33256,5,0,0:0:0:0:
393,244,33386,1,0,0:0:0:0:
141,284,33517,1,0,0:0:0:0:
312,50,33647,5,0,0:0:0:0:
64,222,33777,1,0,0:0:0:0:
400,111,33908,1,0,0:0:0:0:
34,135,34038,1,0,0:0:0:0:
449,231,34169,1,0,0:0:0:0:
71,28,34299,1,0,0:0:0:0:
411,347,34430,1,0,0:0:0:0:
177,0,34560,1,0,0:0:0:0:
329,382,34691,1,0,0:0:0:0:
284,3,34821,1,0,0:0:0:0:
203,371,34951,1,0,0:0:0:0:
77,195,35212,5,0,0:0:0:0:
157,166,35343,1,0,0:0:0:0:
222,219,35473,1,0,0:0:0:0:
304,195,35604,1,0,0:0:0:0:
373,243,35734,1,0,0:0:0:0:
237,134,35995,5,0,0:0:0:0:
293,352,36256,1,0,0:0:0:0:
381,49,36517,1,0,0:0:0:0:
66,220,36777,5,0,0:0:0:0:
368,56,37038,1,0,0:0:0:0:
368,56,37169,1,0,0:0:0:0:
63,226,37560,1,0,0:0:0:0:
256,192,37625,12,0,38277,0:0:0:0:
256,192,38343,5,10,0:0:0:0:
309,126,38473,1,0,0:0:0:0:
385,164,38604,1,0,0:0:0:0:
451,112,38734,1,2,0:0:0:0:
256,192,38864,1,8,0:0:0:0:
159,50,38995,1,0,0:0:0:0:
256,192,39125,1,10,0:0:0:0:
209,306,39256,1,0,0:0:0:0:
113,259,39386,1,0,0:0:0:0:
319,318,39517,1,2,0:0:0:0:
130,343,39647,1,0,0:0:0:0:
257,376,39777,1,0,0:0:0:0:
256,192,39908,5,10,0:0:0:0:
209,54,40038,1,0,0:0:0:0:
293,39,40169,1,0,0:0:0:0:
132,17,40299,1,2,0:0:0:0:
256,192,40430,1,8,0:0:0:0:
209,54,40560,1,0,0:0:0:0:
256,192,40691,1,10,0:0:0:0:
137,287,40821,1,0,0:0:0:0:
376,218,40951,1,0,0:0:0:0:
144,143,41082,1,2,0:0:0:0:
280,336,41212,1,0,0:0:0:0:
301,87,41343,1,0,0:0:0:0:
256,192,41473,5,10,0:0:0:0:
437,117,41604,1,0,0:0:0:0:
456,275,41734,1,0,0:0:0:0:
358,140,41864,1,2,0:0:0:0:
256,192,41995,5,8,0:0:0:0:
209,20,42125,1,0,0:0:0:0:
256,192,42256,5,10,0:0:0:0:
64,246,42386,1,0,0:0:0:0:
6,89,42517,1,0,0:0:0:0:
120,148,42647,1,2,0:0:0:0:
9,335,42777,1,0,0:0:0:0:
167,309,42908,1,0,0:0:0:0:
256,192,43038,5,10,0:0:0:0:
182,53,43169,1,0,0:0:0:0:
18,78,43299,1,0,0:0:0:0:
17,239,43430,1,2,0:0:0:0:
256,192,43560,5,8,0:0:0:0:
10,252,43691,1,0,0:0:0:0:
256,192,43821,5,10,0:0:0:0:
348,74,43951,1,0,0:0:0:0:
494,42,44082,1,0,0:0:0:0:
438,184,44212,1,2,0:0:0:0:
468,322,44343,1,2,0:0:0:0:
412,32,44473,1,2,0:0:0:0:
465,331,44604,5,8,0:0:0:0:
463,340,44734,1,0,0:0:0:0:
461,348,44865,1,0,0:0:0:0:
290,340,45126,1,8,0:0:0:0:
420,99,45387,5,8,0:0:0:0:
408,183,45517,1,0,0:0:0:0:
344,129,45647,1,0,0:0:0:0:
425,90,45778,1,0,0:0:0:0:
411,192,45908,1,0,0:0:0:0:
334,127,46039,1,0,0:0:0:0:
139,184,46169,5,8,0:0:0:0:
255,202,46299,1,0,0:0:0:0:
211,117,46430,1,0,0:0:0:0:
211,117,46560,1,0,0:0:0:0:
257,211,46691,1,8,0:0:0:0:
318,97,46821,1,0,0:0:0:0:
290,340,46952,5,8,0:0:0:0:
90,184,47082,1,0,0:0:0:0:
326,88,47213,1,0,0:0:0:0:
294,356,47343,5,0,0:0:0:0:
73,184,47473,1,0,0:0:0:0:
334,77,47604,1,0,0:0:0:0:
116,341,47734,5,8,0:0:0:0:
145,55,47995,1,0,0:0:0:0:
130,356,48256,1,8,0:0:0:0:
60,43,48517,5,8,0:0:0:0:
264,232,48647,1,0,0:0:0:0:
42,172,48778,1,0,0:0:0:0:
268,241,48908,1,0,0:0:0:0:
203,1,49039,1,0,0:0:0:0:
131,346,49169,1,0,0:0:0:0:
283,93,49300,5,8,0:0:0:0:
86,249,49560,1,0,0:0:0:0:
86,249,49691,1,0,0:0:0:0:
86,249,50082,1,8,0:0:0:0:
402,169,50865,5,8,0:0:0:0:
204,330,50995,1,0,0:0:0:0:
164,78,51126,1,0,0:0:0:0:
394,245,51256,5,0,0:0:0:0:
142,285,51386,1,8,0:0:0:0:
233,47,51517,1,0,0:0:0:0:
349,307,51647,5,8,0:0:0:0:
111,216,51777,1,0,0:0:0:0:
309,55,51908,1,0,0:0:0:0:
280,338,52039,5,0,0:0:0:0:
119,140,52169,1,0,0:0:0:0:
371,100,52300,1,0,0:0:0:0:
173,342,52430,5,8,0:0:0:0:
206,29,52560,1,0,0:0:0:0:
112,241,52691,1,0,0:0:0:0:
289,30,52821,1,0,0:0:0:0:
266,277,52952,1,8,0:0:0:0:
129,8,53082,1,0,0:0:0:0:
173,351,53213,1,8,0:0:0:0:
213,23,53343,1,0,0:0:0:0:
106,260,53473,1,0,0:0:0:0:
295,20,53604,1,0,0:0:0:0:
276,250,53734,1,0,0:0:0:0:
435,189,53995,5,8,0:0:0:0:
355,218,54126,1,0,0:0:0:0:
290,165,54256,1,0,0:0:0:0:
208,189,54387,1,0,0:0:0:0:
139,141,54517,1,8,0:0:0:0:
275,250,54778,5,8,0:0:0:0:
219,32,55039,1,0,0:0:0:0:
131,335,55300,1,0,0:0:0:0:
446,164,55560,5,2,0:0:0:0:
144,328,55821,1,0,0:0:0:0:
144,328,55952,1,0,0:0:0:0:
449,158,56343,1,0,0:0:0:0:
256,192,56408,12,0,57060,0:0:0:0:
47,331,57125,5,12,0:0:0:0:
99,192,57255,1,0,0:0:0:0:
211,302,57386,1,0,0:0:0:0:
214,294,57647,1,8,0:0:0:0:
92,99,57908,5,8,0:0:0:0:
104,183,58038,1,0,0:0:0:0:
168,129,58168,1,0,0:0:0:0:
87,90,58299,1,0,0:0:0:0:
101,192,58429,1,0,0:0:0:0:
178,127,58560,1,0,0:0:0:0:
373,184,58691,5,8,0:0:0:0:
257,202,58820,1,0,0:0:0:0:
301,117,58951,1,0,0:0:0:0:
301,117,59081,1,0,0:0:0:0:
255,211,59212,1,8,0:0:0:0:
194,97,59342,1,0,0:0:0:0:
222,340,59473,5,8,0:0:0:0:
422,184,59603,1,0,0:0:0:0:
186,88,59734,1,0,0:0:0:0:
218,356,59864,5,0,0:0:0:0:
439,184,59994,1,0,0:0:0:0:
178,77,60125,1,0,0:0:0:0:
396,341,60255,5,8,0:0:0:0:
170,66,60516,1,0,0:0:0:0:
452,184,60777,1,8,0:0:0:0:
163,55,61038,5,8,0:0:0:0:
248,232,61168,1,0,0:0:0:0:
455,106,61299,1,0,0:0:0:0:
157,44,61429,1,0,0:0:0:0:
246,239,61560,1,0,0:0:0:0:
459,98,61690,1,0,0:0:0:0:
152,35,61821,5,8,0:0:0:0:
426,249,62081,1,0,0:0:0:0:
426,249,62212,1,0,0:0:0:0:
426,249,62603,1,8,0:0:0:0:
110,169,63386,5,8,0:0:0:0:
308,330,63516,1,0,0:0:0:0:
348,78,63647,1,0,0:0:0:0:
118,245,63777,5,0,0:0:0:0:
370,285,63907,1,8,0:0:0:0:
279,47,64038,1,0,0:0:0:0:
163,307,64168,5,8,0:0:0:0:
401,216,64298,1,0,0:0:0:0:
203,55,64429,1,0,0:0:0:0:
232,338,64560,5,0,0:0:0:0:
393,140,64690,1,0,0:0:0:0:
141,100,64821,1,0,0:0:0:0:
312,334,64951,5,8,0:0:0:0:
64,162,65082,1,0,0:0:0:0:
408,253,65212,1,0,0:0:0:0:
64,162,65342,1,0,0:0:0:0:
319,341,65473,1,8,0:0:0:0:
64,162,65604,1,0,0:0:0:0:
425,254,65734,1,8,0:0:0:0:
64,162,65864,1,0,0:0:0:0:
328,351,65995,1,0,0:0:0:0:
64,162,66125,1,0,0:0:0:0:
439,255,66255,1,0,0:0:0:0:
49,260,66516,5,8,0:0:0:0:
157,218,66647,1,0,0:0:0:0:
115,97,66777,1,0,0:0:0:0:
216,146,66908,1,0,0:0:0:0:
315,108,67038,1,8,0:0:0:0:
237,250,67299,5,8,0:0:0:0:
293,32,67560,1,0,0:0:0:0:
381,335,67821,1,0,0:0:0:0:
66,164,68081,5,8,0:0:0:0:
368,328,68342,1,0,0:0:0:0:
368,328,68473,1,0,0:0:0:0:
63,158,68864,1,8,0:0:0:0:
108,87,69647,5,10,0:0:0:0:
112,103,69777,1,2,0:0:0:0:
116,119,69908,1,2,0:0:0:0:
121,135,70038,1,2,0:0:0:0:
195,176,70169,1,10,0:0:0:0:
268,217,70299,1,2,0:0:0:0:
340,261,70430,5,10,0:0:0:0:
329,274,70560,1,2,0:0:0:0:
318,287,70691,1,2,0:0:0:0:
308,300,70821,1,2,0:0:0:0:
297,313,70951,1,2,0:0:0:0:
286,326,71082,1,2,0:0:0:0:
275,339,71212,5,10,0:0:0:0:
244,324,71343,1,2,0:0:0:0:
213,310,71473,1,2,0:0:0:0:
181,295,71604,1,2,0:0:0:0:
176,210,71734,1,10,0:0:0:0:
169,125,71864,1,2,0:0:0:0:
162,39,71995,5,10,0:0:0:0:
195,36,72125,1,2,0:0:0:0:
229,34,72256,1,2,0:0:0:0:
262,32,72386,1,2,0:0:0:0:
296,30,72517,1,2,0:0:0:0:
329,28,72647,1,2,0:0:0:0:
362,26,72777,5,10,0:0:0:0:
377,74,72908,1,2,0:0:0:0:
392,122,73038,1,2,0:0:0:0:
407,170,73169,1,2,0:0:0:0:
322,169,73299,1,10,0:0:0:0:
236,168,73430,1,2,0:0:0:0:
151,168,73560,5,10,0:0:0:0:
181,209,73691,1,2,0:0:0:0:
221,239,73821,1,2,0:0:0:0:
268,258,73951,1,2,0:0:0:0:
318,263,74082,1,2,0:0:0:0:
368,257,74212,1,2,0:0:0:0:
415,236,74343,5,10,0:0:0:0:
422,168,74473,1,2,0:0:0:0:
429,100,74604,1,2,0:0:0:0:
437,32,74734,1,2,0:0:0:0:
352,24,74864,1,10,0:0:0:0:
267,16,74995,1,2,0:0:0:0:
182,8,75125,5,10,0:0:0:0:
213,68,75256,1,2,0:0:0:0:
210,135,75386,1,2,0:0:0:0:
175,193,75517,1,2,0:0:0:0:
115,225,75647,1,2,0:0:0:0:
47,229,75777,1,2,0:0:0:0:
83,97,75908,5,14,0:0:0:0:
432,90,76169,1,8,0:0:0:0:
29,226,76430,1,8,0:0:0:0:
325,0,76691,1,8,0:0:0:0:
429,97,77473,5,8,0:0:0:0:
80,90,77734,1,8,0:0:0:0:
483,226,77995,1,8,0:0:0:0:
187,0,78256,1,8,0:0:0:0:
34,350,79038,5,8,0:0:0:0:
34,34,79299,5,8,0:0:0:0:
478,34,79560,5,8,0:0:0:0:
478,350,79821,5,8,0:0:0:0:
256,0,80604,5,2,0:0:0:0:
256,24,81386,1,2,0:0:0:0:
327,81,82169,5,12,0:0:0:0:
5,274,82430,1,8,0:0:0:0:
181,12,82691,1,8,0:0:0:0:
283,353,82951,1,8,0:0:0:0:
185,81,83734,5,8,0:0:0:0:
507,274,83995,1,8,0:0:0:0:
331,12,84256,1,8,0:0:0:0:
229,353,84516,1,8,0:0:0:0:
16,192,85299,5,8,0:0:0:0:
496,192,85560,1,8,0:0:0:0:
50,192,85821,1,8,0:0:0:0:
461,192,86082,1,8,0:0:0:0:
256,192,86864,5,2,0:0:0:0:
256,120,86995,1,8,0:0:0:0:
256,320,87386,1,8,0:0:0:0:
256,48,87777,1,8,0:0:0:0:
63,156,88430,5,14,0:0:0:0:
126,49,88560,1,2,0:0:0:0:
197,214,88691,1,2,0:0:0:0:
70,157,88821,1,2,0:0:0:0:
253,79,88951,1,10,0:0:0:0:
399,219,89082,1,2,0:0:0:0:
157,122,89212,5,10,0:0:0:0:
157,122,89604,1,2,0:0:0:0:
332,39,89734,1,2,0:0:0:0:
215,256,89864,1,2,0:0:0:0:
512,148,89995,5,10,0:0:0:0:
512,148,90256,1,2,0:0:0:0:
512,148,90517,1,10,0:0:0:0:
423,300,90777,5,10,0:0:0:0:
388,72,90908,1,2,0:0:0:0:
166,104,91038,1,2,0:0:0:0:
193,329,91169,1,2,0:0:0:0:
417,191,91299,1,2,0:0:0:0:
78,207,91430,1,2,0:0:0:0:
339,338,91560,5,10,0:0:0:0:
339,338,91821,1,2,0:0:0:0:
314,84,91951,1,2,0:0:0:0:
227,219,92082,1,10,0:0:0:0:
462,132,92212,1,2,0:0:0:0:
171,40,92343,5,10,0:0:0:0:
171,40,92734,5,2,0:0:0:0:
355,28,92864,1,2,0:0:0:0:
106,126,92995,1,2,0:0:0:0:
457,34,93125,5,10,0:0:0:0:
457,34,93386,1,2,0:0:0:0:
457,34,93647,1,10,0:0:0:0:
414,206,93908,5,10,0:0:0:0:
302,59,94038,1,2,0:0:0:0:
131,36,94169,1,2,0:0:0:0:
111,295,94299,1,2,0:0:0:0:
221,31,94430,1,2,0:0:0:0:
10,285,94560,1,2,0:0:0:0:
382,116,94691,5,10,0:0:0:0:
382,116,94952,1,2,0:0:0:0:
364,271,95082,1,2,0:0:0:0:
186,221,95212,1,10,0:0:0:0:
477,69,95343,1,2,0:0:0:0:
355,262,95473,5,10,0:0:0:0:
355,262,95865,1,2,0:0:0:0:
180,345,95995,1,2,0:0:0:0:
297,128,96125,1,2,0:0:0:0:
0,236,96256,5,10,0:0:0:0:
0,236,96517,1,2,0:0:0:0:
0,236,96778,1,10,0:0:0:0:
89,84,97038,5,10,0:0:0:0:
124,312,97169,1,2,0:0:0:0:
175,33,97299,1,2,0:0:0:0:
40,320,97430,1,2,0:0:0:0:
0,22,97560,1,2,0:0:0:0:
279,167,97691,1,2,0:0:0:0:
173,46,97821,5,10,0:0:0:0:
173,46,98082,1,2,0:0:0:0:
198,300,98212,1,2,0:0:0:0:
285,165,98343,1,10,0:0:0:0:
50,252,98473,1,2,0:0:0:0:
341,344,98604,5,10,0:0:0:0:
341,344,98995,5,2,0:0:0:0:
157,356,99125,1,2,0:0:0:0:
406,258,99256,1,2,0:0:0:0:
55,350,99386,5,10,0:0:0:0:
55,350,99647,1,2,0:0:0:0:
55,350,99908,1,10,0:0:0:0:
98,178,100169,5,10,0:0:0:0:
0,263,100299,1,2,0:0:0:0:
285,358,100430,1,2,0:0:0:0:
401,89,100560,1,2,0:0:0:0:
291,353,100691,1,2,0:0:0:0:
502,99,100821,1,2,0:0:0:0:
130,268,100952,5,14,0:0:0:0:
0,194,101082,1,0,0:0:0:0:
78,97,101212,1,0,0:0:0:0:
36,302,101343,1,0,0:0:0:0:
256,192,101473,1,8,0:0:0:0:
75,191,101604,1,0,0:0:0:0:
256,192,101734,5,8,0:0:0:0:
183,81,101864,1,0,0:0:0:0:
287,46,101995,1,0,0:0:0:0:
148,190,102125,1,0,0:0:0:0:
375,134,102256,1,0,0:0:0:0:
371,247,102386,1,0,0:0:0:0:
256,192,102517,5,8,0:0:0:0:
290,324,102647,1,0,0:0:0:0:
375,134,102777,1,0,0:0:0:0:
479,235,102908,1,0,0:0:0:0:
256,192,103038,1,8,0:0:0:0:
259,68,103169,1,0,0:0:0:0:
256,192,103299,5,8,0:0:0:0:
149,58,103430,1,0,0:0:0:0:
50,185,103560,1,0,0:0:0:0:
170,305,103691,1,0,0:0:0:0:
309,278,103821,1,0,0:0:0:0:
97,255,103951,1,0,0:0:0:0:
256,192,104082,5,8,0:0:0:0:
261,354,104212,1,0,0:0:0:0:
159,177,104343,1,0,0:0:0:0:
340,93,104473,1,0,0:0:0:0:
256,192,104604,1,8,0:0:0:0:
469,161,104734,1,0,0:0:0:0:
256,192,104864,5,8,0:0:0:0:
254,32,104995,1,0,0:0:0:0:
340,216,105125,1,0,0:0:0:0:
479,86,105256,1,0,0:0:0:0:
316,142,105386,1,0,0:0:0:0:
286,349,105517,1,0,0:0:0:0:
181,55,105647,5,0,0:0:0:0:
346,53,110343,5,4,0:0:0:0:
352,254,110473,1,0,0:0:0:0:
233,100,110604,1,0,0:0:0:0:
409,147,110734,1,0,0:0:0:0:
226,211,110864,1,8,0:0:0:0:
156,53,110995,1,0,0:0:0:0:
314,158,111125,5,8,0:0:0:0:
135,248,111256,1,0,0:0:0:0:
146,154,111386,1,0,0:0:0:0:
218,310,111517,1,0,0:0:0:0:
71,352,111647,1,0,0:0:0:0:
0,225,111777,1,0,0:0:0:0:
218,229,111908,5,8,0:0:0:0:
162,48,112038,1,0,0:0:0:0:
399,211,112169,1,0,0:0:0:0:
117,138,112299,1,0,0:0:0:0:
282,47,112430,1,8,0:0:0:0:
293,348,112560,1,0,0:0:0:0:
165,56,112691,5,8,0:0:0:0:
95,244,112821,1,0,0:0:0:0:
34,95,112951,1,0,0:0:0:0:
226,106,113082,1,0,0:0:0:0:
279,249,113212,1,0,0:0:0:0:
110,124,113343,1,0,0:0:0:0:
297,11,113473,5,8,0:0:0:0:
412,218,113604,1,0,0:0:0:0:
208,40,113734,1,0,0:0:0:0:
352,324,113864,1,0,0:0:0:0:
383,73,113995,1,8,0:0:0:0:
248,329,114125,1,0,0:0:0:0:
200,35,114256,5,8,0:0:0:0:
423,225,114386,1,0,0:0:0:0:
392,55,114517,1,0,0:0:0:0:
246,341,114647,1,0,0:0:0:0:
134,238,114777,1,0,0:0:0:0:
0,260,114908,1,0,0:0:0:0:
316,282,115038,5,8,0:0:0:0:
124,149,115169,1,0,0:0:0:0:
373,223,115299,1,0,0:0:0:0:
209,132,115430,1,0,0:0:0:0:
231,291,115560,1,8,0:0:0:0:
299,72,115691,1,0,0:0:0:0:
124,320,115821,5,8,0:0:0:0:
413,76,115951,1,0,0:0:0:0:
27,272,116082,1,0,0:0:0:0:
499,144,116212,1,0,0:0:0:0:
349,323,116343,1,0,0:0:0:0:
202,121,116473,1,0,0:0:0:0:
445,201,116604,5,8,0:0:0:0:
242,300,116734,1,0,0:0:0:0:
323,104,116864,1,0,0:0:0:0:
411,328,116995,1,0,0:0:0:0:
178,215,117125,1,8,0:0:0:0:
343,187,117256,1,0,0:0:0:0:
292,365,117386,5,8,0:0:0:0:
52,187,117517,1,0,0:0:0:0:
248,148,117647,1,0,0:0:0:0:
179,358,117777,1,0,0:0:0:0:
91,79,117908,1,0,0:0:0:0:
367,35,118038,1,0,0:0:0:0:
114,278,118169,5,8,0:0:0:0:
206,16,118299,1,0,0:0:0:0:
456,175,118430,1,0,0:0:0:0:
274,251,118560,1,0,0:0:0:0:
450,79,118691,1,8,0:0:0:0:
463,329,118821,1,0,0:0:0:0:
355,64,118951,5,8,0:0:0:0:
343,352,119082,1,0,0:0:0:0:
254,40,119212,1,0,0:0:0:0:
232,366,119343,1,0,0:0:0:0:
356,185,119473,1,0,0:0:0:0:
129,160,119604,1,0,0:0:0:0:
243,364,119734,5,8,0:0:0:0:
292,51,119864,1,0,0:0:0:0:
162,352,119995,1,8,0:0:0:0:
382,79,120125,1,0,0:0:0:0:
51,323,120256,1,8,0:0:0:0:
99,58,120908,5,2,0:0:0:0:
176,10,121169,1,0,0:0:0:0:
469,229,121299,5,8,0:0:0:0:
135,147,121430,1,0,0:0:0:0:
452,146,121560,1,8,0:0:0:0:
102,261,121691,1,0,0:0:0:0:
427,13,121821,1,8,0:0:0:0:
348,354,122473,5,2,0:0:0:0:
239,315,122603,1,2,0:0:0:0:
441,291,122864,5,8,0:0:0:0:
145,327,122995,1,0,0:0:0:0:
462,179,123125,1,8,0:0:0:0:
275,384,123256,1,0,0:0:0:0:
235,60,123386,1,8,0:0:0:0:
40,149,123647,5,0,0:0:0:0:
139,318,123908,1,2,0:0:0:0:
168,225,124038,1,2,0:0:0:0:
217,50,124430,5,8,0:0:0:0:
340,277,124560,1,0,0:0:0:0:
115,79,124691,1,8,0:0:0:0:
439,242,124821,1,0,0:0:0:0:
44,164,124951,1,8,0:0:0:0:
411,78,125212,5,2,0:0:0:0:
424,67,125604,1,2,0:0:0:0:
442,59,125995,5,8,0:0:0:0:
288,18,126256,1,8,0:0:0:0:
493,208,126386,1,0,0:0:0:0:
57,57,126778,5,8,0:0:0:0:
224,18,127039,1,8,0:0:0:0:
296,271,127169,1,0,0:0:0:0:
442,325,127560,5,8,0:0:0:0:
274,362,127821,1,8,0:0:0:0:
345,82,127951,1,0,0:0:0:0:
150,367,128343,5,8,0:0:0:0:
285,339,128604,1,8,0:0:0:0:
96,155,128734,1,0,0:0:0:0:
110,169,129125,5,12,0:0:0:0:
308,330,129255,1,0,0:0:0:0:
348,78,129386,1,8,0:0:0:0:
118,245,129516,5,0,0:0:0:0:
370,285,129646,1,8,0:0:0:0:
279,47,129777,1,0,0:0:0:0:
163,307,129907,5,0,0:0:0:0:
401,216,130037,1,0,0:0:0:0:
203,55,130168,1,0,0:0:0:0:
231,336,130299,5,0,0:0:0:0:
393,140,130429,1,0,0:0:0:0:
141,100,130560,1,0,0:0:0:0:
339,342,130690,5,8,0:0:0:0:
306,29,130820,1,0,0:0:0:0:
415,318,130951,1,8,0:0:0:0:
152,100,131082,1,0,0:0:0:0:
262,344,131212,1,8,0:0:0:0:
383,8,131342,1,0,0:0:0:0:
256,192,131473,5,0,0:0:0:0:
299,23,131603,1,0,0:0:0:0:
418,325,131733,1,0,0:0:0:0:
217,20,131864,1,0,0:0:0:0:
257,352,131994,1,0,0:0:0:0:
77,189,132255,5,8,0:0:0:0:
157,218,132386,1,0,0:0:0:0:
222,165,132516,1,8,0:0:0:0:
304,189,132647,1,0,0:0:0:0:
373,141,132777,1,8,0:0:0:0:
237,250,133038,5,2,0:0:0:0:
293,32,133299,1,2,0:0:0:0:
381,335,133560,1,2,0:0:0:0:
66,164,133820,5,12,0:0:0:0:
368,328,134081,1,8,0:0:0:0:
368,328,134212,1,12,0:0:0:0:
63,158,134603,1,8,0:0:0:0:
256,192,134669,12,4,135386,0:0:0:0:
336,0,141647,5,8,0:0:0:0:
268,242,141908,1,0,0:0:0:0:
505,54,142169,1,0,0:0:0:0:
512,330,142430,1,0,0:0:0:0:
342,176,142951,5,8,0:0:0:0:
339,179,143017,1,8,0:0:0:0:
336,182,143082,1,8,0:0:0:0:
333,185,143147,1,8,0:0:0:0:
330,188,143212,5,8,0:0:0:0:
191,132,143473,1,0,0:0:0:0:
383,347,143734,1,0,0:0:0:0:
263,15,143995,1,0,0:0:0:0:
100,328,144256,5,8,0:0:0:0:
96,344,144517,1,8,0:0:0:0:
92,360,144777,1,8,0:0:0:0:
170,208,146081,5,8,0:0:0:0:
173,205,146147,1,8,0:0:0:0:
176,202,146212,1,8,0:0:0:0:
179,199,146277,1,8,0:0:0:0:
182,196,146342,5,8,0:0:0:0:
276,303,146604,5,0,0:0:0:0:
71,126,146864,1,0,0:0:0:0:
361,29,147125,1,0,0:0:0:0:
100,328,147386,5,8,0:0:0:0:
92,343,147647,1,8,0:0:0:0:
84,358,147908,1,8,0:0:0:0:
491,26,148169,5,8,0:0:0:0:
16,342,148430,1,8,0:0:0:0:
401,0,148691,1,8,0:0:0:0:
177,33,149212,5,8,0:0:0:0:
178,37,149277,1,8,0:0:0:0:
179,41,149343,1,8,0:0:0:0:
180,45,149408,1,8,0:0:0:0:
181,49,149473,5,8,0:0:0:0:
436,91,149734,1,8,0:0:0:0:
45,151,149995,1,8,0:0:0:0:
493,222,150256,1,8,0:0:0:0:
217,349,150647,5,8,0:0:0:0:
287,82,150777,1,8,0:0:0:0:
467,351,151038,5,8,0:0:0:0:
19,49,151299,1,8,0:0:0:0:
467,351,151560,1,8,0:0:0:0:
19,42,151821,1,8,0:0:0:0:
177,33,152343,5,8,0:0:0:0:
178,37,152408,1,8,0:0:0:0:
179,41,152474,1,8,0:0:0:0:
180,45,152539,1,8,0:0:0:0:
181,49,152604,5,8,0:0:0:0:
251,283,152864,1,8,0:0:0:0:
84,143,153125,1,8,0:0:0:0:
499,243,153386,1,8,0:0:0:0:
405,326,153777,5,8,0:0:0:0:
461,50,153907,1,8,0:0:0:0:
256,192,154169,5,14,0:0:0:0:
256,192,166691,5,10,0:0:0:0:
203,258,166821,1,0,0:0:0:0:
127,220,166952,1,0,0:0:0:0:
61,272,167082,1,2,0:0:0:0:
256,192,167212,1,8,0:0:0:0:
353,334,167343,1,0,0:0:0:0:
256,192,167473,1,10,0:0:0:0:
303,78,167604,1,0,0:0:0:0:
399,125,167734,1,0,0:0:0:0:
193,66,167865,1,2,0:0:0:0:
382,41,167995,1,0,0:0:0:0:
255,8,168125,1,0,0:0:0:0:
256,192,168256,5,10,0:0:0:0:
303,330,168386,1,0,0:0:0:0:
219,345,168517,1,0,0:0:0:0:
380,367,168647,1,2,0:0:0:0:
256,192,168778,1,8,0:0:0:0:
303,330,168908,1,0,0:0:0:0:
256,192,169039,1,10,0:0:0:0:
375,97,169169,1,0,0:0:0:0:
136,166,169299,1,0,0:0:0:0:
368,241,169430,1,2,0:0:0:0:
232,48,169560,1,0,0:0:0:0:
211,297,169691,1,0,0:0:0:0:
256,192,169821,5,10,0:0:0:0:
75,267,169952,1,0,0:0:0:0:
56,109,170082,1,0,0:0:0:0:
154,244,170212,1,2,0:0:0:0:
256,192,170343,1,8,0:0:0:0:
303,364,170473,1,0,0:0:0:0:
256,192,170604,1,10,0:0:0:0:
448,138,170734,1,0,0:0:0:0:
506,295,170865,1,0,0:0:0:0:
392,236,170995,1,2,0:0:0:0:
503,49,171125,1,0,0:0:0:0:
345,75,171256,1,0,0:0:0:0:
256,192,171386,5,10,0:0:0:0:
330,331,171517,1,0,0:0:0:0:
494,306,171647,1,0,0:0:0:0:
495,145,171778,1,2,0:0:0:0:
256,192,171908,1,8,0:0:0:0:
502,132,172039,1,0,0:0:0:0:
256,192,172169,1,10,0:0:0:0:
164,310,172299,1,0,0:0:0:0:
18,342,172430,1,0,0:0:0:0:
74,200,172560,1,2,0:0:0:0:
44,62,172691,1,0,0:0:0:0:
100,352,172821,1,0,0:0:0:0:
47,53,172952,5,12,0:0:0:0:
373,14,173212,5,0,0:0:0:0:
424,122,173343,1,0,0:0:0:0:
383,6,173473,1,8,0:0:0:0:
405,141,173604,1,0,0:0:0:0:
395,0,173734,5,8,0:0:0:0:
350,178,173864,1,0,0:0:0:0:
137,75,174125,5,0,0:0:0:0:
61,238,174256,1,0,0:0:0:0:
139,67,174517,5,8,0:0:0:0:
236,335,174647,1,0,0:0:0:0:
141,61,174908,5,0,0:0:0:0:
31,372,175038,1,8,0:0:0:0:
143,54,175299,5,8,0:0:0:0:
319,135,175560,5,0,0:0:0:0:
39,101,175691,1,0,0:0:0:0:
339,157,175821,1,0,0:0:0:0:
311,263,175951,1,0,0:0:0:0:
405,46,176082,5,8,0:0:0:0:
414,352,176473,1,0,0:0:0:0:
294,37,176864,1,8,0:0:0:0:
24,187,177125,5,0,0:0:0:0:
294,45,177256,1,0,0:0:0:0:
19,180,177386,1,0,0:0:0:0:
396,194,177517,1,0,0:0:0:0:
108,28,177647,5,8,0:0:0:0:
130,310,177777,1,0,0:0:0:0:
108,21,177908,1,0,0:0:0:0:
16,294,178038,1,0,0:0:0:0:
244,30,178169,1,8,0:0:0:0:
251,328,178299,1,0,0:0:0:0:
27,88,178430,5,8,0:0:0:0:
421,138,178560,1,0,0:0:0:0:
251,328,178691,1,0,0:0:0:0:
346,52,178821,1,0,0:0:0:0:
405,277,178951,1,0,0:0:0:0:
143,247,179082,1,0,0:0:0:0:
429,135,179212,5,8,0:0:0:0:
109,36,179473,1,0,0:0:0:0:
251,93,179604,1,0,0:0:0:0:
92,118,179734,1,8,0:0:0:0:
196,158,179864,1,0,0:0:0:0:
98,266,179995,5,8,0:0:0:0:
251,93,180256,5,2,0:0:0:0:
385,298,180386,1,2,0:0:0:0:
183,16,180647,5,2,0:0:0:0:
6,252,180777,1,10,0:0:0:0:
319,0,181038,5,2,0:0:0:0:
492,342,181169,1,2,0:0:0:0:
23,121,181430,5,10,0:0:0:0:
505,132,181560,1,2,0:0:0:0:
211,355,181821,5,0,0:0:0:0:
189,180,181951,1,0,0:0:0:0:
139,274,182082,1,0,0:0:0:0:
232,93,182212,1,0,0:0:0:0:
232,269,182343,5,8,0:0:0:0:
136,103,182473,1,0,0:0:0:0:
365,77,182604,1,0,0:0:0:0:
93,192,182734,1,0,0:0:0:0:
178,21,182864,1,8,0:0:0:0:
139,274,182995,1,0,0:0:0:0:
232,93,183125,1,8,0:0:0:0:
232,269,183256,1,0,0:0:0:0:
85,24,183386,5,0,0:0:0:0:
47,279,183517,1,0,0:0:0:0:
276,13,183647,1,0,0:0:0:0:
20,108,183777,1,0,0:0:0:0:
391,119,183908,5,8,0:0:0:0:
85,24,184038,1,0,0:0:0:0:
390,291,184169,1,0,0:0:0:0:
183,0,184299,1,0,0:0:0:0:
313,370,184430,1,8,0:0:0:0:
283,3,184560,1,0,0:0:0:0:
199,383,184691,1,8,0:0:0:0:
325,102,184821,1,0,0:0:0:0:
120,288,184951,1,0,0:0:0:0:
342,220,185082,5,0,0:0:0:0:
134,193,185212,1,0,0:0:0:0:
258,269,185343,1,0,0:0:0:0:
235,168,185473,5,8,0:0:0:0:
51,231,185604,1,0,0:0:0:0:
351,212,185734,1,8,0:0:0:0:
22,225,185864,1,0,0:0:0:0:
436,284,185995,1,8,0:0:0:0:
435,172,186647,5,2,0:0:0:0:
308,325,186777,1,2,0:0:0:0:
156,76,187038,5,8,0:0:0:0:
78,288,187169,1,0,0:0:0:0:
249,59,187299,1,8,0:0:0:0:
217,363,187430,1,0,0:0:0:0:
81,21,187560,1,8,0:0:0:0:
478,112,188212,5,2,0:0:0:0:
430,354,188343,1,2,0:0:0:0:
248,98,188604,5,8,0:0:0:0:
488,225,188734,1,0,0:0:0:0:
155,92,188864,1,8,0:0:0:0:
499,217,188995,1,0,0:0:0:0:
69,121,189125,1,8,0:0:0:0:
184,335,189386,5,0,0:0:0:0:
135,176,189517,1,0,0:0:0:0:
224,20,189647,1,0,0:0:0:0:
409,8,189777,1,0,0:0:0:0:
61,200,190169,5,8,0:0:0:0:
260,175,190299,1,0,0:0:0:0:
195,359,190430,1,8,0:0:0:0:
375,105,190560,1,0,0:0:0:0:
0,153,190691,1,8,0:0:0:0:
157,51,190951,5,0,0:0:0:0:
157,51,191343,1,0,0:0:0:0:
157,51,191734,5,8,0:0:0:0:
89,338,191995,5,10,0:0:0:0:
69,107,192125,1,2,0:0:0:0:
355,51,192517,5,0,0:0:0:0:
423,338,192778,5,2,0:0:0:0:
443,107,192908,1,2,0:0:0:0:
390,256,193299,5,8,0:0:0:0:
103,324,193560,5,10,0:0:0:0:
240,62,193690,1,2,0:0:0:0:
122,256,194082,5,0,0:0:0:0:
409,324,194343,5,2,0:0:0:0:
263,16,194473,1,2,0:0:0:0:
402,169,194864,5,0,0:0:0:0:
204,330,194995,1,0,0:0:0:0:
164,78,195125,1,8,0:0:0:0:
394,245,195256,5,0,0:0:0:0:
142,285,195386,1,0,0:0:0:0:
233,47,195517,1,0,0:0:0:0:
349,307,195647,5,8,0:0:0:0:
111,216,195777,1,0,0:0:0:0:
309,55,195908,1,0,0:0:0:0:
280,338,196038,5,0,0:0:0:0:
119,140,196169,1,0,0:0:0:0:
371,100,196299,1,0,0:0:0:0:
173,342,196430,5,0,0:0:0:0:
206,29,196560,1,0,0:0:0:0:
112,241,196691,1,8,0:0:0:0:
289,30,196821,1,0,0:0:0:0:
266,277,196951,1,8,0:0:0:0:
129,8,197082,1,0,0:0:0:0:
173,351,197212,1,8,0:0:0:0:
213,23,197343,1,0,0:0:0:0:
106,260,197473,1,0,0:0:0:0:
295,20,197604,1,0,0:0:0:0:
276,250,197734,1,0,0:0:0:0:
435,189,197995,5,8,0:0:0:0:
355,218,198125,1,0,0:0:0:0:
290,165,198256,1,8,0:0:0:0:
208,189,198386,1,0,0:0:0:0:
139,141,198517,1,8,0:0:0:0:
275,250,198777,5,8,0:0:0:0:
219,32,199038,1,0,0:0:0:0:
131,335,199299,1,0,0:0:0:0:
446,164,199560,5,10,0:0:0:0:
144,328,199821,1,8,0:0:0:0:
144,328,199951,1,12,0:0:0:0:
449,158,200343,1,12,0:0:0:0:
256,192,200408,12,0,201125,0:0:0:0:
