osu file format v14

[General]
AudioFilename: Virtues - A Memory Once Forgotten.mp3
AudioLeadIn: 0
PreviewTime: 36525
Countdown: 0
SampleSet: None
StackLeniency: 0.7
Mode: 0
LetterboxInBreaks: 0
WidescreenStoryboard: 1

[Editor]
Bookmarks: 34525,51885,67305,82605,97965,127547,155991,170213,184436,198658,219991,248436
DistanceSpacing: 1.5
BeatDivisor: 4
GridSize: 4
TimelineZoom: 3.099998

[Metadata]
Title:A Memory Once Forgotten
TitleUnicode:A Memory Once Forgotten
Artist:Virtues
ArtistUnicode:Virtues
Creator:Osatia
Version:new collab
Source:
Tags:
BeatmapID:1853207
BeatmapSetID:859615

[Difficulty]
HPDrainRate:6
CircleSize:4.3
OverallDifficulty:8
ApproachRate:9
SliderMultiplier:1.9
SliderTickRate:1

[Events]
//Background and Video events
0,0,"582779.jpg",0,0
//Break Periods
//Storyboard Layer 0 (Background)
//Storyboard Layer 1 (Fail)
//Storyboard Layer 2 (Pass)
//Storyboard Layer 3 (Foreground)
//Storyboard Sound Samples

[TimingPoints]
525,500,4,1,0,55,1,0
525,-133.333333333333,4,1,0,55,0,0
34525,-142.857142857143,4,1,0,55,0,0
35525,-500,4,1,0,55,0,0
36525,240,4,1,0,55,1,0
36525,-100,4,1,0,55,0,0
37725,-133.333333333333,4,1,0,55,0,0
38205,-83.3333333333333,4,1,0,55,0,0
38445,-100,4,1,0,55,0,0
39405,-200,4,1,0,55,0,0
39645,-133.333333333333,4,1,0,55,0,0
39885,-100,4,1,0,55,0,0
40125,-250,4,1,0,55,0,0
40365,-100,4,1,0,55,0,0
42045,-83.3333333333333,4,1,0,55,0,0
42285,-100,4,1,0,55,0,0
45405,-133.333333333333,4,1,0,55,0,0
45885,-83.3333333333333,4,1,0,55,0,0
46125,-100,4,1,0,55,0,0
47805,-250,4,1,0,55,0,0
48045,-100,4,1,0,55,0,0
49725,-83.3333333333333,4,1,0,55,0,0
49965,-100,4,1,0,55,0,0
113325,444.444444444444,4,1,0,55,1,0

[Colours]
Combo1 : 168,186,189
Combo2 : 62,207,255

[HitObjects]
288,84,34525,6,0,L|257:283,1,199.499993911743
232,148,35525,6,0,L|242:204,1,57
242,204,36525,6,0,L|48:184,1,190
124,44,36885,1,0,0:0:0:0:
336,92,37005,1,0,0:0:0:0:
248,0,37125,1,0,0:0:0:0:
219,128,37245,6,0,P|285:245|420:237,1,285
421,237,37725,2,0,L|408:160,1,71.2500027179719
436,96,37965,5,0,0:0:0:0:
392,312,38085,1,0,0:0:0:0:
312,104,38205,2,0,P|309:188|281:268,1,170.999994781494
296,312,38445,6,0,P|235:241|142:238,1,190
24,336,38805,2,0,P|71:341|114:359,1,95
220,276,39045,1,0,0:0:0:0:
296,312,39165,2,0,P|343:307|386:289,1,95
376,80,39405,6,0,B|360:112|360:112|364:152,1,71.25
380,172,39645,2,0,B|372:116|372:116|396:71,1,106.875004076958
480,8,39885,5,0,0:0:0:0:
452,136,40005,1,0,0:0:0:0:
484,264,40125,6,0,P|493:237|489:209,1,57
489,209,40365,6,0,P|401:184|320:256,1,190
348,364,40725,2,0,P|435:389|517:317,1,190
420,288,41085,2,0,B|315:267|335:339|239:327,1,190
276,176,41445,1,0,0:0:0:0:
240,327,41565,2,0,P|218:283|220:236,1,95
328,104,41805,5,0,0:0:0:0:
192,164,41925,1,0,0:0:0:0:
72,75,42045,2,0,P|151:43|237:41,1,170.999994781494
268,16,42285,6,0,L|279:110,1,95
320,188,42525,2,0,P|358:217|405:226,1,95
510,172,42765,2,0,L|320:188,1,190
320,188,43245,5,0,0:0:0:0:
149,157,43365,1,0,0:0:0:0:
260,25,43485,1,0,0:0:0:0:
260,25,43605,1,0,0:0:0:0:
226,222,43725,5,0,0:0:0:0:
167,59,43845,1,0,0:0:0:0:
337,89,43965,1,0,0:0:0:0:
337,89,44085,1,0,0:0:0:0:
240,124,44205,6,0,P|145:135|56:167,1,190
192,288,44565,2,0,P|140:262|93:256,1,95
24,246,44805,1,0,0:0:0:0:
172,368,44925,6,0,L|133:181,1,190
216,64,45285,5,0,0:0:0:0:
133,181,45405,2,0,L|149:93,1,71.2500027179719
300,56,45645,5,0,0:0:0:0:
267,274,45765,1,0,0:0:0:0:
428,104,45885,2,0,P|401:184|400:269,1,170.999994781494
416,312,46125,6,0,B|311:291|331:363|235:351,1,190
164,208,46485,2,0,B|120:292|120:292|154:380,1,190
312,192,46845,1,0,0:0:0:0:
312,192,47085,6,0,L|324:92,1,95
496,64,47325,2,0,L|484:158,1,95
432,272,47565,5,0,0:0:0:0:
404,132,47685,1,0,0:0:0:0:
376,12,47805,6,0,P|362:36|361:65,1,57
360,64,48045,6,0,B|288:57|288:57|250:78|250:78|175:71,1,190
96,192,48405,2,0,P|55:109|98:28,1,190
232,160,48765,2,0,P|240:206|224:250,1,95
76,300,49005,5,0,0:0:0:0:
224,360,49125,1,0,0:0:0:0:
304,336,49245,2,0,L|320:240,1,95
392,48,49485,5,0,0:0:0:0:
416,208,49605,1,0,0:0:0:0:
487,64,49725,2,0,P|404:80|323:107,1,170.999994781494
288,88,49965,6,0,L|260:288,1,190
96,156,50325,2,0,L|124:356,1,190
256,180,50685,1,0,0:0:0:0:
176,168,50805,1,0,0:0:0:0:
200,44,50925,5,0,0:0:0:0:
234,276,51045,1,0,0:0:0:0:
329,142,51165,5,0,0:0:0:0:
95,177,51285,1,0,0:0:0:0:
208,140,51405,5,0,0:0:0:0:
204,156,51525,1,0,0:0:0:0:
160,80,51645,5,0,0:0:0:0:
248,220,51765,1,0,0:0:0:0:
