osu file format v14

[General]
AudioFilename: Virtues - A Memory Once Forgotten.mp3
AudioLeadIn: 0
PreviewTime: -1
Countdown: 0
SampleSet: Soft
StackLeniency: 0.7
Mode: 0
LetterboxInBreaks: 0
WidescreenStoryboard: 0

[Editor]
Bookmarks: 36525,37605,44205,45165,48045,48765,49005,49725,49965,50685,50925,51165,51885,52845,59565,60525,63405,64125,64365,65085,65325,66045,66285,67245,71085,74925,78765,82605,86445,90285,94125,97965,170213
DistanceSpacing: 1.5
BeatDivisor: 4
GridSize: 4
TimelineZoom: 1.5

[Metadata]
Title:A Memory Once Forgotten
TitleUnicode:A Memory Once Forgotten
Artist:Virtues
ArtistUnicode:Virtues
Creator:Osatia
Version:A Vacant Lot
Source:
Tags:
BeatmapID:1796237
BeatmapSetID:859615

[Difficulty]
HPDrainRate:6
CircleSize:4.2
OverallDifficulty:9
ApproachRate:9.6
SliderMultiplier:1.4
SliderTickRate:1

[Events]
//Background and Video events
0,0,"582779.jpg",0,0
//Break Periods
//Storyboard Layer 0 (Background)
//Storyboard Layer 1 (Fail)
//Storyboard Layer 2 (Pass)
//Storyboard Layer 3 (Foreground)
//Storyboard Sound Samples

[TimingPoints]
525,500,4,2,0,100,1,0
525,-133.333333333333,4,2,0,100,0,0
34525,-1000,4,2,0,100,0,0
35525,-500,4,2,0,100,0,0
36525,240,4,2,0,100,1,0
36525,-50,4,2,0,100,0,0
113325,444.444444444444,4,2,0,100,1,0

[Colours]
Combo1 : 172,136,83
Combo2 : 83,119,91
Combo3 : 104,141,168
Combo4 : 155,111,130

[HitObjects]
392,256,34525,6,0,L|368:252,1,24.5
300,244,35525,6,0,L|348:236,1,49
332,312,36525,6,0,P|280:264|204:276,1,140
76,156,36765,1,0,0:0:0:0:
160,200,36885,6,0,P|108:248|32:236,1,140
256,352,37125,1,0,0:0:0:0:
300,244,37245,6,0,B|500:211|500:211|496:308,1,280
372,132,37605,1,0,0:0:0:0:
449,354,37725,2,0,P|381:358|331:311,1,140
328,60,37965,2,0,P|395:55|445:102,1,140
300,244,38205,6,0,P|256:176|116:196,1,210
132,192,38445,6,0,L|104:36,1,140
16,152,38685,1,0,0:0:0:0:
168,268,38805,2,0,P|100:272|50:225,1,140
107,54,39045,1,0,0:0:0:0:
238,172,39165,6,0,L|382:128,1,140
449,354,39405,2,0,P|381:358|331:311,1,140
452,152,39645,2,0,L|408:296,1,140
248,88,39885,5,0,0:0:0:0:
220,328,40005,1,0,0:0:0:0:
314,125,40125,2,0,P|319:57|272:8,1,140
29,289,40365,6,0,L|181:265,1,140
300,244,40605,1,0,0:0:0:0:
16,152,40725,2,0,L|168:176,1,140
368,204,40965,1,0,0:0:0:0:
496,304,41085,6,0,B|292:312|292:312|332:400,1,280
448,224,41445,1,0,0:0:0:0:
272,240,41565,6,0,B|161:220|161:220|136:203|136:203|102:210|102:210|-16:189,1,280
124,288,41925,1,0,0:0:0:0:
408,35,42045,6,0,B|328:11|328:11|372:227,1,280
484,56,42405,1,0,0:0:0:0:
264,164,42525,6,0,B|88:124,1,140
15,323,42765,2,0,B|191:283,1,140
308,248,43005,1,0,0:0:0:0:
320,244,43245,6,0,L|284:384,1,140
408,220,43485,1,0,0:0:0:0:
264,164,43605,1,0,0:0:0:0:
400,324,43725,5,0,0:0:0:0:
340,84,43845,1,0,0:0:0:0:
488,376,43965,5,0,0:0:0:0:
484,56,44085,1,0,0:0:0:0:
264,164,44205,6,0,B|236:96|236:96|264:28,1,140
408,220,44445,1,0,0:0:0:0:
484,140,44565,6,0,B|512:208|512:208|484:276,1,140
340,84,44805,1,0,0:0:0:0:
320,244,44925,6,0,B|240:272|240:272|144:220|144:220|48:248,1,280
140,320,45285,1,0,0:0:0:0:
144,128,45405,2,0,L|0:168,1,140
264,164,45645,1,0,0:0:0:0:
224,28,45765,1,0,0:0:0:0:
474,46,45885,2,0,L|340:84,1,140
359,364,46125,6,0,P|311:288|343:212,1,140
400,284,46365,1,0,0:0:0:0:
196,204,46485,2,0,P|128:215|70:178,1,140
144,128,46725,1,0,0:0:0:0:
