osu file format v14

[General]
AudioFilename: audio.mp3
AudioLeadIn: 0
PreviewTime: 98101
Countdown: 0
SampleSet: None
StackLeniency: 0.7
Mode: 3
LetterboxInBreaks: 0
SpecialStyle: 0
WidescreenStoryboard: 0

[Editor]
DistanceSpacing: 1.2
BeatDivisor: 16
GridSize: 4
TimelineZoom: 2.3

[Metadata]
Title:Ghost Voices
TitleUnicode:Ghost Voices
Artist:Virtual Self
ArtistUnicode:Virtual Self
Creator:TrippinBeats
Version:Transend your digital self
Source:
Tags:porter robinson
BeatmapID:1475555
BeatmapSetID:696631

[Difficulty]
HPDrainRate:8
CircleSize:4
OverallDifficulty:8
ApproachRate:5
SliderMultiplier:1.4
SliderTickRate:1

[Events]
//Background and Video events
0,0,"DNAUeiJVAAAWotX.jpg",0,0
//Break Periods
//Storyboard Layer 0 (Background)
//Storyboard Layer 1 (Fail)
//Storyboard Layer 2 (Pass)
//Storyboard Layer 3 (Foreground)
//Storyboard Sound Samples

[TimingPoints]
218,500,4,3,0,10,1,0
17718,-200,4,3,0,10,0,0
18155,-100,4,3,0,10,0,0
97718,-133.333333333333,4,3,0,10,0,0
98218,-10000,4,3,0,10,0,0
98468,-133.333333333333,4,3,0,10,0,0
98843,-10000,4,3,0,10,0,0
99093,-133.333333333333,4,3,0,10,0,0
99218,-10000,4,3,0,10,0,0
99593,-133.333333333333,4,3,0,10,0,0
99718,-10000,4,3,0,10,0,0
100093,-133.333333333333,4,3,0,10,0,0
100218,-10000,4,3,0,10,0,0
100468,-133.333333333333,4,3,0,10,0,0
100843,-10000,4,3,0,10,0,0
100968,-133.333333333333,4,3,0,10,0,0
101218,-10000,4,3,0,10,0,0
101593,-133.333333333333,4,3,0,10,0,0
101718,-10000,4,3,0,10,0,0
101843,-80,4,3,0,10,0,0
102218,-10000,4,3,0,10,0,0
102468,-133.333333333333,4,3,0,10,0,0
102843,-10000,4,3,0,10,0,0
103093,-133.333333333333,4,3,0,10,0,0
103218,-10000,4,3,0,10,0,0
103593,-133.333333333333,4,3,0,10,0,0
103718,-10000,4,3,0,10,0,0
104093,-133.333333333333,4,3,0,10,0,0
104218,-10000,4,3,0,10,0,0
104468,-133.333333333333,4,3,0,10,0,0
104843,-10000,4,3,0,10,0,0
104968,-133.333333333333,4,3,0,10,0,0
105218,-10000,4,3,0,10,0,0
105468,-133.333333333333,4,3,0,10,0,0
105718,-10000,4,3,0,10,0,0
105843,-80,4,3,0,10,0,0
106218,-10000,4,3,0,10,0,0
106468,-133.333333333333,4,3,0,10,0,0
106843,-10000,4,3,0,10,0,0
107093,-133.333333333333,4,3,0,10,0,0
107218,-10000,4,3,0,10,0,0
107593,-133.333333333333,4,3,0,10,0,0
107718,-10000,4,3,0,10,0,0
108093,-133.333333333333,4,3,0,10,0,0
108218,-10000,4,3,0,10,0,0
108468,-133.333333333333,4,3,0,10,0,0
108843,-10000,4,3,0,10,0,0
108968,-133.333333333333,4,3,0,10,0,0
109218,-10000,4,3,0,10,0,0
109593,-133.333333333333,4,3,0,10,0,0
109718,-10000,4,3,0,10,0,0
109843,-80,4,3,0,10,0,0
110218,-10000,4,3,0,10,0,0
110468,-133.333333333333,4,3,0,10,0,0
110843,-10000,4,3,0,10,0,0
111093,-133.333333333333,4,3,0,10,0,0
111218,-10000,4,3,0,10,0,0
111593,-133.333333333333,4,3,0,10,0,0
111718,-10000,4,3,0,10,0,0
112093,-133.333333333333,4,3,0,10,0,0
112218,-10000,4,3,0,10,0,0
112468,-133.333333333333,4,3,0,10,0,0
112843,-10000,4,3,0,10,0,0
112968,-133.333333333333,4,3,0,10,0,0
113218,-10000,4,3,0,10,0,0
113343,-133.333333333333,4,3,0,10,0,0
113468,-10000,4,3,0,10,0,0
113593,-133.333333333333,4,3,0,10,0,0
113718,-10000,4,3,0,10,0,0
113843,-80,4,3,0,10,0,0
114218,-100,4,3,0,10,0,0
130218,-200,4,3,0,10,0,0
130718,-100,4,3,0,10,0,0
131218,-200,4,3,0,10,0,0
131593,-100,4,3,0,10,0,0
131718,-200,4,3,0,10,0,0
132093,-100,4,3,0,10,0,0
132218,-200,4,3,0,10,0,0
132843,-100,4,3,0,10,0,0
133218,-200,4,3,0,10,0,0
133718,-100,4,3,0,10,0,0
134218,-200,4,3,0,10,0,0
134843,-100,4,3,0,10,0,0
135218,-181.818181818181,4,3,0,10,0,0
135968,-100,4,3,0,10,0,0
136218,-133.333333333333,4,3,0,10,0,0
136593,-100,4,3,0,10,0,0
136718,-133.333333333333,4,3,0,10,0,0
137093,-100,4,3,0,10,0,0
137718,-200,4,3,0,10,0,0
138093,-100,4,3,0,10,0,0
138218,-133.333333333333,4,3,0,10,0,0
138718,-100,4,3,0,10,0,0
139218,-133.333333333333,4,3,0,10,0,0
139593,-100,4,3,0,10,0,0
139718,-133.333333333333,4,3,0,10,0,0
140093,-100,4,3,0,10,0,0
140218,-133.333333333333,4,3,0,10,0,0
140843,-100,4,3,0,10,0,0
141218,-133.333333333333,4,3,0,10,0,0
141718,-100,4,3,0,10,0,0
142218,-133.333333333333,4,3,0,10,0,0
142843,-100,4,3,0,10,0,0
143218,-133.333333333333,4,3,0,10,0,0
143968,-80,4,3,0,10,0,0
144218,-133.333333333333,4,3,0,10,0,0
144593,-100,4,3,0,10,0,0
144718,-133.333333333333,4,3,0,10,0,0
145093,-100,4,3,0,10,0,0
145218,-133.333333333333,4,3,0,10,0,0
145718,-200,4,3,0,10,0,0
146218,-100,4,3,0,10,0,0
192218,-10,4,3,0,10,0,0
192593,-10000,4,3,0,10,0,0
192718,-133.333333333333,4,3,0,10,0,0
194218,-100,4,3,0,10,0,0
195218,-80,4,3,0,10,0,0
195343,-100,4,3,0,10,0,0
197218,-80,4,3,0,10,0,0
197343,-100,4,3,0,10,0,0
199218,-80,4,3,0,10,0,0
199343,-100,4,3,0,10,0,0
201218,-80,4,3,0,10,0,0
201343,-100,4,3,0,10,0,0
203218,-80,4,3,0,10,0,0
203343,-100,4,3,0,10,0,0
205218,-80,4,3,0,10,0,0
205343,-100,4,3,0,10,0,0
207218,-80,4,3,0,10,0,0
207343,-100,4,3,0,10,0,0
209218,-80,4,3,0,10,0,0
209343,-100,4,3,0,10,0,0
211218,-80,4,3,0,10,0,0
211343,-100,4,3,0,10,0,0
213218,-80,4,3,0,10,0,0
213343,-100,4,3,0,10,0,0
215218,-80,4,3,0,10,0,0
215343,-100,4,3,0,10,0,0
217218,-80,4,3,0,10,0,0
217343,-100,4,3,0,10,0,0
219218,-80,4,3,0,10,0,0
219343,-100,4,3,0,10,0,0
221218,-80,4,3,0,10,0,0
221343,-100,4,3,0,10,0,0
223218,-80,4,3,0,10,0,0
223343,-100,4,3,0,10,0,0
225218,-80,4,3,0,10,0,0
225343,-100,4,3,0,10,0,0

[HitObjects]
64,192,218,5,0,0:0:0:0:
192,192,280,1,0,0:0:0:0:
448,192,343,1,0,0:0:0:0:
320,192,405,1,0,0:0:0:0:
64,192,468,1,0,0:0:0:0:
192,192,530,1,0,0:0:0:0:
448,192,593,1,0,0:0:0:0:
320,192,655,1,0,0:0:0:0:
64,192,718,1,0,0:0:0:0:
192,192,780,1,0,0:0:0:0:
448,192,843,1,0,0:0:0:0:
320,192,905,1,0,0:0:0:0:
64,192,968,1,0,0:0:0:0:
192,192,1051,1,0,0:0:0:0:
320,192,1155,128,0,1405:0:0:0:0:
192,192,1405,128,0,2218:0:0:0:0:
64,192,2218,128,0,2343:0:0:0:0:
448,192,2218,1,0,0:0:0:0:
192,192,2593,128,0,2718:0:0:0:0:
448,192,2718,1,0,0:0:0:0:
320,192,2843,128,0,2968:0:0:0:0:
320,192,3218,128,0,3468:0:0:0:0:
448,192,3218,1,0,0:0:0:0:
192,192,3718,128,0,3968:0:0:0:0:
448,192,3718,1,0,0:0:0:0:
448,192,4218,128,0,4343:0:0:0:0:
64,192,4218,1,0,0:0:0:0:
320,192,4593,128,0,4718:0:0:0:0:
64,192,4718,1,0,0:0:0:0:
192,192,4843,128,0,4968:0:0:0:0:
192,192,5218,128,0,5468:0:0:0:0:
64,192,5218,1,0,0:0:0:0:
320,192,5718,128,0,5968:0:0:0:0:
64,192,5718,1,0,0:0:0:0:
192,192,6218,128,0,6343:0:0:0:0:
320,192,6218,1,0,0:0:0:0:
64,192,6593,128,0,6718:0:0:0:0:
320,192,6718,1,0,0:0:0:0:
192,192,6843,128,0,6968:0:0:0:0:
448,192,7218,128,0,7343:0:0:0:0:
320,192,7218,1,0,0:0:0:0:
192,192,7718,128,0,7843:0:0:0:0:
320,192,7718,1,0,0:0:0:0:
448,192,8218,128,0,8343:0:0:0:0:
192,192,8218,1,0,0:0:0:0:
64,192,8593,128,0,8718:0:0:0:0:
192,192,8718,1,0,0:0:0:0:
448,192,8843,128,0,8968:0:0:0:0:
64,192,9218,128,0,9343:0:0:0:0:
192,192,9218,1,0,0:0:0:0:
320,192,9718,128,0,9843:0:0:0:0:
64,192,9718,1,0,0:0:0:0:
64,192,10218,128,0,10343:0:0:0:0:
448,192,10218,1,0,0:0:0:0:
192,192,10593,128,0,10718:0:0:0:0:
448,192,10718,1,0,0:0:0:0:
320,192,10843,128,0,10968:0:0:0:0:
320,192,11218,128,0,11343:0:0:0:0:
448,192,11218,1,0,0:0:0:0:
192,192,11718,128,0,11843:0:0:0:0:
448,192,11718,1,0,0:0:0:0:
448,192,12218,128,0,12343:0:0:0:0:
64,192,12218,1,0,0:0:0:0:
320,192,12593,128,0,12718:0:0:0:0:
64,192,12718,1,0,0:0:0:0:
192,192,12843,128,0,12968:0:0:0:0:
192,192,13218,128,0,13343:0:0:0:0:
64,192,13218,1,0,0:0:0:0:
320,192,13718,128,0,13843:0:0:0:0:
64,192,13718,1,0,0:0:0:0:
192,192,14218,128,0,14343:0:0:0:0:
320,192,14218,1,0,0:0:0:0:
448,192,14343,1,0,0:0:0:0:
320,192,14468,1,0,0:0:0:0:
64,192,14593,128,0,14718:0:0:0:0:
192,192,14593,1,0,0:0:0:0:
320,192,14718,1,0,0:0:0:0:
192,192,14843,128,0,14968:0:0:0:0:
448,192,14843,1,0,0:0:0:0:
320,192,14968,1,0,0:0:0:0:
192,192,15093,1,0,0:0:0:0:
448,192,15218,128,0,15343:0:0:0:0:
64,192,15218,1,0,0:0:0:0:
192,192,15343,1,0,0:0:0:0:
320,192,15468,1,0,0:0:0:0:
448,192,15593,1,0,0:0:0:0:
192,192,15718,128,0,15843:0:0:0:0:
320,192,15718,1,0,0:0:0:0:
448,192,15843,1,0,0:0:0:0:
64,192,15968,1,0,0:0:0:0:
320,192,16093,1,0,0:0:0:0:
192,192,16218,1,0,0:0:0:0:
320,192,16280,1,0,0:0:0:0:
448,192,16343,1,0,0:0:0:0:
64,192,16405,1,0,0:0:0:0:
192,192,16468,1,0,0:0:0:0:
320,192,16530,1,0,0:0:0:0:
192,192,16593,1,0,0:0:0:0:
448,192,16655,1,0,0:0:0:0:
320,192,16718,1,0,0:0:0:0:
192,192,16780,1,0,0:0:0:0:
64,192,16843,1,0,0:0:0:0:
192,192,16905,1,0,0:0:0:0:
320,192,16968,1,0,0:0:0:0:
448,192,17030,1,0,0:0:0:0:
64,192,17093,1,0,0:0:0:0:
192,192,17155,1,0,0:0:0:0:
320,192,17218,1,0,0:0:0:0:
192,192,17280,1,0,0:0:0:0:
64,192,17343,1,0,0:0:0:0:
448,192,17405,1,0,0:0:0:0:
320,192,17468,1,0,0:0:0:0:
192,192,17530,1,0,0:0:0:0:
64,192,17593,1,0,0:0:0:0:
448,192,17655,1,0,0:0:0:0:
192,192,17718,128,0,18155:0:0:0:0:
320,192,17718,128,0,18155:0:0:0:0:
64,192,18218,1,0,0:0:0:0:
448,192,18218,1,0,0:0:0:0:
192,192,18218,1,0,0:0:0:0:
320,192,18343,1,0,0:0:0:0:
64,192,18468,1,0,0:0:0:0:
448,192,18468,1,0,0:0:0:0:
192,192,18593,1,0,0:0:0:0:
64,192,18718,1,0,0:0:0:0:
448,192,18718,1,0,0:0:0:0:
320,192,18718,1,0,0:0:0:0:
192,192,18843,1,0,0:0:0:0:
448,192,18968,1,0,0:0:0:0:
64,192,19093,1,0,0:0:0:0:
320,192,19093,1,0,0:0:0:0:
448,192,19218,1,0,0:0:0:0:
320,192,19218,1,0,0:0:0:0:
192,192,19218,1,0,0:0:0:0:
64,192,19343,128,0,19468:0:0:0:0:
192,192,19343,1,0,0:0:0:0:
448,192,19468,1,0,0:0:0:0:
320,192,19593,1,0,0:0:0:0:
192,192,19593,1,0,0:0:0:0:
192,192,19718,1,0,0:0:0:0:
448,192,19718,1,0,0:0:0:0:
64,192,19718,1,0,0:0:0:0:
320,192,19843,1,0,0:0:0:0:
192,192,19968,1,0,0:0:0:0:
64,192,20218,1,0,0:0:0:0:
448,192,20218,1,0,0:0:0:0:
320,192,20218,1,0,0:0:0:0:
192,192,20343,1,0,0:0:0:0:
64,192,20468,1,0,0:0:0:0:
448,192,20468,1,0,0:0:0:0:
320,192,20593,1,0,0:0:0:0:
64,192,20718,1,0,0:0:0:0:
448,192,20718,1,0,0:0:0:0:
192,192,20718,1,0,0:0:0:0:
320,192,20843,1,0,0:0:0:0:
64,192,20968,1,0,0:0:0:0:
192,192,21093,1,0,0:0:0:0:
448,192,21093,1,0,0:0:0:0:
192,192,21218,1,0,0:0:0:0:
64,192,21218,1,0,0:0:0:0:
320,192,21218,1,0,0:0:0:0:
448,192,21343,128,0,21468:0:0:0:0:
320,192,21343,1,0,0:0:0:0:
64,192,21468,1,0,0:0:0:0:
320,192,21593,1,0,0:0:0:0:
192,192,21593,1,0,0:0:0:0:
320,192,21718,1,0,0:0:0:0:
448,192,21718,1,0,0:0:0:0:
64,192,21718,1,0,0:0:0:0:
192,192,21843,1,0,0:0:0:0:
320,192,21968,1,0,0:0:0:0:
192,192,22218,1,0,0:0:0:0:
320,192,22218,1,0,0:0:0:0:
64,192,22218,1,0,0:0:0:0:
448,192,22343,1,0,0:0:0:0:
320,192,22468,1,0,0:0:0:0:
64,192,22468,1,0,0:0:0:0:
192,192,22593,1,0,0:0:0:0:
320,192,22718,1,0,0:0:0:0:
64,192,22718,1,0,0:0:0:0:
448,192,22718,1,0,0:0:0:0:
192,192,22843,1,0,0:0:0:0:
320,192,22968,1,0,0:0:0:0:
192,192,23093,1,0,0:0:0:0:
64,192,23093,1,0,0:0:0:0:
192,192,23218,1,0,0:0:0:0:
448,192,23218,1,0,0:0:0:0:
320,192,23218,1,0,0:0:0:0:
320,192,23343,1,0,0:0:0:0:
64,192,23343,128,0,23468:0:0:0:0:
448,192,23468,1,0,0:0:0:0:
64,192,23593,1,0,0:0:0:0:
320,192,23593,1,0,0:0:0:0:
320,192,23718,1,0,0:0:0:0:
448,192,23718,1,0,0:0:0:0:
192,192,23718,1,0,0:0:0:0:
64,192,23843,1,0,0:0:0:0:
192,192,23968,1,0,0:0:0:0:
64,192,24218,1,0,0:0:0:0:
448,192,24218,1,0,0:0:0:0:
320,192,24218,1,0,0:0:0:0:
192,192,24343,1,0,0:0:0:0:
64,192,24468,1,0,0:0:0:0:
448,192,24468,1,0,0:0:0:0:
192,192,24593,1,0,0:0:0:0:
64,192,24718,1,0,0:0:0:0:
448,192,24718,1,0,0:0:0:0:
320,192,24718,1,0,0:0:0:0:
192,192,24843,1,0,0:0:0:0:
320,192,24968,1,0,0:0:0:0:
448,192,25093,1,0,0:0:0:0:
192,192,25093,1,0,0:0:0:0:
320,192,25218,1,0,0:0:0:0:
64,192,25218,1,0,0:0:0:0:
192,192,25218,1,0,0:0:0:0:
448,192,25343,128,0,25468:0:0:0:0:
320,192,25343,1,0,0:0:0:0:
64,192,25468,1,0,0:0:0:0:
320,192,25593,1,0,0:0:0:0:
192,192,25593,1,0,0:0:0:0:
192,192,25718,1,0,0:0:0:0:
448,192,25718,1,0,0:0:0:0:
64,192,25718,1,0,0:0:0:0:
320,192,25843,1,0,0:0:0:0:
448,192,25843,1,0,0:0:0:0:
192,192,25968,1,0,0:0:0:0:
64,192,26218,1,0,0:0:0:0:
448,192,26218,1,0,0:0:0:0:
192,192,26218,1,0,0:0:0:0:
320,192,26343,1,0,0:0:0:0:
64,192,26468,1,0,0:0:0:0:
448,192,26468,1,0,0:0:0:0:
192,192,26593,1,0,0:0:0:0:
64,192,26718,1,0,0:0:0:0:
448,192,26718,1,0,0:0:0:0:
320,192,26718,1,0,0:0:0:0:
192,192,26843,1,0,0:0:0:0:
448,192,26968,1,0,0:0:0:0:
64,192,27093,1,0,0:0:0:0:
320,192,27093,1,0,0:0:0:0:
448,192,27218,1,0,0:0:0:0:
320,192,27218,1,0,0:0:0:0:
192,192,27218,1,0,0:0:0:0:
64,192,27343,128,0,27468:0:0:0:0:
192,192,27343,1,0,0:0:0:0:
448,192,27468,1,0,0:0:0:0:
320,192,27593,1,0,0:0:0:0:
192,192,27593,1,0,0:0:0:0:
192,192,27718,1,0,0:0:0:0:
448,192,27718,1,0,0:0:0:0:
64,192,27718,1,0,0:0:0:0:
320,192,27843,1,0,0:0:0:0:
192,192,27968,1,0,0:0:0:0:
64,192,28218,1,0,0:0:0:0:
448,192,28218,1,0,0:0:0:0:
320,192,28218,1,0,0:0:0:0:
192,192,28343,1,0,0:0:0:0:
64,192,28468,1,0,0:0:0:0:
448,192,28468,1,0,0:0:0:0:
320,192,28593,1,0,0:0:0:0:
64,192,28718,1,0,0:0:0:0:
448,192,28718,1,0,0:0:0:0:
192,192,28718,1,0,0:0:0:0:
320,192,28843,1,0,0:0:0:0:
64,192,28968,1,0,0:0:0:0:
192,192,29093,1,0,0:0:0:0:
448,192,29093,1,0,0:0:0:0:
192,192,29218,1,0,0:0:0:0:
64,192,29218,1,0,0:0:0:0:
320,192,29218,1,0,0:0:0:0:
448,192,29343,128,0,29468:0:0:0:0:
320,192,29343,1,0,0:0:0:0:
64,192,29468,1,0,0:0:0:0:
320,192,29593,1,0,0:0:0:0:
192,192,29593,1,0,0:0:0:0:
320,192,29718,1,0,0:0:0:0:
448,192,29718,1,0,0:0:0:0:
64,192,29718,1,0,0:0:0:0:
192,192,29843,1,0,0:0:0:0:
320,192,29968,1,0,0:0:0:0:
192,192,30218,1,0,0:0:0:0:
320,192,30218,1,0,0:0:0:0:
64,192,30218,1,0,0:0:0:0:
448,192,30343,1,0,0:0:0:0:
320,192,30468,1,0,0:0:0:0:
64,192,30468,1,0,0:0:0:0:
192,192,30593,1,0,0:0:0:0:
320,192,30718,1,0,0:0:0:0:
64,192,30718,1,0,0:0:0:0:
448,192,30718,1,0,0:0:0:0:
192,192,30843,1,0,0:0:0:0:
320,192,30968,1,0,0:0:0:0:
448,192,30968,128,0,31218:0:0:0:0:
192,192,31093,1,0,0:0:0:0:
64,192,31093,1,0,0:0:0:0:
320,192,31218,128,0,31468:0:0:0:0:
192,192,31343,1,0,0:0:0:0:
64,192,31343,1,0,0:0:0:0:
448,192,31468,128,0,31718:0:0:0:0:
64,192,31593,1,0,0:0:0:0:
192,192,31593,1,0,0:0:0:0:
320,192,31718,1,0,0:0:0:0:
192,192,31718,1,0,0:0:0:0:
64,192,31843,1,0,0:0:0:0:
192,192,31968,1,0,0:0:0:0:
64,192,32218,1,0,0:0:0:0:
448,192,32218,1,0,0:0:0:0:
320,192,32218,1,0,0:0:0:0:
192,192,32343,1,0,0:0:0:0:
64,192,32468,1,0,0:0:0:0:
448,192,32468,1,0,0:0:0:0:
192,192,32593,1,0,0:0:0:0:
64,192,32718,1,0,0:0:0:0:
448,192,32718,1,0,0:0:0:0:
320,192,32718,1,0,0:0:0:0:
192,192,32843,1,0,0:0:0:0:
320,192,32968,128,0,33218:0:0:0:0:
192,192,33093,1,0,0:0:0:0:
64,192,33093,1,0,0:0:0:0:
448,192,33218,128,0,33405:0:0:0:0:
320,192,33343,1,0,0:0:0:0:
192,192,33343,1,0,0:0:0:0:
448,192,33468,128,0,33655:0:0:0:0:
64,192,33468,1,0,0:0:0:0:
320,192,33593,1,0,0:0:0:0:
192,192,33593,1,0,0:0:0:0:
192,192,33718,1,0,0:0:0:0:
64,192,33718,1,0,0:0:0:0:
320,192,33843,1,0,0:0:0:0:
448,192,33843,1,0,0:0:0:0:
192,192,33968,1,0,0:0:0:0:
192,192,34218,1,0,0:0:0:0:
448,192,34218,1,0,0:0:0:0:
64,192,34218,1,0,0:0:0:0:
320,192,34343,1,0,0:0:0:0:
448,192,34468,1,0,0:0:0:0:
64,192,34468,1,0,0:0:0:0:
192,192,34593,1,0,0:0:0:0:
320,192,34718,1,0,0:0:0:0:
448,192,34718,1,0,0:0:0:0:
64,192,34718,1,0,0:0:0:0:
192,192,34843,1,0,0:0:0:0:
448,192,34968,1,0,0:0:0:0:
320,192,35093,1,0,0:0:0:0:
64,192,35093,1,0,0:0:0:0:
192,192,35218,1,0,0:0:0:0:
320,192,35218,1,0,0:0:0:0:
448,192,35218,1,0,0:0:0:0:
192,192,35343,1,0,0:0:0:0:
64,192,35343,128,0,35468:0:0:0:0:
448,192,35468,1,0,0:0:0:0:
192,192,35593,1,0,0:0:0:0:
320,192,35593,1,0,0:0:0:0:
64,192,35718,1,0,0:0:0:0:
448,192,35718,1,0,0:0:0:0:
192,192,35718,1,0,0:0:0:0:
320,192,35843,1,0,0:0:0:0:
192,192,35968,1,0,0:0:0:0:
320,192,36218,1,0,0:0:0:0:
448,192,36218,1,0,0:0:0:0:
64,192,36218,1,0,0:0:0:0:
192,192,36343,1,0,0:0:0:0:
448,192,36468,1,0,0:0:0:0:
64,192,36468,1,0,0:0:0:0:
320,192,36593,1,0,0:0:0:0:
192,192,36718,1,0,0:0:0:0:
448,192,36718,1,0,0:0:0:0:
64,192,36718,1,0,0:0:0:0:
320,192,36843,1,0,0:0:0:0:
64,192,36968,1,0,0:0:0:0:
448,192,37093,1,0,0:0:0:0:
192,192,37093,1,0,0:0:0:0:
320,192,37218,1,0,0:0:0:0:
64,192,37218,1,0,0:0:0:0:
192,192,37218,1,0,0:0:0:0:
320,192,37343,1,0,0:0:0:0:
448,192,37343,128,0,37468:0:0:0:0:
64,192,37468,1,0,0:0:0:0:
192,192,37593,1,0,0:0:0:0:
320,192,37593,1,0,0:0:0:0:
64,192,37718,1,0,0:0:0:0:
448,192,37718,1,0,0:0:0:0:
320,192,37718,1,0,0:0:0:0:
192,192,37843,1,0,0:0:0:0:
320,192,37968,1,0,0:0:0:0:
64,192,38218,1,0,0:0:0:0:
320,192,38218,1,0,0:0:0:0:
192,192,38218,1,0,0:0:0:0:
448,192,38343,1,0,0:0:0:0:
64,192,38468,1,0,0:0:0:0:
320,192,38468,1,0,0:0:0:0:
192,192,38593,1,0,0:0:0:0:
448,192,38718,1,0,0:0:0:0:
64,192,38718,1,0,0:0:0:0:
320,192,38718,1,0,0:0:0:0:
192,192,38843,1,0,0:0:0:0:
320,192,38968,1,0,0:0:0:0:
64,192,39093,1,0,0:0:0:0:
192,192,39093,1,0,0:0:0:0:
320,192,39218,1,0,0:0:0:0:
448,192,39218,1,0,0:0:0:0:
192,192,39218,1,0,0:0:0:0:
64,192,39343,128,0,39468:0:0:0:0:
320,192,39343,1,0,0:0:0:0:
448,192,39468,1,0,0:0:0:0:
320,192,39593,1,0,0:0:0:0:
64,192,39593,1,0,0:0:0:0:
192,192,39718,1,0,0:0:0:0:
448,192,39718,1,0,0:0:0:0:
320,192,39718,1,0,0:0:0:0:
64,192,39843,1,0,0:0:0:0:
192,192,39968,1,0,0:0:0:0:
320,192,40218,1,0,0:0:0:0:
448,192,40218,1,0,0:0:0:0:
64,192,40218,1,0,0:0:0:0:
192,192,40343,1,0,0:0:0:0:
448,192,40468,1,0,0:0:0:0:
64,192,40468,1,0,0:0:0:0:
320,192,40593,1,0,0:0:0:0:
192,192,40718,1,0,0:0:0:0:
448,192,40718,1,0,0:0:0:0:
64,192,40718,1,0,0:0:0:0:
320,192,40843,1,0,0:0:0:0:
192,192,40968,128,0,41218:0:0:0:0:
448,192,41093,1,0,0:0:0:0:
320,192,41093,1,0,0:0:0:0:
320,192,41218,128,0,41468:0:0:0:0:
64,192,41343,1,0,0:0:0:0:
192,192,41343,1,0,0:0:0:0:
448,192,41468,128,0,41655:0:0:0:0:
192,192,41593,1,0,0:0:0:0:
64,192,41593,1,0,0:0:0:0:
320,192,41718,128,0,41905:0:0:0:0:
192,192,41718,1,0,0:0:0:0:
64,192,41843,1,0,0:0:0:0:
448,192,41843,1,0,0:0:0:0:
320,192,41968,1,0,0:0:0:0:
448,192,41968,128,0,42343:0:0:0:0:
64,192,42218,1,0,0:0:0:0:
192,192,42218,1,0,0:0:0:0:
320,192,42343,1,0,0:0:0:0:
64,192,42468,1,0,0:0:0:0:
448,192,42468,1,0,0:0:0:0:
192,192,42593,1,0,0:0:0:0:
64,192,42718,1,0,0:0:0:0:
448,192,42718,1,0,0:0:0:0:
320,192,42718,1,0,0:0:0:0:
192,192,42843,1,0,0:0:0:0:
448,192,42968,1,0,0:0:0:0:
64,192,43093,1,0,0:0:0:0:
320,192,43093,1,0,0:0:0:0:
448,192,43218,1,0,0:0:0:0:
320,192,43218,1,0,0:0:0:0:
192,192,43218,1,0,0:0:0:0:
64,192,43343,128,0,43468:0:0:0:0:
192,192,43343,1,0,0:0:0:0:
448,192,43468,1,0,0:0:0:0:
320,192,43593,1,0,0:0:0:0:
192,192,43593,1,0,0:0:0:0:
192,192,43718,1,0,0:0:0:0:
448,192,43718,1,0,0:0:0:0:
64,192,43718,1,0,0:0:0:0:
320,192,43843,1,0,0:0:0:0:
192,192,43968,1,0,0:0:0:0:
64,192,44218,1,0,0:0:0:0:
448,192,44218,1,0,0:0:0:0:
320,192,44218,1,0,0:0:0:0:
192,192,44343,1,0,0:0:0:0:
64,192,44468,1,0,0:0:0:0:
448,192,44468,1,0,0:0:0:0:
320,192,44593,1,0,0:0:0:0:
64,192,44718,1,0,0:0:0:0:
448,192,44718,1,0,0:0:0:0:
192,192,44718,1,0,0:0:0:0:
320,192,44843,1,0,0:0:0:0:
64,192,44968,1,0,0:0:0:0:
192,192,45093,1,0,0:0:0:0:
448,192,45093,1,0,0:0:0:0:
192,192,45218,1,0,0:0:0:0:
64,192,45218,1,0,0:0:0:0:
320,192,45218,1,0,0:0:0:0:
448,192,45343,128,0,45468:0:0:0:0:
320,192,45343,1,0,0:0:0:0:
64,192,45468,1,0,0:0:0:0:
320,192,45593,1,0,0:0:0:0:
192,192,45593,1,0,0:0:0:0:
320,192,45718,1,0,0:0:0:0:
448,192,45718,1,0,0:0:0:0:
64,192,45718,1,0,0:0:0:0:
192,192,45843,1,0,0:0:0:0:
448,192,45968,1,0,0:0:0:0:
320,192,45999,1,0,0:0:0:0:
192,192,46030,1,0,0:0:0:0:
64,192,46061,1,0,0:0:0:0:
448,192,46093,1,0,0:0:0:0:
320,192,46124,1,0,0:0:0:0:
192,192,46155,1,0,0:0:0:0:
64,192,46186,1,0,0:0:0:0:
320,192,46218,1,0,0:0:0:0:
448,192,46343,1,0,0:0:0:0:
320,192,46468,1,0,0:0:0:0:
192,192,46593,1,0,0:0:0:0:
64,192,46718,1,0,0:0:0:0:
320,192,46718,1,0,0:0:0:0:
192,192,46843,1,0,0:0:0:0:
320,192,46968,1,0,0:0:0:0:
448,192,47093,1,0,0:0:0:0:
64,192,47093,1,0,0:0:0:0:
320,192,47218,1,0,0:0:0:0:
192,192,47343,1,0,0:0:0:0:
448,192,47343,1,0,0:0:0:0:
64,192,47468,1,0,0:0:0:0:
192,192,47593,1,0,0:0:0:0:
448,192,47593,1,0,0:0:0:0:
320,192,47718,1,0,0:0:0:0:
64,192,47718,1,0,0:0:0:0:
448,192,47843,1,0,0:0:0:0:
320,192,47968,1,0,0:0:0:0:
192,192,48093,1,0,0:0:0:0:
64,192,48218,1,0,0:0:0:0:
192,192,48259,1,0,0:0:0:0:
320,192,48301,1,0,0:0:0:0:
448,192,48343,1,0,0:0:0:0:
64,192,48384,1,0,0:0:0:0:
192,192,48426,1,0,0:0:0:0:
320,192,48468,1,0,0:0:0:0:
448,192,48509,1,0,0:0:0:0:
64,192,48551,1,0,0:0:0:0:
192,192,48593,1,0,0:0:0:0:
320,192,48634,1,0,0:0:0:0:
448,192,48676,1,0,0:0:0:0:
192,192,48718,1,0,0:0:0:0:
64,192,48759,1,0,0:0:0:0:
320,192,48801,1,0,0:0:0:0:
448,192,48843,1,0,0:0:0:0:
192,192,48884,1,0,0:0:0:0:
64,192,48926,1,0,0:0:0:0:
320,192,48968,1,0,0:0:0:0:
448,192,49009,1,0,0:0:0:0:
192,192,49051,1,0,0:0:0:0:
64,192,49093,1,0,0:0:0:0:
320,192,49134,1,0,0:0:0:0:
448,192,49176,1,0,0:0:0:0:
192,192,49218,1,0,0:0:0:0:
64,192,49218,1,0,0:0:0:0:
320,192,49343,1,0,0:0:0:0:
448,192,49343,1,0,0:0:0:0:
64,192,49468,1,0,0:0:0:0:
192,192,49593,1,0,0:0:0:0:
320,192,49593,1,0,0:0:0:0:
64,192,49718,1,0,0:0:0:0:
448,192,49718,1,0,0:0:0:0:
192,192,49759,1,0,0:0:0:0:
320,192,49801,1,0,0:0:0:0:
448,192,49843,1,0,0:0:0:0:
64,192,49884,1,0,0:0:0:0:
192,192,49926,1,0,0:0:0:0:
320,192,49968,1,0,0:0:0:0:
448,192,50009,1,0,0:0:0:0:
64,192,50051,1,0,0:0:0:0:
192,192,50093,1,0,0:0:0:0:
320,192,50134,1,0,0:0:0:0:
448,192,50176,1,0,0:0:0:0:
64,192,50218,5,0,0:0:0:0:
192,192,50218,1,0,0:0:0:0:
448,192,50343,1,0,0:0:0:0:
64,192,50593,1,0,0:0:0:0:
448,192,50718,1,0,0:0:0:0:
320,192,50718,1,0,0:0:0:0:
64,192,50968,1,0,0:0:0:0:
448,192,51093,1,0,0:0:0:0:
192,192,51218,1,0,0:0:0:0:
64,192,51343,1,0,0:0:0:0:
448,192,51468,1,0,0:0:0:0:
192,192,51593,1,0,0:0:0:0:
320,192,51718,1,0,0:0:0:0:
64,192,51718,1,0,0:0:0:0:
192,192,51968,1,0,0:0:0:0:
64,192,52218,1,0,0:0:0:0:
320,192,52343,1,0,0:0:0:0:
192,192,52468,1,0,0:0:0:0:
448,192,52593,1,0,0:0:0:0:
64,192,52718,1,0,0:0:0:0:
192,192,52718,1,0,0:0:0:0:
64,192,52968,1,0,0:0:0:0:
448,192,53093,1,0,0:0:0:0:
192,192,53343,1,0,0:0:0:0:
448,192,53468,1,0,0:0:0:0:
320,192,53718,1,0,0:0:0:0:
448,192,53718,1,0,0:0:0:0:
192,192,53843,1,0,0:0:0:0:
320,192,53968,1,0,0:0:0:0:
64,192,54093,1,0,0:0:0:0:
192,192,54218,1,0,0:0:0:0:
448,192,54343,1,0,0:0:0:0:
192,192,54468,1,0,0:0:0:0:
64,192,54593,1,0,0:0:0:0:
448,192,54718,1,0,0:0:0:0:
320,192,54718,1,0,0:0:0:0:
64,192,54968,1,0,0:0:0:0:
448,192,55093,1,0,0:0:0:0:
64,192,55343,1,0,0:0:0:0:
448,192,55468,1,0,0:0:0:0:
448,192,55718,1,0,0:0:0:0:
64,192,55843,1,0,0:0:0:0:
448,192,55968,1,0,0:0:0:0:
192,192,56093,1,0,0:0:0:0:
64,192,56218,1,0,0:0:0:0:
448,192,56218,1,0,0:0:0:0:
320,192,56343,1,0,0:0:0:0:
192,192,56468,1,0,0:0:0:0:
64,192,56593,1,0,0:0:0:0:
192,192,56718,1,0,0:0:0:0:
448,192,56718,1,0,0:0:0:0:
64,192,56968,1,0,0:0:0:0:
448,192,57093,1,0,0:0:0:0:
64,192,57343,1,0,0:0:0:0:
448,192,57468,1,0,0:0:0:0:
64,192,57718,1,0,0:0:0:0:
448,192,57718,1,0,0:0:0:0:
448,192,57968,1,0,0:0:0:0:
320,192,58093,1,0,0:0:0:0:
64,192,58218,1,0,0:0:0:0:
320,192,58343,1,0,0:0:0:0:
192,192,58468,1,0,0:0:0:0:
448,192,58593,1,0,0:0:0:0:
320,192,58718,1,0,0:0:0:0:
192,192,58718,1,0,0:0:0:0:
64,192,58968,1,0,0:0:0:0:
192,192,59093,1,0,0:0:0:0:
448,192,59343,1,0,0:0:0:0:
64,192,59343,1,0,0:0:0:0:
320,192,59468,1,0,0:0:0:0:
192,192,59718,1,0,0:0:0:0:
448,192,59718,1,0,0:0:0:0:
320,192,59843,1,0,0:0:0:0:
64,192,59968,1,0,0:0:0:0:
320,192,60218,1,0,0:0:0:0:
448,192,60343,1,0,0:0:0:0:
192,192,60593,1,0,0:0:0:0:
320,192,60718,1,0,0:0:0:0:
448,192,60718,1,0,0:0:0:0:
64,192,60968,1,0,0:0:0:0:
448,192,61093,1,0,0:0:0:0:
192,192,61343,1,0,0:0:0:0:
448,192,61468,1,0,0:0:0:0:
320,192,61718,1,0,0:0:0:0:
192,192,61843,1,0,0:0:0:0:
320,192,61968,1,0,0:0:0:0:
64,192,62093,1,0,0:0:0:0:
192,192,62218,1,0,0:0:0:0:
448,192,62343,1,0,0:0:0:0:
192,192,62593,1,0,0:0:0:0:
448,192,62718,1,0,0:0:0:0:
64,192,62718,1,0,0:0:0:0:
192,192,62968,1,0,0:0:0:0:
448,192,63093,1,0,0:0:0:0:
320,192,63343,1,0,0:0:0:0:
448,192,63468,1,0,0:0:0:0:
448,192,63718,1,0,0:0:0:0:
192,192,63718,1,0,0:0:0:0:
64,192,63843,1,0,0:0:0:0:
448,192,63968,1,0,0:0:0:0:
320,192,64093,1,0,0:0:0:0:
192,192,64218,1,0,0:0:0:0:
448,192,64343,1,0,0:0:0:0:
192,192,64593,1,0,0:0:0:0:
448,192,64718,1,0,0:0:0:0:
320,192,64718,1,0,0:0:0:0:
192,192,64968,1,0,0:0:0:0:
448,192,65093,1,0,0:0:0:0:
192,192,65343,1,0,0:0:0:0:
448,192,65468,1,0,0:0:0:0:
64,192,65593,1,0,0:0:0:0:
320,192,65718,1,0,0:0:0:0:
448,192,65718,1,0,0:0:0:0:
192,192,65843,1,0,0:0:0:0:
320,192,65968,1,0,0:0:0:0:
64,192,66093,1,0,0:0:0:0:
64,192,66218,5,0,0:0:0:0:
320,192,66218,1,0,0:0:0:0:
192,192,66218,1,0,0:0:0:0:
448,192,66218,1,0,0:0:0:0:
448,192,66343,1,0,0:0:0:0:
64,192,66593,1,0,0:0:0:0:
448,192,66718,1,0,0:0:0:0:
320,192,66718,1,0,0:0:0:0:
64,192,66968,1,0,0:0:0:0:
448,192,67093,1,0,0:0:0:0:
64,192,67343,1,0,0:0:0:0:
448,192,67468,1,0,0:0:0:0:
192,192,67593,1,0,0:0:0:0:
320,192,67718,1,0,0:0:0:0:
64,192,67718,1,0,0:0:0:0:
448,192,67843,1,0,0:0:0:0:
192,192,67968,1,0,0:0:0:0:
320,192,68093,1,0,0:0:0:0:
64,192,68218,1,0,0:0:0:0:
320,192,68343,1,0,0:0:0:0:
192,192,68468,1,0,0:0:0:0:
448,192,68593,1,0,0:0:0:0:
64,192,68718,1,0,0:0:0:0:
192,192,68718,1,0,0:0:0:0:
64,192,68968,1,0,0:0:0:0:
448,192,69093,1,0,0:0:0:0:
192,192,69343,1,0,0:0:0:0:
448,192,69468,1,0,0:0:0:0:
320,192,69718,1,0,0:0:0:0:
448,192,69718,1,0,0:0:0:0:
192,192,69843,1,0,0:0:0:0:
320,192,69968,1,0,0:0:0:0:
64,192,70093,1,0,0:0:0:0:
192,192,70218,1,0,0:0:0:0:
448,192,70343,1,0,0:0:0:0:
192,192,70468,1,0,0:0:0:0:
64,192,70593,1,0,0:0:0:0:
448,192,70718,1,0,0:0:0:0:
320,192,70718,1,0,0:0:0:0:
64,192,70968,1,0,0:0:0:0:
448,192,71093,1,0,0:0:0:0:
64,192,71343,1,0,0:0:0:0:
448,192,71468,1,0,0:0:0:0:
448,192,71718,1,0,0:0:0:0:
64,192,71843,1,0,0:0:0:0:
448,192,71968,1,0,0:0:0:0:
192,192,72093,1,0,0:0:0:0:
64,192,72218,1,0,0:0:0:0:
448,192,72218,1,0,0:0:0:0:
320,192,72343,1,0,0:0:0:0:
192,192,72468,1,0,0:0:0:0:
64,192,72593,1,0,0:0:0:0:
192,192,72718,1,0,0:0:0:0:
448,192,72718,1,0,0:0:0:0:
64,192,72968,1,0,0:0:0:0:
448,192,73093,1,0,0:0:0:0:
64,192,73343,1,0,0:0:0:0:
448,192,73468,1,0,0:0:0:0:
64,192,73718,1,0,0:0:0:0:
448,192,73718,1,0,0:0:0:0:
192,192,73843,1,0,0:0:0:0:
448,192,73968,1,0,0:0:0:0:
320,192,74093,1,0,0:0:0:0:
64,192,74218,1,0,0:0:0:0:
320,192,74343,1,0,0:0:0:0:
192,192,74468,1,0,0:0:0:0:
448,192,74593,1,0,0:0:0:0:
320,192,74718,1,0,0:0:0:0:
192,192,74718,1,0,0:0:0:0:
64,192,74968,1,0,0:0:0:0:
192,192,75093,1,0,0:0:0:0:
448,192,75343,1,0,0:0:0:0:
64,192,75343,1,0,0:0:0:0:
320,192,75468,1,0,0:0:0:0:
64,192,75593,1,0,0:0:0:0:
192,192,75718,1,0,0:0:0:0:
448,192,75718,1,0,0:0:0:0:
320,192,75843,1,0,0:0:0:0:
64,192,75968,1,0,0:0:0:0:
448,192,76093,1,0,0:0:0:0:
320,192,76218,1,0,0:0:0:0:
192,192,76218,1,0,0:0:0:0:
448,192,76343,1,0,0:0:0:0:
192,192,76593,1,0,0:0:0:0:
320,192,76718,1,0,0:0:0:0:
448,192,76718,1,0,0:0:0:0:
64,192,76968,1,0,0:0:0:0:
448,192,77093,1,0,0:0:0:0:
192,192,77343,1,0,0:0:0:0:
448,192,77468,1,0,0:0:0:0:
320,192,77718,1,0,0:0:0:0:
448,192,77718,1,0,0:0:0:0:
192,192,77843,1,0,0:0:0:0:
320,192,77968,1,0,0:0:0:0:
64,192,78093,1,0,0:0:0:0:
192,192,78218,1,0,0:0:0:0:
448,192,78343,1,0,0:0:0:0:
320,192,78468,1,0,0:0:0:0:
192,192,78593,1,0,0:0:0:0:
448,192,78718,1,0,0:0:0:0:
64,192,78718,1,0,0:0:0:0:
192,192,78968,1,0,0:0:0:0:
448,192,79093,1,0,0:0:0:0:
320,192,79343,1,0,0:0:0:0:
448,192,79468,1,0,0:0:0:0:
448,192,79718,1,0,0:0:0:0:
192,192,79718,1,0,0:0:0:0:
64,192,79843,1,0,0:0:0:0:
448,192,79968,1,0,0:0:0:0:
320,192,80093,1,0,0:0:0:0:
192,192,80218,1,0,0:0:0:0:
448,192,80343,1,0,0:0:0:0:
64,192,80468,1,0,0:0:0:0:
192,192,80593,1,0,0:0:0:0:
448,192,80718,1,0,0:0:0:0:
320,192,80718,1,0,0:0:0:0:
192,192,80968,1,0,0:0:0:0:
448,192,81093,1,0,0:0:0:0:
192,192,81343,1,0,0:0:0:0:
448,192,81468,1,0,0:0:0:0:
64,192,81593,1,0,0:0:0:0:
320,192,81718,1,0,0:0:0:0:
448,192,81718,1,0,0:0:0:0:
192,192,81843,1,0,0:0:0:0:
320,192,81968,1,0,0:0:0:0:
64,192,82093,1,0,0:0:0:0:
192,192,82124,1,0,0:0:0:0:
320,192,82155,1,0,0:0:0:0:
448,192,82186,1,0,0:0:0:0:
64,192,82218,1,0,0:0:0:0:
192,192,82218,1,0,0:0:0:0:
448,192,82343,1,0,0:0:0:0:
192,192,82343,1,0,0:0:0:0:
320,192,82468,1,0,0:0:0:0:
64,192,82593,1,0,0:0:0:0:
448,192,82593,1,0,0:0:0:0:
320,192,82718,1,0,0:0:0:0:
448,192,82718,1,0,0:0:0:0:
192,192,82843,1,0,0:0:0:0:
64,192,82968,1,0,0:0:0:0:
320,192,82968,1,0,0:0:0:0:
448,192,83093,1,0,0:0:0:0:
64,192,83093,1,0,0:0:0:0:
320,192,83218,1,0,0:0:0:0:
64,192,83343,1,0,0:0:0:0:
448,192,83343,1,0,0:0:0:0:
448,192,83468,1,0,0:0:0:0:
320,192,83468,1,0,0:0:0:0:
192,192,83593,1,0,0:0:0:0:
64,192,83718,1,0,0:0:0:0:
320,192,83718,1,0,0:0:0:0:
320,192,83843,1,0,0:0:0:0:
192,192,83968,1,0,0:0:0:0:
448,192,83968,1,0,0:0:0:0:
192,192,84093,1,0,0:0:0:0:
64,192,84218,1,0,0:0:0:0:
448,192,84218,1,0,0:0:0:0:
192,192,84343,1,0,0:0:0:0:
448,192,84343,1,0,0:0:0:0:
64,192,84468,1,0,0:0:0:0:
448,192,84593,1,0,0:0:0:0:
192,192,84593,1,0,0:0:0:0:
192,192,84718,1,0,0:0:0:0:
64,192,84718,1,0,0:0:0:0:
320,192,84843,1,0,0:0:0:0:
64,192,84968,1,0,0:0:0:0:
448,192,84968,1,0,0:0:0:0:
192,192,85093,1,0,0:0:0:0:
448,192,85093,1,0,0:0:0:0:
64,192,85218,1,0,0:0:0:0:
192,192,85343,1,0,0:0:0:0:
448,192,85343,1,0,0:0:0:0:
448,192,85468,1,0,0:0:0:0:
64,192,85468,1,0,0:0:0:0:
192,192,85593,1,0,0:0:0:0:
448,192,85718,1,0,0:0:0:0:
320,192,85718,1,0,0:0:0:0:
64,192,85718,1,0,0:0:0:0:
192,192,85843,1,0,0:0:0:0:
448,192,85843,1,0,0:0:0:0:
320,192,85968,1,0,0:0:0:0:
64,192,85968,1,0,0:0:0:0:
448,192,86093,1,0,0:0:0:0:
192,192,86093,1,0,0:0:0:0:
320,192,86218,1,0,0:0:0:0:
64,192,86218,1,0,0:0:0:0:
64,192,86343,1,0,0:0:0:0:
320,192,86343,1,0,0:0:0:0:
192,192,86468,1,0,0:0:0:0:
320,192,86593,1,0,0:0:0:0:
448,192,86593,1,0,0:0:0:0:
320,192,86718,1,0,0:0:0:0:
448,192,86718,1,0,0:0:0:0:
192,192,86843,1,0,0:0:0:0:
64,192,86968,1,0,0:0:0:0:
320,192,86968,1,0,0:0:0:0:
448,192,87093,1,0,0:0:0:0:
64,192,87093,1,0,0:0:0:0:
320,192,87218,1,0,0:0:0:0:
64,192,87343,1,0,0:0:0:0:
192,192,87343,1,0,0:0:0:0:
64,192,87468,1,0,0:0:0:0:
192,192,87468,1,0,0:0:0:0:
320,192,87593,1,0,0:0:0:0:
448,192,87718,1,0,0:0:0:0:
192,192,87718,1,0,0:0:0:0:
64,192,87843,1,0,0:0:0:0:
192,192,87843,1,0,0:0:0:0:
448,192,87968,1,0,0:0:0:0:
320,192,87968,1,0,0:0:0:0:
192,192,88093,1,0,0:0:0:0:
64,192,88093,1,0,0:0:0:0:
64,192,88218,1,0,0:0:0:0:
320,192,88218,1,0,0:0:0:0:
320,192,88343,1,0,0:0:0:0:
192,192,88343,1,0,0:0:0:0:
192,192,88468,1,0,0:0:0:0:
64,192,88593,1,0,0:0:0:0:
448,192,88593,1,0,0:0:0:0:
448,192,88718,1,0,0:0:0:0:
192,192,88718,1,0,0:0:0:0:
64,192,88843,1,0,0:0:0:0:
192,192,88968,1,0,0:0:0:0:
320,192,88968,1,0,0:0:0:0:
448,192,89093,1,0,0:0:0:0:
320,192,89093,1,0,0:0:0:0:
192,192,89218,1,0,0:0:0:0:
64,192,89218,1,0,0:0:0:0:
64,192,89343,1,0,0:0:0:0:
448,192,89468,1,0,0:0:0:0:
192,192,89468,1,0,0:0:0:0:
320,192,89593,1,0,0:0:0:0:
64,192,89593,1,0,0:0:0:0:
448,192,89718,1,0,0:0:0:0:
64,192,89718,1,0,0:0:0:0:
192,192,89843,1,0,0:0:0:0:
320,192,89843,1,0,0:0:0:0:
448,192,89968,1,0,0:0:0:0:
64,192,89968,1,0,0:0:0:0:
320,192,90093,1,0,0:0:0:0:
192,192,90093,1,0,0:0:0:0:
64,192,90218,1,0,0:0:0:0:
192,192,90218,1,0,0:0:0:0:
448,192,90218,1,0,0:0:0:0:
320,192,90343,1,0,0:0:0:0:
448,192,90343,1,0,0:0:0:0:
192,192,90468,1,0,0:0:0:0:
64,192,90468,1,0,0:0:0:0:
448,192,90593,1,0,0:0:0:0:
64,192,90593,1,0,0:0:0:0:
192,192,90718,1,0,0:0:0:0:
320,192,90718,1,0,0:0:0:0:
448,192,90843,1,0,0:0:0:0:
320,192,90843,1,0,0:0:0:0:
64,192,90968,1,0,0:0:0:0:
192,192,90968,1,0,0:0:0:0:
192,192,91093,1,0,0:0:0:0:
448,192,91093,1,0,0:0:0:0:
320,192,91218,1,0,0:0:0:0:
64,192,91218,1,0,0:0:0:0:
192,192,91343,1,0,0:0:0:0:
448,192,91343,1,0,0:0:0:0:
320,192,91468,1,0,0:0:0:0:
64,192,91468,1,0,0:0:0:0:
192,192,91593,1,0,0:0:0:0:
448,192,91593,1,0,0:0:0:0:
448,192,91718,1,0,0:0:0:0:
64,192,91718,1,0,0:0:0:0:
320,192,91843,1,0,0:0:0:0:
192,192,91843,1,0,0:0:0:0:
64,192,91968,1,0,0:0:0:0:
448,192,91968,1,0,0:0:0:0:
320,192,92093,1,0,0:0:0:0:
192,192,92093,1,0,0:0:0:0:
448,192,92218,1,0,0:0:0:0:
192,192,92218,1,0,0:0:0:0:
448,192,92343,1,0,0:0:0:0:
320,192,92343,1,0,0:0:0:0:
64,192,92468,1,0,0:0:0:0:
192,192,92468,1,0,0:0:0:0:
192,192,92593,1,0,0:0:0:0:
448,192,92593,1,0,0:0:0:0:
448,192,92718,1,0,0:0:0:0:
320,192,92718,1,0,0:0:0:0:
192,192,92843,1,0,0:0:0:0:
64,192,92843,1,0,0:0:0:0:
64,192,92968,1,0,0:0:0:0:
320,192,92968,1,0,0:0:0:0:
448,192,93093,1,0,0:0:0:0:
192,192,93093,1,0,0:0:0:0:
320,192,93218,1,0,0:0:0:0:
64,192,93218,1,0,0:0:0:0:
192,192,93343,1,0,0:0:0:0:
448,192,93343,1,0,0:0:0:0:
448,192,93468,1,0,0:0:0:0:
320,192,93468,1,0,0:0:0:0:
64,192,93593,1,0,0:0:0:0:
192,192,93593,1,0,0:0:0:0:
320,192,93718,1,0,0:0:0:0:
448,192,93718,1,0,0:0:0:0:
192,192,93843,1,0,0:0:0:0:
64,192,93843,1,0,0:0:0:0:
320,192,93968,1,0,0:0:0:0:
448,192,93968,1,0,0:0:0:0:
64,192,94093,1,0,0:0:0:0:
192,192,94155,1,0,0:0:0:0:
320,192,94218,1,0,0:0:0:0:
448,192,94218,1,0,0:0:0:0:
192,192,94259,1,0,0:0:0:0:
64,192,94301,1,0,0:0:0:0:
448,192,94343,1,0,0:0:0:0:
320,192,94384,1,0,0:0:0:0:
192,192,94426,1,0,0:0:0:0:
64,192,94468,1,0,0:0:0:0:
448,192,94509,1,0,0:0:0:0:
320,192,94551,1,0,0:0:0:0:
64,192,94593,1,0,0:0:0:0:
192,192,94634,1,0,0:0:0:0:
320,192,94676,1,0,0:0:0:0:
448,192,94718,1,0,0:0:0:0:
192,192,94759,1,0,0:0:0:0:
64,192,94801,1,0,0:0:0:0:
448,192,94843,1,0,0:0:0:0:
320,192,94884,1,0,0:0:0:0:
192,192,94926,1,0,0:0:0:0:
64,192,94968,128,0,95218:0:0:0:0:
192,192,95218,128,0,95468:0:0:0:0:
320,192,95468,128,0,95718:0:0:0:0:
64,192,96968,128,0,97218:0:0:0:0:
320,192,97218,128,0,97405:0:0:0:0:
320,192,97468,128,0,97655:0:0:0:0:
64,192,97718,128,0,98093:0:0:0:0:
448,192,97718,128,0,98093:0:0:0:0:
192,192,98093,1,0,0:0:0:0:
320,192,98093,1,0,0:0:0:0:
64,192,98218,1,0,0:0:0:0:
192,192,98218,1,0,0:0:0:0:
448,192,98218,1,0,0:0:0:0:
192,192,98593,1,0,0:0:0:0:
320,192,98593,1,0,0:0:0:0:
64,192,98718,1,0,0:0:0:0:
448,192,98718,1,0,0:0:0:0:
192,192,98718,1,0,0:0:0:0:
448,192,98843,1,0,0:0:0:0:
320,192,98843,1,0,0:0:0:0:
448,192,99218,1,0,0:0:0:0:
320,192,99218,1,0,0:0:0:0:
64,192,99218,1,0,0:0:0:0:
320,192,99718,1,0,0:0:0:0:
448,192,99718,1,0,0:0:0:0:
192,192,99718,1,0,0:0:0:0:
64,192,100218,1,0,0:0:0:0:
320,192,100218,1,0,0:0:0:0:
448,192,100218,1,0,0:0:0:0:
192,192,100593,1,0,0:0:0:0:
320,192,100593,1,0,0:0:0:0:
64,192,100718,1,0,0:0:0:0:
448,192,100718,1,0,0:0:0:0:
192,192,100718,1,0,0:0:0:0:
320,192,100843,1,0,0:0:0:0:
448,192,100843,1,0,0:0:0:0:
320,192,101093,1,0,0:0:0:0:
192,192,101093,1,0,0:0:0:0:
448,192,101218,1,0,0:0:0:0:
64,192,101218,1,0,0:0:0:0:
320,192,101218,1,0,0:0:0:0:
320,192,101718,1,0,0:0:0:0:
192,192,101718,1,0,0:0:0:0:
64,192,101718,1,0,0:0:0:0:
448,192,101968,128,0,102093:0:0:0:0:
64,192,102218,1,0,0:0:0:0:
192,192,102218,1,0,0:0:0:0:
448,192,102218,1,0,0:0:0:0:
192,192,102593,1,0,0:0:0:0:
320,192,102593,1,0,0:0:0:0:
64,192,102718,1,0,0:0:0:0:
448,192,102718,1,0,0:0:0:0:
320,192,102718,1,0,0:0:0:0:
192,192,102843,1,0,0:0:0:0:
64,192,102843,1,0,0:0:0:0:
448,192,103218,1,0,0:0:0:0:
320,192,103218,1,0,0:0:0:0:
64,192,103218,1,0,0:0:0:0:
320,192,103718,1,0,0:0:0:0:
448,192,103718,1,0,0:0:0:0:
192,192,103718,1,0,0:0:0:0:
64,192,104218,1,0,0:0:0:0:
320,192,104218,1,0,0:0:0:0:
448,192,104218,1,0,0:0:0:0:
192,192,104593,1,0,0:0:0:0:
320,192,104593,1,0,0:0:0:0:
64,192,104718,1,0,0:0:0:0:
448,192,104718,1,0,0:0:0:0:
320,192,104718,1,0,0:0:0:0:
64,192,104843,1,0,0:0:0:0:
192,192,104843,1,0,0:0:0:0:
320,192,105093,1,0,0:0:0:0:
192,192,105093,1,0,0:0:0:0:
448,192,105218,1,0,0:0:0:0:
192,192,105218,1,0,0:0:0:0:
64,192,105218,1,0,0:0:0:0:
320,192,105593,1,0,0:0:0:0:
192,192,105593,1,0,0:0:0:0:
320,192,105718,1,0,0:0:0:0:
64,192,105718,1,0,0:0:0:0:
448,192,105718,1,0,0:0:0:0:
448,192,105968,128,0,106093:0:0:0:0:
448,192,106218,1,0,0:0:0:0:
192,192,106218,1,0,0:0:0:0:
64,192,106218,1,0,0:0:0:0:
320,192,106593,1,0,0:0:0:0:
192,192,106593,1,0,0:0:0:0:
448,192,106718,1,0,0:0:0:0:
64,192,106718,1,0,0:0:0:0:
192,192,106718,1,0,0:0:0:0:
448,192,106843,1,0,0:0:0:0:
320,192,106843,1,0,0:0:0:0:
64,192,107218,1,0,0:0:0:0:
320,192,107218,1,0,0:0:0:0:
448,192,107218,1,0,0:0:0:0:
192,192,107718,1,0,0:0:0:0:
448,192,107718,1,0,0:0:0:0:
320,192,107718,1,0,0:0:0:0:
448,192,108218,1,0,0:0:0:0:
320,192,108218,1,0,0:0:0:0:
64,192,108218,1,0,0:0:0:0:
320,192,108593,1,0,0:0:0:0:
192,192,108593,1,0,0:0:0:0:
448,192,108718,1,0,0:0:0:0:
64,192,108718,1,0,0:0:0:0:
320,192,108718,1,0,0:0:0:0:
192,192,108843,1,0,0:0:0:0:
64,192,108843,1,0,0:0:0:0:
192,192,109093,1,0,0:0:0:0:
320,192,109093,1,0,0:0:0:0:
64,192,109218,1,0,0:0:0:0:
192,192,109218,1,0,0:0:0:0:
448,192,109218,1,0,0:0:0:0:
64,192,109718,1,0,0:0:0:0:
192,192,109718,1,0,0:0:0:0:
320,192,109718,1,0,0:0:0:0:
448,192,109968,128,0,110093:0:0:0:0:
64,192,110218,1,0,0:0:0:0:
192,192,110218,1,0,0:0:0:0:
448,192,110218,1,0,0:0:0:0:
192,192,110593,1,0,0:0:0:0:
320,192,110593,1,0,0:0:0:0:
64,192,110718,1,0,0:0:0:0:
448,192,110718,1,0,0:0:0:0:
192,192,110718,1,0,0:0:0:0:
320,192,110843,1,0,0:0:0:0:
448,192,110843,1,0,0:0:0:0:
448,192,111218,1,0,0:0:0:0:
320,192,111218,1,0,0:0:0:0:
64,192,111218,1,0,0:0:0:0:
320,192,111718,1,0,0:0:0:0:
448,192,111718,1,0,0:0:0:0:
192,192,111718,1,0,0:0:0:0:
64,192,112218,1,0,0:0:0:0:
320,192,112218,1,0,0:0:0:0:
448,192,112218,1,0,0:0:0:0:
192,192,112593,1,0,0:0:0:0:
320,192,112593,1,0,0:0:0:0:
64,192,112718,1,0,0:0:0:0:
448,192,112718,1,0,0:0:0:0:
192,192,112718,1,0,0:0:0:0:
320,192,112843,1,0,0:0:0:0:
448,192,112843,1,0,0:0:0:0:
320,192,113093,1,0,0:0:0:0:
192,192,113093,1,0,0:0:0:0:
448,192,113218,1,0,0:0:0:0:
192,192,113218,1,0,0:0:0:0:
64,192,113218,1,0,0:0:0:0:
448,192,113468,1,0,0:0:0:0:
320,192,113468,1,0,0:0:0:0:
320,192,113718,1,0,0:0:0:0:
192,192,113718,1,0,0:0:0:0:
64,192,113718,1,0,0:0:0:0:
448,192,113968,128,0,114093:0:0:0:0:
192,192,113968,1,0,0:0:0:0:
320,192,113968,1,0,0:0:0:0:
64,192,114218,1,0,0:0:0:0:
448,192,114218,1,0,0:0:0:0:
192,192,114218,1,0,0:0:0:0:
320,192,114218,1,0,0:0:0:0:
320,192,114343,1,0,0:0:0:0:
64,192,114468,1,0,0:0:0:0:
448,192,114468,1,0,0:0:0:0:
192,192,114593,1,0,0:0:0:0:
64,192,114718,1,0,0:0:0:0:
448,192,114718,1,0,0:0:0:0:
320,192,114718,1,0,0:0:0:0:
192,192,114843,1,0,0:0:0:0:
448,192,114968,1,0,0:0:0:0:
64,192,115093,1,0,0:0:0:0:
320,192,115093,1,0,0:0:0:0:
448,192,115218,1,0,0:0:0:0:
320,192,115218,1,0,0:0:0:0:
192,192,115218,1,0,0:0:0:0:
64,192,115343,128,0,115468:0:0:0:0:
192,192,115343,1,0,0:0:0:0:
448,192,115468,1,0,0:0:0:0:
320,192,115593,1,0,0:0:0:0:
192,192,115593,1,0,0:0:0:0:
192,192,115718,1,0,0:0:0:0:
448,192,115718,1,0,0:0:0:0:
64,192,115718,1,0,0:0:0:0:
320,192,115843,1,0,0:0:0:0:
192,192,115968,1,0,0:0:0:0:
64,192,116218,1,0,0:0:0:0:
448,192,116218,1,0,0:0:0:0:
320,192,116218,1,0,0:0:0:0:
192,192,116343,1,0,0:0:0:0:
64,192,116468,1,0,0:0:0:0:
448,192,116468,1,0,0:0:0:0:
320,192,116593,1,0,0:0:0:0:
64,192,116718,1,0,0:0:0:0:
448,192,116718,1,0,0:0:0:0:
192,192,116718,1,0,0:0:0:0:
320,192,116843,1,0,0:0:0:0:
64,192,116968,1,0,0:0:0:0:
192,192,117093,1,0,0:0:0:0:
448,192,117093,1,0,0:0:0:0:
192,192,117218,1,0,0:0:0:0:
64,192,117218,1,0,0:0:0:0:
320,192,117218,1,0,0:0:0:0:
448,192,117343,128,0,117468:0:0:0:0:
320,192,117343,1,0,0:0:0:0:
64,192,117468,1,0,0:0:0:0:
320,192,117593,1,0,0:0:0:0:
192,192,117593,1,0,0:0:0:0:
320,192,117718,1,0,0:0:0:0:
448,192,117718,1,0,0:0:0:0:
64,192,117718,1,0,0:0:0:0:
192,192,117843,1,0,0:0:0:0:
320,192,117968,1,0,0:0:0:0:
192,192,118218,1,0,0:0:0:0:
320,192,118218,1,0,0:0:0:0:
64,192,118218,1,0,0:0:0:0:
448,192,118343,1,0,0:0:0:0:
320,192,118468,1,0,0:0:0:0:
64,192,118468,1,0,0:0:0:0:
192,192,118593,1,0,0:0:0:0:
320,192,118718,1,0,0:0:0:0:
64,192,118718,1,0,0:0:0:0:
448,192,118718,1,0,0:0:0:0:
192,192,118843,1,0,0:0:0:0:
320,192,118968,1,0,0:0:0:0:
448,192,118968,128,0,119218:0:0:0:0:
192,192,119093,1,0,0:0:0:0:
64,192,119093,1,0,0:0:0:0:
320,192,119218,128,0,119468:0:0:0:0:
192,192,119343,1,0,0:0:0:0:
64,192,119343,1,0,0:0:0:0:
448,192,119468,128,0,119718:0:0:0:0:
64,192,119593,1,0,0:0:0:0:
192,192,119593,1,0,0:0:0:0:
320,192,119718,1,0,0:0:0:0:
192,192,119718,1,0,0:0:0:0:
64,192,119843,1,0,0:0:0:0:
192,192,119968,1,0,0:0:0:0:
64,192,120218,1,0,0:0:0:0:
448,192,120218,1,0,0:0:0:0:
320,192,120218,1,0,0:0:0:0:
192,192,120343,1,0,0:0:0:0:
64,192,120468,1,0,0:0:0:0:
448,192,120468,1,0,0:0:0:0:
192,192,120593,1,0,0:0:0:0:
64,192,120718,1,0,0:0:0:0:
448,192,120718,1,0,0:0:0:0:
320,192,120718,1,0,0:0:0:0:
192,192,120843,1,0,0:0:0:0:
320,192,120968,128,0,121218:0:0:0:0:
192,192,121093,1,0,0:0:0:0:
64,192,121093,1,0,0:0:0:0:
448,192,121218,128,0,121405:0:0:0:0:
320,192,121343,1,0,0:0:0:0:
192,192,121343,1,0,0:0:0:0:
448,192,121468,128,0,121655:0:0:0:0:
64,192,121468,1,0,0:0:0:0:
320,192,121593,1,0,0:0:0:0:
192,192,121593,1,0,0:0:0:0:
192,192,121718,1,0,0:0:0:0:
64,192,121718,1,0,0:0:0:0:
320,192,121843,1,0,0:0:0:0:
448,192,121843,1,0,0:0:0:0:
192,192,121968,1,0,0:0:0:0:
192,192,122218,1,0,0:0:0:0:
448,192,122218,1,0,0:0:0:0:
64,192,122218,1,0,0:0:0:0:
320,192,122343,1,0,0:0:0:0:
448,192,122468,1,0,0:0:0:0:
64,192,122468,1,0,0:0:0:0:
192,192,122593,1,0,0:0:0:0:
320,192,122718,1,0,0:0:0:0:
448,192,122718,1,0,0:0:0:0:
64,192,122718,1,0,0:0:0:0:
192,192,122843,1,0,0:0:0:0:
448,192,122968,1,0,0:0:0:0:
320,192,123093,1,0,0:0:0:0:
64,192,123093,1,0,0:0:0:0:
192,192,123218,1,0,0:0:0:0:
320,192,123218,1,0,0:0:0:0:
448,192,123218,1,0,0:0:0:0:
192,192,123343,1,0,0:0:0:0:
64,192,123343,128,0,123468:0:0:0:0:
448,192,123468,1,0,0:0:0:0:
192,192,123593,1,0,0:0:0:0:
320,192,123593,1,0,0:0:0:0:
64,192,123718,1,0,0:0:0:0:
448,192,123718,1,0,0:0:0:0:
192,192,123718,1,0,0:0:0:0:
320,192,123843,1,0,0:0:0:0:
192,192,123968,1,0,0:0:0:0:
320,192,124218,1,0,0:0:0:0:
448,192,124218,1,0,0:0:0:0:
64,192,124218,1,0,0:0:0:0:
192,192,124343,1,0,0:0:0:0:
448,192,124468,1,0,0:0:0:0:
64,192,124468,1,0,0:0:0:0:
320,192,124593,1,0,0:0:0:0:
192,192,124718,1,0,0:0:0:0:
448,192,124718,1,0,0:0:0:0:
64,192,124718,1,0,0:0:0:0:
320,192,124843,1,0,0:0:0:0:
64,192,124968,1,0,0:0:0:0:
448,192,125093,1,0,0:0:0:0:
192,192,125093,1,0,0:0:0:0:
320,192,125218,1,0,0:0:0:0:
64,192,125218,1,0,0:0:0:0:
192,192,125218,1,0,0:0:0:0:
320,192,125343,1,0,0:0:0:0:
448,192,125343,128,0,125468:0:0:0:0:
64,192,125468,1,0,0:0:0:0:
192,192,125593,1,0,0:0:0:0:
320,192,125593,1,0,0:0:0:0:
64,192,125718,1,0,0:0:0:0:
448,192,125718,1,0,0:0:0:0:
320,192,125718,1,0,0:0:0:0:
192,192,125843,1,0,0:0:0:0:
320,192,125968,1,0,0:0:0:0:
448,192,126093,1,0,0:0:0:0:
320,192,126124,1,0,0:0:0:0:
192,192,126155,1,0,0:0:0:0:
64,192,126186,1,0,0:0:0:0:
448,192,126218,1,0,0:0:0:0:
320,192,126218,1,0,0:0:0:0:
192,192,126343,1,0,0:0:0:0:
64,192,126468,1,0,0:0:0:0:
448,192,126468,1,0,0:0:0:0:
320,192,126593,1,0,0:0:0:0:
320,192,126718,1,0,0:0:0:0:
448,192,126718,1,0,0:0:0:0:
192,192,126718,1,0,0:0:0:0:
64,192,126843,1,0,0:0:0:0:
448,192,126968,1,0,0:0:0:0:
192,192,126968,1,0,0:0:0:0:
320,192,127093,1,0,0:0:0:0:
192,192,127218,1,0,0:0:0:0:
448,192,127218,1,0,0:0:0:0:
64,192,127218,1,0,0:0:0:0:
320,192,127343,128,0,127468:0:0:0:0:
192,192,127468,1,0,0:0:0:0:
64,192,127593,1,0,0:0:0:0:
448,192,127593,1,0,0:0:0:0:
320,192,127593,1,0,0:0:0:0:
64,192,127718,1,0,0:0:0:0:
448,192,127718,1,0,0:0:0:0:
192,192,127718,1,0,0:0:0:0:
192,192,127843,1,0,0:0:0:0:
320,192,127843,1,0,0:0:0:0:
64,192,127968,1,0,0:0:0:0:
448,192,127968,1,0,0:0:0:0:
320,192,128093,1,0,0:0:0:0:
192,192,128093,1,0,0:0:0:0:
448,192,128217,1,0,0:0:0:0:
64,192,128218,1,0,0:0:0:0:
192,192,128280,1,0,0:0:0:0:
320,192,128343,1,0,0:0:0:0:
448,192,128405,1,0,0:0:0:0:
320,192,128468,1,0,0:0:0:0:
192,192,128530,1,0,0:0:0:0:
448,192,128593,1,0,0:0:0:0:
320,192,128655,1,0,0:0:0:0:
192,192,128718,1,0,0:0:0:0:
64,192,128718,1,0,0:0:0:0:
320,192,128780,1,0,0:0:0:0:
448,192,128843,1,0,0:0:0:0:
64,192,128905,1,0,0:0:0:0:
192,192,128968,1,0,0:0:0:0:
320,192,129030,1,0,0:0:0:0:
192,192,129093,1,0,0:0:0:0:
64,192,129155,1,0,0:0:0:0:
448,192,129218,1,0,0:0:0:0:
320,192,129218,1,0,0:0:0:0:
192,192,129280,1,0,0:0:0:0:
64,192,129343,1,0,0:0:0:0:
192,192,129405,1,0,0:0:0:0:
320,192,129468,1,0,0:0:0:0:
448,192,129530,1,0,0:0:0:0:
320,192,129593,1,0,0:0:0:0:
192,192,129655,1,0,0:0:0:0:
64,192,129718,128,0,129780:0:0:0:0:
192,192,129780,128,0,129843:0:0:0:0:
320,192,129843,128,0,129905:0:0:0:0:
448,192,129905,128,0,129968:0:0:0:0:
320,192,129968,128,0,130030:0:0:0:0:
192,192,130030,128,0,130093:0:0:0:0:
64,192,130093,128,0,130155:0:0:0:0:
192,192,130155,128,0,130218:0:0:0:0:
448,192,130218,128,0,130718:0:0:0:0:
320,192,130218,128,0,130718:0:0:0:0:
320,192,131218,128,0,131593:0:0:0:0:
192,192,131218,128,0,131593:0:0:0:0:
448,192,131218,1,0,0:0:0:0:
64,192,131218,1,0,0:0:0:0:
192,192,131718,128,0,132093:0:0:0:0:
448,192,131718,128,0,132093:0:0:0:0:
320,192,131718,1,0,0:0:0:0:
64,192,131718,1,0,0:0:0:0:
320,192,132218,128,0,132843:0:0:0:0:
64,192,132218,128,0,132843:0:0:0:0:
192,192,132218,1,0,0:0:0:0:
448,192,132218,1,0,0:0:0:0:
64,192,133218,128,0,133718:0:0:0:0:
320,192,133218,128,0,133718:0:0:0:0:
192,192,133218,1,0,0:0:0:0:
448,192,133218,1,0,0:0:0:0:
192,192,133468,1,0,0:0:0:0:
448,192,133468,1,0,0:0:0:0:
448,192,133718,128,0,133843:0:0:0:0:
320,192,133843,128,0,133968:0:0:0:0:
192,192,133968,128,0,134093:0:0:0:0:
448,192,133968,1,0,0:0:0:0:
64,192,134093,128,0,134218:0:0:0:0:
320,192,134093,1,0,0:0:0:0:
320,192,134218,128,0,134843:0:0:0:0:
192,192,134218,128,0,134843:0:0:0:0:
448,192,134218,1,0,0:0:0:0:
64,192,134343,1,0,0:0:0:0:
448,192,134593,1,0,0:0:0:0:
64,192,134718,1,0,0:0:0:0:
448,192,134968,1,0,0:0:0:0:
64,192,135093,1,0,0:0:0:0:
320,192,135218,128,0,135968:0:0:0:0:
192,192,135218,128,0,135968:0:0:0:0:
64,192,135218,1,0,0:0:0:0:
448,192,135343,1,0,0:0:0:0:
64,192,135468,1,0,0:0:0:0:
448,192,135718,1,0,0:0:0:0:
64,192,135843,1,0,0:0:0:0:
448,192,135968,1,0,0:0:0:0:
64,192,136093,1,0,0:0:0:0:
448,192,136218,1,0,0:0:0:0:
320,192,136218,128,0,136593:0:0:0:0:
192,192,136218,128,0,136593:0:0:0:0:
64,192,136343,1,0,0:0:0:0:
448,192,136593,1,0,0:0:0:0:
64,192,136718,1,0,0:0:0:0:
320,192,136718,128,0,137093:0:0:0:0:
192,192,136718,128,0,137093:0:0:0:0:
448,192,136968,1,0,0:0:0:0:
64,192,137093,1,0,0:0:0:0:
448,192,137218,1,0,0:0:0:0:
192,192,137218,1,0,0:0:0:0:
320,192,137218,128,0,137593:0:0:0:0:
64,192,137343,1,0,0:0:0:0:
448,192,137468,1,0,0:0:0:0:
64,192,137593,1,0,0:0:0:0:
192,192,137718,128,0,138093:0:0:0:0:
320,192,138093,1,0,0:0:0:0:
448,192,138093,1,0,0:0:0:0:
64,192,138218,128,0,138968:0:0:0:0:
192,192,138218,128,0,138968:0:0:0:0:
448,192,138343,1,0,0:0:0:0:
320,192,138593,1,0,0:0:0:0:
448,192,138718,1,0,0:0:0:0:
320,192,138968,1,0,0:0:0:0:
448,192,139093,1,0,0:0:0:0:
64,192,139218,128,0,139593:0:0:0:0:
192,192,139218,128,0,139593:0:0:0:0:
320,192,139343,1,0,0:0:0:0:
448,192,139468,1,0,0:0:0:0:
448,192,139593,1,0,0:0:0:0:
64,192,139718,128,0,140093:0:0:0:0:
448,192,139718,128,0,140093:0:0:0:0:
320,192,139718,1,0,0:0:0:0:
320,192,139843,1,0,0:0:0:0:
192,192,139968,1,0,0:0:0:0:
192,192,140093,1,0,0:0:0:0:
320,192,140218,128,0,140718:0:0:0:0:
192,192,140218,128,0,140718:0:0:0:0:
64,192,140218,1,0,0:0:0:0:
448,192,140343,1,0,0:0:0:0:
448,192,140593,1,0,0:0:0:0:
64,192,140718,1,0,0:0:0:0:
64,192,140968,1,0,0:0:0:0:
320,192,141093,1,0,0:0:0:0:
192,192,141218,128,0,141718:0:0:0:0:
448,192,141218,128,0,141718:0:0:0:0:
64,192,141343,1,0,0:0:0:0:
320,192,141468,1,0,0:0:0:0:
64,192,141718,1,0,0:0:0:0:
448,192,141968,1,0,0:0:0:0:
64,192,142093,1,0,0:0:0:0:
192,192,142218,1,0,0:0:0:0:
320,192,142218,128,0,142843:0:0:0:0:
448,192,142218,128,0,142843:0:0:0:0:
64,192,142343,1,0,0:0:0:0:
64,192,142468,1,0,0:0:0:0:
192,192,142593,1,0,0:0:0:0:
64,192,142718,1,0,0:0:0:0:
64,192,142843,1,0,0:0:0:0:
192,192,142968,1,0,0:0:0:0:
64,192,143093,1,0,0:0:0:0:
320,192,143218,128,0,143843:0:0:0:0:
448,192,143218,128,0,143843:0:0:0:0:
192,192,143218,1,0,0:0:0:0:
64,192,143343,1,0,0:0:0:0:
192,192,143468,1,0,0:0:0:0:
192,192,143718,1,0,0:0:0:0:
448,192,143968,128,0,144093:0:0:0:0:
320,192,144218,128,0,144593:0:0:0:0:
448,192,144218,128,0,144593:0:0:0:0:
64,192,144218,1,0,0:0:0:0:
192,192,144343,1,0,0:0:0:0:
192,192,144468,1,0,0:0:0:0:
64,192,144593,1,0,0:0:0:0:
320,192,144718,128,0,145093:0:0:0:0:
192,192,144718,128,0,145093:0:0:0:0:
448,192,144718,1,0,0:0:0:0:
64,192,144843,1,0,0:0:0:0:
448,192,144968,1,0,0:0:0:0:
64,192,145093,1,0,0:0:0:0:
320,192,145218,128,0,145718:0:0:0:0:
448,192,145218,128,0,145718:0:0:0:0:
192,192,145218,1,0,0:0:0:0:
64,192,145343,1,0,0:0:0:0:
192,192,145468,1,0,0:0:0:0:
64,192,145593,1,0,0:0:0:0:
192,192,145718,128,0,146218:0:0:0:0:
64,192,146218,5,0,0:0:0:0:
448,192,146343,1,0,0:0:0:0:
448,192,146468,1,0,0:0:0:0:
64,192,146593,1,0,0:0:0:0:
448,192,146718,1,0,0:0:0:0:
448,192,146843,1,0,0:0:0:0:
64,192,146968,1,0,0:0:0:0:
448,192,147093,1,0,0:0:0:0:
448,192,147218,1,0,0:0:0:0:
64,192,147343,1,0,0:0:0:0:
448,192,147468,1,0,0:0:0:0:
448,192,147593,1,0,0:0:0:0:
320,192,147718,1,0,0:0:0:0:
320,192,147843,1,0,0:0:0:0:
192,192,147968,1,0,0:0:0:0:
192,192,148093,1,0,0:0:0:0:
64,192,148218,1,0,0:0:0:0:
64,192,148343,1,0,0:0:0:0:
192,192,148468,1,0,0:0:0:0:
448,192,148593,1,0,0:0:0:0:
448,192,148718,1,0,0:0:0:0:
192,192,148843,1,0,0:0:0:0:
64,192,148968,1,0,0:0:0:0:
448,192,149093,1,0,0:0:0:0:
448,192,149218,1,0,0:0:0:0:
192,192,149343,1,0,0:0:0:0:
448,192,149468,1,0,0:0:0:0:
448,192,149593,1,0,0:0:0:0:
448,192,149718,1,0,0:0:0:0:
192,192,149843,1,0,0:0:0:0:
320,192,149968,1,0,0:0:0:0:
64,192,150093,1,0,0:0:0:0:
192,192,150218,1,0,0:0:0:0:
448,192,150343,1,0,0:0:0:0:
192,192,150468,1,0,0:0:0:0:
64,192,150593,1,0,0:0:0:0:
448,192,150718,1,0,0:0:0:0:
320,192,150718,1,0,0:0:0:0:
448,192,150843,1,0,0:0:0:0:
64,192,150968,1,0,0:0:0:0:
448,192,151093,1,0,0:0:0:0:
448,192,151218,1,0,0:0:0:0:
64,192,151343,1,0,0:0:0:0:
448,192,151468,1,0,0:0:0:0:
320,192,151593,1,0,0:0:0:0:
448,192,151718,1,0,0:0:0:0:
64,192,151843,1,0,0:0:0:0:
448,192,151968,1,0,0:0:0:0:
192,192,152093,1,0,0:0:0:0:
64,192,152218,1,0,0:0:0:0:
320,192,152218,1,0,0:0:0:0:
448,192,152343,1,0,0:0:0:0:
448,192,152468,1,0,0:0:0:0:
192,192,152593,1,0,0:0:0:0:
320,192,152718,1,0,0:0:0:0:
448,192,152718,1,0,0:0:0:0:
448,192,152843,1,0,0:0:0:0:
64,192,152968,1,0,0:0:0:0:
448,192,153093,1,0,0:0:0:0:
448,192,153218,1,0,0:0:0:0:
64,192,153343,1,0,0:0:0:0:
448,192,153468,1,0,0:0:0:0:
448,192,153593,1,0,0:0:0:0:
448,192,153718,1,0,0:0:0:0:
64,192,153843,1,0,0:0:0:0:
448,192,153968,1,0,0:0:0:0:
320,192,154093,1,0,0:0:0:0:
64,192,154218,1,0,0:0:0:0:
320,192,154343,1,0,0:0:0:0:
192,192,154468,1,0,0:0:0:0:
448,192,154593,1,0,0:0:0:0:
320,192,154718,1,0,0:0:0:0:
320,192,154843,1,0,0:0:0:0:
64,192,154968,1,0,0:0:0:0:
192,192,155093,1,0,0:0:0:0:
192,192,155218,1,0,0:0:0:0:
448,192,155343,1,0,0:0:0:0:
320,192,155468,1,0,0:0:0:0:
320,192,155593,1,0,0:0:0:0:
192,192,155718,1,0,0:0:0:0:
192,192,155843,1,0,0:0:0:0:
64,192,155968,1,0,0:0:0:0:
64,192,156093,1,0,0:0:0:0:
320,192,156218,1,0,0:0:0:0:
448,192,156343,1,0,0:0:0:0:
448,192,156468,1,0,0:0:0:0:
192,192,156593,1,0,0:0:0:0:
320,192,156718,1,0,0:0:0:0:
320,192,156843,1,0,0:0:0:0:
64,192,156968,1,0,0:0:0:0:
448,192,157093,1,0,0:0:0:0:
448,192,157218,1,0,0:0:0:0:
192,192,157343,1,0,0:0:0:0:
448,192,157468,1,0,0:0:0:0:
448,192,157593,1,0,0:0:0:0:
320,192,157718,1,0,0:0:0:0:
192,192,157843,1,0,0:0:0:0:
320,192,157968,1,0,0:0:0:0:
64,192,158093,1,0,0:0:0:0:
192,192,158218,1,0,0:0:0:0:
448,192,158343,1,0,0:0:0:0:
448,192,158468,1,0,0:0:0:0:
192,192,158593,1,0,0:0:0:0:
448,192,158718,1,0,0:0:0:0:
64,192,158718,1,0,0:0:0:0:
320,192,158843,1,0,0:0:0:0:
192,192,158968,1,0,0:0:0:0:
448,192,159093,1,0,0:0:0:0:
448,192,159218,1,0,0:0:0:0:
320,192,159343,1,0,0:0:0:0:
448,192,159468,1,0,0:0:0:0:
320,192,159593,1,0,0:0:0:0:
448,192,159718,1,0,0:0:0:0:
192,192,159718,1,0,0:0:0:0:
64,192,159843,1,0,0:0:0:0:
448,192,159968,1,0,0:0:0:0:
64,192,160093,1,0,0:0:0:0:
192,192,160218,1,0,0:0:0:0:
448,192,160343,1,0,0:0:0:0:
448,192,160468,1,0,0:0:0:0:
192,192,160593,1,0,0:0:0:0:
320,192,160718,1,0,0:0:0:0:
320,192,160843,1,0,0:0:0:0:
192,192,160968,1,0,0:0:0:0:
448,192,161093,1,0,0:0:0:0:
448,192,161218,1,0,0:0:0:0:
192,192,161343,1,0,0:0:0:0:
320,192,161468,1,0,0:0:0:0:
64,192,161593,1,0,0:0:0:0:
448,192,161718,1,0,0:0:0:0:
192,192,161843,1,0,0:0:0:0:
320,192,161968,1,0,0:0:0:0:
448,192,162093,1,0,0:0:0:0:
192,192,162218,1,0,0:0:0:0:
64,192,162218,128,0,164218:0:0:0:0:
320,192,162218,1,0,0:0:0:0:
448,192,162218,1,0,0:0:0:0:
320,192,162343,1,0,0:0:0:0:
448,192,162468,1,0,0:0:0:0:
192,192,162593,1,0,0:0:0:0:
448,192,162718,1,0,0:0:0:0:
448,192,162843,1,0,0:0:0:0:
192,192,162968,1,0,0:0:0:0:
448,192,163093,1,0,0:0:0:0:
448,192,163218,1,0,0:0:0:0:
192,192,163343,1,0,0:0:0:0:
448,192,163468,1,0,0:0:0:0:
448,192,163593,1,0,0:0:0:0:
320,192,163718,1,0,0:0:0:0:
320,192,163843,1,0,0:0:0:0:
192,192,163968,1,0,0:0:0:0:
192,192,164093,1,0,0:0:0:0:
448,192,164218,128,0,165218:0:0:0:0:
192,192,164218,1,0,0:0:0:0:
320,192,164343,1,0,0:0:0:0:
192,192,164468,1,0,0:0:0:0:
320,192,164593,1,0,0:0:0:0:
64,192,164718,1,0,0:0:0:0:
192,192,164718,1,0,0:0:0:0:
192,192,164843,1,0,0:0:0:0:
64,192,164968,1,0,0:0:0:0:
320,192,165093,1,0,0:0:0:0:
192,192,165218,128,0,166218:0:0:0:0:
64,192,165343,1,0,0:0:0:0:
320,192,165468,1,0,0:0:0:0:
64,192,165593,1,0,0:0:0:0:
320,192,165718,1,0,0:0:0:0:
448,192,165718,1,0,0:0:0:0:
64,192,165843,1,0,0:0:0:0:
320,192,165968,1,0,0:0:0:0:
64,192,166093,1,0,0:0:0:0:
320,192,166218,128,0,170218:0:0:0:0:
448,192,166343,1,0,0:0:0:0:
192,192,166468,1,0,0:0:0:0:
64,192,166593,1,0,0:0:0:0:
448,192,166718,1,0,0:0:0:0:
192,192,166718,1,0,0:0:0:0:
448,192,166843,1,0,0:0:0:0:
64,192,166968,1,0,0:0:0:0:
448,192,167093,1,0,0:0:0:0:
448,192,167218,1,0,0:0:0:0:
64,192,167343,1,0,0:0:0:0:
448,192,167468,1,0,0:0:0:0:
192,192,167593,1,0,0:0:0:0:
448,192,167718,1,0,0:0:0:0:
64,192,167843,1,0,0:0:0:0:
448,192,167968,1,0,0:0:0:0:
192,192,168093,1,0,0:0:0:0:
64,192,168218,1,0,0:0:0:0:
448,192,168343,1,0,0:0:0:0:
192,192,168468,1,0,0:0:0:0:
64,192,168593,1,0,0:0:0:0:
448,192,168718,1,0,0:0:0:0:
192,192,168718,1,0,0:0:0:0:
192,192,168843,1,0,0:0:0:0:
64,192,168968,1,0,0:0:0:0:
448,192,169093,1,0,0:0:0:0:
192,192,169218,1,0,0:0:0:0:
64,192,169343,1,0,0:0:0:0:
448,192,169468,1,0,0:0:0:0:
192,192,169593,1,0,0:0:0:0:
448,192,169718,1,0,0:0:0:0:
192,192,169843,1,0,0:0:0:0:
448,192,169968,1,0,0:0:0:0:
192,192,170093,1,0,0:0:0:0:
64,192,170218,1,0,0:0:0:0:
192,192,170218,128,0,172218:0:0:0:0:
320,192,170343,1,0,0:0:0:0:
64,192,170468,1,0,0:0:0:0:
448,192,170593,1,0,0:0:0:0:
320,192,170718,1,0,0:0:0:0:
320,192,170843,1,0,0:0:0:0:
64,192,170968,1,0,0:0:0:0:
320,192,171093,1,0,0:0:0:0:
320,192,171218,1,0,0:0:0:0:
448,192,171343,1,0,0:0:0:0:
64,192,171343,1,0,0:0:0:0:
320,192,171468,1,0,0:0:0:0:
64,192,171593,1,0,0:0:0:0:
320,192,171718,1,0,0:0:0:0:
448,192,171718,1,0,0:0:0:0:
64,192,171843,1,0,0:0:0:0:
320,192,171968,1,0,0:0:0:0:
448,192,172093,1,0,0:0:0:0:
64,192,172218,1,0,0:0:0:0:
320,192,172218,128,0,173218:0:0:0:0:
448,192,172343,1,0,0:0:0:0:
448,192,172468,1,0,0:0:0:0:
64,192,172593,1,0,0:0:0:0:
192,192,172718,1,0,0:0:0:0:
192,192,172843,1,0,0:0:0:0:
64,192,172968,1,0,0:0:0:0:
448,192,173093,1,0,0:0:0:0:
448,192,173218,1,0,0:0:0:0:
64,192,173218,128,0,174218:0:0:0:0:
192,192,173343,1,0,0:0:0:0:
448,192,173468,1,0,0:0:0:0:
448,192,173593,1,0,0:0:0:0:
320,192,173718,1,0,0:0:0:0:
192,192,173843,1,0,0:0:0:0:
320,192,173968,1,0,0:0:0:0:
192,192,174093,1,0,0:0:0:0:
320,192,174218,1,0,0:0:0:0:
192,192,174218,128,0,177968:0:0:0:0:
448,192,174343,1,0,0:0:0:0:
320,192,174468,1,0,0:0:0:0:
64,192,174593,1,0,0:0:0:0:
448,192,174718,1,0,0:0:0:0:
448,192,174843,1,0,0:0:0:0:
64,192,174968,1,0,0:0:0:0:
448,192,175093,1,0,0:0:0:0:
448,192,175218,1,0,0:0:0:0:
320,192,175343,1,0,0:0:0:0:
448,192,175468,1,0,0:0:0:0:
320,192,175593,1,0,0:0:0:0:
448,192,175718,1,0,0:0:0:0:
64,192,175843,1,0,0:0:0:0:
448,192,175968,1,0,0:0:0:0:
320,192,176093,1,0,0:0:0:0:
64,192,176218,1,0,0:0:0:0:
448,192,176343,1,0,0:0:0:0:
448,192,176468,1,0,0:0:0:0:
64,192,176593,1,0,0:0:0:0:
448,192,176718,1,0,0:0:0:0:
448,192,176843,1,0,0:0:0:0:
64,192,176968,1,0,0:0:0:0:
448,192,177093,1,0,0:0:0:0:
448,192,177218,1,0,0:0:0:0:
64,192,177343,1,0,0:0:0:0:
448,192,177468,1,0,0:0:0:0:
64,192,177593,1,0,0:0:0:0:
448,192,177718,1,0,0:0:0:0:
64,192,177843,1,0,0:0:0:0:
320,192,177968,1,0,0:0:0:0:
64,192,178093,1,0,0:0:0:0:
192,192,178124,1,0,0:0:0:0:
320,192,178155,1,0,0:0:0:0:
448,192,178186,1,0,0:0:0:0:
64,192,178218,1,0,0:0:0:0:
192,192,178218,1,0,0:0:0:0:
448,192,178343,1,0,0:0:0:0:
192,192,178343,1,0,0:0:0:0:
320,192,178468,1,0,0:0:0:0:
64,192,178593,1,0,0:0:0:0:
192,192,178593,1,0,0:0:0:0:
320,192,178718,1,0,0:0:0:0:
448,192,178718,1,0,0:0:0:0:
192,192,178843,1,0,0:0:0:0:
64,192,178968,1,0,0:0:0:0:
320,192,178968,1,0,0:0:0:0:
448,192,179093,1,0,0:0:0:0:
192,192,179093,1,0,0:0:0:0:
320,192,179218,1,0,0:0:0:0:
448,192,179343,1,0,0:0:0:0:
192,192,179343,1,0,0:0:0:0:
64,192,179468,1,0,0:0:0:0:
320,192,179468,1,0,0:0:0:0:
192,192,179593,1,0,0:0:0:0:
64,192,179718,1,0,0:0:0:0:
320,192,179718,1,0,0:0:0:0:
448,192,179718,1,0,0:0:0:0:
448,192,179843,1,0,0:0:0:0:
192,192,179968,1,0,0:0:0:0:
64,192,179968,1,0,0:0:0:0:
320,192,180093,1,0,0:0:0:0:
64,192,180218,1,0,0:0:0:0:
448,192,180218,1,0,0:0:0:0:
320,192,180343,1,0,0:0:0:0:
192,192,180343,1,0,0:0:0:0:
64,192,180468,1,0,0:0:0:0:
448,192,180593,1,0,0:0:0:0:
320,192,180593,1,0,0:0:0:0:
192,192,180718,1,0,0:0:0:0:
64,192,180718,1,0,0:0:0:0:
320,192,180843,1,0,0:0:0:0:
64,192,180968,1,0,0:0:0:0:
192,192,180968,1,0,0:0:0:0:
448,192,181093,1,0,0:0:0:0:
320,192,181093,1,0,0:0:0:0:
64,192,181218,1,0,0:0:0:0:
192,192,181343,1,0,0:0:0:0:
320,192,181343,1,0,0:0:0:0:
448,192,181468,1,0,0:0:0:0:
64,192,181468,1,0,0:0:0:0:
192,192,181593,1,0,0:0:0:0:
448,192,181718,1,0,0:0:0:0:
320,192,181718,1,0,0:0:0:0:
64,192,181718,1,0,0:0:0:0:
192,192,181843,1,0,0:0:0:0:
448,192,181968,1,0,0:0:0:0:
64,192,181968,1,0,0:0:0:0:
320,192,182093,1,0,0:0:0:0:
192,192,182218,1,0,0:0:0:0:
64,192,182218,1,0,0:0:0:0:
448,192,182343,1,0,0:0:0:0:
320,192,182343,1,0,0:0:0:0:
64,192,182468,1,0,0:0:0:0:
320,192,182593,1,0,0:0:0:0:
192,192,182593,1,0,0:0:0:0:
448,192,182718,1,0,0:0:0:0:
64,192,182718,1,0,0:0:0:0:
320,192,182718,1,0,0:0:0:0:
192,192,182843,1,0,0:0:0:0:
64,192,182968,1,0,0:0:0:0:
320,192,182968,1,0,0:0:0:0:
448,192,183093,1,0,0:0:0:0:
192,192,183093,1,0,0:0:0:0:
320,192,183218,1,0,0:0:0:0:
64,192,183343,1,0,0:0:0:0:
192,192,183343,1,0,0:0:0:0:
448,192,183468,1,0,0:0:0:0:
320,192,183468,1,0,0:0:0:0:
64,192,183593,1,0,0:0:0:0:
448,192,183718,1,0,0:0:0:0:
192,192,183718,1,0,0:0:0:0:
320,192,183718,1,0,0:0:0:0:
64,192,183843,1,0,0:0:0:0:
320,192,183843,1,0,0:0:0:0:
448,192,183968,1,0,0:0:0:0:
192,192,183968,1,0,0:0:0:0:
64,192,184093,1,0,0:0:0:0:
320,192,184093,1,0,0:0:0:0:
192,192,184218,1,0,0:0:0:0:
64,192,184218,1,0,0:0:0:0:
320,192,184343,1,0,0:0:0:0:
448,192,184343,1,0,0:0:0:0:
192,192,184468,1,0,0:0:0:0:
64,192,184593,1,0,0:0:0:0:
320,192,184593,1,0,0:0:0:0:
448,192,184718,1,0,0:0:0:0:
192,192,184718,1,0,0:0:0:0:
64,192,184718,1,0,0:0:0:0:
320,192,184843,1,0,0:0:0:0:
64,192,184968,1,0,0:0:0:0:
192,192,184968,1,0,0:0:0:0:
448,192,185093,1,0,0:0:0:0:
64,192,185093,1,0,0:0:0:0:
192,192,185218,1,0,0:0:0:0:
64,192,185343,1,0,0:0:0:0:
320,192,185343,1,0,0:0:0:0:
448,192,185468,1,0,0:0:0:0:
192,192,185468,1,0,0:0:0:0:
320,192,185593,1,0,0:0:0:0:
448,192,185718,1,0,0:0:0:0:
64,192,185718,1,0,0:0:0:0:
192,192,185843,1,0,0:0:0:0:
448,192,185968,1,0,0:0:0:0:
64,192,185968,1,0,0:0:0:0:
320,192,186093,1,0,0:0:0:0:
64,192,186218,1,0,0:0:0:0:
192,192,186218,1,0,0:0:0:0:
448,192,186218,1,0,0:0:0:0:
320,192,186343,1,0,0:0:0:0:
448,192,186343,1,0,0:0:0:0:
192,192,186468,1,0,0:0:0:0:
64,192,186468,1,0,0:0:0:0:
448,192,186593,1,0,0:0:0:0:
192,192,186593,1,0,0:0:0:0:
320,192,186718,1,0,0:0:0:0:
64,192,186718,1,0,0:0:0:0:
448,192,186843,1,0,0:0:0:0:
320,192,186843,1,0,0:0:0:0:
64,192,186968,1,0,0:0:0:0:
192,192,186968,1,0,0:0:0:0:
192,192,187093,1,0,0:0:0:0:
448,192,187093,1,0,0:0:0:0:
320,192,187218,1,0,0:0:0:0:
64,192,187218,1,0,0:0:0:0:
64,192,187343,1,0,0:0:0:0:
448,192,187343,1,0,0:0:0:0:
320,192,187468,1,0,0:0:0:0:
192,192,187468,1,0,0:0:0:0:
64,192,187593,1,0,0:0:0:0:
320,192,187593,1,0,0:0:0:0:
448,192,187718,1,0,0:0:0:0:
192,192,187718,1,0,0:0:0:0:
320,192,187843,1,0,0:0:0:0:
64,192,187843,1,0,0:0:0:0:
64,192,187968,1,0,0:0:0:0:
192,192,187968,1,0,0:0:0:0:
448,192,188093,1,0,0:0:0:0:
320,192,188093,1,0,0:0:0:0:
320,192,188218,1,0,0:0:0:0:
192,192,188218,1,0,0:0:0:0:
448,192,188343,1,0,0:0:0:0:
64,192,188343,1,0,0:0:0:0:
64,192,188468,1,0,0:0:0:0:
320,192,188468,1,0,0:0:0:0:
192,192,188593,1,0,0:0:0:0:
448,192,188593,1,0,0:0:0:0:
448,192,188718,1,0,0:0:0:0:
320,192,188718,1,0,0:0:0:0:
192,192,188843,1,0,0:0:0:0:
64,192,188843,1,0,0:0:0:0:
64,192,188968,1,0,0:0:0:0:
320,192,188968,1,0,0:0:0:0:
448,192,189093,1,0,0:0:0:0:
192,192,189093,1,0,0:0:0:0:
320,192,189218,1,0,0:0:0:0:
192,192,189218,1,0,0:0:0:0:
64,192,189343,1,0,0:0:0:0:
320,192,189343,1,0,0:0:0:0:
448,192,189468,1,0,0:0:0:0:
192,192,189468,1,0,0:0:0:0:
64,192,189593,1,0,0:0:0:0:
320,192,189593,1,0,0:0:0:0:
448,192,189718,1,0,0:0:0:0:
320,192,189718,1,0,0:0:0:0:
192,192,189843,1,0,0:0:0:0:
64,192,189843,1,0,0:0:0:0:
320,192,189968,1,0,0:0:0:0:
448,192,189968,1,0,0:0:0:0:
64,192,190093,1,0,0:0:0:0:
192,192,190093,1,0,0:0:0:0:
192,192,190218,1,0,0:0:0:0:
320,192,190280,1,0,0:0:0:0:
448,192,190343,1,0,0:0:0:0:
320,192,190405,1,0,0:0:0:0:
192,192,190468,1,0,0:0:0:0:
64,192,190530,1,0,0:0:0:0:
448,192,190593,1,0,0:0:0:0:
320,192,190655,1,0,0:0:0:0:
192,192,190718,1,0,0:0:0:0:
64,192,190780,1,0,0:0:0:0:
448,192,190843,1,0,0:0:0:0:
320,192,190905,1,0,0:0:0:0:
192,192,190968,1,0,0:0:0:0:
64,192,191030,128,0,192218:0:0:0:0:
448,192,191093,1,0,0:0:0:0:
320,192,191155,1,0,0:0:0:0:
192,192,191218,128,0,192218:0:0:0:0:
320,192,191280,128,0,192218:0:0:0:0:
448,192,191343,128,0,192218:0:0:0:0:
192,192,192968,128,0,193218:0:0:0:0:
320,192,193218,128,0,193468:0:0:0:0:
448,192,193468,128,0,193718:0:0:0:0:
320,192,193718,128,0,193905:0:0:0:0:
64,192,193718,128,0,194155:0:0:0:0:
320,192,193968,128,0,194155:0:0:0:0:
64,192,194218,1,0,0:0:0:0:
448,192,194218,1,0,0:0:0:0:
192,192,194218,1,0,0:0:0:0:
320,192,194343,1,0,0:0:0:0:
64,192,194468,1,0,0:0:0:0:
448,192,194468,1,0,0:0:0:0:
192,192,194593,1,0,0:0:0:0:
64,192,194718,1,0,0:0:0:0:
448,192,194718,1,0,0:0:0:0:
320,192,194718,1,0,0:0:0:0:
192,192,194843,1,0,0:0:0:0:
448,192,194968,1,0,0:0:0:0:
64,192,195093,1,0,0:0:0:0:
320,192,195093,1,0,0:0:0:0:
320,192,195218,128,0,195343:0:0:0:0:
448,192,195218,128,0,195343:0:0:0:0:
192,192,195218,128,0,195343:0:0:0:0:
64,192,195343,1,0,0:0:0:0:
448,192,195468,1,0,0:0:0:0:
320,192,195593,1,0,0:0:0:0:
192,192,195593,1,0,0:0:0:0:
192,192,195718,1,0,0:0:0:0:
448,192,195718,1,0,0:0:0:0:
64,192,195718,1,0,0:0:0:0:
320,192,195843,1,0,0:0:0:0:
64,192,195968,1,0,0:0:0:0:
192,192,196093,1,0,0:0:0:0:
64,192,196218,1,0,0:0:0:0:
448,192,196218,1,0,0:0:0:0:
320,192,196218,1,0,0:0:0:0:
192,192,196343,1,0,0:0:0:0:
64,192,196468,1,0,0:0:0:0:
448,192,196468,1,0,0:0:0:0:
320,192,196593,1,0,0:0:0:0:
64,192,196718,1,0,0:0:0:0:
448,192,196718,1,0,0:0:0:0:
192,192,196718,1,0,0:0:0:0:
320,192,196843,1,0,0:0:0:0:
64,192,196968,1,0,0:0:0:0:
192,192,197093,1,0,0:0:0:0:
448,192,197093,1,0,0:0:0:0:
320,192,197218,128,0,197343:0:0:0:0:
192,192,197218,128,0,197343:0:0:0:0:
64,192,197218,128,0,197343:0:0:0:0:
448,192,197343,1,0,0:0:0:0:
64,192,197468,1,0,0:0:0:0:
320,192,197593,1,0,0:0:0:0:
192,192,197593,1,0,0:0:0:0:
320,192,197718,1,0,0:0:0:0:
448,192,197718,1,0,0:0:0:0:
64,192,197718,1,0,0:0:0:0:
192,192,197843,1,0,0:0:0:0:
320,192,197968,1,0,0:0:0:0:
448,192,197968,1,0,0:0:0:0:
64,192,197968,1,0,0:0:0:0:
192,192,198093,1,0,0:0:0:0:
320,192,198218,1,0,0:0:0:0:
64,192,198218,1,0,0:0:0:0:
448,192,198218,1,0,0:0:0:0:
448,192,198343,1,0,0:0:0:0:
320,192,198468,1,0,0:0:0:0:
64,192,198468,1,0,0:0:0:0:
192,192,198593,1,0,0:0:0:0:
320,192,198718,1,0,0:0:0:0:
64,192,198718,1,0,0:0:0:0:
448,192,198718,1,0,0:0:0:0:
192,192,198843,1,0,0:0:0:0:
320,192,198968,1,0,0:0:0:0:
192,192,199093,1,0,0:0:0:0:
64,192,199093,1,0,0:0:0:0:
192,192,199218,128,0,199343:0:0:0:0:
320,192,199218,128,0,199343:0:0:0:0:
448,192,199218,128,0,199343:0:0:0:0:
64,192,199343,1,0,0:0:0:0:
448,192,199468,1,0,0:0:0:0:
64,192,199593,1,0,0:0:0:0:
320,192,199593,1,0,0:0:0:0:
320,192,199718,1,0,0:0:0:0:
448,192,199718,1,0,0:0:0:0:
192,192,199718,1,0,0:0:0:0:
64,192,199843,1,0,0:0:0:0:
320,192,199968,1,0,0:0:0:0:
192,192,200093,1,0,0:0:0:0:
64,192,200218,1,0,0:0:0:0:
448,192,200218,1,0,0:0:0:0:
320,192,200218,1,0,0:0:0:0:
192,192,200343,1,0,0:0:0:0:
64,192,200468,1,0,0:0:0:0:
448,192,200468,1,0,0:0:0:0:
192,192,200593,1,0,0:0:0:0:
64,192,200718,1,0,0:0:0:0:
448,192,200718,1,0,0:0:0:0:
320,192,200718,1,0,0:0:0:0:
192,192,200843,1,0,0:0:0:0:
320,192,200968,1,0,0:0:0:0:
448,192,201093,1,0,0:0:0:0:
192,192,201093,1,0,0:0:0:0:
320,192,201218,128,0,201343:0:0:0:0:
192,192,201218,128,0,201343:0:0:0:0:
64,192,201218,128,0,201343:0:0:0:0:
448,192,201343,1,0,0:0:0:0:
64,192,201468,1,0,0:0:0:0:
320,192,201593,1,0,0:0:0:0:
192,192,201593,1,0,0:0:0:0:
192,192,201718,1,0,0:0:0:0:
448,192,201718,1,0,0:0:0:0:
64,192,201718,1,0,0:0:0:0:
320,192,201843,1,0,0:0:0:0:
448,192,201843,1,0,0:0:0:0:
192,192,201968,1,0,0:0:0:0:
320,192,202093,1,0,0:0:0:0:
64,192,202218,1,0,0:0:0:0:
448,192,202218,1,0,0:0:0:0:
192,192,202218,1,0,0:0:0:0:
320,192,202343,1,0,0:0:0:0:
64,192,202468,1,0,0:0:0:0:
448,192,202468,1,0,0:0:0:0:
192,192,202593,1,0,0:0:0:0:
64,192,202718,1,0,0:0:0:0:
448,192,202718,1,0,0:0:0:0:
320,192,202718,1,0,0:0:0:0:
192,192,202843,1,0,0:0:0:0:
448,192,202968,1,0,0:0:0:0:
64,192,203093,1,0,0:0:0:0:
320,192,203093,1,0,0:0:0:0:
448,192,203218,128,0,203343:0:0:0:0:
320,192,203218,128,0,203343:0:0:0:0:
192,192,203218,128,0,203343:0:0:0:0:
64,192,203343,1,0,0:0:0:0:
448,192,203468,1,0,0:0:0:0:
320,192,203593,1,0,0:0:0:0:
192,192,203593,1,0,0:0:0:0:
192,192,203718,1,0,0:0:0:0:
448,192,203718,1,0,0:0:0:0:
64,192,203718,1,0,0:0:0:0:
320,192,203843,1,0,0:0:0:0:
448,192,203968,1,0,0:0:0:0:
192,192,204093,1,0,0:0:0:0:
64,192,204218,1,0,0:0:0:0:
448,192,204218,1,0,0:0:0:0:
320,192,204218,1,0,0:0:0:0:
192,192,204343,1,0,0:0:0:0:
64,192,204468,1,0,0:0:0:0:
448,192,204468,1,0,0:0:0:0:
320,192,204593,1,0,0:0:0:0:
64,192,204718,1,0,0:0:0:0:
448,192,204718,1,0,0:0:0:0:
192,192,204718,1,0,0:0:0:0:
320,192,204843,1,0,0:0:0:0:
64,192,204968,1,0,0:0:0:0:
192,192,205093,1,0,0:0:0:0:
448,192,205093,1,0,0:0:0:0:
320,192,205218,128,0,205343:0:0:0:0:
192,192,205218,128,0,205343:0:0:0:0:
64,192,205218,128,0,205343:0:0:0:0:
448,192,205343,1,0,0:0:0:0:
64,192,205468,1,0,0:0:0:0:
320,192,205593,1,0,0:0:0:0:
192,192,205593,1,0,0:0:0:0:
448,192,205718,1,0,0:0:0:0:
64,192,205718,1,0,0:0:0:0:
192,192,205718,1,0,0:0:0:0:
320,192,205843,1,0,0:0:0:0:
448,192,205968,1,0,0:0:0:0:
192,192,205968,1,0,0:0:0:0:
320,192,206093,1,0,0:0:0:0:
64,192,206218,1,0,0:0:0:0:
448,192,206218,1,0,0:0:0:0:
192,192,206218,1,0,0:0:0:0:
448,192,206343,1,0,0:0:0:0:
320,192,206468,1,0,0:0:0:0:
64,192,206468,1,0,0:0:0:0:
192,192,206593,1,0,0:0:0:0:
320,192,206718,1,0,0:0:0:0:
64,192,206718,1,0,0:0:0:0:
448,192,206718,1,0,0:0:0:0:
192,192,206843,1,0,0:0:0:0:
320,192,206968,1,0,0:0:0:0:
448,192,206968,128,0,207155:0:0:0:0:
192,192,207093,1,0,0:0:0:0:
64,192,207093,1,0,0:0:0:0:
192,192,207218,128,0,207343:0:0:0:0:
64,192,207218,128,0,207343:0:0:0:0:
320,192,207218,128,0,207343:0:0:0:0:
448,192,207218,128,0,207405:0:0:0:0:
448,192,207468,128,0,207718:0:0:0:0:
64,192,207593,1,0,0:0:0:0:
192,192,207593,1,0,0:0:0:0:
320,192,207718,1,0,0:0:0:0:
192,192,207718,1,0,0:0:0:0:
64,192,207843,1,0,0:0:0:0:
320,192,207968,1,0,0:0:0:0:
192,192,208093,1,0,0:0:0:0:
64,192,208218,1,0,0:0:0:0:
448,192,208218,1,0,0:0:0:0:
320,192,208218,1,0,0:0:0:0:
192,192,208343,1,0,0:0:0:0:
64,192,208468,1,0,0:0:0:0:
448,192,208468,1,0,0:0:0:0:
192,192,208593,1,0,0:0:0:0:
64,192,208718,1,0,0:0:0:0:
448,192,208718,1,0,0:0:0:0:
320,192,208718,1,0,0:0:0:0:
192,192,208843,1,0,0:0:0:0:
448,192,208968,128,0,209155:0:0:0:0:
192,192,209093,1,0,0:0:0:0:
64,192,209093,1,0,0:0:0:0:
448,192,209218,128,0,209405:0:0:0:0:
64,192,209218,128,0,209343:0:0:0:0:
192,192,209218,128,0,209343:0:0:0:0:
320,192,209218,128,0,209343:0:0:0:0:
448,192,209468,128,0,209655:0:0:0:0:
64,192,209468,1,0,0:0:0:0:
320,192,209593,1,0,0:0:0:0:
192,192,209593,1,0,0:0:0:0:
192,192,209718,1,0,0:0:0:0:
64,192,209718,1,0,0:0:0:0:
320,192,209843,1,0,0:0:0:0:
448,192,209843,1,0,0:0:0:0:
192,192,209968,1,0,0:0:0:0:
320,192,210093,1,0,0:0:0:0:
192,192,210218,1,0,0:0:0:0:
448,192,210218,1,0,0:0:0:0:
64,192,210218,1,0,0:0:0:0:
320,192,210343,1,0,0:0:0:0:
448,192,210468,1,0,0:0:0:0:
64,192,210468,1,0,0:0:0:0:
192,192,210593,1,0,0:0:0:0:
320,192,210718,1,0,0:0:0:0:
448,192,210718,1,0,0:0:0:0:
64,192,210718,1,0,0:0:0:0:
192,192,210843,1,0,0:0:0:0:
448,192,210968,1,0,0:0:0:0:
320,192,211093,1,0,0:0:0:0:
64,192,211093,1,0,0:0:0:0:
448,192,211218,128,0,211343:0:0:0:0:
320,192,211218,128,0,211343:0:0:0:0:
192,192,211218,128,0,211343:0:0:0:0:
64,192,211343,1,0,0:0:0:0:
448,192,211468,1,0,0:0:0:0:
192,192,211593,1,0,0:0:0:0:
320,192,211593,1,0,0:0:0:0:
64,192,211718,1,0,0:0:0:0:
448,192,211718,1,0,0:0:0:0:
192,192,211718,1,0,0:0:0:0:
320,192,211843,1,0,0:0:0:0:
448,192,211968,1,0,0:0:0:0:
192,192,212093,1,0,0:0:0:0:
320,192,212218,1,0,0:0:0:0:
448,192,212218,1,0,0:0:0:0:
64,192,212218,1,0,0:0:0:0:
192,192,212343,1,0,0:0:0:0:
448,192,212468,1,0,0:0:0:0:
64,192,212468,1,0,0:0:0:0:
320,192,212593,1,0,0:0:0:0:
192,192,212718,1,0,0:0:0:0:
448,192,212718,1,0,0:0:0:0:
64,192,212718,1,0,0:0:0:0:
320,192,212843,1,0,0:0:0:0:
64,192,212968,1,0,0:0:0:0:
448,192,213093,1,0,0:0:0:0:
192,192,213093,1,0,0:0:0:0:
320,192,213218,128,0,213343:0:0:0:0:
192,192,213218,128,0,213343:0:0:0:0:
64,192,213218,128,0,213343:0:0:0:0:
448,192,213343,1,0,0:0:0:0:
64,192,213468,1,0,0:0:0:0:
192,192,213593,1,0,0:0:0:0:
320,192,213593,1,0,0:0:0:0:
64,192,213718,1,0,0:0:0:0:
448,192,213718,1,0,0:0:0:0:
320,192,213718,1,0,0:0:0:0:
192,192,213843,1,0,0:0:0:0:
320,192,213968,1,0,0:0:0:0:
64,192,213968,1,0,0:0:0:0:
448,192,213968,1,0,0:0:0:0:
448,192,214093,1,0,0:0:0:0:
64,192,214218,1,0,0:0:0:0:
320,192,214218,1,0,0:0:0:0:
192,192,214218,1,0,0:0:0:0:
448,192,214343,1,0,0:0:0:0:
64,192,214468,1,0,0:0:0:0:
320,192,214468,1,0,0:0:0:0:
192,192,214593,1,0,0:0:0:0:
448,192,214718,1,0,0:0:0:0:
64,192,214718,1,0,0:0:0:0:
320,192,214718,1,0,0:0:0:0:
192,192,214843,1,0,0:0:0:0:
320,192,214968,1,0,0:0:0:0:
64,192,215093,1,0,0:0:0:0:
192,192,215093,1,0,0:0:0:0:
192,192,215218,128,0,215343:0:0:0:0:
320,192,215218,128,0,215343:0:0:0:0:
448,192,215218,128,0,215343:0:0:0:0:
64,192,215343,1,0,0:0:0:0:
448,192,215468,1,0,0:0:0:0:
320,192,215593,1,0,0:0:0:0:
64,192,215593,1,0,0:0:0:0:
192,192,215718,1,0,0:0:0:0:
448,192,215718,1,0,0:0:0:0:
320,192,215718,1,0,0:0:0:0:
64,192,215843,1,0,0:0:0:0:
320,192,215968,1,0,0:0:0:0:
192,192,216093,1,0,0:0:0:0:
320,192,216218,1,0,0:0:0:0:
448,192,216218,1,0,0:0:0:0:
64,192,216218,1,0,0:0:0:0:
192,192,216343,1,0,0:0:0:0:
448,192,216468,1,0,0:0:0:0:
64,192,216468,1,0,0:0:0:0:
192,192,216593,1,0,0:0:0:0:
320,192,216718,1,0,0:0:0:0:
448,192,216718,1,0,0:0:0:0:
64,192,216718,1,0,0:0:0:0:
192,192,216843,1,0,0:0:0:0:
320,192,216968,1,0,0:0:0:0:
192,192,217093,1,0,0:0:0:0:
448,192,217093,1,0,0:0:0:0:
320,192,217218,128,0,217343:0:0:0:0:
192,192,217218,128,0,217343:0:0:0:0:
64,192,217218,128,0,217343:0:0:0:0:
448,192,217343,1,0,0:0:0:0:
64,192,217468,1,0,0:0:0:0:
192,192,217593,1,0,0:0:0:0:
320,192,217593,1,0,0:0:0:0:
64,192,217718,1,0,0:0:0:0:
448,192,217718,1,0,0:0:0:0:
192,192,217718,1,0,0:0:0:0:
448,192,217843,1,0,0:0:0:0:
320,192,217843,1,0,0:0:0:0:
192,192,217968,1,0,0:0:0:0:
320,192,218093,1,0,0:0:0:0:
192,192,218218,1,0,0:0:0:0:
448,192,218218,1,0,0:0:0:0:
64,192,218218,1,0,0:0:0:0:
320,192,218343,1,0,0:0:0:0:
448,192,218468,1,0,0:0:0:0:
64,192,218468,1,0,0:0:0:0:
192,192,218593,1,0,0:0:0:0:
320,192,218718,1,0,0:0:0:0:
448,192,218718,1,0,0:0:0:0:
64,192,218718,1,0,0:0:0:0:
192,192,218843,1,0,0:0:0:0:
448,192,218968,1,0,0:0:0:0:
320,192,219093,1,0,0:0:0:0:
64,192,219093,1,0,0:0:0:0:
192,192,219218,128,0,219343:0:0:0:0:
320,192,219218,128,0,219343:0:0:0:0:
448,192,219218,128,0,219343:0:0:0:0:
64,192,219343,1,0,0:0:0:0:
448,192,219468,1,0,0:0:0:0:
192,192,219593,1,0,0:0:0:0:
320,192,219593,1,0,0:0:0:0:
64,192,219718,1,0,0:0:0:0:
448,192,219718,1,0,0:0:0:0:
192,192,219718,1,0,0:0:0:0:
320,192,219843,1,0,0:0:0:0:
448,192,219968,1,0,0:0:0:0:
192,192,220093,1,0,0:0:0:0:
320,192,220218,1,0,0:0:0:0:
448,192,220218,1,0,0:0:0:0:
64,192,220218,1,0,0:0:0:0:
192,192,220343,1,0,0:0:0:0:
448,192,220468,1,0,0:0:0:0:
64,192,220468,1,0,0:0:0:0:
320,192,220593,1,0,0:0:0:0:
192,192,220718,1,0,0:0:0:0:
448,192,220718,1,0,0:0:0:0:
64,192,220718,1,0,0:0:0:0:
320,192,220843,1,0,0:0:0:0:
64,192,220968,1,0,0:0:0:0:
448,192,221093,1,0,0:0:0:0:
192,192,221093,1,0,0:0:0:0:
320,192,221218,128,0,221343:0:0:0:0:
192,192,221218,128,0,221343:0:0:0:0:
64,192,221218,128,0,221343:0:0:0:0:
448,192,221343,1,0,0:0:0:0:
64,192,221468,1,0,0:0:0:0:
192,192,221593,1,0,0:0:0:0:
320,192,221593,1,0,0:0:0:0:
64,192,221718,1,0,0:0:0:0:
448,192,221718,1,0,0:0:0:0:
320,192,221718,1,0,0:0:0:0:
192,192,221843,1,0,0:0:0:0:
320,192,221968,1,0,0:0:0:0:
448,192,221968,1,0,0:0:0:0:
64,192,221968,1,0,0:0:0:0:
192,192,222093,1,0,0:0:0:0:
64,192,222218,1,0,0:0:0:0:
320,192,222218,1,0,0:0:0:0:
192,192,222218,1,0,0:0:0:0:
448,192,222343,1,0,0:0:0:0:
64,192,222468,1,0,0:0:0:0:
320,192,222468,1,0,0:0:0:0:
192,192,222593,1,0,0:0:0:0:
448,192,222718,1,0,0:0:0:0:
64,192,222718,1,0,0:0:0:0:
320,192,222718,1,0,0:0:0:0:
192,192,222843,1,0,0:0:0:0:
448,192,222968,128,0,223218:0:0:0:0:
320,192,222968,1,0,0:0:0:0:
64,192,223093,1,0,0:0:0:0:
192,192,223093,1,0,0:0:0:0:
320,192,223218,128,0,223468:0:0:0:0:
64,192,223218,128,0,223468:0:0:0:0:
192,192,223343,1,0,0:0:0:0:
448,192,223468,128,0,223718:0:0:0:0:
192,192,223593,1,0,0:0:0:0:
64,192,223593,1,0,0:0:0:0:
192,192,223718,1,0,0:0:0:0:
320,192,223718,1,0,0:0:0:0:
64,192,223843,1,0,0:0:0:0:
320,192,223968,1,0,0:0:0:0:
192,192,224093,1,0,0:0:0:0:
320,192,224218,1,0,0:0:0:0:
448,192,224218,1,0,0:0:0:0:
64,192,224218,1,0,0:0:0:0:
192,192,224343,1,0,0:0:0:0:
320,192,224343,1,0,0:0:0:0:
448,192,224468,1,0,0:0:0:0:
64,192,224468,1,0,0:0:0:0:
192,192,224593,1,0,0:0:0:0:
320,192,224593,1,0,0:0:0:0:
320,192,224718,1,0,0:0:0:0:
448,192,224718,1,0,0:0:0:0:
192,192,224843,1,0,0:0:0:0:
64,192,224843,1,0,0:0:0:0:
64,192,224968,1,0,0:0:0:0:
320,192,224968,1,0,0:0:0:0:
192,192,225093,1,0,0:0:0:0:
320,192,225093,1,0,0:0:0:0:
448,192,225218,1,0,0:0:0:0:
64,192,225218,1,0,0:0:0:0:
320,192,225280,1,0,0:0:0:0:
192,192,225343,1,0,0:0:0:0:
64,192,225405,1,0,0:0:0:0:
192,192,225468,1,0,0:0:0:0:
320,192,225530,1,0,0:0:0:0:
448,192,225593,1,0,0:0:0:0:
320,192,225655,1,0,0:0:0:0:
64,192,225718,1,0,0:0:0:0:
192,192,225749,1,0,0:0:0:0:
320,192,225780,1,0,0:0:0:0:
448,192,225811,1,0,0:0:0:0:
64,192,225843,1,0,0:0:0:0:
192,192,225874,1,0,0:0:0:0:
320,192,225905,1,0,0:0:0:0:
448,192,225936,1,0,0:0:0:0:
64,192,225968,1,0,0:0:0:0:
192,192,225999,1,0,0:0:0:0:
320,192,226030,1,0,0:0:0:0:
448,192,226061,1,0,0:0:0:0:
64,192,226093,1,0,0:0:0:0:
192,192,226124,1,0,0:0:0:0:
320,192,226155,1,0,0:0:0:0:
448,192,226186,1,0,0:0:0:0:
64,192,226218,1,0,0:0:0:0:
192,192,226218,1,0,0:0:0:0:
320,192,226343,1,0,0:0:0:0:
64,192,226468,1,0,0:0:0:0:
448,192,226468,1,0,0:0:0:0:
192,192,226593,1,0,0:0:0:0:
64,192,226718,1,0,0:0:0:0:
448,192,226718,1,0,0:0:0:0:
320,192,226718,1,0,0:0:0:0:
192,192,226843,1,0,0:0:0:0:
448,192,226968,1,0,0:0:0:0:
64,192,227093,1,0,0:0:0:0:
320,192,227093,1,0,0:0:0:0:
448,192,227218,1,0,0:0:0:0:
320,192,227218,1,0,0:0:0:0:
192,192,227218,1,0,0:0:0:0:
64,192,227343,128,0,227468:0:0:0:0:
192,192,227343,1,0,0:0:0:0:
448,192,227468,1,0,0:0:0:0:
320,192,227593,1,0,0:0:0:0:
192,192,227593,1,0,0:0:0:0:
192,192,227718,1,0,0:0:0:0:
448,192,227718,1,0,0:0:0:0:
64,192,227718,1,0,0:0:0:0:
320,192,227843,1,0,0:0:0:0:
64,192,227968,1,0,0:0:0:0:
192,192,228093,1,0,0:0:0:0:
64,192,228218,1,0,0:0:0:0:
448,192,228218,1,0,0:0:0:0:
320,192,228218,1,0,0:0:0:0:
192,192,228343,1,0,0:0:0:0:
64,192,228468,1,0,0:0:0:0:
448,192,228468,1,0,0:0:0:0:
320,192,228593,1,0,0:0:0:0:
64,192,228718,1,0,0:0:0:0:
448,192,228718,1,0,0:0:0:0:
192,192,228718,1,0,0:0:0:0:
320,192,228843,1,0,0:0:0:0:
64,192,228968,1,0,0:0:0:0:
192,192,229093,1,0,0:0:0:0:
448,192,229093,1,0,0:0:0:0:
192,192,229218,1,0,0:0:0:0:
64,192,229218,1,0,0:0:0:0:
320,192,229218,1,0,0:0:0:0:
448,192,229343,128,0,229468:0:0:0:0:
320,192,229343,1,0,0:0:0:0:
64,192,229468,1,0,0:0:0:0:
320,192,229593,1,0,0:0:0:0:
192,192,229593,1,0,0:0:0:0:
320,192,229718,1,0,0:0:0:0:
448,192,229718,1,0,0:0:0:0:
64,192,229718,1,0,0:0:0:0:
192,192,229843,1,0,0:0:0:0:
320,192,229968,1,0,0:0:0:0:
64,192,229968,1,0,0:0:0:0:
448,192,229968,1,0,0:0:0:0:
448,192,230093,1,0,0:0:0:0:
192,192,230218,1,0,0:0:0:0:
320,192,230218,1,0,0:0:0:0:
64,192,230218,1,0,0:0:0:0:
448,192,230343,1,0,0:0:0:0:
320,192,230468,1,0,0:0:0:0:
64,192,230468,1,0,0:0:0:0:
192,192,230593,1,0,0:0:0:0:
320,192,230718,1,0,0:0:0:0:
64,192,230718,1,0,0:0:0:0:
448,192,230718,1,0,0:0:0:0:
192,192,230843,1,0,0:0:0:0:
320,192,230968,1,0,0:0:0:0:
192,192,231093,1,0,0:0:0:0:
64,192,231093,1,0,0:0:0:0:
192,192,231218,1,0,0:0:0:0:
448,192,231218,1,0,0:0:0:0:
320,192,231218,1,0,0:0:0:0:
320,192,231343,1,0,0:0:0:0:
64,192,231343,128,0,231468:0:0:0:0:
448,192,231468,1,0,0:0:0:0:
64,192,231593,1,0,0:0:0:0:
320,192,231593,1,0,0:0:0:0:
320,192,231718,1,0,0:0:0:0:
448,192,231718,1,0,0:0:0:0:
192,192,231718,1,0,0:0:0:0:
64,192,231843,1,0,0:0:0:0:
320,192,231968,1,0,0:0:0:0:
192,192,232093,1,0,0:0:0:0:
64,192,232218,1,0,0:0:0:0:
448,192,232218,1,0,0:0:0:0:
320,192,232218,1,0,0:0:0:0:
192,192,232343,1,0,0:0:0:0:
64,192,232468,1,0,0:0:0:0:
448,192,232468,1,0,0:0:0:0:
192,192,232593,1,0,0:0:0:0:
64,192,232718,1,0,0:0:0:0:
448,192,232718,1,0,0:0:0:0:
320,192,232718,1,0,0:0:0:0:
192,192,232843,1,0,0:0:0:0:
320,192,232968,1,0,0:0:0:0:
448,192,233093,1,0,0:0:0:0:
192,192,233093,1,0,0:0:0:0:
320,192,233218,1,0,0:0:0:0:
64,192,233218,1,0,0:0:0:0:
192,192,233218,1,0,0:0:0:0:
448,192,233343,128,0,233468:0:0:0:0:
320,192,233343,1,0,0:0:0:0:
64,192,233468,1,0,0:0:0:0:
320,192,233593,1,0,0:0:0:0:
192,192,233593,1,0,0:0:0:0:
192,192,233718,1,0,0:0:0:0:
448,192,233718,1,0,0:0:0:0:
64,192,233718,1,0,0:0:0:0:
320,192,233843,1,0,0:0:0:0:
192,192,233968,1,0,0:0:0:0:
320,192,234093,1,0,0:0:0:0:
64,192,234218,1,0,0:0:0:0:
448,192,234218,1,0,0:0:0:0:
192,192,234218,1,0,0:0:0:0:
320,192,234343,1,0,0:0:0:0:
64,192,234468,1,0,0:0:0:0:
448,192,234468,1,0,0:0:0:0:
192,192,234593,1,0,0:0:0:0:
64,192,234718,1,0,0:0:0:0:
448,192,234718,1,0,0:0:0:0:
320,192,234718,1,0,0:0:0:0:
192,192,234843,1,0,0:0:0:0:
448,192,234968,1,0,0:0:0:0:
64,192,235093,1,0,0:0:0:0:
320,192,235093,1,0,0:0:0:0:
448,192,235218,1,0,0:0:0:0:
320,192,235218,1,0,0:0:0:0:
192,192,235218,1,0,0:0:0:0:
64,192,235343,128,0,235468:0:0:0:0:
192,192,235343,1,0,0:0:0:0:
448,192,235468,1,0,0:0:0:0:
320,192,235593,1,0,0:0:0:0:
192,192,235593,1,0,0:0:0:0:
192,192,235718,1,0,0:0:0:0:
448,192,235718,1,0,0:0:0:0:
64,192,235718,1,0,0:0:0:0:
320,192,235843,1,0,0:0:0:0:
64,192,235968,1,0,0:0:0:0:
192,192,236093,1,0,0:0:0:0:
64,192,236218,1,0,0:0:0:0:
448,192,236218,1,0,0:0:0:0:
320,192,236218,1,0,0:0:0:0:
192,192,236343,1,0,0:0:0:0:
64,192,236468,1,0,0:0:0:0:
448,192,236468,1,0,0:0:0:0:
320,192,236593,1,0,0:0:0:0:
64,192,236718,1,0,0:0:0:0:
448,192,236718,1,0,0:0:0:0:
192,192,236718,1,0,0:0:0:0:
320,192,236843,1,0,0:0:0:0:
64,192,236968,1,0,0:0:0:0:
192,192,237093,1,0,0:0:0:0:
448,192,237093,1,0,0:0:0:0:
192,192,237218,1,0,0:0:0:0:
64,192,237218,1,0,0:0:0:0:
320,192,237218,1,0,0:0:0:0:
448,192,237343,128,0,237468:0:0:0:0:
320,192,237343,1,0,0:0:0:0:
64,192,237468,1,0,0:0:0:0:
320,192,237593,1,0,0:0:0:0:
192,192,237593,1,0,0:0:0:0:
320,192,237718,1,0,0:0:0:0:
448,192,237718,1,0,0:0:0:0:
64,192,237718,1,0,0:0:0:0:
192,192,237843,1,0,0:0:0:0:
320,192,237968,1,0,0:0:0:0:
64,192,237968,1,0,0:0:0:0:
448,192,238093,1,0,0:0:0:0:
192,192,238218,1,0,0:0:0:0:
320,192,238218,1,0,0:0:0:0:
64,192,238218,1,0,0:0:0:0:
448,192,238343,1,0,0:0:0:0:
320,192,238468,1,0,0:0:0:0:
64,192,238468,1,0,0:0:0:0:
192,192,238593,1,0,0:0:0:0:
320,192,238718,1,0,0:0:0:0:
64,192,238718,1,0,0:0:0:0:
448,192,238718,1,0,0:0:0:0:
192,192,238843,1,0,0:0:0:0:
320,192,238968,1,0,0:0:0:0:
448,192,238968,128,0,239218:0:0:0:0:
192,192,239093,1,0,0:0:0:0:
64,192,239093,1,0,0:0:0:0:
320,192,239218,128,0,239468:0:0:0:0:
192,192,239343,1,0,0:0:0:0:
64,192,239343,1,0,0:0:0:0:
448,192,239468,128,0,239718:0:0:0:0:
64,192,239593,1,0,0:0:0:0:
192,192,239593,1,0,0:0:0:0:
320,192,239718,1,0,0:0:0:0:
192,192,239718,1,0,0:0:0:0:
64,192,239843,1,0,0:0:0:0:
320,192,239968,1,0,0:0:0:0:
192,192,240093,1,0,0:0:0:0:
64,192,240218,1,0,0:0:0:0:
448,192,240218,1,0,0:0:0:0:
320,192,240218,1,0,0:0:0:0:
192,192,240343,1,0,0:0:0:0:
64,192,240468,1,0,0:0:0:0:
448,192,240468,1,0,0:0:0:0:
192,192,240593,1,0,0:0:0:0:
64,192,240718,1,0,0:0:0:0:
448,192,240718,1,0,0:0:0:0:
320,192,240718,1,0,0:0:0:0:
192,192,240843,1,0,0:0:0:0:
320,192,240968,128,0,241218:0:0:0:0:
192,192,241093,1,0,0:0:0:0:
64,192,241093,1,0,0:0:0:0:
448,192,241218,128,0,241405:0:0:0:0:
64,192,241218,1,0,0:0:0:0:
320,192,241343,1,0,0:0:0:0:
192,192,241343,1,0,0:0:0:0:
448,192,241468,128,0,241655:0:0:0:0:
64,192,241468,1,0,0:0:0:0:
320,192,241593,1,0,0:0:0:0:
192,192,241593,1,0,0:0:0:0:
192,192,241718,1,0,0:0:0:0:
64,192,241718,1,0,0:0:0:0:
320,192,241843,1,0,0:0:0:0:
448,192,241843,1,0,0:0:0:0:
192,192,241968,1,0,0:0:0:0:
320,192,242093,1,0,0:0:0:0:
64,192,242218,1,0,0:0:0:0:
192,192,242218,1,0,0:0:0:0:
320,192,242343,1,0,0:0:0:0:
64,192,242468,1,0,0:0:0:0:
448,192,242468,1,0,0:0:0:0:
192,192,242593,1,0,0:0:0:0:
64,192,242718,1,0,0:0:0:0:
448,192,242718,1,0,0:0:0:0:
320,192,242718,1,0,0:0:0:0:
192,192,242843,1,0,0:0:0:0:
448,192,242968,1,0,0:0:0:0:
64,192,243093,1,0,0:0:0:0:
320,192,243093,1,0,0:0:0:0:
448,192,243218,1,0,0:0:0:0:
320,192,243218,1,0,0:0:0:0:
192,192,243218,1,0,0:0:0:0:
64,192,243343,128,0,243468:0:0:0:0:
192,192,243343,1,0,0:0:0:0:
448,192,243468,1,0,0:0:0:0:
320,192,243593,1,0,0:0:0:0:
192,192,243593,1,0,0:0:0:0:
192,192,243718,1,0,0:0:0:0:
448,192,243718,1,0,0:0:0:0:
64,192,243718,1,0,0:0:0:0:
320,192,243843,1,0,0:0:0:0:
448,192,243968,1,0,0:0:0:0:
192,192,244093,1,0,0:0:0:0:
64,192,244218,1,0,0:0:0:0:
448,192,244218,1,0,0:0:0:0:
320,192,244218,1,0,0:0:0:0:
192,192,244343,1,0,0:0:0:0:
64,192,244468,1,0,0:0:0:0:
448,192,244468,1,0,0:0:0:0:
320,192,244593,1,0,0:0:0:0:
64,192,244718,1,0,0:0:0:0:
448,192,244718,1,0,0:0:0:0:
192,192,244718,1,0,0:0:0:0:
320,192,244843,1,0,0:0:0:0:
64,192,244968,1,0,0:0:0:0:
192,192,245093,1,0,0:0:0:0:
448,192,245093,1,0,0:0:0:0:
192,192,245218,1,0,0:0:0:0:
64,192,245218,1,0,0:0:0:0:
320,192,245218,1,0,0:0:0:0:
448,192,245343,128,0,245468:0:0:0:0:
320,192,245343,1,0,0:0:0:0:
64,192,245468,1,0,0:0:0:0:
320,192,245593,1,0,0:0:0:0:
192,192,245593,1,0,0:0:0:0:
320,192,245718,1,0,0:0:0:0:
448,192,245718,1,0,0:0:0:0:
64,192,245718,1,0,0:0:0:0:
192,192,245843,1,0,0:0:0:0:
320,192,245968,1,0,0:0:0:0:
448,192,245968,1,0,0:0:0:0:
192,192,246093,1,0,0:0:0:0:
320,192,246218,1,0,0:0:0:0:
64,192,246218,1,0,0:0:0:0:
448,192,246218,1,0,0:0:0:0:
448,192,246343,1,0,0:0:0:0:
320,192,246468,1,0,0:0:0:0:
64,192,246468,1,0,0:0:0:0:
192,192,246593,1,0,0:0:0:0:
320,192,246718,1,0,0:0:0:0:
64,192,246718,1,0,0:0:0:0:
448,192,246718,1,0,0:0:0:0:
192,192,246843,1,0,0:0:0:0:
320,192,246968,1,0,0:0:0:0:
192,192,247093,1,0,0:0:0:0:
64,192,247093,1,0,0:0:0:0:
192,192,247218,1,0,0:0:0:0:
448,192,247218,1,0,0:0:0:0:
320,192,247218,1,0,0:0:0:0:
320,192,247343,1,0,0:0:0:0:
64,192,247343,128,0,247468:0:0:0:0:
448,192,247468,1,0,0:0:0:0:
64,192,247593,1,0,0:0:0:0:
320,192,247593,1,0,0:0:0:0:
320,192,247718,1,0,0:0:0:0:
448,192,247718,1,0,0:0:0:0:
192,192,247718,1,0,0:0:0:0:
64,192,247843,1,0,0:0:0:0:
320,192,247968,1,0,0:0:0:0:
192,192,248093,1,0,0:0:0:0:
64,192,248218,1,0,0:0:0:0:
448,192,248218,1,0,0:0:0:0:
320,192,248218,1,0,0:0:0:0:
192,192,248343,1,0,0:0:0:0:
64,192,248468,1,0,0:0:0:0:
448,192,248468,1,0,0:0:0:0:
192,192,248593,1,0,0:0:0:0:
64,192,248718,1,0,0:0:0:0:
448,192,248718,1,0,0:0:0:0:
320,192,248718,1,0,0:0:0:0:
192,192,248843,1,0,0:0:0:0:
320,192,248968,1,0,0:0:0:0:
448,192,249093,1,0,0:0:0:0:
192,192,249093,1,0,0:0:0:0:
320,192,249218,1,0,0:0:0:0:
64,192,249218,1,0,0:0:0:0:
192,192,249218,1,0,0:0:0:0:
448,192,249343,128,0,249468:0:0:0:0:
320,192,249343,1,0,0:0:0:0:
64,192,249468,1,0,0:0:0:0:
320,192,249593,1,0,0:0:0:0:
192,192,249593,1,0,0:0:0:0:
192,192,249718,1,0,0:0:0:0:
448,192,249718,1,0,0:0:0:0:
64,192,249718,1,0,0:0:0:0:
320,192,249843,1,0,0:0:0:0:
448,192,249843,1,0,0:0:0:0:
192,192,249968,1,0,0:0:0:0:
320,192,250093,1,0,0:0:0:0:
64,192,250218,1,0,0:0:0:0:
448,192,250218,1,0,0:0:0:0:
192,192,250218,1,0,0:0:0:0:
320,192,250343,1,0,0:0:0:0:
64,192,250468,1,0,0:0:0:0:
448,192,250468,1,0,0:0:0:0:
192,192,250593,1,0,0:0:0:0:
64,192,250718,1,0,0:0:0:0:
448,192,250718,1,0,0:0:0:0:
320,192,250718,1,0,0:0:0:0:
192,192,250843,1,0,0:0:0:0:
448,192,250968,1,0,0:0:0:0:
64,192,251093,1,0,0:0:0:0:
320,192,251093,1,0,0:0:0:0:
448,192,251218,1,0,0:0:0:0:
320,192,251218,1,0,0:0:0:0:
192,192,251218,1,0,0:0:0:0:
64,192,251343,128,0,251468:0:0:0:0:
192,192,251343,1,0,0:0:0:0:
448,192,251468,1,0,0:0:0:0:
320,192,251593,1,0,0:0:0:0:
192,192,251593,1,0,0:0:0:0:
192,192,251718,1,0,0:0:0:0:
448,192,251718,1,0,0:0:0:0:
64,192,251718,1,0,0:0:0:0:
320,192,251843,1,0,0:0:0:0:
448,192,251968,1,0,0:0:0:0:
192,192,252093,1,0,0:0:0:0:
64,192,252218,1,0,0:0:0:0:
448,192,252218,1,0,0:0:0:0:
320,192,252218,1,0,0:0:0:0:
192,192,252343,1,0,0:0:0:0:
64,192,252468,1,0,0:0:0:0:
448,192,252468,1,0,0:0:0:0:
320,192,252593,1,0,0:0:0:0:
64,192,252718,1,0,0:0:0:0:
448,192,252718,1,0,0:0:0:0:
192,192,252718,1,0,0:0:0:0:
320,192,252843,1,0,0:0:0:0:
64,192,252968,1,0,0:0:0:0:
192,192,253093,1,0,0:0:0:0:
448,192,253093,1,0,0:0:0:0:
192,192,253218,1,0,0:0:0:0:
64,192,253218,1,0,0:0:0:0:
320,192,253218,1,0,0:0:0:0:
448,192,253343,128,0,253468:0:0:0:0:
320,192,253343,1,0,0:0:0:0:
64,192,253468,1,0,0:0:0:0:
320,192,253593,1,0,0:0:0:0:
192,192,253593,1,0,0:0:0:0:
320,192,253718,1,0,0:0:0:0:
448,192,253718,1,0,0:0:0:0:
64,192,253718,1,0,0:0:0:0:
192,192,253843,1,0,0:0:0:0:
320,192,253968,1,0,0:0:0:0:
448,192,254093,1,0,0:0:0:0:
192,192,254218,1,0,0:0:0:0:
320,192,254218,1,0,0:0:0:0:
64,192,254218,1,0,0:0:0:0:
448,192,254343,1,0,0:0:0:0:
320,192,254343,1,0,0:0:0:0:
64,192,254468,1,0,0:0:0:0:
192,192,254468,1,0,0:0:0:0:
448,192,254593,1,0,0:0:0:0:
320,192,254593,1,0,0:0:0:0:
64,192,254718,1,0,0:0:0:0:
192,192,254718,1,0,0:0:0:0:
320,192,254843,1,0,0:0:0:0:
448,192,254843,1,0,0:0:0:0:
192,192,254968,1,0,0:0:0:0:
64,192,254968,1,0,0:0:0:0:
320,192,255093,1,0,0:0:0:0:
448,192,255093,1,0,0:0:0:0:
64,192,255218,1,0,0:0:0:0:
320,192,255218,1,0,0:0:0:0:
192,192,255343,1,0,0:0:0:0:
448,192,255343,1,0,0:0:0:0:
64,192,255468,1,0,0:0:0:0:
320,192,255468,1,0,0:0:0:0:
192,192,255593,1,0,0:0:0:0:
448,192,255593,1,0,0:0:0:0:
320,192,255718,1,0,0:0:0:0:
64,192,255718,1,0,0:0:0:0:
192,192,255843,1,0,0:0:0:0:
448,192,255843,1,0,0:0:0:0:
64,192,255968,1,0,0:0:0:0:
320,192,255968,1,0,0:0:0:0:
192,192,256093,1,0,0:0:0:0:
448,192,256093,1,0,0:0:0:0:
64,192,256218,1,0,0:0:0:0:
192,192,256249,1,0,0:0:0:0:
320,192,256280,1,0,0:0:0:0:
448,192,256311,1,0,0:0:0:0:
64,192,256343,1,0,0:0:0:0:
192,192,256374,1,0,0:0:0:0:
320,192,256405,1,0,0:0:0:0:
448,192,256436,1,0,0:0:0:0:
64,192,256468,1,0,0:0:0:0:
192,192,256499,1,0,0:0:0:0:
320,192,256530,1,0,0:0:0:0:
448,192,256561,1,0,0:0:0:0:
64,192,256593,1,0,0:0:0:0:
192,192,256624,1,0,0:0:0:0:
320,192,256655,1,0,0:0:0:0:
448,192,256686,1,0,0:0:0:0:
64,192,256718,1,0,0:0:0:0:
192,192,256749,1,0,0:0:0:0:
320,192,256780,1,0,0:0:0:0:
448,192,256811,1,0,0:0:0:0:
64,192,256843,1,0,0:0:0:0:
192,192,256874,1,0,0:0:0:0:
320,192,256905,1,0,0:0:0:0:
448,192,256936,1,0,0:0:0:0:
64,192,256968,1,0,0:0:0:0:
192,192,256999,1,0,0:0:0:0:
320,192,257030,1,0,0:0:0:0:
448,192,257061,1,0,0:0:0:0:
64,192,257093,1,0,0:0:0:0:
192,192,257124,1,0,0:0:0:0:
320,192,257155,1,0,0:0:0:0:
448,192,257186,1,0,0:0:0:0:
192,192,257218,128,0,257468:0:0:0:0:
320,192,257468,128,0,257655:0:0:0:0:
320,192,257718,128,0,257968:0:0:0:0:
192,192,257968,128,0,258593:0:0:0:0:
