osu file format v14

[General]
AudioFilename: Eon Short.mp3
AudioLeadIn: 0
PreviewTime: 65348
Countdown: 1
SampleSet: Normal
StackLeniency: 0.7
Mode: 1
LetterboxInBreaks: 0
WidescreenStoryboard: 1

[Editor]
DistanceSpacing: 1
BeatDivisor: 4
GridSize: 16
TimelineZoom: 0.5999988

[Metadata]
Title:EON BREAK
TitleUnicode:EON BREAK
Artist:Virtual Self
ArtistUnicode:Virtual Self
Creator:Raytoly
Version:Futsuu
Source:
Tags:Rhytoly Porter Robinson technic-Angel electronic instrumental cut version FA Featured Artist osu!
BeatmapID:2377952
BeatmapSetID:1138198

[Difficulty]
HPDrainRate:6.5
CircleSize:5
OverallDifficulty:4
ApproachRate:5
SliderMultiplier:1.4
SliderTickRate:1

[Events]
//Background and Video events
0,0,"ccfcc5b7071eb65b12d8cfd7c51a365bed49fe27_s2_n2.jpg",0,75
//Break Periods
//Storyboard Layer 0 (Background)
//Storyboard Layer 1 (Fail)
//Storyboard Layer 2 (Pass)
//Storyboard Layer 3 (Foreground)
//Storyboard Layer 4 (Overlay)
//Storyboard Sound Samples

[TimingPoints]
2015,333.333333333333,4,1,0,20,1,0
12681,-100,4,1,0,60,0,0
34014,-100,4,1,0,80,0,0
65348,-100,4,1,0,100,0,0
66014,-100,4,1,0,100,0,1
86014,-100,4,1,0,100,0,0
87348,-100,4,1,0,100,0,1
107994,337.078651685393,4,1,0,100,1,9
108668,337.078651685393,4,1,0,100,1,0

[HitObjects]
230,184,2015,5,0,0:0:0:0:
230,184,3348,1,0,0:0:0:0:
230,184,4681,1,8,0:0:0:0:
201,195,7348,1,8,0:0:0:0:
201,195,8681,1,8,0:0:0:0:
201,195,10014,5,0,0:0:0:0:
256,192,11348,12,0,12348,0:0:0:0:
217,225,12681,5,4,0:0:0:0:
246,193,13348,1,8,0:0:0:0:
246,193,13848,1,0,0:0:0:0:
236,197,14348,1,0,0:0:0:0:
236,197,14681,1,8,0:0:0:0:
262,166,15014,1,0,0:0:0:0:
262,166,15181,1,8,0:0:0:0:
262,166,15348,1,0,0:0:0:0:
239,166,16014,1,8,0:0:0:0:
241,160,16514,1,0,0:0:0:0:
272,192,17014,1,8,0:0:0:0:
256,176,17348,1,8,0:0:0:0:
256,176,17681,1,0,0:0:0:0:
256,176,17848,1,8,0:0:0:0:
256,176,18014,1,0,0:0:0:0:
256,192,18681,1,8,0:0:0:0:
240,144,19181,1,0,0:0:0:0:
240,160,19681,1,0,0:0:0:0:
256,160,20014,1,8,0:0:0:0:
256,160,20348,1,0,0:0:0:0:
256,160,20514,1,8,0:0:0:0:
256,160,20681,1,0,0:0:0:0:
256,192,21348,1,8,0:0:0:0:
256,192,21848,1,0,0:0:0:0:
256,192,22181,1,8,0:0:0:0:
256,192,22348,1,0,0:0:0:0:
256,192,22681,1,8,0:0:0:0:
256,192,23014,1,0,0:0:0:0:
256,192,23181,1,0,0:0:0:0:
256,192,23348,1,0,0:0:0:0:
246,193,24014,1,8,0:0:0:0:
246,193,24514,1,0,0:0:0:0:
236,197,25014,1,0,0:0:0:0:
236,197,25348,1,8,0:0:0:0:
262,166,25681,1,0,0:0:0:0:
262,166,25848,1,8,0:0:0:0:
262,166,26014,1,0,0:0:0:0:
239,166,26681,1,8,0:0:0:0:
241,160,27181,1,0,0:0:0:0:
272,192,27681,1,8,0:0:0:0:
256,176,28014,1,8,0:0:0:0:
256,176,28348,1,0,0:0:0:0:
256,176,28514,1,8,0:0:0:0:
256,176,28681,1,0,0:0:0:0:
256,192,29348,1,8,0:0:0:0:
240,144,29848,1,0,0:0:0:0:
240,160,30348,1,0,0:0:0:0:
256,160,30681,1,8,0:0:0:0:
256,160,31014,1,0,0:0:0:0:
256,160,31181,1,8,0:0:0:0:
256,160,31348,1,0,0:0:0:0:
208,176,32014,1,8,0:0:0:0:
256,192,32348,1,0,0:0:0:0:
272,208,32514,1,0,0:0:0:0:
256,208,32681,1,8,0:0:0:0:
256,192,32848,1,8,0:0:0:0:
240,192,33181,1,8,0:0:0:0:
240,192,33348,1,8,0:0:0:0:
240,192,33681,1,8,0:0:0:0:
240,192,34014,1,8,0:0:0:0:
240,192,34681,1,8,0:0:0:0:
240,192,35348,1,0,0:0:0:0:
240,192,36014,1,0,0:0:0:0:
240,192,36348,1,8,0:0:0:0:
240,192,36681,1,0,0:0:0:0:
226,162,37348,1,0,0:0:0:0:
240,192,38014,1,8,0:0:0:0:
256,192,38514,1,8,0:0:0:0:
256,192,39014,1,8,0:0:0:0:
256,192,39348,1,0,0:0:0:0:
240,192,40014,1,0,0:0:0:0:
256,192,40681,1,0,0:0:0:0:
256,192,41348,1,0,0:0:0:0:
256,192,41681,1,8,0:0:0:0:
256,192,42014,1,0,0:0:0:0:
194,153,42681,1,0,0:0:0:0:
332,182,43348,1,0,0:0:0:0:
256,192,44681,1,8,0:0:0:0:
256,192,45348,1,8,0:0:0:0:
256,192,46014,1,0,0:0:0:0:
256,192,46681,1,0,0:0:0:0:
256,192,47014,1,8,0:0:0:0:
256,192,47348,1,0,0:0:0:0:
256,192,48014,1,0,0:0:0:0:
256,192,48681,1,8,0:0:0:0:
208,160,49181,1,8,0:0:0:0:
256,192,49681,1,8,0:0:0:0:
256,192,50014,1,0,0:0:0:0:
256,192,50681,1,0,0:0:0:0:
256,192,51348,1,0,0:0:0:0:
256,192,52014,1,0,0:0:0:0:
256,192,52348,1,8,0:0:0:0:
256,192,52681,1,0,0:0:0:0:
256,192,53014,1,0,0:0:0:0:
256,192,53348,1,0,0:0:0:0:
256,144,53681,1,0,0:0:0:0:
256,144,54014,1,8,0:0:0:0:
256,128,54348,1,8,0:0:0:0:
214,81,54681,1,8,0:0:0:0:
214,81,55014,1,8,0:0:0:0:
256,192,55348,1,4,0:0:0:0:
224,176,56681,1,4,0:0:0:0:
224,176,58014,1,4,0:0:0:0:
224,176,59348,1,0,0:0:0:0:
240,176,59681,1,8,0:0:0:0:
240,176,60014,1,8,0:0:0:0:
213,152,60348,1,0,0:0:0:0:
240,176,60514,1,8,0:0:0:0:
224,176,60681,1,4,0:0:0:0:
224,176,62014,1,0,0:0:0:0:
224,176,62348,1,8,0:0:0:0:
224,176,62681,1,0,0:0:0:0:
224,176,63348,5,4,0:0:0:0:
224,176,64014,1,4,0:0:0:0:
96,160,64681,1,4,0:0:0:0:
224,160,65014,1,12,0:0:0:0:
236,184,65681,1,8,0:0:0:0:
204,198,66014,1,4,0:0:0:0:
226,146,66348,1,8,0:0:0:0:
221,166,66681,1,8,0:0:0:0:
236,165,67014,1,8,0:0:0:0:
236,165,67348,1,0,0:0:0:0:
204,198,67681,1,0,0:0:0:0:
236,165,68014,1,0,0:0:0:0:
204,198,68348,1,0,0:0:0:0:
204,198,68514,1,8,0:0:0:0:
204,198,68681,1,0,0:0:0:0:
204,198,69014,1,0,0:0:0:0:
204,198,69348,1,0,0:0:0:0:
204,198,69681,1,0,0:0:0:0:
241,195,70014,1,8,0:0:0:0:
241,195,70514,1,8,0:0:0:0:
241,195,71014,1,8,0:0:0:0:
353,211,71181,1,8,0:0:0:0:
241,195,71348,1,0,0:0:0:0:
241,210,71681,1,0,0:0:0:0:
239,205,72014,1,0,0:0:0:0:
254,198,72348,1,8,0:0:0:0:
226,142,72514,1,8,0:0:0:0:
254,198,72681,1,0,0:0:0:0:
254,198,73014,1,0,0:0:0:0:
254,198,73348,1,0,0:0:0:0:
254,198,73681,1,8,0:0:0:0:
254,198,73848,1,0,0:0:0:0:
254,198,74014,1,0,0:0:0:0:
254,198,74348,1,0,0:0:0:0:
254,198,74681,1,0,0:0:0:0:
254,198,75014,1,0,0:0:0:0:
254,198,75348,1,0,0:0:0:0:
268,186,76014,1,8,0:0:0:0:
235,165,76181,1,0,0:0:0:0:
235,165,76348,1,8,0:0:0:0:
235,165,76514,1,8,0:0:0:0:
204,198,76681,1,0,0:0:0:0:
226,146,77014,1,8,0:0:0:0:
221,166,77348,1,8,0:0:0:0:
236,165,77681,1,8,0:0:0:0:
236,165,78014,1,0,0:0:0:0:
236,165,78348,1,0,0:0:0:0:
204,198,78681,1,0,0:0:0:0:
204,198,79014,1,0,0:0:0:0:
204,198,79181,1,8,0:0:0:0:
204,198,79348,1,0,0:0:0:0:
204,198,79681,1,0,0:0:0:0:
204,198,80014,1,0,0:0:0:0:
204,198,80348,1,0,0:0:0:0:
241,195,80681,1,8,0:0:0:0:
241,195,81181,1,8,0:0:0:0:
241,195,81681,1,8,0:0:0:0:
241,195,81848,1,8,0:0:0:0:
241,195,82014,1,4,0:0:0:0:
241,210,82348,1,8,0:0:0:0:
239,205,82681,1,8,0:0:0:0:
254,198,83014,1,8,0:0:0:0:
254,198,83181,1,8,0:0:0:0:
254,198,83348,1,4,0:0:0:0:
254,198,83681,1,8,0:0:0:0:
254,198,84014,1,8,0:0:0:0:
254,198,84181,1,8,0:0:0:0:
254,198,84348,1,8,0:0:0:0:
254,198,84514,1,8,0:0:0:0:
254,198,84681,1,0,0:0:0:0:
254,198,85014,1,0,0:0:0:0:
254,198,85348,1,0,0:0:0:0:
254,198,85681,1,0,0:0:0:0:
254,198,86014,1,0,0:0:0:0:
335,132,86681,1,8,0:0:0:0:
279,161,87014,1,0,0:0:0:0:
266,167,87348,1,12,0:0:0:0:
256,176,87681,1,0,0:0:0:0:
336,160,87848,1,8,0:0:0:0:
352,160,88181,1,0,0:0:0:0:
368,160,88348,1,8,0:0:0:0:
368,160,88681,1,8,0:0:0:0:
368,160,89014,1,0,0:0:0:0:
352,160,89181,1,8,0:0:0:0:
256,192,89681,1,8,0:0:0:0:
256,192,90014,1,0,0:0:0:0:
256,192,90348,1,0,0:0:0:0:
272,128,90681,1,0,0:0:0:0:
265,158,90848,1,8,0:0:0:0:
256,192,91014,1,0,0:0:0:0:
256,192,91348,1,8,0:0:0:0:
224,112,91848,1,8,0:0:0:0:
224,96,92348,1,0,0:0:0:0:
224,96,92514,1,0,0:0:0:0:
224,96,92681,1,8,0:0:0:0:
224,112,93014,1,0,0:0:0:0:
224,112,93181,1,8,0:0:0:0:
240,112,93514,1,0,0:0:0:0:
224,112,93681,1,8,0:0:0:0:
224,112,94014,1,8,0:0:0:0:
224,112,94348,1,0,0:0:0:0:
208,112,94514,1,8,0:0:0:0:
192,128,95014,1,8,0:0:0:0:
192,128,95348,1,0,0:0:0:0:
160,112,95681,1,0,0:0:0:0:
144,112,96014,1,0,0:0:0:0:
247,131,96181,1,8,0:0:0:0:
208,176,96348,1,0,0:0:0:0:
208,160,96681,1,0,0:0:0:0:
282,157,97348,1,0,0:0:0:0:
250,147,97514,1,8,0:0:0:0:
282,157,97681,1,0,0:0:0:0:
282,157,97848,1,0,0:0:0:0:
208,176,98014,1,8,0:0:0:0:
208,176,98348,1,0,0:0:0:0:
224,192,98514,1,8,0:0:0:0:
208,176,98848,1,0,0:0:0:0:
224,192,99014,1,8,0:0:0:0:
240,192,99348,1,8,0:0:0:0:
224,192,99681,1,0,0:0:0:0:
224,192,99848,1,8,0:0:0:0:
256,208,100348,1,8,0:0:0:0:
256,224,100681,1,0,0:0:0:0:
224,192,101014,1,0,0:0:0:0:
224,224,101348,1,0,0:0:0:0:
149,147,101514,1,8,0:0:0:0:
256,240,101681,1,0,0:0:0:0:
256,256,102014,1,8,0:0:0:0:
272,256,102514,1,8,0:0:0:0:
121,141,103014,1,0,0:0:0:0:
137,157,103181,1,0,0:0:0:0:
153,157,103348,1,8,0:0:0:0:
153,157,103681,1,0,0:0:0:0:
169,157,103848,1,8,0:0:0:0:
169,173,104181,1,0,0:0:0:0:
185,173,104348,1,8,0:0:0:0:
185,173,104681,1,8,0:0:0:0:
201,173,105014,1,0,0:0:0:0:
240,176,105181,1,8,0:0:0:0:
249,189,105681,1,8,0:0:0:0:
249,189,106014,1,8,0:0:0:0:
265,189,106348,1,8,0:0:0:0:
265,189,106681,1,0,0:0:0:0:
229,146,106848,1,8,0:0:0:0:
265,189,107014,1,0,0:0:0:0:
297,205,107348,1,8,0:0:0:0:
256,176,107994,1,8,0:0:0:0:
256,176,108162,1,8,0:0:0:0:
256,176,108331,1,8,0:0:0:0:
256,176,108499,1,8,0:0:0:0:
256,176,108668,1,8,0:0:0:0:
