osu file format v14

[General]
AudioFilename: audio.mp3
AudioLeadIn: 0
PreviewTime: 65694
Countdown: 0
SampleSet: None
StackLeniency: 0.2
Mode: 0
LetterboxInBreaks: 0
WidescreenStoryboard: 0

[Editor]
Bookmarks: 12361
DistanceSpacing: 2.9
BeatDivisor: 4
GridSize: 16
TimelineZoom: 1.9

[Metadata]
Title:EON BREAK
TitleUnicode:EON BREAK
Artist:Virtual Self
ArtistUnicode:Virtual Self
Creator:HibikiDesu
Version:brEaK
Source:
Tags:
BeatmapID:1862357
BeatmapSetID:890879

[Difficulty]
HPDrainRate:6.2
CircleSize:3.8
OverallDifficulty:9.2
ApproachRate:9.6
SliderMultiplier:1.6
SliderTickRate:1

[Events]
//Background and Video events
Video,0,"eon-break.mp4"
0,0,"Virtual Self.jpg",0,0
//Break Periods
//Storyboard Layer 0 (Background)
//Storyboard Layer 1 (Fail)
//Storyboard Layer 2 (Pass)
//Storyboard Layer 3 (Foreground)
//Storyboard Sound Samples

[TimingPoints]
1695,333.333333333333,4,2,1,60,1,0
9694,-100,4,2,2,60,0,0
12361,-100,4,2,1,60,0,0
33694,-100,4,2,2,60,0,0
52361,-100,4,2,3,60,0,0
61694,-66.6666666666667,4,2,4,60,0,0
63028,-100,4,2,3,60,0,0
64361,-400,4,2,3,60,0,0
65028,-66.6666666666667,4,2,99,60,0,0
65694,-100,4,2,5,80,0,1
83028,-133.333333333333,4,2,5,80,0,1
84361,-100,4,2,3,80,0,1
85694,-100,4,2,3,60,0,0
87028,-100,4,2,5,80,0,1
105694,-100,4,2,3,80,0,1
107028,-100,4,2,3,80,0,0
107672,337.078651685393,4,2,3,60,1,0
108346,337.078651685393,4,2,2,60,1,0
119132,-133.333333333333,4,2,3,60,0,0
140705,-133.333333333333,4,2,2,60,0,0
140789,-133.333333333333,4,2,1,60,0,0
145761,-66.6666666666667,4,2,1,60,0,0
146098,-133.333333333333,4,2,2,60,0,0
146183,-133.333333333333,4,2,1,60,0,0
151492,-133.333333333333,4,2,2,60,0,0
151576,-133.333333333333,4,2,1,60,0,0
156885,-133.333333333333,4,2,2,60,0,0
156969,-133.333333333333,4,2,1,60,0,0
157559,-133.333333333333,4,2,1,30,0,0
158233,-133.333333333333,4,2,1,45,0,0
158907,-133.333333333333,4,2,1,60,0,0
159581,-133.333333333333,4,2,1,75,0,0
160899,337.078651685393,4,2,3,45,1,0
162247,-100,4,2,3,80,0,1
183483,-100,4,2,6,80,0,1
193932,-100,4,2,6,80,0,0
194606,-25,4,2,6,80,0,1
204719,-200,4,2,3,80,0,0
205356,337.078651685393,4,2,1,80,1,0

[Colours]
Combo1 : 239,5,12
Combo2 : 0,0,255
Combo3 : 0,255,255
Combo4 : 150,37,218

[HitObjects]
256,192,9694,12,0,12028,0:0:0:0:
192,142,12361,6,0,P|152:141|112:148,1,80,2|0,0:0|0:0,0:0:0:0:
57,208,12694,1,2,0:0:0:0:
58,227,12777,1,0,0:0:0:0:
60,247,12860,1,0,0:0:0:0:
62,267,12944,1,0,0:0:0:0:
63,287,13027,1,8,0:0:0:0:
176,332,13194,1,0,0:0:0:0:
176,332,13278,1,0,0:0:0:0:
176,332,13361,1,0,0:0:0:0:
249,215,13528,6,0,L|256:295,1,80,2|0,0:0|0:0,0:0:0:0:
341,254,13861,1,2,0:0:0:0:
231,208,14028,1,0,0:0:0:0:
211,209,14111,1,0,0:0:0:0:
191,211,14194,1,2,0:0:0:0:
171,213,14278,1,0,0:0:0:0:
151,214,14361,1,8,0:0:0:0:
82,159,14528,1,0,0:0:0:0:
83,139,14611,1,0,0:0:0:0:
85,119,14694,2,0,L|89:72,1,40
169,44,14861,2,0,L|165:91,1,40
86,99,15028,6,0,P|46:98|6:105,1,80,2|0,0:0|0:0,0:0:0:0:
0,193,15361,1,2,0:0:0:0:
19,194,15444,1,0,0:0:0:0:
39,196,15527,1,0,0:0:0:0:
59,198,15611,1,0,0:0:0:0:
79,199,15694,1,8,0:0:0:0:
195,166,15861,1,0,0:0:0:0:
195,166,15944,1,0,0:0:0:0:
195,166,16028,1,0,0:0:0:0:
261,294,16194,6,0,L|268:215,1,80,2|0,0:0|0:0,0:0:0:0:
341,264,16528,1,2,0:0:0:0:
398,197,16694,1,0,0:0:0:0:
395,177,16777,1,0,0:0:0:0:
394,157,16860,2,0,L|389:110,1,40,2|0,0:0|0:0,0:0:0:0:
283,67,17028,5,8,0:0:0:0:
264,66,17111,1,0,0:0:0:0:
244,64,17194,1,0,0:0:0:0:
224,62,17278,1,0,0:0:0:0:
204,61,17361,2,0,L|156:56,1,40,2|0,0:0|0:0,0:0:0:0:
90,153,17528,1,8,0:0:0:0:
109,152,17611,1,8,0:0:0:0:
129,150,17694,6,0,L|208:143,1,80,2|0,0:0|0:0,0:0:0:0:
275,202,18028,1,2,0:0:0:0:
274,221,18111,1,0,0:0:0:0:
272,241,18194,1,0,0:0:0:0:
270,261,18278,1,0,0:0:0:0:
269,281,18361,1,8,0:0:0:0:
363,356,18528,1,0,0:0:0:0:
363,356,18611,1,0,0:0:0:0:
363,356,18694,1,0,0:0:0:0:
424,220,18861,6,0,L|431:300,1,80,2|0,0:0|0:0,0:0:0:0:
281,326,19194,1,2,0:0:0:0:
342,190,19361,1,0,0:0:0:0:
342,190,19444,1,0,0:0:0:0:
342,190,19528,1,2,0:0:0:0:
297,115,19694,2,0,P|257:107|217:107,1,80,8|0,0:0|0:0,0:0:0:0:
200,123,19944,1,0,0:0:0:0:
199,142,20027,1,0,0:0:0:0:
197,162,20111,1,0,0:0:0:0:
195,182,20194,1,0,0:0:0:0:
291,253,20361,6,0,P|330:246|370:245,1,80,2|0,0:0|0:0,0:0:0:0:
273,340,20694,1,2,0:0:0:0:
273,340,20778,1,0,0:0:0:0:
273,340,20861,1,0,0:0:0:0:
224,197,21028,1,8,0:0:0:0:
304,171,21194,1,0,0:0:0:0:
304,171,21278,1,0,0:0:0:0:
304,171,21361,1,0,0:0:0:0:
162,141,21528,5,2,0:0:0:0:
206,278,21694,1,2,0:0:0:0:
242,115,21861,1,8,0:0:0:0:
242,115,21944,1,8,0:0:0:0:
242,115,22028,1,2,0:0:0:0:
100,85,22194,1,2,0:0:0:0:
224,197,22361,1,8,0:0:0:0:
243,201,22444,1,8,0:0:0:0:
262,197,22527,1,8,0:0:0:0:
281,192,22610,1,8,0:0:0:0:
300,196,22694,1,2,0:0:0:0:
273,340,22861,1,2,0:0:0:0:
117,300,23028,6,0,L|198:294,1,80,2|0,0:0|0:0,0:0:0:0:
354,258,23361,2,0,L|275:252,1,80,2|2,0:0|0:0,0:0:0:0:
201,207,23694,1,8,0:0:0:0:
202,187,23778,1,0,0:0:0:0:
204,167,23861,1,0,0:0:0:0:
206,147,23944,1,0,0:0:0:0:
207,127,24028,1,0,0:0:0:0:
344,54,24194,6,0,L|265:61,1,80,2|0,0:0|0:0,0:0:0:0:
294,145,24528,1,2,0:0:0:0:
351,40,24694,1,0,0:0:0:0:
351,40,24778,1,0,0:0:0:0:
351,40,24861,1,2,0:0:0:0:
365,196,25027,1,8,0:0:0:0:
366,216,25111,1,0,0:0:0:0:
368,236,25194,1,0,0:0:0:0:
370,256,25277,1,0,0:0:0:0:
371,276,25361,2,0,L|375:323,1,40
455,351,25528,2,0,L|451:304,1,40
373,296,25694,6,0,P|333:295|293:301,1,80,2|0,0:0|0:0,0:0:0:0:
137,339,26028,2,0,P|176:345|216:347,1,80,2|0,0:0|0:0,0:0:0:0:
216,257,26361,1,8,0:0:0:0:
196,256,26445,1,0,0:0:0:0:
176,254,26528,1,0,0:0:0:0:
156,252,26611,1,0,0:0:0:0:
136,251,26694,2,0,L|96:247,1,40
109,89,26861,5,2,0:0:0:0:
228,78,27028,1,2,0:0:0:0:
239,197,27194,1,2,0:0:0:0:
174,143,27361,1,8,0:0:0:0:
174,143,27444,1,8,0:0:0:0:
174,143,27528,1,0,0:0:0:0:
293,132,27694,1,8,0:0:0:0:
312,131,27777,1,0,0:0:0:0:
332,135,27860,1,0,0:0:0:0:
350,143,27943,1,8,0:0:0:0:
366,155,28028,1,8,0:0:0:0:
381,169,28110,1,8,0:0:0:0:
396,181,28193,1,8,0:0:0:0:
414,190,28277,1,0,0:0:0:0:
434,195,28361,6,0,L|440:274,1,80,2|0,0:0|0:0,0:0:0:0:
379,338,28694,1,2,0:0:0:0:
379,338,28778,1,0,0:0:0:0:
379,338,28861,1,0,0:0:0:0:
187,304,29028,1,8,0:0:0:0:
206,296,29111,1,0,0:0:0:0:
225,294,29194,1,0,0:0:0:0:
245,299,29277,1,0,0:0:0:0:
264,303,29361,1,0,0:0:0:0:
284,302,29444,1,0,0:0:0:0:
302,294,29528,6,0,L|308:214,1,80,2|0,0:0|0:0,0:0:0:0:
247,152,29861,1,2,0:0:0:0:
170,195,30028,1,0,0:0:0:0:
170,195,30111,1,0,0:0:0:0:
170,195,30194,1,0,0:0:0:0:
93,100,30360,1,8,0:0:0:0:
112,102,30444,1,0,0:0:0:0:
132,103,30527,1,0,0:0:0:0:
152,105,30610,1,8,0:0:0:0:
172,107,30694,2,0,L|219:111,1,40,8|8,0:0|0:0,0:0:0:0:
247,191,30861,2,0,L|199:187,1,40,8|0,0:0|0:0,0:0:0:0:
191,109,31028,6,0,P|190:69|196:29,1,80,2|0,0:0|0:0,0:0:0:0:
284,21,31361,1,2,0:0:0:0:
284,21,31444,1,0,0:0:0:0:
284,21,31528,1,0,0:0:0:0:
180,119,31695,1,8,0:0:0:0:
181,138,31778,1,0,0:0:0:0:
183,158,31861,1,0,0:0:0:0:
185,178,31944,1,0,0:0:0:0:
186,198,32028,1,0,0:0:0:0:
188,218,32111,1,0,0:0:0:0:
190,238,32194,2,0,L|194:285,1,40,2|0,0:0|0:0,0:0:0:0:
429,226,32361,5,2,0:0:0:0:
389,222,32444,1,2,0:0:0:0:
349,219,32528,2,0,L|269:212,1,80,2|8,0:0|0:0,0:0:0:0:
50,122,32861,5,2,0:0:0:0:
96,117,32944,1,2,0:0:0:0:
144,113,33028,2,0,L|191:108,1,40,2|0,0:0|0:0,0:0:0:0:
448,95,33194,5,8,0:0:0:0:
442,150,33277,1,8,0:0:0:0:
437,207,33361,2,0,L|434:238,6,20,8|0|0|0|0|0|0,0:0|0:0|0:0|0:0|0:0|0:0|0:0,0:0:0:0:
319,272,33694,5,2,0:0:0:0:
303,273,34028,1,0,0:0:0:0:
287,274,34361,1,0,0:0:0:0:
271,275,34694,1,0,0:0:0:0:
136,188,35028,5,0,0:0:0:0:
152,189,35362,1,0,0:0:0:0:
168,190,35695,1,0,0:0:0:0:
184,191,36028,1,0,0:0:0:0:
172,63,36194,1,0,0:0:0:0:
115,246,36361,5,0,0:0:0:0:
116,262,36695,1,0,0:0:0:0:
117,278,37028,1,0,0:0:0:0:
118,294,37361,1,0,0:0:0:0:
384,209,37694,5,0,0:0:0:0:
334,204,37777,1,0,0:0:0:0:
284,200,37860,1,0,0:0:0:0:
234,195,37944,1,0,0:0:0:0:
184,191,38028,2,0,L|136:186,1,40
266,82,38195,5,0,0:0:0:0:
316,77,38278,1,0,0:0:0:0:
366,73,38361,1,0,0:0:0:0:
416,68,38445,1,0,0:0:0:0:
466,64,38529,2,0,L|513:59,1,40
484,218,38694,6,0,L|404:224,1,80
191,239,39027,1,0,0:0:0:0:
302,248,39361,1,0,0:0:0:0:
293,359,39694,1,0,0:0:0:0:
182,350,40028,5,0,0:0:0:0:
200,159,40194,1,0,0:0:0:0:
391,177,40361,5,0,0:0:0:0:
281,188,40694,1,0,0:0:0:0:
270,78,41028,1,0,0:0:0:0:
380,67,41362,5,0,0:0:0:0:
398,258,41528,1,0,0:0:0:0:
207,276,41694,5,0,0:0:0:0:
319,285,42028,1,0,0:0:0:0:
383,194,42361,1,0,0:0:0:0:
336,92,42694,1,0,0:0:0:0:
224,82,43028,1,0,0:0:0:0:
160,174,43361,1,0,0:0:0:0:
207,276,43694,5,0,0:0:0:0:
318,266,43861,1,0,0:0:0:0:
343,157,44028,1,0,0:0:0:0:
247,99,44194,1,0,0:0:0:0:
163,172,44361,5,0,0:0:0:0:
52,162,44694,1,0,0:0:0:0:
62,51,45028,1,0,0:0:0:0:
173,61,45361,1,0,0:0:0:0:
163,172,45695,1,0,0:0:0:0:
274,182,46028,1,0,0:0:0:0:
284,71,46361,1,0,0:0:0:0:
173,61,46694,5,0,0:0:0:0:
155,252,46861,1,0,0:0:0:0:
346,270,47028,5,0,0:0:0:0:
235,280,47361,1,0,0:0:0:0:
225,169,47694,1,0,0:0:0:0:
336,159,48028,1,0,0:0:0:0:
145,141,48361,5,0,0:0:0:0:
150,191,48444,1,0,0:0:0:0:
154,241,48527,1,0,0:0:0:0:
159,291,48611,1,0,0:0:0:0:
163,341,48695,2,0,L|168:389,1,40
272,259,48862,5,0,0:0:0:0:
277,209,48945,1,0,0:0:0:0:
281,159,49028,1,0,0:0:0:0:
286,108,49112,1,0,0:0:0:0:
290,59,49196,2,0,L|295:12,1,40
136,41,49361,6,0,L|130:121,1,80
115,334,49693,1,0,0:0:0:0:
106,234,50027,1,0,0:0:0:0:
6,243,50360,1,0,0:0:0:0:
15,343,50694,5,0,0:0:0:0:
206,325,50861,1,0,0:0:0:0:
188,135,51028,5,0,0:0:0:0:
178,246,51361,1,0,0:0:0:0:
67,236,51694,5,0,0:0:0:0:
52,46,51861,1,0,0:0:0:0:
242,30,52028,1,0,0:0:0:0:
257,219,52194,1,0,0:0:0:0:
68,204,52361,5,8,0:0:0:0:
64,194,52444,1,8,0:0:0:0:
62,184,52527,1,8,0:0:0:0:
61,174,52611,1,8,0:0:0:0:
61,164,52694,1,8,0:0:0:0:
63,154,52777,1,8,0:0:0:0:
65,145,52861,1,8,0:0:0:0:
69,136,52944,1,8,0:0:0:0:
74,127,53027,1,8,0:0:0:0:
79,118,53111,1,8,0:0:0:0:
83,109,53194,1,8,0:0:0:0:
86,99,53277,1,8,0:0:0:0:
87,89,53361,1,8,0:0:0:0:
87,79,53444,1,8,0:0:0:0:
87,70,53527,1,8,0:0:0:0:
84,60,53611,1,8,0:0:0:0:
81,50,53694,6,0,P|41:45|1:56,1,80,2|0,0:0|0:0,0:0:0:0:
151,161,54028,2,0,P|190:165|230:154,1,80,2|0,0:0|0:0,0:0:0:0:
356,25,54361,6,0,P|394:14|433:18,1,80,2|0,0:0|0:0,0:0:0:0:
296,86,54611,1,2,0:0:0:0:
296,86,54694,2,0,L|302:165,1,80,2|2,0:0|0:0,0:0:0:0:
311,254,55028,5,2,0:0:0:0:
256,192,55111,12,2,56194,0:0:0:0:
205,131,56361,5,2,0:0:0:0:
316,141,56528,1,2,0:0:0:0:
306,252,56694,1,0,0:0:0:0:
195,242,56861,1,4,0:0:0:0:
164,115,57028,5,0,0:0:0:0:
179,283,57194,1,8,0:0:0:0:
347,268,57361,1,0,0:0:0:0:
332,100,57528,1,2,0:0:0:0:
256,192,57694,5,2,0:0:0:0:
256,192,57778,12,0,58694,0:0:0:0:
393,66,58944,5,2,0:0:0:0:
384,80,59028,2,0,P|326:60|270:74,1,120,2|2,0:0|0:0,0:0:0:0:
261,87,59361,2,0,P|203:67|147:81,1,120,2|2,0:0|0:0,0:0:0:0:
138,94,59694,5,2,0:0:0:0:
134,133,59777,1,2,0:0:0:0:
130,172,59861,1,2,0:0:0:0:
125,210,59944,1,0,0:0:0:0:
120,248,60028,2,0,L|115:295,1,40,2|0,0:0|0:0,0:0:0:0:
142,55,60194,2,0,L|146:7,1,40,2|0,0:0|0:0,0:0:0:0:
256,192,60361,5,2,0:0:0:0:
256,192,60444,12,0,61528,0:0:0:0:
326,89,61694,6,0,B|309:92|294:84|294:84|283:92|278:83|278:83|270:86|270:86|264:82|255:82|255:82|250:87|250:87|242:76|237:77|237:77|229:79|219:82|219:82|207:88|207:88|203:76|203:76|196:81|196:81|189:80|178:75|178:75|170:82|170:82,1,180.000006866455,8|0,0:0|0:0,0:0:0:0:
150,105,62028,1,8,0:0:0:0:
166,281,62194,1,0,0:0:0:0:
342,265,62361,2,0,B|346:271|346:271|339:277|339:277|345:282|346:289|346:289|347:293|338:291|344:298|344:298|333:305|333:305|332:310|332:310|325:311|325:311|321:318|321:318|317:317|317:317|309:317|307:331|307:331|291:317|291:317|280:308|288:302|288:302|288:291|288:291|273:289|259:298|259:298|250:313|236:304|236:304|226:316|226:316|215:303,1,240.000009155274,8|8,0:0|0:0,0:0:0:0:
382,150,63028,6,0,L|429:154,1,40,2|0,0:0|0:0,0:0:0:0:
130,151,63194,2,0,L|82:155,1,40,2|0,0:0|0:0,0:0:0:0:
334,299,63361,2,0,L|329:251,1,40,2|0,0:0|0:0,0:0:0:0:
256,59,63528,2,0,L|251:106,1,40,2|0,0:0|0:0,0:0:0:0:
178,299,63695,5,2,0:0:0:0:
174,259,63778,1,2,0:0:0:0:
171,219,63861,1,2,0:0:0:0:
167,179,63945,1,2,0:0:0:0:
164,139,64028,1,2,0:0:0:0:
396,232,64194,5,2,0:0:0:0:
336,225,64277,1,2,0:0:0:0:
276,221,64361,6,0,L|228:216,1,40,2|0,0:0|0:0,0:0:0:0:
141,55,65028,5,0,0:0:0:0:
392,77,65194,1,0,0:0:0:0:
370,328,65361,1,8,0:0:0:0:
119,306,65528,1,0,0:0:0:0:
118,76,65694,5,2,0:0:0:0:
169,45,65777,1,0,0:0:0:0:
228,40,65860,1,0,0:0:0:0:
281,66,65943,1,0,0:0:0:0:
299,121,66027,1,0,0:0:0:0:
257,157,66110,1,0,0:0:0:0:
215,122,66194,2,0,L|219:74,1,40
404,50,66361,5,10,0:0:0:0:
405,70,66444,1,0,0:0:0:0:
407,90,66527,1,0,0:0:0:0:
409,110,66610,1,0,0:0:0:0:
411,130,66694,1,0,0:0:0:0:
412,150,66777,1,0,0:0:0:0:
414,170,66861,2,0,L|418:217,1,40
249,278,67028,5,2,0:0:0:0:
199,247,67111,1,0,0:0:0:0:
140,242,67194,1,0,0:0:0:0:
87,268,67277,1,0,0:0:0:0:
69,323,67361,1,0,0:0:0:0:
111,358,67444,1,0,0:0:0:0:
153,323,67528,2,0,L|148:275,1,40
29,148,67694,5,10,0:0:0:0:
28,168,67777,1,0,0:0:0:0:
26,188,67860,1,0,0:0:0:0:
24,208,67943,1,0,0:0:0:0:
22,228,68027,1,0,0:0:0:0:
21,248,68110,1,0,0:0:0:0:
19,268,68194,2,0,L|15:315,1,40
178,160,68361,5,2,0:0:0:0:
209,210,68444,1,0,0:0:0:0:
214,269,68527,1,0,0:0:0:0:
188,322,68610,1,0,0:0:0:0:
133,340,68694,1,0,0:0:0:0:
98,298,68777,1,0,0:0:0:0:
133,256,68861,2,0,L|181:261,1,40
324,331,69028,5,10,0:0:0:0:
344,329,69111,1,0,0:0:0:0:
363,327,69194,1,0,0:0:0:0:
383,325,69277,1,0,0:0:0:0:
404,322,69361,1,0,0:0:0:0:
424,322,69444,1,0,0:0:0:0:
443,320,69528,2,0,L|489:315,1,40
207,128,69694,5,2,0:0:0:0:
203,167,69777,1,0,0:0:0:0:
200,207,69860,1,0,0:0:0:0:
196,247,69943,1,0,0:0:0:0:
193,287,70028,2,0,L|188:334,1,40
307,265,70195,5,0,0:0:0:0:
303,226,70278,1,0,0:0:0:0:
300,186,70361,1,10,0:0:0:0:
296,146,70444,1,0,0:0:0:0:
293,106,70529,2,0,L|288:58,1,40
166,184,70694,6,0,L|161:231,1,40
336,203,70861,2,0,L|331:155,1,40
117,127,71028,5,2,0:0:0:0:
86,177,71111,1,0,0:0:0:0:
81,236,71194,1,0,0:0:0:0:
107,289,71277,1,0,0:0:0:0:
162,307,71361,1,0,0:0:0:0:
197,265,71444,1,0,0:0:0:0:
162,223,71528,2,0,L|114:228,1,40
1,366,71694,5,10,0:0:0:0:
21,367,71777,1,0,0:0:0:0:
41,369,71860,1,0,0:0:0:0:
61,371,71943,1,0,0:0:0:0:
81,373,72027,1,0,0:0:0:0:
101,374,72110,1,0,0:0:0:0:
121,376,72194,2,0,L|168:380,1,40
206,187,72361,5,2,0:0:0:0:
257,156,72444,1,0,0:0:0:0:
316,151,72527,1,0,0:0:0:0:
369,177,72610,1,0,0:0:0:0:
387,232,72694,1,0,0:0:0:0:
345,268,72777,1,0,0:0:0:0:
303,233,72861,2,0,L|307:185,1,40
488,225,73028,5,10,0:0:0:0:
489,245,73111,1,0,0:0:0:0:
491,265,73194,1,0,0:0:0:0:
493,285,73277,1,0,0:0:0:0:
495,305,73361,1,0,0:0:0:0:
496,325,73444,1,0,0:0:0:0:
498,345,73528,2,0,L|502:392,1,40
325,337,73694,5,2,0:0:0:0:
294,287,73777,1,0,0:0:0:0:
289,228,73860,1,0,0:0:0:0:
315,175,73943,1,0,0:0:0:0:
370,157,74027,1,0,0:0:0:0:
405,199,74110,1,0,0:0:0:0:
370,241,74194,2,0,L|322:236,1,40
162,179,74361,5,10,0:0:0:0:
161,159,74444,1,0,0:0:0:0:
159,139,74527,1,0,0:0:0:0:
157,119,74610,1,0,0:0:0:0:
155,99,74694,1,0,0:0:0:0:
154,79,74777,1,0,0:0:0:0:
152,59,74861,2,0,L|148:12,1,40
324,193,75028,5,2,0:0:0:0:
355,143,75111,1,0,0:0:0:0:
360,84,75194,1,0,0:0:0:0:
334,31,75277,1,0,0:0:0:0:
279,13,75361,1,0,0:0:0:0:
244,55,75444,1,0,0:0:0:0:
279,97,75528,2,0,L|327:92,1,40
495,72,75694,5,10,0:0:0:0:
481,231,75861,1,0,0:0:0:0:
481,231,75944,1,2,0:0:0:0:
481,231,76028,1,2,0:0:0:0:
322,217,76194,1,2,0:0:0:0:
322,217,76277,1,2,0:0:0:0:
322,217,76361,5,2,0:0:0:0:
271,186,76444,1,0,0:0:0:0:
212,181,76527,1,0,0:0:0:0:
159,207,76610,1,0,0:0:0:0:
141,262,76694,1,0,0:0:0:0:
183,298,76777,1,0,0:0:0:0:
225,263,76861,2,0,L|221:215,1,40
65,165,77028,5,10,0:0:0:0:
64,185,77111,1,0,0:0:0:0:
62,205,77194,1,0,0:0:0:0:
60,225,77277,1,0,0:0:0:0:
58,245,77361,1,0,0:0:0:0:
57,265,77444,1,0,0:0:0:0:
55,285,77528,2,0,L|51:332,1,40
243,348,77694,5,2,0:0:0:0:
274,298,77777,1,0,0:0:0:0:
279,239,77860,1,0,0:0:0:0:
253,186,77943,1,0,0:0:0:0:
198,168,78027,1,0,0:0:0:0:
163,210,78110,1,0,0:0:0:0:
198,252,78194,2,0,L|246:247,1,40
166,77,78361,5,10,0:0:0:0:
146,76,78444,1,0,0:0:0:0:
126,74,78527,1,0,0:0:0:0:
106,72,78610,1,0,0:0:0:0:
86,70,78694,1,0,0:0:0:0:
66,69,78777,1,0,0:0:0:0:
46,67,78861,2,0,L|-1:63,1,40
219,20,79028,5,2,0:0:0:0:
250,71,79111,1,0,0:0:0:0:
255,130,79194,1,0,0:0:0:0:
229,183,79277,1,0,0:0:0:0:
174,201,79361,1,0,0:0:0:0:
138,159,79444,1,0,0:0:0:0:
173,117,79528,2,0,L|221:121,1,40
348,271,79694,5,10,0:0:0:0:
368,270,79777,1,0,0:0:0:0:
388,268,79860,1,0,0:0:0:0:
408,266,79943,1,0,0:0:0:0:
428,264,80027,1,0,0:0:0:0:
448,263,80110,1,0,0:0:0:0:
468,261,80194,2,0,L|515:257,1,40
320,143,80361,5,2,0:0:0:0:
281,139,80444,1,0,0:0:0:0:
241,136,80527,1,0,0:0:0:0:
201,132,80610,1,0,0:0:0:0:
161,129,80695,2,0,L|114:124,1,40
183,243,80862,5,0,0:0:0:0:
222,239,80945,1,0,0:0:0:0:
262,236,81028,1,10,0:0:0:0:
302,232,81111,1,0,0:0:0:0:
342,229,81196,2,0,L|390:224,1,40
264,102,81361,6,0,L|217:97,1,40
245,272,81528,2,0,L|293:267,1,40
321,53,81695,5,2,0:0:0:0:
271,22,81778,1,0,0:0:0:0:
212,17,81861,1,0,0:0:0:0:
159,43,81944,1,0,0:0:0:0:
141,98,82028,1,0,0:0:0:0:
183,133,82111,1,0,0:0:0:0:
225,98,82195,2,0,L|220:49,1,40
42,73,82361,5,10,0:0:0:0:
41,93,82444,1,0,0:0:0:0:
39,113,82527,1,0,0:0:0:0:
37,133,82610,1,0,0:0:0:0:
35,153,82694,1,0,0:0:0:0:
34,173,82777,1,0,0:0:0:0:
32,193,82861,2,0,L|28:240,1,40
191,183,83028,5,2,0:0:0:0:
228,159,83111,1,0,0:0:0:0:
272,156,83194,1,0,0:0:0:0:
312,175,83277,1,0,0:0:0:0:
326,216,83361,1,0,0:0:0:0:
294,243,83444,1,0,0:0:0:0:
263,216,83528,2,0,L|268:167,1,30.0000011444092
396,170,83694,5,10,0:0:0:0:
396,185,83777,1,0,0:0:0:0:
398,199,83860,1,0,0:0:0:0:
399,215,83943,1,0,0:0:0:0:
401,230,84027,1,0,0:0:0:0:
402,245,84110,1,0,0:0:0:0:
403,260,84194,2,0,L|406:295,1,30.0000011444092
182,277,84361,5,10,0:0:0:0:
182,277,84444,1,8,0:0:0:0:
182,277,84528,2,0,P|161:286|135:286,1,40,8|8,0:0|0:0,0:0:0:0:
168,118,84694,5,10,0:0:0:0:
168,118,84777,1,8,0:0:0:0:
168,118,84861,2,0,P|160:97|160:71,1,40,8|8,0:0|0:0,0:0:0:0:
327,104,85028,5,10,0:0:0:0:
327,104,85111,1,8,0:0:0:0:
327,104,85195,2,0,P|347:96|374:96,1,40,8|8,0:0|0:0,0:0:0:0:
341,263,85361,5,10,0:0:0:0:
341,263,85444,1,8,0:0:0:0:
341,263,85528,2,0,P|350:283|350:310,1,40,8|8,0:0|0:0,0:0:0:0:
182,277,85694,5,10,0:0:0:0:
125,301,86361,5,8,0:0:0:0:
365,322,86528,1,2,0:0:0:0:
386,82,86694,1,8,0:0:0:0:
146,61,86861,1,2,0:0:0:0:
146,322,87028,5,2,0:0:0:0:
213,363,87111,1,0,0:0:0:0:
292,369,87194,1,0,0:0:0:0:
362,334,87277,1,0,0:0:0:0:
384,260,87361,1,0,0:0:0:0:
326,215,87444,1,0,0:0:0:0:
273,265,87528,2,0,L|277:312,1,40
481,282,87694,5,10,0:0:0:0:
483,255,87777,1,0,0:0:0:0:
485,228,87860,1,0,0:0:0:0:
488,202,87943,1,0,0:0:0:0:
491,175,88027,1,0,0:0:0:0:
492,148,88110,1,0,0:0:0:0:
495,122,88194,2,0,L|500:59,1,40
296,44,88361,5,2,0:0:0:0:
255,111,88444,1,0,0:0:0:0:
249,190,88527,1,0,0:0:0:0:
284,260,88610,1,0,0:0:0:0:
358,282,88694,1,0,0:0:0:0:
403,224,88777,1,0,0:0:0:0:
353,170,88861,2,0,L|306:174,1,40
199,321,89028,5,10,0:0:0:0:
172,319,89111,1,0,0:0:0:0:
145,317,89194,1,0,0:0:0:0:
119,314,89277,1,0,0:0:0:0:
92,311,89361,1,0,0:0:0:0:
65,310,89444,1,0,0:0:0:0:
39,307,89528,2,0,L|-24:302,1,40
0,104,89694,5,2,0:0:0:0:
67,63,89777,1,0,0:0:0:0:
146,57,89860,1,0,0:0:0:0:
216,92,89943,1,0,0:0:0:0:
238,166,90027,1,0,0:0:0:0:
180,211,90110,1,0,0:0:0:0:
127,161,90194,2,0,L|131:114,1,40
333,122,90361,5,10,0:0:0:0:
335,149,90444,1,0,0:0:0:0:
337,176,90527,1,0,0:0:0:0:
340,202,90610,1,0,0:0:0:0:
343,229,90694,1,0,0:0:0:0:
344,256,90777,1,0,0:0:0:0:
347,282,90861,2,0,L|352:345,1,40
196,276,91028,5,2,0:0:0:0:
190,224,91111,1,0,0:0:0:0:
186,171,91194,1,0,0:0:0:0:
181,118,91277,1,0,0:0:0:0:
177,64,91362,2,0,L|170:2,1,40
329,94,91529,5,0,0:0:0:0:
324,146,91612,1,0,0:0:0:0:
320,199,91695,1,10,0:0:0:0:
314,252,91778,1,0,0:0:0:0:
310,306,91863,2,0,L|304:370,1,40
141,202,92028,6,0,L|134:139,1,40
368,176,92195,2,0,L|361:240,1,40
76,278,92361,5,2,0:0:0:0:
35,211,92444,1,0,0:0:0:0:
29,132,92527,1,0,0:0:0:0:
64,62,92610,1,0,0:0:0:0:
138,40,92694,1,0,0:0:0:0:
183,98,92777,1,0,0:0:0:0:
133,152,92861,2,0,L|86:147,1,40
265,26,93028,5,10,0:0:0:0:
267,53,93111,1,0,0:0:0:0:
269,80,93194,1,0,0:0:0:0:
272,106,93277,1,0,0:0:0:0:
274,133,93361,1,0,0:0:0:0:
276,160,93444,1,0,0:0:0:0:
279,186,93528,2,0,L|283:249,1,40
459,330,93694,5,2,0:0:0:0:
500,263,93777,1,0,0:0:0:0:
506,184,93860,1,0,0:0:0:0:
471,114,93943,1,0,0:0:0:0:
397,92,94027,1,0,0:0:0:0:
352,150,94110,1,0,0:0:0:0:
402,203,94194,2,0,L|449:199,1,40
350,25,94361,5,10,0:0:0:0:
323,23,94444,1,0,0:0:0:0:
296,21,94527,1,0,0:0:0:0:
270,18,94610,1,0,0:0:0:0:
243,15,94694,1,0,0:0:0:0:
216,14,94777,1,0,0:0:0:0:
190,11,94861,2,0,L|127:6,1,40
70,187,95028,5,2,0:0:0:0:
137,228,95111,1,0,0:0:0:0:
216,234,95194,1,0,0:0:0:0:
286,199,95277,1,0,0:0:0:0:
308,125,95361,1,0,0:0:0:0:
250,80,95444,1,0,0:0:0:0:
197,130,95528,2,0,L|201:177,1,40
419,200,95694,5,10,0:0:0:0:
421,173,95777,1,0,0:0:0:0:
423,146,95860,1,0,0:0:0:0:
426,120,95943,1,0,0:0:0:0:
429,93,96027,1,0,0:0:0:0:
430,66,96110,1,0,0:0:0:0:
433,40,96194,2,0,L|438:-23,1,40
319,171,96361,5,2,0:0:0:0:
252,212,96444,1,0,0:0:0:0:
173,218,96527,1,0,0:0:0:0:
103,183,96610,1,0,0:0:0:0:
81,109,96694,1,0,0:0:0:0:
139,64,96777,1,0,0:0:0:0:
193,114,96861,2,0,L|188:161,1,40
63,27,97028,5,10,0:0:0:0:
47,202,97194,2,0,L|44:233,1,20,2|2,0:0|0:0,0:0:0:0:
47,202,97278,2,0,L|44:233,1,20,2|2,0:0|0:0,0:0:0:0:
47,202,97361,1,2,0:0:0:0:
222,218,97528,1,2,0:0:0:0:
236,48,97695,5,2,0:0:0:0:
303,7,97778,1,0,0:0:0:0:
382,1,97861,1,0,0:0:0:0:
452,36,97944,1,0,0:0:0:0:
474,110,98028,1,0,0:0:0:0:
416,155,98111,1,0,0:0:0:0:
362,105,98195,2,0,L|367:58,1,40
483,185,98361,5,10,0:0:0:0:
481,212,98444,1,0,0:0:0:0:
479,239,98527,1,0,0:0:0:0:
476,265,98610,1,0,0:0:0:0:
474,292,98694,1,0,0:0:0:0:
472,319,98777,1,0,0:0:0:0:
469,345,98861,2,0,L|465:408,1,40
296,277,99028,5,2,0:0:0:0:
255,210,99111,1,0,0:0:0:0:
249,131,99194,1,0,0:0:0:0:
284,61,99277,1,0,0:0:0:0:
358,39,99361,1,0,0:0:0:0:
403,97,99444,1,0,0:0:0:0:
353,151,99528,2,0,L|306:146,1,40
199,0,99694,5,10,0:0:0:0:
172,2,99777,1,0,0:0:0:0:
145,4,99860,1,0,0:0:0:0:
119,7,99943,1,0,0:0:0:0:
92,10,100027,1,0,0:0:0:0:
65,11,100110,1,0,0:0:0:0:
39,14,100194,2,0,L|-24:19,1,40
0,219,100361,5,2,0:0:0:0:
67,260,100444,1,0,0:0:0:0:
146,266,100527,1,0,0:0:0:0:
216,231,100610,1,0,0:0:0:0:
238,157,100694,1,0,0:0:0:0:
180,112,100777,1,0,0:0:0:0:
126,162,100861,2,0,L|131:209,1,40
336,208,101028,5,10,0:0:0:0:
338,181,101111,1,0,0:0:0:0:
340,154,101194,1,0,0:0:0:0:
343,128,101277,1,0,0:0:0:0:
345,101,101361,1,0,0:0:0:0:
347,74,101444,1,0,0:0:0:0:
350,48,101528,2,0,L|354:-15,1,40
196,108,101694,5,2,0:0:0:0:
190,160,101777,1,0,0:0:0:0:
186,213,101860,1,0,0:0:0:0:
181,266,101943,1,0,0:0:0:0:
177,320,102028,2,0,L|170:382,1,40
329,290,102195,5,0,0:0:0:0:
324,238,102278,1,0,0:0:0:0:
320,185,102361,1,10,0:0:0:0:
314,132,102444,1,0,0:0:0:0:
310,78,102529,2,0,L|304:14,1,40
141,182,102694,6,0,L|134:245,1,40
368,208,102861,2,0,L|361:144,1,40
76,106,103028,5,2,0:0:0:0:
35,173,103111,1,0,0:0:0:0:
29,252,103194,1,0,0:0:0:0:
64,322,103277,1,0,0:0:0:0:
138,344,103361,1,0,0:0:0:0:
183,286,103444,1,0,0:0:0:0:
133,232,103528,2,0,L|86:237,1,40
224,365,103694,5,10,0:0:0:0:
251,367,103777,1,0,0:0:0:0:
278,369,103860,1,0,0:0:0:0:
304,372,103943,1,0,0:0:0:0:
331,375,104027,1,0,0:0:0:0:
358,376,104110,1,0,0:0:0:0:
384,379,104194,2,0,L|447:384,1,40
336,198,104361,5,2,0:0:0:0:
286,167,104444,1,0,0:0:0:0:
227,162,104527,1,0,0:0:0:0:
174,188,104610,1,0,0:0:0:0:
156,243,104694,1,0,0:0:0:0:
198,278,104777,1,0,0:0:0:0:
240,243,104861,2,0,L|235:194,1,40
85,140,105028,5,10,0:0:0:0:
84,160,105111,1,0,0:0:0:0:
82,180,105194,1,0,0:0:0:0:
80,200,105277,1,0,0:0:0:0:
78,220,105361,1,0,0:0:0:0:
77,240,105444,1,0,0:0:0:0:
75,260,105528,2,0,L|71:307,1,40
330,277,105694,5,10,0:0:0:0:
330,277,105777,1,8,0:0:0:0:
330,277,105861,2,0,P|351:286|377:286,1,40,8|8,0:0|0:0,0:0:0:0:
344,118,106027,5,10,0:0:0:0:
344,118,106110,1,8,0:0:0:0:
344,118,106194,2,0,P|352:97|352:71,1,40,8|8,0:0|0:0,0:0:0:0:
185,104,106361,5,10,0:0:0:0:
185,104,106444,1,8,0:0:0:0:
185,104,106528,2,0,P|165:96|138:96,1,40,8|8,0:0|0:0,0:0:0:0:
171,263,106694,5,10,0:0:0:0:
171,263,106777,1,8,0:0:0:0:
171,263,106861,2,0,P|162:283|162:310,1,40,8|8,0:0|0:0,0:0:0:0:
330,277,107027,5,10,0:0:0:0:
322,244,107672,6,0,P|316:260|307:270,1,20,8|0,0:0|0:0,0:0:0:0:
203,255,107840,6,0,P|186:249|176:240,1,20,8|0,0:0|0:0,0:0:0:0:
192,136,108009,6,0,P|197:119|206:109,1,20,8|0,0:0|0:0,0:0:0:0:
311,125,108177,6,0,P|327:130|337:139,1,20,8|0,0:0|0:0,0:0:0:0:
322,244,108346,5,2,0:0:0:0:
384,96,110537,5,0,0:0:0:0:
392,191,110705,1,0,0:0:0:0:
297,199,110874,1,0,0:0:0:0:
289,104,111042,1,0,0:0:0:0:
63,34,113233,5,0,0:0:0:0:
55,129,113401,1,0,0:0:0:0:
150,137,113570,1,0,0:0:0:0:
158,42,113738,1,0,0:0:0:0:
288,334,115761,5,0,0:0:0:0:
268,240,115930,1,0,0:0:0:0:
351,192,116098,1,0,0:0:0:0:
422,256,116267,1,0,0:0:0:0:
383,344,116435,1,0,0:0:0:0:
52,252,118626,5,0,0:0:0:0:
60,346,118794,1,0,0:0:0:0:
155,338,118963,1,0,0:0:0:0:
146,243,119132,6,0,P|191:209|251:214,1,120.000004577637,2|2,0:0|0:0,0:0:0:0:
326,254,119806,2,0,B|351:212|333:167|333:167|315:122|341:80,1,180.000006866455,8|8,0:0|0:0,0:0:0:0:
411,36,120480,2,0,L|474:41,1,60.0000022888184,8|8,0:0|0:0,0:0:0:0:
273,24,120817,2,0,P|216:26|173:69,1,120.000004577637,2|8,0:0|0:0,0:0:0:0:
345,98,121323,5,0,0:0:0:0:
251,106,121492,1,0,0:0:0:0:
259,201,121660,1,0,0:0:0:0:
354,192,121829,6,0,P|388:237|383:297,1,120.000004577637,2|2,0:0|0:0,0:0:0:0:
307,262,122503,2,0,B|261:244|220:270|220:270|178:295|134:278,1,180.000006866455,8|8,0:0|0:0,0:0:0:0:
174,139,123177,2,0,L|170:199,1,60.0000022888184,8|8,0:0|0:0,0:0:0:0:
84,208,123514,2,0,P|57:157|72:98,1,120.000004577637,2|8,0:0|0:0,0:0:0:0:
150,53,124020,5,0,0:0:0:0:
244,61,124189,1,0,0:0:0:0:
236,156,124357,1,0,0:0:0:0:
141,147,124526,6,0,P|136:203|172:251,1,120.000004577637,2|2,0:0|0:0,0:0:0:0:
251,222,125199,2,0,B|296:204|337:230|337:230|379:255|423:238,1,180.000006866455,8|8,0:0|0:0,0:0:0:0:
383,99,125874,2,0,L|387:158,1,60.0000022888184,2|0,0:0|0:0,0:0:0:0:
473,167,126211,1,8,0:0:0:0:
301,149,126548,1,8,0:0:0:0:
464,74,126716,5,0,0:0:0:0:
473,167,126885,1,0,0:0:0:0:
378,176,127053,1,0,0:0:0:0:
370,81,127222,5,2,0:0:0:0:
354,256,127390,2,0,P|311:293|251:292,1,120.000004577637,8|2,0:0|0:0,0:0:0:0:
197,226,127896,1,8,0:0:0:0:
281,215,128065,1,2,0:0:0:0:
281,215,128149,1,2,0:0:0:0:
281,215,128233,1,8,0:0:0:0:
118,198,128402,1,8,0:0:0:0:
352,170,128570,5,2,0:0:0:0:
372,76,128907,1,0,0:0:0:0:
289,28,129244,1,8,0:0:0:0:
218,92,129581,1,0,0:0:0:0:
257,180,129919,6,0,P|306:207|365:194,1,120.000004577637,2|2,0:0|0:0,0:0:0:0:
436,144,130593,2,0,B|461:185|443:230|443:230|425:275|450:316,1,180.000006866455,8|8,0:0|0:0,0:0:0:0:
400,384,131267,2,0,P|368:378|336:378,1,60.0000022888184,2|2,0:0|0:0,0:0:0:0:
256,384,131604,2,0,L|266:264,1,120.000004577637,8|8,0:0|0:0,0:0:0:0:
84,216,132110,5,0,0:0:0:0:
91,309,132279,1,0,0:0:0:0:
186,301,132447,1,0,0:0:0:0:
177,206,132615,6,0,P|195:150|246:120,1,120.000004577637,2|2,0:0|0:0,0:0:0:0:
217,41,133289,2,0,B|176:16|131:34|131:34|86:52|45:27,1,180.000006866455,8|8,0:0|0:0,0:0:0:0:
5,101,133963,2,0,L|9:161,1,60.0000022888184,8|8,0:0|0:0,0:0:0:0:
76,213,134301,2,0,L|135:219,2,60.0000022888184,2|2|8,0:0|0:0|0:0,0:0:0:0:
0,248,134806,5,0,0:0:0:0:
7,341,134975,1,0,0:0:0:0:
102,333,135143,1,0,0:0:0:0:
94,238,135312,6,0,P|147:255|202:231,1,120.000004577637,2|2,0:0|0:0,0:0:0:0:
273,182,135986,2,0,B|298:223|280:268|280:268|262:313|287:354,1,180.000006866455,8|8,0:0|0:0,0:0:0:0:
360,304,136660,2,0,L|419:309,1,60.0000022888184,8|8,0:0|0:0,0:0:0:0:
507,288,136997,2,0,L|512:347,2,60.0000022888184,2|2|8,0:0|0:0|0:0,0:0:0:0:
370,212,137503,5,0,0:0:0:0:
360,304,137672,1,0,0:0:0:0:
455,313,137840,1,0,0:0:0:0:
465,221,138008,6,0,L|453:93,1,120.000004577637,2|2,0:0|0:0,0:0:0:0:
378,65,138683,2,0,B|337:90|292:73|292:73|246:56|206:81,1,180.000006866455,8|8,0:0|0:0,0:0:0:0:
187,249,139357,5,2,0:0:0:0:
167,155,139694,1,2,0:0:0:0:
250,107,140031,1,8,0:0:0:0:
321,171,140368,1,2,0:0:0:0:
282,259,140705,6,0,L|287:322,1,60.0000022888184,2|0,0:0|0:0,0:0:0:0:
363,355,141042,2,0,L|368:291,1,60.0000022888184,2|0,0:0|0:0,0:0:0:0:
271,330,141379,1,8,0:0:0:0:
205,203,141716,1,0,0:0:0:0:
204,223,141800,1,0,0:0:0:0:
202,244,141884,1,2,0:0:0:0:
201,265,141968,1,0,0:0:0:0:
199,286,142053,5,2,0:0:0:0:
134,339,142222,2,0,P|75:361|21:339,1,120.000004577637,2|2,0:0|0:0,0:0:0:0:
78,275,142728,1,8,0:0:0:0:
17,129,142896,1,0,0:0:0:0:
18,149,142980,1,8,0:0:0:0:
20,170,143064,1,8,0:0:0:0:
21,191,143148,1,8,0:0:0:0:
23,212,143233,1,8,0:0:0:0:
105,196,143402,5,2,0:0:0:0:
197,60,143739,2,0,L|187:180,1,120.000004577637,8|2,0:0|0:0,0:0:0:0:
352,148,144244,5,8,0:0:0:0:
336,115,144328,1,0,0:0:0:0:
301,106,144412,1,0,0:0:0:0:
271,127,144496,1,0,0:0:0:0:
269,164,144581,2,0,L|266:195,1,30.0000011444092,2|0,0:0|0:0,0:0:0:0:
436,133,144750,5,8,0:0:0:0:
420,100,144834,1,0,0:0:0:0:
385,91,144918,1,0,0:0:0:0:
355,112,145002,1,0,0:0:0:0:
352,148,145087,2,0,L|349:179,1,30.0000011444092,2|0,0:0|0:0,0:0:0:0:
427,326,145256,5,8,0:0:0:0:
424,291,145340,1,8,0:0:0:0:
421,255,145424,1,8,0:0:0:0:
172,191,145761,6,0,B|218:206|263:193|263:193|246:245|246:245|298:229|337:252,1,240.000009155274,8|2,0:0|0:0,0:0:0:0:
90,100,146435,6,0,L|95:159,1,60.0000022888184,8|0,0:0|0:0,0:0:0:0:
173,192,146772,2,0,L|178:128,1,60.0000022888184,8|0,0:0|0:0,0:0:0:0:
96,180,147110,1,2,0:0:0:0:
98,201,147194,1,0,0:0:0:0:
100,222,147278,1,0,0:0:0:0:
102,243,147363,1,0,0:0:0:0:
104,264,147447,1,2,0:0:0:0:
105,285,147531,1,0,0:0:0:0:
107,306,147615,6,0,P|166:284|220:306,1,120.000004577637,8|8,0:0|0:0,0:0:0:0:
272,368,148121,1,8,0:0:0:0:
294,229,148458,2,0,L|300:289,1,60.0000022888184,8|0,0:0|0:0,0:0:0:0:
336,311,148711,1,8,0:0:0:0:
336,311,148795,6,0,P|365:300|392:311,1,60.0000022888184,8|2,0:0|0:0,0:0:0:0:
384,164,149132,2,0,L|378:224,1,60.0000022888184,8|0,0:0|0:0,0:0:0:0:
243,20,149469,5,8,0:0:0:0:
230,62,149553,1,8,0:0:0:0:
228,107,149637,1,8,0:0:0:0:
237,151,149721,1,8,0:0:0:0:
256,192,149806,1,8,0:0:0:0:
276,231,149890,1,8,0:0:0:0:
286,276,149974,1,8,0:0:0:0:
286,320,150058,1,8,0:0:0:0:
275,364,150143,5,8,0:0:0:0:
144,376,150480,1,2,0:0:0:0:
92,254,150817,1,8,0:0:0:0:
192,167,151154,1,2,0:0:0:0:
305,235,151492,5,2,0:0:0:0:
283,72,151829,1,0,0:0:0:0:
281,93,151913,1,0,0:0:0:0:
279,114,151997,1,0,0:0:0:0:
277,135,152082,1,0,0:0:0:0:
275,156,152166,1,8,0:0:0:0:
385,262,152334,1,8,0:0:0:0:
429,72,152503,1,0,0:0:0:0:
431,93,152587,1,0,0:0:0:0:
433,114,152671,1,0,0:0:0:0:
435,135,152756,1,0,0:0:0:0:
437,156,152840,1,0,0:0:0:0:
439,177,152924,1,0,0:0:0:0:
440,197,153008,6,0,P|386:175|331:195,1,120.000004577637,8|2,0:0|0:0,0:0:0:0:
275,259,153514,2,0,P|329:281|385:262,1,120.000004577637,8|8,0:0|0:0,0:0:0:0:
335,153,154020,1,8,0:0:0:0:
333,174,154104,1,8,0:0:0:0:
331,195,154188,1,2,0:0:0:0:
285,85,154525,5,8,0:0:0:0:
80,191,154862,5,8,0:0:0:0:
136,210,154975,1,8,0:0:0:0:
196,210,155086,1,8,0:0:0:0:
253,192,155199,1,8,0:0:0:0:
309,172,155311,1,8,0:0:0:0:
369,170,155423,1,8,0:0:0:0:
426,188,155536,5,8,0:0:0:0:
424,209,155621,1,0,0:0:0:0:
422,230,155705,1,0,0:0:0:0:
420,251,155790,1,0,0:0:0:0:
418,272,155874,1,8,0:0:0:0:
416,293,155957,1,8,0:0:0:0:
414,314,156042,1,8,0:0:0:0:
248,145,156379,5,8,0:0:0:0:
253,192,156462,1,8,0:0:0:0:
257,240,156547,1,8,0:0:0:0:
439,63,156885,5,2,0:0:0:0:
133,142,157559,5,8,0:0:0:0:
112,130,157643,1,8,0:0:0:0:
101,109,157728,1,8,0:0:0:0:
101,85,157812,1,8,0:0:0:0:
114,64,157896,1,8,0:0:0:0:
135,53,157980,1,8,0:0:0:0:
158,53,158065,1,8,0:0:0:0:
179,65,158149,1,8,0:0:0:0:
191,86,158233,5,8,0:0:0:0:
195,116,158318,1,8,0:0:0:0:
198,147,158402,1,8,0:0:0:0:
201,179,158487,1,8,0:0:0:0:
204,210,158571,1,8,0:0:0:0:
207,242,158654,1,8,0:0:0:0:
210,273,158739,1,8,0:0:0:0:
213,304,158823,1,8,0:0:0:0:
216,335,158907,5,8,0:0:0:0:
283,370,158991,1,8,0:0:0:0:
357,368,159075,1,8,0:0:0:0:
421,328,159160,1,8,0:0:0:0:
456,262,159244,1,8,0:0:0:0:
454,186,159328,1,8,0:0:0:0:
414,123,159412,1,8,0:0:0:0:
348,88,159497,1,8,0:0:0:0:
272,90,159581,5,8,0:0:0:0:
128,145,160899,5,0,0:0:0:0:
148,55,161236,1,0,0:0:0:0:
69,7,161573,1,0,0:0:0:0:
0,68,161910,1,0,0:0:0:0:
0,192,162248,5,10,0:0:0:0:
56,248,162332,1,2,0:0:0:0:
128,279,162416,1,2,0:0:0:0:
202,254,162500,1,2,0:0:0:0:
255,194,162585,1,10,0:0:0:0:
305,132,162669,1,2,0:0:0:0:
378,104,162753,1,2,0:0:0:0:
451,132,162837,1,2,0:0:0:0:
508,188,162921,1,10,0:0:0:0:
481,264,163005,1,2,0:0:0:0:
411,304,163089,1,2,0:0:0:0:
332,290,163173,1,2,0:0:0:0:
281,228,163258,1,10,0:0:0:0:
281,148,163342,1,2,0:0:0:0:
253,72,163427,1,2,0:0:0:0:
183,32,163511,1,2,0:0:0:0:
104,46,163596,5,10,0:0:0:0:
98,125,163680,1,2,0:0:0:0:
91,205,163764,1,2,0:0:0:0:
84,285,163848,1,2,0:0:0:0:
77,364,163933,1,10,0:0:0:0:
157,361,164017,1,2,0:0:0:0:
217,307,164101,1,2,0:0:0:0:
228,228,164185,1,2,0:0:0:0:
185,160,164270,1,10,0:0:0:0:
107,180,164354,1,2,0:0:0:0:
61,245,164437,1,2,0:0:0:0:
68,326,164521,1,2,0:0:0:0:
125,382,164606,2,0,L|172:377,1,40,8|2,0:0|0:0,0:0:0:0:
331,27,164775,5,2,0:0:0:0:
337,106,164859,1,2,0:0:0:0:
344,186,164943,2,0,L|346:217,6,20,10|2|2|2|2|2|2,0:0|0:0|0:0|0:0|0:0|0:0|0:0,0:0:0:0:
272,149,165281,1,10,0:0:0:0:
194,165,165365,1,2,0:0:0:0:
145,228,165450,1,2,0:0:0:0:
148,308,165534,1,2,0:0:0:0:
202,366,165618,1,10,0:0:0:0:
281,372,165702,1,2,0:0:0:0:
345,325,165787,1,2,0:0:0:0:
365,247,165871,1,2,0:0:0:0:
329,176,165955,1,10,0:0:0:0:
345,101,166039,1,2,0:0:0:0:
409,54,166123,1,2,0:0:0:0:
488,62,166207,1,2,0:0:0:0:
493,138,166292,5,10,0:0:0:0:
444,201,166376,1,2,0:0:0:0:
366,215,166460,1,2,0:0:0:0:
299,177,166545,1,2,0:0:0:0:
273,101,166629,1,10,0:0:0:0:
227,36,166713,1,2,0:0:0:0:
152,17,166798,1,2,0:0:0:0:
81,52,166882,1,2,0:0:0:0:
52,127,166966,2,0,L|57:190,1,40,10|2,0:0|0:0,0:0:0:0:
388,108,167134,6,0,L|390:139,1,20,2|2,0:0|0:0,0:0:0:0:
388,108,167219,2,0,L|390:139,1,20,2|2,0:0|0:0,0:0:0:0:
388,108,167303,1,8,0:0:0:0:
165,126,167472,2,0,L|162:157,1,20,2|2,0:0|0:0,0:0:0:0:
165,126,167557,2,0,L|162:157,1,20,2|2,0:0|0:0,0:0:0:0:
165,126,167640,5,10,0:0:0:0:
155,204,167724,1,2,0:0:0:0:
202,267,167808,1,2,0:0:0:0:
278,286,167893,1,2,0:0:0:0:
349,247,167977,1,10,0:0:0:0:
380,174,168061,1,2,0:0:0:0:
352,101,168145,1,2,0:0:0:0:
284,62,168230,1,2,0:0:0:0:
205,79,168314,1,10,0:0:0:0:
156,143,168399,1,2,0:0:0:0:
77,159,168483,1,2,0:0:0:0:
7,119,168567,1,2,0:0:0:0:
35,43,168651,1,10,0:0:0:0:
106,5,168736,1,2,0:0:0:0:
184,22,168820,1,2,0:0:0:0:
231,86,168904,1,2,0:0:0:0:
308,103,168988,5,10,0:0:0:0:
377,65,169073,1,2,0:0:0:0:
332,1,169157,1,2,0:0:0:0:
262,36,169241,1,2,0:0:0:0:
232,108,169325,1,10,0:0:0:0:
256,182,169410,1,2,0:0:0:0:
225,253,169494,1,2,0:0:0:0:
155,286,169578,1,2,0:0:0:0:
80,265,169663,1,10,0:0:0:0:
37,200,169747,1,2,0:0:0:0:
95,148,169831,1,2,0:0:0:0:
154,198,169915,1,2,0:0:0:0:
165,274,170000,1,10,0:0:0:0:
223,324,170084,1,2,0:0:0:0:
299,323,170168,1,2,0:0:0:0:
355,272,170252,1,2,0:0:0:0:
363,196,170337,5,10,0:0:0:0:
288,177,170421,1,2,0:0:0:0:
277,254,170505,1,2,0:0:0:0:
319,319,170590,1,2,0:0:0:0:
393,340,170674,1,10,0:0:0:0:
462,307,170758,1,2,0:0:0:0:
456,228,170842,1,2,0:0:0:0:
449,148,170926,1,2,0:0:0:0:
442,68,171010,1,10,0:0:0:0:
384,13,171095,1,2,0:0:0:0:
304,10,171179,1,2,0:0:0:0:
241,60,171264,1,2,0:0:0:0:
225,138,171347,1,10,0:0:0:0:
266,207,171431,1,2,0:0:0:0:
343,232,171516,1,2,0:0:0:0:
417,200,171601,1,2,0:0:0:0:
451,127,171685,5,10,0:0:0:0:
367,77,171769,1,2,0:0:0:0:
270,94,171854,1,2,0:0:0:0:
207,170,171938,1,2,0:0:0:0:
109,186,172022,1,10,0:0:0:0:
24,133,172106,1,2,0:0:0:0:
67,42,172191,1,2,0:0:0:0:
161,75,172275,1,2,0:0:0:0:
210,161,172359,1,10,0:0:0:0:
190,258,172443,1,2,0:0:0:0:
238,344,172528,1,2,0:0:0:0:
330,377,172612,1,2,0:0:0:0:
421,341,172696,1,10,0:0:0:0:
466,254,172781,1,2,0:0:0:0:
384,200,172865,1,2,0:0:0:0:
321,275,172949,1,2,0:0:0:0:
389,345,173033,6,0,L|391:376,6,20,10|2|2|2|2|2|2,0:0|0:0|0:0|0:0|0:0|0:0|0:0,0:0:0:0:
397,269,173370,1,10,0:0:0:0:
353,206,173455,1,2,0:0:0:0:
278,187,173539,1,2,0:0:0:0:
208,221,173623,1,2,0:0:0:0:
177,292,173707,1,10,0:0:0:0:
107,325,173792,1,2,0:0:0:0:
32,303,173876,1,2,0:0:0:0:
43,225,173960,1,2,0:0:0:0:
102,173,174045,1,10,0:0:0:0:
180,172,174129,1,2,0:0:0:0:
239,222,174213,1,2,0:0:0:0:
250,298,174297,1,2,0:0:0:0:
308,348,174382,5,10,0:0:0:0:
384,347,174466,1,2,0:0:0:0:
440,296,174550,1,2,0:0:0:0:
448,220,174634,1,2,0:0:0:0:
404,157,174719,1,10,0:0:0:0:
329,138,174803,1,2,0:0:0:0:
259,172,174887,1,2,0:0:0:0:
228,243,174972,1,2,0:0:0:0:
158,276,175056,1,10,0:0:0:0:
83,254,175140,1,2,0:0:0:0:
40,188,175224,1,2,0:0:0:0:
50,109,175309,1,2,0:0:0:0:
109,56,175393,1,10,0:0:0:0:
188,54,175477,1,2,0:0:0:0:
248,104,175561,1,2,0:0:0:0:
260,181,175646,1,2,0:0:0:0:
319,231,175730,6,0,L|315:261,6,20,10|2|2|2|2|2|2,0:0|0:0|0:0|0:0|0:0|0:0|0:0,0:0:0:0:
395,212,176067,1,10,0:0:0:0:
440,148,176151,1,2,0:0:0:0:
431,70,176236,1,2,0:0:0:0:
373,18,176320,1,2,0:0:0:0:
313,68,176404,1,10,0:0:0:0:
300,145,176488,1,2,0:0:0:0:
340,211,176573,1,2,0:0:0:0:
326,287,176657,1,2,0:0:0:0:
265,335,176741,1,10,0:0:0:0:
187,331,176825,1,2,0:0:0:0:
130,276,176910,1,2,0:0:0:0:
123,197,176994,1,2,0:0:0:0:
169,132,177078,5,10,0:0:0:0:
239,168,177163,1,2,0:0:0:0:
213,242,177247,1,2,0:0:0:0:
144,280,177331,1,2,0:0:0:0:
66,263,177415,1,10,0:0:0:0:
18,198,177500,1,2,0:0:0:0:
24,117,177584,2,0,L|26:85,4,20,2|2|2|2|10,0:0|0:0|0:0|0:0|0:0,0:0:0:0:
101,187,177921,2,0,L|103:218,4,20,2|2|2|2|10,0:0|0:0|0:0|0:0|0:0,0:0:0:0:
174,113,178258,2,0,L|176:81,1,20,2|2,0:0|0:0,0:0:0:0:
174,113,178342,2,0,L|176:81,1,20,2|2,0:0|0:0,0:0:0:0:
174,113,178427,5,8,0:0:0:0:
201,187,178511,1,2,0:0:0:0:
270,226,178595,1,2,0:0:0:0:
347,210,178679,1,2,0:0:0:0:
394,147,178764,1,10,0:0:0:0:
338,91,178848,1,2,0:0:0:0:
274,138,178932,1,2,0:0:0:0:
256,215,179016,1,2,0:0:0:0:
292,284,179101,1,10,0:0:0:0:
364,312,179185,1,2,0:0:0:0:
436,285,179269,1,2,0:0:0:0:
472,217,179354,1,2,0:0:0:0:
454,142,179438,1,10,0:0:0:0:
375,148,179522,1,2,0:0:0:0:
295,155,179606,1,2,0:0:0:0:
215,162,179690,1,2,0:0:0:0:
136,169,179775,5,10,0:0:0:0:
71,122,179859,1,2,0:0:0:0:
52,43,179943,1,2,0:0:0:0:
127,13,180028,1,2,0:0:0:0:
167,83,180112,1,10,0:0:0:0:
151,162,180196,1,2,0:0:0:0:
87,211,180281,1,2,0:0:0:0:
70,289,180365,1,2,0:0:0:0:
108,359,180449,1,10,0:0:0:0:
182,331,180533,1,2,0:0:0:0:
164,253,180618,1,2,0:0:0:0:
201,182,180702,1,2,0:0:0:0:
275,152,180786,1,10,0:0:0:0:
350,177,180870,1,2,0:0:0:0:
390,245,180955,1,2,0:0:0:0:
375,322,181039,1,2,0:0:0:0:
313,370,181123,5,10,0:0:0:0:
256,315,181207,1,2,0:0:0:0:
302,250,181292,1,2,0:0:0:0:
379,231,181376,1,2,0:0:0:0:
424,166,181460,1,10,0:0:0:0:
415,87,181545,1,2,0:0:0:0:
356,33,181629,1,2,0:0:0:0:
276,30,181713,1,2,0:0:0:0:
213,80,181797,1,10,0:0:0:0:
198,159,181882,1,2,0:0:0:0:
134,208,181966,1,2,0:0:0:0:
53,202,182050,1,2,0:0:0:0:
47,121,182134,1,10,0:0:0:0:
126,103,182219,1,2,0:0:0:0:
197,141,182303,1,2,0:0:0:0:
225,216,182387,1,2,0:0:0:0:
295,254,182472,5,10,0:0:0:0:
353,175,182556,1,2,0:0:0:0:
344,77,182640,1,2,0:0:0:0:
272,8,182724,1,2,0:0:0:0:
172,3,182809,1,10,0:0:0:0:
153,101,182893,1,2,0:0:0:0:
202,187,182977,1,2,0:0:0:0:
182,284,183061,1,2,0:0:0:0:
103,344,183146,1,10,0:0:0:0:
32,273,183230,1,2,0:0:0:0:
92,192,183314,1,2,0:0:0:0:
180,240,183399,1,2,0:0:0:0:
214,333,183483,1,10,0:0:0:0:
445,131,183820,6,0,L|476:133,1,20,2|2,0:0|0:0,0:0:0:0:
447,158,183904,2,0,L|478:160,1,20,2|2,0:0|0:0,0:0:0:0:
449,185,183988,1,2,0:0:0:0:
459,291,184157,1,0,0:0:0:0:
345,112,184326,6,0,L|383:115,1,20,2|2,0:0|0:0,0:0:0:0:
347,144,184410,2,0,L|385:147,1,20,2|2,0:0|0:0,0:0:0:0:
350,177,184494,1,10,0:0:0:0:
362,304,184663,1,0,0:0:0:0:
245,87,184831,6,0,L|267:89,1,20,2|2,0:0|0:0,0:0:0:0:
247,125,184915,2,0,L|269:127,1,20,2|2,0:0|0:0,0:0:0:0:
251,165,184999,1,2,0:0:0:0:
265,317,185168,1,0,0:0:0:0:
144,54,185337,6,0,L|171:56,1,20,2|2,0:0|0:0,0:0:0:0:
147,99,185421,2,0,L|174:101,1,20,2|2,0:0|0:0,0:0:0:0:
152,148,185505,1,2,0:0:0:0:
168,330,185674,1,0,0:0:0:0:
42,12,185842,6,0,L|75:14,1,20,10|2,0:0|0:0,0:0:0:0:
46,66,185926,2,0,L|79:68,1,20,2|2,0:0|0:0,0:0:0:0:
52,125,186010,1,2,0:0:0:0:
71,343,186179,1,0,0:0:0:0:
67,131,186516,6,0,L|35:133,1,20,2|2,0:0|0:0,0:0:0:0:
65,158,186600,2,0,L|33:160,1,20,2|2,0:0|0:0,0:0:0:0:
63,185,186684,1,2,0:0:0:0:
53,291,186853,1,0,0:0:0:0:
167,112,187022,6,0,L|128:115,1,20,2|2,0:0|0:0,0:0:0:0:
165,144,187106,2,0,L|126:147,1,20,2|2,0:0|0:0,0:0:0:0:
162,177,187190,1,10,0:0:0:0:
150,304,187359,1,0,0:0:0:0:
267,87,187527,6,0,L|244:89,1,20,2|2,0:0|0:0,0:0:0:0:
265,125,187611,2,0,L|242:127,1,20,2|2,0:0|0:0,0:0:0:0:
261,165,187695,1,2,0:0:0:0:
247,317,187864,1,0,0:0:0:0:
368,54,188033,6,0,L|340:56,1,20,2|2,0:0|0:0,0:0:0:0:
365,99,188117,2,0,L|337:101,1,20,2|2,0:0|0:0,0:0:0:0:
360,148,188201,1,2,0:0:0:0:
344,330,188370,1,0,0:0:0:0:
470,12,188538,6,0,L|436:14,1,20,10|2,0:0|0:0,0:0:0:0:
466,66,188622,2,0,L|432:68,1,20,2|2,0:0|0:0,0:0:0:0:
460,125,188706,1,2,0:0:0:0:
441,343,188875,1,0,0:0:0:0:
162,177,189213,5,0,0:0:0:0:
352,194,189382,6,0,L|354:225,1,20,2|2,0:0|0:0,0:0:0:0:
379,196,189466,2,0,L|381:227,1,20,2|2,0:0|0:0,0:0:0:0:
406,198,189550,1,2,0:0:0:0:
512,208,189719,1,0,0:0:0:0:
263,276,189888,6,0,L|272:313,1,20,10|2,0:0|0:0,0:0:0:0:
295,272,189972,2,0,L|304:309,1,20,2|2,0:0|0:0,0:0:0:0:
327,269,190056,1,2,0:0:0:0:
455,259,190225,1,0,0:0:0:0:
156,189,190393,6,0,L|158:211,1,20,2|2,0:0|0:0,0:0:0:0:
194,190,190477,2,0,L|196:212,1,20,2|2,0:0|0:0,0:0:0:0:
232,193,190561,1,2,0:0:0:0:
433,216,190730,2,0,L|430:243,1,20,2|2,0:0|0:0,0:0:0:0:
387,217,190814,2,0,L|384:244,1,20,2|2,0:0|0:0,0:0:0:0:
341,220,190898,1,2,0:0:0:0:
82,233,191067,1,0,0:0:0:0:
182,27,191236,6,0,L|215:26,1,20,10|2,0:0|0:0,0:0:0:0:
186,81,191320,2,0,L|219:81,1,20,2|2,0:0|0:0,0:0:0:0:
190,136,191404,2,0,L|223:136,1,20,2|2,0:0|0:0,0:0:0:0:
194,190,191488,2,0,L|227:190,1,20,2|2,0:0|0:0,0:0:0:0:
199,245,191573,1,0,0:0:0:0:
199,245,191910,6,0,L|197:276,1,20,2|2,0:0|0:0,0:0:0:0:
172,247,191994,2,0,L|170:278,1,20,2|2,0:0|0:0,0:0:0:0:
145,249,192078,1,2,0:0:0:0:
39,259,192247,1,0,0:0:0:0:
288,327,192416,6,0,L|279:364,1,20,2|2,0:0|0:0,0:0:0:0:
256,323,192500,2,0,L|247:360,1,20,2|2,0:0|0:0,0:0:0:0:
224,320,192584,1,10,0:0:0:0:
96,310,192753,1,0,0:0:0:0:
395,240,192921,6,0,L|393:262,1,20,2|2,0:0|0:0,0:0:0:0:
355,241,193005,2,0,L|353:263,1,20,2|2,0:0|0:0,0:0:0:0:
316,244,193089,1,2,0:0:0:0:
163,259,193258,1,0,0:0:0:0:
502,346,193427,6,0,L|495:372,1,20,2|2,0:0|0:0,0:0:0:0:
454,338,193511,2,0,L|447:364,1,20,2|2,0:0|0:0,0:0:0:0:
408,334,193595,1,2,0:0:0:0:
224,320,193764,1,0,0:0:0:0:
469,253,193932,5,2,0:0:0:0:
42,294,194269,1,2,0:0:0:0:
151,102,194606,6,0,L|144:182,15,80,2|2|2|2|2|2|2|2|2|2|2|2|2|2|2|2,0:0|0:0|0:0|0:0|0:0|0:0|0:0|0:0|0:0|0:0|0:0|0:0|0:0|0:0|0:0|0:0,0:0:0:0:
137,264,195281,1,8,0:0:0:0:
255,75,195618,6,0,L|248:154,15,80,2|2|2|2|2|2|2|2|2|2|2|2|2|2|2|2,0:0|0:0|0:0|0:0|0:0|0:0|0:0|0:0|0:0|0:0|0:0|0:0|0:0|0:0|0:0|0:0,0:0:0:0:
232,272,196293,1,2,0:0:0:0:
355,44,196629,6,0,L|346:139,4,80,10|2|2|2|2,0:0|0:0|0:0|0:0|0:0,0:0:0:0:
240,123,196966,2,0,L|231:27,4,80,2|2|2|2|2,0:0|0:0|0:0|0:0|0:0,0:0:0:0:
360,281,197303,6,0,L|367:201,15,80,2|2|2|2|2|2|2|2|2|2|2|2|2|2|2|2,0:0|0:0|0:0|0:0|0:0|0:0|0:0|0:0|0:0|0:0|0:0|0:0|0:0|0:0|0:0|0:0,0:0:0:0:
375,120,197978,1,8,0:0:0:0:
257,309,198315,6,0,L|263:229,15,80,2|2|2|2|2|2|2|2|2|2|2|2|2|2|2|2,0:0|0:0|0:0|0:0|0:0|0:0|0:0|0:0|0:0|0:0|0:0|0:0|0:0|0:0|0:0|0:0,0:0:0:0:
280,112,198990,1,2,0:0:0:0:
109,160,199325,5,2,0:0:0:0:
461,241,199494,1,2,0:0:0:0:
67,229,199663,1,2,0:0:0:0:
502,171,199831,1,2,0:0:0:0:
28,158,200000,6,0,L|21:237,15,80,2|2|2|2|2|2|2|2|2|2|2|2|2|2|2|2,0:0|0:0|0:0|0:0|0:0|0:0|0:0|0:0|0:0|0:0|0:0|0:0|0:0|0:0|0:0|0:0,0:0:0:0:
13,319,200675,1,8,0:0:0:0:
131,130,201012,6,0,L|124:209,15,80,2|2|2|2|2|2|2|2|2|2|2|2|2|2|2|2,0:0|0:0|0:0|0:0|0:0|0:0|0:0|0:0|0:0|0:0|0:0|0:0|0:0|0:0|0:0|0:0,0:0:0:0:
108,327,201687,1,2,0:0:0:0:
312,258,202022,6,0,L|216:266,4,80,10|2|2|2|2,0:0|0:0|0:0|0:0|0:0,0:0:0:0:
383,334,202359,2,0,L|478:342,4,80,2|2|2|2|2,0:0|0:0|0:0|0:0|0:0,0:0:0:0:
225,318,202696,6,0,L|218:238,15,80,2|2|2|2|2|2|2|2|2|2|2|2|2|2|2|2,0:0|0:0|0:0|0:0|0:0|0:0|0:0|0:0|0:0|0:0|0:0|0:0|0:0|0:0|0:0|0:0,0:0:0:0:
213,119,203371,1,10,0:0:0:0:
375,52,203707,6,0,L|366:147,4,80,2|2|2|2|2,0:0|0:0|0:0|0:0|0:0,0:0:0:0:
219,56,204045,5,2,0:0:0:0:
141,111,204129,1,2,0:0:0:0:
116,204,204213,1,2,0:0:0:0:
156,291,204297,1,2,0:0:0:0:
243,331,204382,1,2,0:0:0:0:
336,306,204466,1,2,0:0:0:0:
391,228,204550,1,2,0:0:0:0:
383,132,204634,1,2,0:0:0:0:
315,64,204719,1,2,0:0:0:0:
