osu file format v14

[General]
AudioFilename: audio.mp3
AudioLeadIn: 0
PreviewTime: -1
Countdown: 0
SampleSet: None
StackLeniency: 0.2
Mode: 0
LetterboxInBreaks: 0
WidescreenStoryboard: 0

[Editor]
DistanceSpacing: 0.9
BeatDivisor: 8
GridSize: 4
TimelineZoom: 4.800001

[Metadata]
Title:EON BREAK
TitleUnicode:EON BREAK
Artist:Virtual Self
ArtistUnicode:Virtual Self
Creator:Freimox
Version:reborn
Source:
Tags:Porter Robinson, Virtual Self, Virtual-Self, EON BREAK, Eon Break, EDM, Electronic
BeatmapID:1454937
BeatmapSetID:687551

[Difficulty]
HPDrainRate:2
CircleSize:3.5
OverallDifficulty:5.5
ApproachRate:10
SliderMultiplier:1.4
SliderTickRate:1

[Events]
//Background and Video events
0,0,"55003191_p0.jpg",0,0
//Break Periods
//Storyboard Layer 0 (Background)
//Storyboard Layer 1 (Fail)
//Storyboard Layer 2 (Pass)
//Storyboard Layer 3 (Foreground)
//Storyboard Sound Samples

[TimingPoints]
1524,2727.27272727273,4,1,0,100,1,0
1524,-25,4,2,0,0,0,0
12190,333.333333333333,4,1,0,100,1,0
12190,-66.6666666666667,4,3,0,25,0,0
14189,-200,4,2,0,25,0,0
15023,333.333333333333,4,1,0,100,1,0
15023,-100,4,3,0,45,0,0
27522,-133.333333333333,4,3,0,45,0,0
28189,-66.6666666666667,4,3,0,30,0,0
28289,-51.2820512820513,4,3,0,40,0,0
32606,-51.2820512820513,4,3,0,50,0,0
33522,-51.2820512820512,4,1,0,50,0,0
54189,-50,4,1,0,50,0,0
54857,333.333333333333,4,1,0,100,1,0
55357,-100,4,1,0,45,0,0
56357,-133.333333333333,4,2,0,25,0,0
57523,-133.333333333333,4,1,0,45,0,0
59356,-133.333333333333,4,3,0,45,0,0
61523,-50,4,3,0,45,0,0
62856,-50,4,1,0,45,0,0
68356,-100,4,1,0,45,0,0
75523,-100,4,1,0,45,0,0
86856,-50,4,1,0,65,0,1
87190,-50,4,1,0,49,0,1
97690,-50,4,1,0,59,0,1
103856,-100,4,1,0,39,0,1
105190,-100,4,1,0,39,0,1
107481,-50,4,2,0,39,0,1
107648,-58.8235294117647,4,2,0,39,0,1
107815,-71.4285714285714,4,2,0,39,0,1
107981,-90.9090909090909,4,2,0,39,0,1
108148,-125,4,2,0,39,0,1
108190,-200,4,2,0,0,0,0
108523,-133.333333333333,4,3,0,35,0,0
109023,-62.5,4,3,0,35,0,0
109523,-100,4,3,0,35,0,0
110356,-100,4,2,0,35,0,0
111190,-76.9230769230769,4,3,0,35,0,0
112190,-100,4,3,0,35,0,0
113023,-100,4,2,0,35,0,0
113856,-100,4,3,0,35,0,0
115606,-100,4,2,0,25,0,0
116523,-100,4,3,0,35,0,0
117023,-66.6666666666667,4,3,0,35,0,0
119273,-100,4,3,0,35,0,0
131940,333.333333333333,4,1,0,100,1,0
131940,-100,4,3,0,35,0,0
139106,-133.333333333333,4,3,0,35,0,0
139440,-100,4,3,0,35,0,0
145606,-62.5,4,3,0,35,0,0
147773,-62.5,4,3,0,65,0,0
148273,-100,4,3,0,35,0,0
148606,-66.6666666666667,4,3,0,44,0,0
151606,-66.6666666666667,4,3,0,40,0,0
159106,-66.6666666666667,4,2,0,40,0,0
160689,333.333333333333,4,1,0,100,1,0
160689,-100,4,2,0,40,0,0
162022,337.078651685393,4,1,0,100,1,0
162022,-33.3333333333333,4,3,2,74,0,1
171502,-35.7142857142857,4,3,2,74,0,1
171670,-38.4615384615385,4,3,2,74,0,1
171839,-41.6666666666667,4,3,2,74,0,1
172007,-45.4545454545455,4,3,2,74,0,1
172176,-50,4,3,2,74,0,1
172345,-55.5555555555556,4,3,2,74,0,1
172513,-62.5,4,3,2,74,0,1
172682,-71.4285714285714,4,3,2,74,0,1
172934,-71.4285714285714,4,3,2,74,0,1
174620,-33.3333333333333,4,3,2,74,0,1
176389,-50,4,3,2,74,0,1
182288,-33.3333333333333,4,3,2,74,0,1
183637,-33.3333333333333,4,3,3,74,0,1
194086,-66.6666666666667,4,2,0,74,0,1
194507,-66.6666666666667,4,3,2,74,0,1
194760,-66.6666666666667,4,3,2,74,0,0
199816,-33.3333333333333,4,3,2,74,0,0
203187,-66.6666666666667,4,3,2,74,0,0
204451,-33.3333333333333,4,3,2,74,0,0
205168,-33.3333333333333,4,2,0,24,0,0
210561,-33.3333333333333,4,2,0,11,0,0

[Colours]
Combo1 : 23,255,29
Combo2 : 88,117,85
Combo3 : 117,134,155
Combo4 : 150,116,122
Combo5 : 147,137,108
Combo6 : 36,239,255
SliderBorder : 132,132,132
SliderTrackOverride : 192,192,192

[HitObjects]
108,100,1524,6,0,P|144:100|304:288,2,280
108,100,4190,2,0,P|220:108|364:200,2,280
108,100,6857,2,0,P|244:72|396:112,2,280
108,100,9523,2,0,P|120:168|300:284,1,280
361,149,11190,6,0,L|337:329,1,175
431,85,12190,2,0,L|420:203,1,105.000004005432,4|0,0:0|0:0,0:0:0:0:
341,142,12523,2,0,L|324:279,1,105.000004005432
247,98,12857,5,2,0:0:0:0:
225,119,12940,1,0,0:0:0:0:
201,135,13023,1,0,0:0:0:0:
373,159,13190,5,0,0:0:0:0:
369,196,13273,1,0,0:0:0:0:
352,230,13357,1,0,0:0:0:0:
276,27,13523,1,2,0:0:0:0:
142,135,13690,1,2,0:0:0:0:
225,22,13857,1,2,0:0:0:0:
290,173,14023,1,2,0:0:0:0:
104,53,14189,2,2,P|85:110|132:203,1,140
46,159,14939,37,2,0:0:0:0:
190,214,15023,1,0,0:0:0:0:
179,119,15189,5,0,0:0:0:0:
234,180,15356,1,0,0:0:0:0:
312,58,15523,1,2,0:0:0:0:
342,105,15689,1,0,0:0:0:0:
358,161,15856,1,0,0:0:0:0:
362,207,16022,5,0,0:0:0:0:
434,67,16189,1,2,0:0:0:0:
325,259,16356,5,0,0:0:0:0:
427,152,16523,1,0,0:0:0:0:
299,177,16689,37,0,0:0:0:0:
421,219,16856,1,2,0:0:0:0:
288,108,17022,5,0,0:0:0:0:
386,276,17189,1,0,0:0:0:0:
329,84,17356,5,0,0:0:0:0:
130,18,17522,1,2,0:0:0:0:
97,56,17689,1,0,0:0:0:0:
89,109,17856,1,0,0:0:0:0:
107,168,18022,5,0,0:0:0:0:
237,42,18189,1,2,0:0:0:0:
160,192,18356,37,0,0:0:0:0:
183,37,18522,1,0,0:0:0:0:
213,198,18689,5,0,0:0:0:0:
140,53,18856,1,2,0:0:0:0:
101,104,19022,1,0,0:0:0:0:
86,169,19189,1,0,0:0:0:0:
95,235,19356,1,0,0:0:0:0:
124,294,19522,2,0,P|194:246|261:235,1,140,2|0,0:0|0:0,0:0:0:0:
246,235,20189,6,0,P|176:187|109:176,1,140,2|0,0:0|0:0,0:0:0:0:
282,129,20689,1,0,0:0:0:0:
129,144,20856,1,2,0:0:0:0:
146,74,21022,1,0,0:0:0:0:
145,203,21189,1,0,0:0:0:0:
187,254,21356,5,0,0:0:0:0:
217,122,21522,1,2,0:0:0:0:
149,212,21689,37,0,0:0:0:0:
249,156,21856,1,0,0:0:0:0:
128,158,22022,5,0,0:0:0:0:
272,215,22189,1,2,0:0:0:0:
120,68,22356,1,0,0:0:0:0:
128,76,22522,6,0,L|136:236,1,140
228,48,23022,1,0,0:0:0:0:
88,123,23189,2,0,L|139:175,1,70
102,39,23522,2,0,L|122:121,1,70,2|0,0:0|0:0,0:0:0:0:
238,24,23856,1,0,0:0:0:0:
274,55,24022,1,0,0:0:0:0:
286,92,24189,1,2,0:0:0:0:
282,137,24356,1,0,0:0:0:0:
371,32,24522,1,0,0:0:0:0:
271,159,24689,1,0,0:0:0:0:
405,90,24856,2,0,B|402:84|402:84|406:90|406:90|399:99|399:99|405:97|405:97|395:93|395:93|398:85|398:85|405:98|405:98|395:94|395:94|407:90|407:90|410:95|410:95|398:97|398:97|396:95|396:95|396:92|396:92|396:81|396:81|404:89|404:89|404:89|404:89|401:84|401:84|407:84|407:84|406:82|406:82|403:80|403:80|403:91|403:91|396:85|396:85|409:89|409:89|396:93|396:93|396:84|396:84|395:87|395:87,1,210,2|0,0:0|0:0,0:0:0:0:
337,298,25522,1,0,0:0:0:0:
259,196,25689,1,0,0:0:0:0:
371,260,25856,5,0,0:0:0:0:
230,242,26022,1,0,0:0:0:0:
372,192,26189,38,2,L|321:247,1,70,2|0,0:0|0:0,0:0:0:0:
329,110,26522,2,0,L|321:189,1,70
184,48,26856,1,2,0:0:0:0:
312,72,27022,1,0,0:0:0:0:
180,100,27189,5,0,0:0:0:0:
96,176,27356,1,0,0:0:0:0:
220,140,27522,2,0,P|236:184|192:236,1,105.000004005432,2|0,0:0|0:0,0:0:0:0:
220,140,28189,6,0,P|236:184|192:236,1,105.000004005432,2|0,0:0|0:0,0:0:0:0:
316,52,28522,1,0,0:0:0:0:
344,200,28689,1,0,0:0:0:0:
384,40,28856,1,2,0:0:0:0:
336,96,29022,1,0,0:0:0:0:
320,160,29189,1,0,0:0:0:0:
324,232,29356,1,0,0:0:0:0:
356,296,29522,1,2,0:0:0:0:
336,268,29689,1,0,0:0:0:0:
272,248,29856,1,0,0:0:0:0:
208,232,30022,1,0,0:0:0:0:
240,176,30189,1,2,0:0:0:0:
244,184,30522,5,2,0:0:0:0:
244,184,30606,37,2,0:0:0:0:
244,184,30689,5,2,0:0:0:0:
316,152,30856,1,0,0:0:0:0:
272,116,31022,1,0,0:0:0:0:
204,96,31189,1,0,0:0:0:0:
240,64,31356,1,0,0:0:0:0:
392,140,31522,1,2,0:0:0:0:
408,208,31689,1,0,0:0:0:0:
380,264,31856,1,0,0:0:0:0:
324,304,32022,1,0,0:0:0:0:
260,328,32189,1,4,0:0:0:0:
152,176,32356,1,10,0:0:0:0:
152,176,32689,5,2,0:0:0:0:
312,56,32856,1,0,0:0:0:0:
256,280,33022,1,0,0:0:0:0:
276,292,33106,6,0,P|344:308|364:296,1,68.2500002603531
404,96,33522,1,12,0:0:0:0:
404,144,33856,37,0,0:0:0:0:
404,196,34189,37,0,0:0:0:0:
404,240,34522,37,0,0:0:0:0:
288,80,34856,1,2,0:0:0:0:
228,80,35189,5,0,0:0:0:0:
168,80,35522,5,0,0:0:0:0:
112,96,35856,53,0,0:0:0:0:
240,280,36022,1,0,0:0:0:0:
80,144,36189,1,2,0:0:0:0:
80,200,36522,5,0,0:0:0:0:
112,256,36856,5,0,0:0:0:0:
172,288,37189,5,0,0:0:0:0:
196,148,37522,37,0,0:0:0:0:
216,144,37606,1,0,0:0:0:0:
240,156,37689,1,0,0:0:0:0:
256,176,37772,1,0,0:0:0:0:
260,192,37856,1,0,0:0:0:0:
288,196,37939,1,0,0:0:0:0:
320,144,38022,5,0,0:0:0:0:
344,188,38106,1,0,0:0:0:0:
348,220,38189,1,0,0:0:0:0:
332,248,38272,1,0,0:0:0:0:
312,268,38356,1,0,0:0:0:0:
352,280,38439,1,0,0:0:0:0:
396,264,38522,1,0,0:0:0:0:
416,216,38689,1,0,0:0:0:0:
392,168,38856,1,6,0:0:0:0:
328,156,39189,5,0,0:0:0:0:
264,176,39522,5,2,0:0:0:0:
232,216,39856,37,0,0:0:0:0:
32,180,40022,1,0,0:0:0:0:
232,272,40189,1,0,0:0:0:0:
192,232,40522,5,0,0:0:0:0:
168,172,40856,5,2,0:0:0:0:
168,108,41189,5,0,0:0:0:0:
332,232,41356,1,0,0:0:0:0:
212,60,41522,1,0,0:0:0:0:
272,60,41856,37,0,0:0:0:0:
324,88,42189,5,2,0:0:0:0:
360,140,42522,5,0,0:0:0:0:
356,200,42856,5,0,0:0:0:0:
332,264,43189,37,0,0:0:0:0:
276,312,43522,5,0,0:0:0:0:
228,156,43689,1,0,0:0:0:0:
216,312,43856,5,0,0:0:0:0:
288,168,44022,1,0,0:0:0:0:
356,116,44189,1,2,0:0:0:0:
420,112,44522,5,0,0:0:0:0:
376,68,44856,37,0,0:0:0:0:
312,44,45189,5,0,0:0:0:0:
312,196,45522,5,2,0:0:0:0:
252,184,45856,5,0,0:0:0:0:
204,152,46189,37,0,0:0:0:0:
168,112,46522,5,0,0:0:0:0:
360,100,46689,1,0,0:0:0:0:
152,56,46856,1,2,0:0:0:0:
104,84,47189,5,0,0:0:0:0:
96,140,47522,5,0,0:0:0:0:
124,196,47856,37,0,0:0:0:0:
327,139,48189,5,2,0:0:0:0:
304,134,48273,1,0,0:0:0:0:
275,148,48356,1,0,0:0:0:0:
256,172,48439,1,0,0:0:0:0:
251,192,48523,1,2,0:0:0:0:
217,196,48606,1,0,0:0:0:0:
168,168,48689,5,0,0:0:0:0:
184,216,48773,1,0,0:0:0:0:
189,255,48856,1,2,0:0:0:0:
170,288,48939,1,0,0:0:0:0:
146,312,49023,1,0,0:0:0:0:
194,327,49106,1,0,0:0:0:0:
247,307,49189,1,2,0:0:0:0:
296,264,49356,1,4,0:0:0:0:
312,204,49523,1,10,0:0:0:0:
264,156,49856,5,0,0:0:0:0:
200,128,50189,37,0,0:0:0:0:
128,128,50522,5,0,0:0:0:0:
272,36,50689,1,0,0:0:0:0:
64,160,50856,1,2,0:0:0:0:
40,224,51189,5,0,0:0:0:0:
84,276,51522,5,0,0:0:0:0:
92,92,51689,1,0,0:0:0:0:
144,264,51856,37,0,0:0:0:0:
328,324,52022,1,0,0:0:0:0:
280,160,52189,1,0,0:0:0:0:
296,148,52272,1,0,0:0:0:0:
276,140,52356,1,0,0:0:0:0:
288,156,52439,1,0,0:0:0:0:
284,136,52522,1,0,0:0:0:0:
288,148,52606,1,0,0:0:0:0:
272,152,52689,1,0,0:0:0:0:
296,144,52772,5,2,0:0:0:0:
272,140,52856,1,0,0:0:0:0:
288,152,52939,1,0,0:0:0:0:
280,144,53022,1,0,0:0:0:0:
288,144,53106,1,0,0:0:0:0:
276,140,53189,1,0,0:0:0:0:
276,148,53272,1,0,0:0:0:0:
292,144,53356,1,0,0:0:0:0:
280,148,53439,1,0,0:0:0:0:
276,128,53522,5,2,0:0:0:0:
420,332,53856,1,0,0:0:0:0:
164,128,54189,2,0,B|188:96|188:96|256:180,1,140,2|0,0:0|0:0,0:0:0:0:
250,173,54439,5,0,0:0:0:0:
250,173,54522,1,8,0:0:0:0:
332,44,54689,2,0,B|332:20|332:20|296:40|280:32,1,70
444,160,54856,1,8,0:0:0:0:
320,164,55357,37,0,0:0:0:0:
320,164,55857,5,0,0:0:0:0:
108,92,56023,1,4,0:0:0:0:
312,204,56190,1,8,0:0:0:0:
96,228,56357,6,2,L|64:200,1,26.2500010013581
304,64,56523,2,0,L|352:48,1,26.2500010013581
264,276,56690,2,0,L|240:292,1,26.2500010013581
176,80,56857,2,0,L|176:36,1,26.2500010013581,4|0,0:0|0:0,0:0:0:0:
384,156,57023,2,0,L|352:196,1,26.2500010013581,8|0,0:0|0:0,0:0:0:0:
240,48,57190,2,0,L|228:88,1,26.2500010013581,8|0,0:0|0:0,0:0:0:0:
432,220,57357,2,0,L|460:240,1,26.2500010013581,10|0,0:0|0:0,0:0:0:0:
88,64,57523,2,4,L|68:184,1,105.000004005432
160,56,58023,2,0,L|120:100,1,52.5000020027161,2|8,0:0|0:0,0:0:0:0:
332,52,58523,5,0,0:0:0:0:
200,232,58690,1,0,0:0:0:0:
272,260,58773,1,0,0:0:0:0:
280,240,58856,1,0,0:0:0:0:
376,132,59107,1,0,0:0:0:0:
348,108,59190,1,0,0:0:0:0:
140,92,59356,1,4,0:0:0:0:
68,96,59440,1,8,0:0:0:0:
80,64,59523,1,8,0:0:0:0:
68,96,59606,1,8,0:0:0:0:
80,64,59690,1,8,0:0:0:0:
68,96,59773,1,8,0:0:0:0:
80,64,59856,1,8,0:0:0:0:
260,72,60023,1,4,0:0:0:0:
132,252,60190,1,2,0:0:0:0:
156,288,60523,37,0,0:0:0:0:
188,308,60856,37,0,0:0:0:0:
220,312,61190,37,0,0:0:0:0:
348,180,61523,2,0,L|352:128,4,35
176,100,61856,2,0,L|176:156,1,35
348,180,62023,2,0,L|352:128,1,35
176,100,62190,2,0,L|176:156,4,35
348,180,62523,2,0,L|324:220,4,35
108,80,62856,1,4,0:0:0:0:
232,200,63023,1,0,0:0:0:0:
88,108,63190,5,0,0:0:0:0:
264,172,63356,1,0,0:0:0:0:
68,168,63523,6,0,L|156:144,1,70,4|0,0:0|0:0,0:0:0:0:
272,104,63690,2,0,L|368:80,1,70
336,284,63856,2,0,L|272:236,1,70
272,104,64023,2,0,L|356:56,1,70
128,200,64190,1,4,0:0:0:0:
128,200,64523,38,0,P|152:172|136:216,1,140,12|0,0:0|0:0,0:0:0:0:
124,64,64856,1,8,0:0:0:0:
116,328,65023,1,8,0:0:0:0:
128,200,65190,1,8,0:0:0:0:
320,200,65356,1,8,0:0:0:0:
428,56,65523,1,4,0:0:0:0:
436,64,65856,6,0,P|464:136|432:212,1,140
296,40,66190,1,8,0:0:0:0:
300,48,66523,5,0,0:0:0:0:
112,100,66856,2,0,P|208:148|272:128,1,140,4|0,0:0|0:0,0:0:0:0:
48,200,67190,1,0,0:0:0:0:
56,208,67523,5,8,0:0:0:0:
104,248,67856,1,0,0:0:0:0:
108,40,68023,1,0,0:0:0:0:
176,264,68190,1,4,0:0:0:0:
280,56,68356,2,0,P|192:36|168:12,1,70
104,204,68690,2,0,P|152:256|152:272,1,70
332,112,69023,2,0,P|320:172|332:184,1,70
96,60,69356,1,0,0:0:0:0:
136,108,69523,1,2,0:0:0:0:
192,144,69606,37,0,0:0:0:0:
256,168,69690,1,0,0:0:0:0:
324,160,69773,1,0,0:0:0:0:
388,128,69856,1,2,0:0:0:0:
432,76,69940,1,0,0:0:0:0:
436,92,70023,5,0,0:0:0:0:
420,136,70106,1,0,0:0:0:0:
384,180,70190,1,2,0:0:0:0:
328,224,70273,1,0,0:0:0:0:
260,252,70356,1,0,0:0:0:0:
192,272,70440,1,0,0:0:0:0:
124,264,70523,1,2,0:0:0:0:
64,232,70690,1,4,0:0:0:0:
8,184,70856,1,10,0:0:0:0:
160,56,71190,6,0,L|208:128,1,70
64,28,71523,1,0,0:0:0:0:
368,140,71856,2,0,L|288:176,1,70
368,140,72190,1,0,0:0:0:0:
200,144,72523,1,0,0:0:0:0:
172,208,72856,2,0,L|212:116,1,70
56,232,73190,1,0,0:0:0:0:
152,112,73356,1,0,0:0:0:0:
80,296,73523,2,0,L|168:244,1,70
156,296,73856,2,0,L|240:268,1,70
244,80,74190,2,0,L|208:156,1,70
292,60,74523,5,0,0:0:0:0:
292,60,74856,2,0,L|248:136,1,70
364,32,75190,1,0,0:0:0:0:
256,248,75523,37,12,0:0:0:0:
144,136,75773,1,8,0:0:0:0:
160,196,75856,1,8,0:0:0:0:
72,16,76023,1,8,0:0:0:0:
132,280,76190,1,2,0:0:0:0:
188,272,76356,5,0,0:0:0:0:
244,244,76523,5,0,0:0:0:0:
280,196,76690,5,0,0:0:0:0:
296,148,76856,37,2,0:0:0:0:
280,96,77023,5,0,0:0:0:0:
232,64,77190,5,0,0:0:0:0:
176,84,77356,5,0,0:0:0:0:
344,44,77523,1,2,0:0:0:0:
468,152,77690,37,0,0:0:0:0:
320,100,77856,1,2,0:0:0:0:
472,216,78023,5,0,0:0:0:0:
256,104,78190,1,2,0:0:0:0:
256,104,78523,5,0,0:0:0:0:
280,184,78690,1,0,0:0:0:0:
252,284,78856,1,2,0:0:0:0:
104,192,79023,1,0,0:0:0:0:
320,128,79190,2,0,L|240:176,1,70
100,52,79523,2,0,L|180:112,1,70,2|0,0:0|0:0,0:0:0:0:
316,32,79856,1,0,0:0:0:0:
316,32,80190,5,2,0:0:0:0:
344,72,80273,1,0,0:0:0:0:
360,124,80356,1,0,0:0:0:0:
352,176,80440,1,0,0:0:0:0:
328,228,80523,1,2,0:0:0:0:
288,264,80606,1,0,0:0:0:0:
272,248,80690,37,0,0:0:0:0:
232,212,80773,1,0,0:0:0:0:
188,184,80857,1,2,0:0:0:0:
136,180,80940,1,0,0:0:0:0:
84,196,81023,1,0,0:0:0:0:
40,232,81106,1,0,0:0:0:0:
24,292,81190,1,2,0:0:0:0:
80,268,81356,5,0,0:0:0:0:
32,72,81523,1,4,0:0:0:0:
80,96,82190,5,0,0:0:0:0:
124,120,82856,5,0,0:0:0:0:
164,128,83523,5,0,0:0:0:0:
204,152,84190,21,2,0:0:0:0:
212,172,84273,1,0,0:0:0:0:
208,200,84356,1,0,0:0:0:0:
196,224,84440,1,0,0:0:0:0:
236,200,84523,5,2,0:0:0:0:
232,232,84606,1,0,0:0:0:0:
208,272,84690,1,0,0:0:0:0:
176,304,84773,1,0,0:0:0:0:
228,312,84856,5,2,0:0:0:0:
180,340,84940,1,0,0:0:0:0:
128,348,85023,1,0,0:0:0:0:
64,340,85106,1,0,0:0:0:0:
96,312,85190,5,2,0:0:0:0:
64,284,85273,1,0,0:0:0:0:
44,232,85356,1,0,0:0:0:0:
60,176,85440,1,0,0:0:0:0:
240,160,85523,1,2,0:0:0:0:
240,160,86190,37,4,0:0:0:0:
88,292,86356,1,8,0:0:0:0:
384,32,86523,1,8,0:0:0:0:
240,160,86690,1,8,0:0:0:0:
416,324,86856,2,0,B|372:260|372:260|252:224,1,140
436,204,87190,2,0,B|400:172|400:172|272:160,1,140
64,48,87523,2,0,B|168:76|168:76|212:152,1,140,2|0,0:0|0:0,0:0:0:0:
136,292,87856,2,0,B|204:248|204:248|184:152,1,140
384,44,88190,6,0,B|316:128|316:128|268:136,1,140,2|0,0:0|0:0,0:0:0:0:
416,104,88523,2,0,B|352:180|352:180|296:184,1,140
80,116,88856,2,0,B|164:164|164:164|220:116,1,140,2|0,0:0|0:0,0:0:0:0:
112,280,89190,1,0,0:0:0:0:
80,24,89356,1,0,0:0:0:0:
212,216,89523,1,2,0:0:0:0:
220,228,89856,5,0,0:0:0:0:
112,24,90190,1,0,0:0:0:0:
132,44,90523,5,0,0:0:0:0:
152,68,90856,37,2,0:0:0:0:
152,104,90940,1,0,0:0:0:0:
140,132,91023,1,0,0:0:0:0:
104,164,91106,1,0,0:0:0:0:
64,192,91190,1,0,0:0:0:0:
16,208,91273,1,0,0:0:0:0:
48,216,91356,37,2,0:0:0:0:
100,224,91440,1,0,0:0:0:0:
152,216,91523,1,8,0:0:0:0:
200,200,91606,1,0,0:0:0:0:
244,160,91690,1,4,0:0:0:0:
272,100,91773,1,0,0:0:0:0:
272,32,91856,1,2,0:0:0:0:
308,80,92023,5,0,0:0:0:0:
24,140,92190,1,4,0:0:0:0:
64,180,92356,37,0,0:0:0:0:
112,212,92523,5,0,0:0:0:0:
108,56,92690,1,0,0:0:0:0:
168,276,92856,5,6,0:0:0:0:
248,136,93023,1,0,0:0:0:0:
312,120,93190,5,0,0:0:0:0:
360,88,93356,37,0,0:0:0:0:
248,204,93523,1,6,0:0:0:0:
408,116,93690,5,0,0:0:0:0:
360,272,93857,1,0,0:0:0:0:
360,272,94190,5,6,0:0:0:0:
204,316,94523,1,0,0:0:0:0:
44,200,94690,1,0,0:0:0:0:
180,84,94856,1,6,0:0:0:0:
272,204,95023,1,0,0:0:0:0:
136,80,95190,5,0,0:0:0:0:
160,256,95356,1,0,0:0:0:0:
100,92,95523,37,6,0:0:0:0:
96,272,95690,1,0,0:0:0:0:
72,64,95856,5,0,0:0:0:0:
36,264,96023,1,0,0:0:0:0:
120,68,96190,5,6,0:0:0:0:
144,260,96356,1,0,0:0:0:0:
160,56,96523,5,0,0:0:0:0:
232,240,96690,1,0,0:0:0:0:
320,76,96856,21,12,0:0:0:0:
396,196,97023,1,8,0:0:0:0:
432,148,97106,1,8,0:0:0:0:
448,76,97190,1,8,0:0:0:0:
368,292,97356,1,2,0:0:0:0:
136,56,97523,1,6,0:0:0:0:
92,96,97690,5,0,0:0:0:0:
284,104,97856,1,2,0:0:0:0:
200,136,98023,5,0,0:0:0:0:
400,208,98190,1,0,0:0:0:0:
80,176,98356,5,0,0:0:0:0:
240,328,98523,1,2,0:0:0:0:
340,272,98690,1,0,0:0:0:0:
368,220,98773,1,0,0:0:0:0:
372,168,98856,1,8,0:0:0:0:
368,24,99023,1,0,0:0:0:0:
160,104,99190,1,2,0:0:0:0:
380,208,99356,1,0,0:0:0:0:
356,156,99440,1,0,0:0:0:0:
320,96,99523,37,8,0:0:0:0:
192,260,99690,1,0,0:0:0:0:
340,72,99856,1,2,0:0:0:0:
96,120,100023,1,0,0:0:0:0:
296,168,100190,2,0,B|328:184|328:184|304:240|344:284,1,140
64,156,100523,2,0,B|136:172|136:172|176:228|196:224,1,140
144,120,100856,5,2,0:0:0:0:
264,272,101023,1,0,0:0:0:0:
320,248,101190,5,0,0:0:0:0:
352,192,101356,5,0,0:0:0:0:
320,140,101523,37,2,0:0:0:0:
272,128,101606,1,0,0:0:0:0:
228,156,101690,1,0,0:0:0:0:
216,216,101773,1,0,0:0:0:0:
240,280,101856,1,2,0:0:0:0:
252,344,101940,1,0,0:0:0:0:
196,320,102023,1,0,0:0:0:0:
144,276,102106,1,0,0:0:0:0:
104,232,102190,1,2,0:0:0:0:
96,168,102273,1,0,0:0:0:0:
120,104,102356,1,0,0:0:0:0:
180,64,102440,1,0,0:0:0:0:
248,112,102523,1,2,0:0:0:0:
340,192,102690,1,8,0:0:0:0:
360,208,102856,1,12,0:0:0:0:
360,208,103190,6,0,L|256:312,1,140
400,188,103523,1,0,0:0:0:0:
236,192,103856,6,0,L|160:224,2,70
136,160,104523,1,0,0:0:0:0:
256,80,104856,1,0,0:0:0:0:
384,136,105190,6,0,L|424:188,1,52.5000020027161
272,176,105523,5,0,0:0:0:0:
264,184,105606,1,0,0:0:0:0:
248,200,105690,1,0,0:0:0:0:
240,208,105773,1,0,0:0:0:0:
232,212,105856,21,0,0:0:0:0:
216,212,105940,1,0,0:0:0:0:
192,212,106023,1,0,0:0:0:0:
176,208,106106,1,0,0:0:0:0:
160,200,106190,5,0,0:0:0:0:
144,184,106273,1,0,0:0:0:0:
136,168,106356,1,0,0:0:0:0:
128,152,106440,1,0,0:0:0:0:
128,132,106523,5,0,0:0:0:0:
132,108,106606,1,0,0:0:0:0:
136,84,106690,1,0,0:0:0:0:
144,60,106773,1,0,0:0:0:0:
224,12,106856,1,4,0:0:0:0:
168,68,107481,54,0,L|208:152,1,70
240,68,107648,2,0,L|252:132,1,59.5000011348725
304,84,107815,2,0,L|304:140,1,48.9999985046387
360,112,107981,2,0,L|344:152,1,38.5000011749268
400,148,108148,2,0,L|376:172,1,28,4|0,0:0|0:0,0:0:0:0:
376,144,108523,6,0,P|384:164|376:200,1,52.5000020027161,0|2,0:0|0:0,0:0:0:0:
360,232,109023,5,0,0:0:0:0:
312,280,109190,1,0,0:0:0:0:
252,312,109356,1,0,0:0:0:0:
240,240,109523,6,0,P|168:192|168:192,1,70
272,116,109856,2,0,L|268:212,1,70
348,100,110356,5,0,0:0:0:0:
384,148,110523,1,0,0:0:0:0:
448,112,110690,1,2,0:0:0:0:
428,264,110856,1,4,0:0:0:0:
312,180,111190,38,0,B|296:232|296:232|268:208|252:232,1,90.9999958343508
216,160,111690,2,0,B|184:116|184:116|152:168|152:168|116:108,1,181.999991668702
244,36,112190,2,0,L|200:120,1,70,2|0,0:0|0:0,0:0:0:0:
312,76,112523,2,0,P|360:104|364:140,1,70,0|2,0:0|0:0,0:0:0:0:
156,128,113023,5,0,0:0:0:0:
192,168,113190,1,0,0:0:0:0:
252,192,113356,1,0,0:0:0:0:
240,304,113523,1,4,0:0:0:0:
173,282,113856,6,0,L|249:306,1,70
264,248,114356,6,0,B|196:196|196:196|252:208|252:208|172:200,1,210
200,124,115190,2,0,B|256:80|176:152,1,87.5
308,120,115565,38,0,P|308:160|288:184,1,70
260,216,115898,1,0,0:0:0:0:
236,244,116065,1,0,0:0:0:0:
324,208,116273,1,4,0:0:0:0:
344,200,116523,6,0,B|360:232|360:232|332:292|332:292,1,87.5,0|2,0:0|0:0,0:0:0:0:
308,164,117023,6,0,B|308:224|308:224|360:84|360:84|372:152|480:132|480:132|392:200|392:200|472:200|472:200|460:272|460:272|356:248,1,682.50002603531
272,136,118440,5,0,0:0:0:0:
248,180,118606,1,0,0:0:0:0:
248,224,118773,1,0,0:0:0:0:
144,160,118940,1,6,0:0:0:0:
252,96,119273,38,0,L|216:172,1,70
352,32,119606,2,0,L|276:88,1,70,8|0,0:0|0:0,0:0:0:0:
304,136,119940,5,0,0:0:0:0:
360,104,120107,1,0,0:0:0:0:
256,192,120273,2,8,L|336:212,1,70
323,208,120606,2,0,L|252:188,1,70
184,112,121106,5,0,0:0:0:0:
176,164,121273,1,0,0:0:0:0:
180,216,121440,1,0,0:0:0:0:
100,140,121606,1,0,0:0:0:0:
216,120,121940,6,0,L|148:168,1,70
296,124,122356,2,0,L|220:156,1,70,8|0,0:0|0:0,0:0:0:0:
196,260,122690,2,0,L|272:300,2,70
160,316,123190,1,0,0:0:0:0:
236,240,123356,1,0,0:0:0:0:
272,344,123523,1,0,0:0:0:0:
312,184,123690,1,8,0:0:0:0:
316,212,123856,1,0,0:0:0:0:
312,252,124023,1,0,0:0:0:0:
164,132,124273,2,0,L|248:184,1,70
88,128,124690,38,0,L|144:196,1,70
220,240,125023,2,8,L|136:196,1,70
248,104,125356,2,0,L|184:136,1,70
320,40,125690,2,0,L|288:112,1,70
312,152,126023,2,8,P|332:192|320:220,2,70
232,224,126523,6,0,L|260:312,1,70
112,172,126856,2,0,L|192:236,1,70,0|4,0:0|0:0,0:0:0:0:
184,148,127190,2,8,L|232:88,2,70
300,128,127690,1,12,0:0:0:0:
296,144,128023,1,0,0:0:0:0:
180,228,128356,6,8,L|228:280,1,70
140,104,128690,5,0,0:0:0:0:
288,92,129023,37,0,0:0:0:0:
288,92,129106,1,0,0:0:0:0:
288,92,129190,1,0,0:0:0:0:
368,204,129356,5,0,0:0:0:0:
156,240,129690,5,0,0:0:0:0:
156,240,130023,6,0,P|168:200|128:168,1,70
196,284,130356,1,8,0:0:0:0:
288,112,130565,2,0,L|288:188,1,70
336,80,130897,1,0,0:0:0:0:
160,124,131065,1,0,0:0:0:0:
240,68,131440,2,0,L|204:132,1,70
276,68,131773,1,0,0:0:0:0:
320,104,131940,37,0,0:0:0:0:
324,144,132107,1,0,0:0:0:0:
308,192,132274,1,0,0:0:0:0:
404,136,132440,1,0,0:0:0:0:
220,124,132773,5,0,0:0:0:0:
220,124,133106,1,8,0:0:0:0:
220,124,133273,6,0,P|196:172|196:192,2,70
336,228,133773,1,0,0:0:0:0:
348,224,134106,5,0,0:0:0:0:
200,212,134273,1,0,0:0:0:0:
200,212,134606,37,0,0:0:0:0:
100,144,134773,1,0,0:0:0:0:
64,40,134940,1,0,0:0:0:0:
200,48,135106,2,0,B|192:92|192:92|224:96|188:184,1,140
200,48,135773,1,0,0:0:0:0:
288,48,136106,6,0,B|288:104|288:104|304:68|304:68|304:124|304:124|352:116,1,175
344,64,136773,5,0,0:0:0:0:
248,152,136940,1,0,0:0:0:0:
248,152,137273,5,0,0:0:0:0:
288,104,137440,1,0,0:0:0:0:
292,260,137606,1,0,0:0:0:0:
216,80,137773,1,4,0:0:0:0:
216,80,138106,37,0,0:0:0:0:
200,68,138481,1,0,0:0:0:0:
124,140,138606,6,0,L|172:196,2,70
216,80,139106,2,0,L|276:112,1,52.5000020027161
344,64,139440,2,0,B|344:116|344:116|400:76|348:200,1,175
428,128,140190,1,0,0:0:0:0:
248,104,140523,6,0,P|280:136|276:176,1,70
280,44,140856,1,0,0:0:0:0:
224,200,141023,1,0,0:0:0:0:
224,200,141190,37,0,0:0:0:0:
292,104,141356,1,0,0:0:0:0:
292,104,141523,1,0,0:0:0:0:
168,176,141690,1,0,0:0:0:0:
300,32,141856,1,0,0:0:0:0:
432,104,142023,1,0,0:0:0:0:
168,28,142190,1,0,0:0:0:0:
300,112,142356,1,0,0:0:0:0:
148,68,142523,1,0,0:0:0:0:
180,160,142690,5,0,0:0:0:0:
200,152,142856,1,0,0:0:0:0:
160,48,143023,1,0,0:0:0:0:
228,140,143190,1,0,0:0:0:0:
292,108,143523,6,8,L|328:116,2,35
184,204,143856,1,8,0:0:0:0:
156,72,144023,1,8,0:0:0:0:
176,72,144106,1,0,0:0:0:0:
192,80,144190,5,2,0:0:0:0:
116,184,144356,1,0,0:0:0:0:
296,164,144523,1,8,0:0:0:0:
284,204,144606,1,0,0:0:0:0:
248,248,144690,5,2,0:0:0:0:
172,84,145023,37,8,0:0:0:0:
212,80,145106,1,0,0:0:0:0:
252,104,145190,1,4,0:0:0:0:
200,256,145356,1,8,0:0:0:0:
220,136,145606,2,0,L|184:108,6,28
296,100,145940,1,4,0:0:0:0:
364,172,146106,5,0,0:0:0:0:
176,200,146273,2,0,B|108:148|108:148|96:100|112:92,1,112
216,52,146606,2,0,B|256:104|256:104|244:152|208:164,1,112
344,100,146939,1,0,0:0:0:0:
364,144,147023,1,0,0:0:0:0:
308,160,147106,5,0,0:0:0:0:
340,172,147148,1,0,0:0:0:0:
312,220,147231,1,0,0:0:0:0:
368,212,147314,1,0,0:0:0:0:
132,96,147439,1,0,0:0:0:0:
256,92,147773,5,8,0:0:0:0:
256,92,147939,2,0,P|224:168|188:192,1,112
202,184,148273,2,0,L|202:261,1,70
240,204,148523,2,0,L|240:272,1,52.5
336,68,148939,38,0,L|240:128,1,105.000004005432
312,136,149273,1,8,0:0:0:0:
312,160,149356,1,0,0:0:0:0:
312,192,149439,1,0,0:0:0:0:
312,224,149523,1,0,0:0:0:0:
312,248,149606,1,0,0:0:0:0:
312,272,149689,1,0,0:0:0:0:
312,304,149773,1,0,0:0:0:0:
312,340,149856,1,0,0:0:0:0:
256,344,149939,5,0,0:0:0:0:
180,280,150106,1,0,0:0:0:0:
272,288,150273,5,0,0:0:0:0:
216,148,150439,1,0,0:0:0:0:
292,252,150606,5,0,0:0:0:0:
272,80,150939,1,0,0:0:0:0:
292,112,151023,1,0,0:0:0:0:
312,148,151106,1,0,0:0:0:0:
332,180,151189,1,0,0:0:0:0:
348,212,151273,1,6,0:0:0:0:
196,104,151606,38,0,L|180:172,3,52.5000020027161
284,156,151939,2,0,L|308:224,1,52.5000020027161
360,180,152106,2,0,L|388:256,1,52.5000020027161
192,56,152273,2,0,L|104:72,2,52.5000020027161
300,88,152606,2,0,L|264:152,1,52.5000020027161
320,160,152773,2,0,L|360:88,1,52.5000020027161
404,140,152939,2,0,L|368:200,2,52.5000020027161
432,216,153189,1,0,0:0:0:0:
400,264,153273,1,0,0:0:0:0:
356,312,153356,1,12,0:0:0:0:
308,200,153523,5,0,0:0:0:0:
184,84,153689,1,8,0:0:0:0:
184,84,153939,6,0,P|268:76|372:88,1,157.500006008148
228,192,154356,5,0,0:0:0:0:
340,81,154689,1,0,0:0:0:0:
204,64,154898,37,0,0:0:0:0:
224,132,155023,1,0,0:0:0:0:
304,64,155273,2,0,L|348:184,1,105.000004005432
328,124,155523,2,0,L|280:136,1,26.2500010013581
328,152,155648,2,0,L|372:144,1,26.2500010013581
336,172,155773,2,0,L|296:184,1,26.2500010013581
356,180,155898,2,0,L|392:176,1,26.2500010013581
280,256,156023,1,2,0:0:0:0:
280,256,156231,38,10,L|156:256,1,105.000004005432,10|14,0:0|0:0,0:0:0:0:
284,188,156523,37,0,0:0:0:0:
240,100,156689,5,8,0:0:0:0:
96,80,157023,5,0,0:0:0:0:
308,116,157189,5,8,0:0:0:0:
152,104,157356,2,0,L|128:168,2,52.5000020027161
192,100,157606,2,0,L|212:36,1,52.5000020027161
248,200,157773,2,0,L|200:244,1,52.5000020027161
348,32,157939,2,0,L|368:96,1,52.5000020027161
408,52,158106,2,0,L|424:104,1,52.5000020027161
400,200,158273,2,0,L|176:192,1,210.000008010865
372,240,158731,22,0,L|252:244,1,105.000004005432
396,96,159106,2,2,P|364:80|336:76,4,52.5000020027161
248,104,160689,5,0,0:0:0:0:
292,180,160939,1,0,0:0:0:0:
292,180,161022,1,0,0:0:0:0:
144,244,161272,1,0,0:0:0:0:
144,244,161355,1,0,0:0:0:0:
392,84,161689,1,0,0:0:0:0:
200,84,162064,53,4,0:0:0:0:
264,80,162148,1,0,0:0:0:0:
332,88,162232,1,0,0:0:0:0:
392,120,162316,1,0,0:0:0:0:
440,168,162401,1,6,0:0:0:0:
376,188,162485,5,0,0:0:0:0:
316,188,162569,1,0,0:0:0:0:
256,156,162654,1,0,0:0:0:0:
200,116,162738,2,0,L|228:248,1,105.000004005432,2|0,0:0|0:0,0:0:0:0:
304,284,162906,2,0,L|272:144,1,105.000004005432,4|0,0:0|0:0,0:0:0:0:
316,100,163075,5,0,0:0:0:0:
376,104,163159,1,0,0:0:0:0:
344,156,163243,1,12,0:0:0:0:
436,192,163328,54,0,L|408:308,1,105.000004005432,0|4,0:0|0:0,0:0:0:0:
352,280,163496,1,0,0:0:0:0:
304,232,163580,1,0,0:0:0:0:
272,168,163665,1,0,0:0:0:0:
264,96,163749,5,8,0:0:0:0:
92,356,163918,1,4,0:0:0:0:
300,112,164086,69,0,0:0:0:0:
52,304,164255,1,4,0:0:0:0:
256,52,164423,5,0,0:0:0:0:
276,100,164507,1,0,0:0:0:0:
296,164,164592,1,2,0:0:0:0:
84,40,164676,1,2,0:0:0:0:
148,32,164760,1,4,0:0:0:0:
364,56,164845,6,0,L|380:108,2,52.5000020027161
296,72,165013,5,2,0:0:0:0:
236,108,165097,1,0,0:0:0:0:
192,168,165182,1,0,0:0:0:0:
168,236,165266,1,0,0:0:0:0:
180,304,165350,1,0,0:0:0:0:
236,340,165434,53,2,0:0:0:0:
76,80,165603,1,4,0:0:0:0:
128,108,165687,1,0,0:0:0:0:
184,144,165772,1,0,0:0:0:0:
240,184,165856,1,0,0:0:0:0:
300,220,165940,69,2,0:0:0:0:
12,84,166109,1,4,0:0:0:0:
300,220,166277,5,2,0:0:0:0:
12,84,166446,1,4,0:0:0:0:
36,104,166530,2,0,L|4:152,4,52.5000020027161
112,316,166783,1,2,0:0:0:0:
280,44,166951,2,0,L|336:88,2,52.5000020027161,4|0|0,0:0|0:0|0:0,0:0:0:0:
124,144,167120,2,0,L|92:192,2,52.5000020027161,4|0|0,0:0|0:0|0:0,0:0:0:0:
424,128,167288,2,0,L|416:236,1,105.000004005432,6|0,0:0|0:0,0:0:0:0:
412,264,167457,5,0,0:0:0:0:
396,200,167541,1,0,0:0:0:0:
364,136,167625,1,0,0:0:0:0:
316,88,167710,1,0,0:0:0:0:
256,64,167794,69,2,0:0:0:0:
412,312,167963,1,4,0:0:0:0:
132,52,168131,1,2,0:0:0:0:
20,368,168300,1,4,0:0:0:0:
72,64,168468,5,2,0:0:0:0:
328,352,168637,1,4,0:0:0:0:
460,76,168805,2,0,P|276:56|232:80,1,210.000008010865,4|0,0:0|0:0,0:0:0:0:
460,76,169142,6,0,P|276:56|232:80,1,210.000008010865,2|0,0:0|0:0,0:0:0:0:
360,312,169479,6,0,L|328:168,1,105.000004005432
337,209,169648,2,0,L|364:324,1,105.000004005432
360,312,169985,38,0,L|328:168,1,105.000004005432
337,209,170154,2,0,L|364:324,1,105.000004005432
360,312,170322,2,0,L|328:168,1,105.000004005432
337,209,170491,2,0,L|364:324,1,105.000004005432
188,32,170743,6,0,L|128:152,1,105.000004005432
141,125,170912,2,0,L|192:28,1,105.000004005432
96,32,171333,54,8,L|120:148,1,105.000004005432
224,72,171502,2,0,L|160:168,1,97.9999970092774,4|0,0:0|0:0,0:0:0:0:
280,156,171670,2,0,L|168:200,1,90.9999958343508,4|0,0:0|0:0,0:0:0:0:
232,224,171839,2,0,L|148:156,1,83.9999974365235,4|0,0:0|0:0,0:0:0:0:
156,244,172007,2,0,L|176:148,1,77.0000023498536,4|0,0:0|0:0,0:0:0:0:
112,172,172176,2,0,L|168:124,1,70,4|0,0:0|0:0,0:0:0:0:
144,112,172345,2,0,L|212:144,1,62.9999980773926,4|0,0:0|0:0,0:0:0:0:
192,84,172513,2,0,L|220:140,1,56,4|0,0:0|0:0,0:0:0:0:
232,104,172682,2,0,L|208:152,1,48.9999985046387,4|0,0:0|0:0,0:0:0:0:
420,128,172850,1,0,0:0:0:0:
432,180,172934,6,0,L|432:248,1,48.9999985046387
404,284,173103,1,0,0:0:0:0:
344,312,173187,1,0,0:0:0:0:
352,256,173272,5,0,0:0:0:0:
328,188,173356,1,0,0:0:0:0:
288,132,173440,1,0,0:0:0:0:
268,196,173524,5,0,0:0:0:0:
232,252,173609,1,0,0:0:0:0:
176,216,173693,5,0,0:0:0:0:
172,152,173777,1,0,0:0:0:0:
200,88,173862,1,0,0:0:0:0:
248,36,173946,1,0,0:0:0:0:
312,0,174030,1,0,0:0:0:0:
324,64,174114,5,0,0:0:0:0:
264,104,174198,1,0,0:0:0:0:
228,48,174283,5,0,0:0:0:0:
168,24,174367,1,0,0:0:0:0:
104,28,174451,1,0,0:0:0:0:
48,72,174536,1,0,0:0:0:0:
40,144,174620,1,0,0:0:0:0:
104,120,174704,6,0,L|72:268,1,105.000004005432
168,120,174873,2,0,L|200:-8,1,105.000004005432
232,132,175041,2,0,L|212:240,1,105.000004005432
288,144,175210,2,0,L|312:28,1,105.000004005432
352,152,175378,1,0,0:0:0:0:
336,224,175463,1,0,0:0:0:0:
320,292,175547,2,0,L|300:340,4,52.5000020027161
252,144,175800,5,0,0:0:0:0:
268,152,175884,2,0,P|300:204|264:256,1,105.000004005432,2|0,0:0|0:0,0:0:0:0:
64,68,176221,1,2,0:0:0:0:
96,72,176389,6,0,P|144:100|156:200,1,140,0|2,0:0|0:0,0:0:0:0:
228,56,176727,1,2,0:0:0:0:
108,216,176895,2,0,P|192:156|212:100,1,140,0|2,0:0|0:0,0:0:0:0:
206,125,177232,2,0,P|136:200|76:216,1,140,2|0,0:0|0:0,0:0:0:0:
408,68,177569,1,0,0:0:0:0:
204,316,177738,2,0,L|360:264,1,140,2|2,0:0|0:0,0:0:0:0:
332,264,177906,2,0,L|176:204,1,140
201,213,178075,2,0,L|344:144,1,140,2|0,0:0|0:0,0:0:0:0:
384,216,178328,38,0,L|308:172,1,70
356,52,178496,2,0,L|368:132,1,70
156,172,178665,2,0,L|196:100,1,70
384,40,178833,2,0,L|336:108,1,70
288,252,179002,2,0,L|264:176,1,70
156,24,179170,2,0,L|140:100,1,70
384,136,179339,2,0,L|296:120,1,70
64,168,179507,2,0,L|136:212,1,70
284,124,179676,2,0,L|264:52,1,70
192,312,179845,2,0,L|216:236,1,70
140,68,180013,2,0,L|228:112,1,70
232,56,180266,5,0,0:0:0:0:
276,264,180350,2,0,L|212:216,1,70
376,104,180772,5,0,0:0:0:0:
112,344,180940,1,0,0:0:0:0:
336,44,181109,1,0,0:0:0:0:
80,212,181277,5,0,0:0:0:0:
436,48,181614,5,2,0:0:0:0:
96,272,181783,1,0,0:0:0:0:
96,272,182120,37,0,0:0:0:0:
424,16,182288,2,0,P|392:76|316:100,1,105.000004005432,4|0,0:0|0:0,0:0:0:0:
120,72,182457,2,4,P|196:120|232:124,1,105.000004005432,4|0,0:0|0:0,0:0:0:0:
448,80,182625,2,0,P|404:148|376:168,1,105.000004005432
136,188,182794,2,0,P|232:216|272:208,1,105.000004005432
480,164,182963,2,0,P|412:224|380:232,1,105.000004005432
148,252,183131,2,0,P|224:276|256:272,1,105.000004005432
300,100,183300,2,0,L|260:-12,1,105.000004005432
32,344,183468,1,12,0:0:0:0:
384,28,183637,5,2,0:0:0:0:
384,28,183679,1,0,0:0:0:0:
384,28,183721,1,0,0:0:0:0:
384,28,183763,1,0,0:0:0:0:
384,28,183805,1,0,0:0:0:0:
184,72,183974,1,4,0:0:0:0:
352,164,184142,5,2,0:0:0:0:
352,164,184184,1,0,0:0:0:0:
352,164,184227,1,0,0:0:0:0:
352,164,184269,1,0,0:0:0:0:
352,164,184311,1,0,0:0:0:0:
400,272,184479,1,4,0:0:0:0:
196,52,184648,5,2,0:0:0:0:
196,52,184690,1,0,0:0:0:0:
196,52,184732,1,0,0:0:0:0:
196,52,184774,1,0,0:0:0:0:
196,52,184816,1,0,0:0:0:0:
344,268,184985,1,0,0:0:0:0:
288,56,185154,6,0,P|220:68|212:76,2,52.5000020027161
312,60,185322,1,0,0:0:0:0:
124,328,185491,1,0,0:0:0:0:
204,112,185659,5,2,0:0:0:0:
188,124,185701,1,0,0:0:0:0:
172,132,185743,1,0,0:0:0:0:
160,140,185785,1,0,0:0:0:0:
144,148,185827,1,0,0:0:0:0:
312,328,185996,69,12,0:0:0:0:
388,36,186123,5,2,0:0:0:0:
392,48,186165,1,0,0:0:0:0:
396,60,186207,1,0,0:0:0:0:
400,72,186249,1,0,0:0:0:0:
400,80,186291,1,0,0:0:0:0:
400,152,186333,69,8,0:0:0:0:
256,60,186502,1,8,0:0:0:0:
220,328,186670,1,4,0:0:0:0:
260,300,186797,2,0,L|304:336,3,52.5000020027161
144,248,187007,5,0,0:0:0:0:
376,104,187176,2,0,P|424:168|420:248,1,157.500006008148
176,12,187513,69,0,0:0:0:0:
300,228,187682,1,0,0:0:0:0:
332,264,187850,1,2,0:0:0:0:
332,264,187892,1,0,0:0:0:0:
332,264,187934,1,0,0:0:0:0:
332,264,187977,1,0,0:0:0:0:
428,152,188061,1,0,0:0:0:0:
256,0,188187,1,0,0:0:0:0:
52,288,188356,2,0,P|120:344|160:340,1,105.000004005432,12|0,0:0|0:0,0:0:0:0:
296,204,188524,2,0,P|232:264|200:256,1,105.000004005432,8|0,0:0|0:0,0:0:0:0:
48,192,188693,2,0,P|104:252|144:264,1,105.000004005432,8|0,0:0|0:0,0:0:0:0:
136,228,188861,5,4,0:0:0:0:
444,96,189030,1,2,0:0:0:0:
432,176,189114,1,0,0:0:0:0:
368,36,189198,1,2,0:0:0:0:
368,36,189241,1,0,0:0:0:0:
368,36,189283,1,0,0:0:0:0:
368,36,189325,1,0,0:0:0:0:
368,96,189367,69,0,0:0:0:0:
216,68,189536,1,0,0:0:0:0:
440,360,189704,1,10,0:0:0:0:
404,320,189873,5,0,0:0:0:0:
40,88,190041,1,0,0:0:0:0:
400,144,190210,1,2,0:0:0:0:
400,144,190252,1,0,0:0:0:0:
400,144,190294,1,0,0:0:0:0:
400,144,190336,1,0,0:0:0:0:
400,144,190378,1,0,0:0:0:0:
132,168,190547,69,2,0:0:0:0:
132,168,190589,1,0,0:0:0:0:
132,168,190631,1,0,0:0:0:0:
132,168,190673,1,0,0:0:0:0:
132,168,190715,1,0,0:0:0:0:
316,288,190884,21,0,0:0:0:0:
56,56,191052,1,0,0:0:0:0:
56,56,191095,1,0,0:0:0:0:
56,56,191137,1,0,0:0:0:0:
56,56,191179,1,0,0:0:0:0:
56,56,191221,1,0,0:0:0:0:
72,80,191263,69,0,0:0:0:0:
96,112,191305,1,0,0:0:0:0:
120,152,191347,1,0,0:0:0:0:
144,216,191389,1,0,0:0:0:0:
436,68,191558,1,0,0:0:0:0:
112,304,191727,1,0,0:0:0:0:
168,308,191811,69,2,0:0:0:0:
204,308,191853,1,0,0:0:0:0:
232,308,191895,1,0,0:0:0:0:
264,308,191937,1,0,0:0:0:0:
304,308,191979,1,0,0:0:0:0:
480,200,192064,1,8,0:0:0:0:
96,152,192232,1,8,0:0:0:0:
116,240,192316,2,0,L|108:292,4,52.5000020027161
396,232,192569,1,8,0:0:0:0:
272,128,192696,6,0,L|212:96,3,52.5000020027161
320,32,192906,1,2,0:0:0:0:
228,308,193075,1,10,0:0:0:0:
428,136,193243,2,8,L|464:184,2,52.5000020027161
172,136,193412,1,4,0:0:0:0:
392,308,193580,1,8,0:0:0:0:
132,52,193749,1,8,0:0:0:0:
36,352,193918,1,14,0:0:0:0:
316,60,194086,2,2,P|408:124|420:224,2,210.000008010865
422,215,195097,1,0,0:0:0:0:
144,136,195434,6,0,L|164:168,5,26.2500010013581
376,104,195771,2,0,L|352:144,5,26.2500010013581
444,288,196109,2,0,P|408:336|356:344,1,105.000004005432
484,108,196446,1,0,0:0:0:0:
484,108,196614,6,0,P|456:152|448:156,1,52.5000020027161
388,72,196783,2,0,L|400:112,1,26.2500010013581
400,224,196951,6,0,L|388:260,2,26.2500010013581
340,216,197120,1,0,0:0:0:0:
36,56,197288,1,0,0:0:0:0:
104,304,197457,2,0,P|160:316|204:280,1,105.000004005432
4,88,197794,5,6,0:0:0:0:
396,344,197963,1,0,0:0:0:0:
396,344,198131,2,0,L|432:324,4,26.2500010013581
416,260,198468,1,0,0:0:0:0:
128,348,198637,1,0,0:0:0:0:
208,88,198805,2,0,B|224:56|224:56|252:120|252:120|300:156,1,157.500006008148
328,152,199142,37,2,0:0:0:0:
40,84,199311,2,0,L|92:56,1,52.5000020027161,2|0,0:0|0:0,0:0:0:0:
432,176,199479,2,0,L|424:240,1,52.5000020027161,2|0,0:0|0:0,0:0:0:0:
36,272,199648,2,0,L|100:240,1,52.5000020027161,2|0,0:0|0:0,0:0:0:0:
360,64,199816,2,0,B|392:52|392:52|432:64|432:64|372:160|464:192,1,210,0|8,0:0|0:0,0:0:0:0:
352,32,200154,1,0,0:0:0:0:
376,88,200322,5,0,0:0:0:0:
376,88,200406,2,0,L|384:208,1,105.000004005432,0|8,0:0|0:0,0:0:0:0:
124,64,200659,1,6,0:0:0:0:
72,224,200828,2,0,P|52:292|60:304,6,52.5000020027161,2|0|0|0|0|0|0,0:0|0:0|0:0|0:0|0:0|0:0|0:0,0:0:0:0:
168,220,201165,2,0,P|192:272|224:276,5,52.5000020027161,2|0|0|0|0|0,0:0|0:0|0:0|0:0|0:0|0:0,0:0:0:0:
400,292,201502,1,12,0:0:0:0:
296,120,201839,6,0,P|252:76|220:80,4,52.5000020027161
296,120,202176,2,8,P|288:168|224:228,2,105.000004005432
432,280,202513,2,0,P|388:320|376:316,4,52.5000020027161
316,232,202850,2,0,P|308:164|312:156,4,52.5000020027161
120,288,203187,2,0,P|80:232|76:188,1,105.000004005432
120,288,203524,1,0,0:0:0:0:
196,48,203777,6,0,P|240:88|252:88,1,52.5000020027161
80,256,203946,6,0,P|96:204|88:192,1,52.5000020027161
288,172,204114,38,0,P|272:212|276:228,1,52.5000020027161
56,48,204283,70,0,P|88:44|100:16,1,52.5000020027161
352,92,204451,70,0,L|352:244,1,105.000004005432
212,108,205168,37,4,0:0:0:0:
200,152,205336,1,0,0:0:0:0:
296,76,205505,5,0,0:0:0:0:
280,128,205673,1,0,0:0:0:0:
444,92,205842,5,0,0:0:0:0:
404,132,206010,1,0,0:0:0:0:
140,176,206179,37,0,0:0:0:0:
200,200,206347,1,0,0:0:0:0:
392,80,206516,5,0,0:0:0:0:
356,32,206684,1,0,0:0:0:0:
240,240,206853,5,0,0:0:0:0:
292,216,207021,1,0,0:0:0:0:
120,44,207190,5,0,0:0:0:0:
104,84,207359,1,0,0:0:0:0:
400,160,207527,6,0,L|456:288,1,105.000004005432
436,264,207696,1,0,0:0:0:0:
152,104,207864,21,0,0:0:0:0:
132,132,208033,1,0,0:0:0:0:
287,251,208201,37,4,0:0:0:0:
295,220,208369,1,0,0:0:0:0:
227,274,208538,5,0,0:0:0:0:
238,237,208706,1,0,0:0:0:0:
121,263,208875,5,0,0:0:0:0:
150,234,209043,1,0,0:0:0:0:
338,203,209212,37,0,0:0:0:0:
295,186,209380,1,0,0:0:0:0:
158,271,209549,5,0,0:0:0:0:
184,306,209717,1,0,0:0:0:0:
267,157,209886,5,0,0:0:0:0:
230,174,210054,1,0,0:0:0:0:
352,296,210224,6,0,L|416:320,4,52.5000020027161
197,220,210561,37,4,0:0:0:0:
212,254,210729,1,0,0:0:0:0:
217,145,210898,5,0,0:0:0:0:
235,186,211066,1,0,0:0:0:0:
288,56,211235,5,0,0:0:0:0:
290,107,211403,1,0,0:0:0:0:
198,308,211572,37,0,0:0:0:0:
235,282,211740,1,0,0:0:0:0:
260,84,211909,5,0,0:0:0:0:
222,79,212077,1,0,0:0:0:0:
271,280,212246,5,0,0:0:0:0:
282,231,212414,1,0,0:0:0:0:
127,242,212583,5,0,0:0:0:0:
139,277,212752,1,0,0:0:0:0:
408,120,212920,1,0,0:0:0:0:
