osu file format v14

[General]
AudioFilename: audio.mp3
AudioLeadIn: 0
PreviewTime: -1
Countdown: 0
SampleSet: Normal
StackLeniency: 0.7
Mode: 1
LetterboxInBreaks: 0
WidescreenStoryboard: 0

[Editor]
Bookmarks: 12361,33694,55028,65694,85694,87028,108346,140705,162247,183820,205356
DistanceSpacing: 1
BeatDivisor: 2
GridSize: 16
TimelineZoom: 1.5

[Metadata]
Title:EON BREAK
TitleUnicode:EON BREAK
Artist:Virtual Self
ArtistUnicode:Virtual Self
Creator:-Kazu-
Version:Kantan
Source:osu!
Tags:featured artist fa technic-angel porter robinson techno Nwolf
BeatmapID:1949511
BeatmapSetID:933854

[Difficulty]
HPDrainRate:8
CircleSize:5
OverallDifficulty:3.5
ApproachRate:5
SliderMultiplier:1.4
SliderTickRate:1

[Events]
//Background and Video events
0,0,"BG.jpg",0,0
//Break Periods
//Storyboard Layer 0 (Background)
//Storyboard Layer 1 (Fail)
//Storyboard Layer 2 (Pass)
//Storyboard Layer 3 (Foreground)
//Storyboard Sound Samples

[TimingPoints]
1695,333.333333333333,4,1,0,100,1,0
107672,337.078651685393,4,1,0,100,1,8
108346,337.078651685393,4,1,0,100,1,0
160899,337.078651685393,4,1,0,100,1,0
162247,-100,4,1,0,100,0,1
204719,-100,4,1,0,100,0,0
205356,337.078651685393,4,1,0,100,1,0

[HitObjects]
256,192,12361,5,0,0:0:0:0:
256,192,13028,1,8,0:0:0:0:
256,192,14028,1,0,0:0:0:0:
256,192,14361,1,8,0:0:0:0:
256,192,15028,1,0,0:0:0:0:
256,192,16028,1,0,0:0:0:0:
256,192,16694,1,0,0:0:0:0:
256,192,17028,1,8,0:0:0:0:
256,192,17694,1,0,0:0:0:0:
256,192,18694,1,0,0:0:0:0:
256,192,19361,1,0,0:0:0:0:
256,192,20028,1,8,0:0:0:0:
256,192,20361,1,0,0:0:0:0:
256,192,21028,1,8,0:0:0:0:
256,192,21528,1,0,0:0:0:0:
256,192,22028,1,0,0:0:0:0:
256,192,22361,1,8,0:0:0:0:
256,192,23028,1,0,0:0:0:0:
256,192,23694,1,8,0:0:0:0:
256,192,24694,1,0,0:0:0:0:
256,192,25028,1,8,0:0:0:0:
256,192,25694,1,0,0:0:0:0:
256,192,26361,1,8,0:0:0:0:
256,192,27361,1,0,0:0:0:0:
256,192,28028,1,8,0:0:0:0:
256,192,28361,1,0,0:0:0:0:
256,192,29028,1,8,0:0:0:0:
256,192,29361,1,0,0:0:0:0:
256,192,30028,1,0,0:0:0:0:
256,192,30694,1,8,0:0:0:0:
256,192,31028,1,0,0:0:0:0:
256,192,31361,1,0,0:0:0:0:
256,192,32028,1,0,0:0:0:0:
256,192,32361,1,8,0:0:0:0:
256,192,32861,1,8,0:0:0:0:
256,192,33361,1,8,0:0:0:0:
256,192,33694,1,0,0:0:0:0:
256,192,35028,1,0,0:0:0:0:
256,192,36028,1,0,0:0:0:0:
256,192,36361,1,0,0:0:0:0:
256,192,39028,1,0,0:0:0:0:
256,192,40361,1,0,0:0:0:0:
256,192,41361,1,0,0:0:0:0:
256,192,41694,1,0,0:0:0:0:
256,192,43028,1,8,0:0:0:0:
256,192,43528,1,8,0:0:0:0:
256,192,44028,1,8,0:0:0:0:
256,192,44361,1,0,0:0:0:0:
256,192,45694,1,0,0:0:0:0:
256,192,46694,1,0,0:0:0:0:
256,192,47028,1,0,0:0:0:0:
256,192,49694,1,0,0:0:0:0:
256,192,51028,1,0,0:0:0:0:
256,192,52028,1,8,0:0:0:0:
256,192,52361,1,0,0:0:0:0:
256,192,53028,1,0,0:0:0:0:
256,192,53694,1,0,0:0:0:0:
256,192,54028,1,0,0:0:0:0:
256,192,54361,1,8,0:0:0:0:
256,192,54694,1,8,0:0:0:0:
256,192,55028,1,0,0:0:0:0:
256,192,55528,1,8,0:0:0:0:
256,192,56361,1,0,0:0:0:0:
256,192,56694,1,8,0:0:0:0:
256,192,57194,1,0,0:0:0:0:
256,192,57694,1,0,0:0:0:0:
256,192,58194,1,8,0:0:0:0:
256,192,59028,1,0,0:0:0:0:
256,192,59361,1,0,0:0:0:0:
256,192,59694,1,0,0:0:0:0:
256,192,60361,1,0,0:0:0:0:
256,192,60861,1,8,0:0:0:0:
256,192,61694,1,0,0:0:0:0:
256,192,62194,1,8,0:0:0:0:
256,192,62694,1,0,0:0:0:0:
256,192,63028,1,0,0:0:0:0:
256,192,63694,1,0,0:0:0:0:
256,192,64028,1,8,0:0:0:0:
256,192,64361,1,0,0:0:0:0:
256,192,64694,1,12,0:0:0:0:
256,192,65694,1,0,0:0:0:0:
256,192,66361,1,8,0:0:0:0:
256,192,66694,1,0,0:0:0:0:
256,192,67028,1,0,0:0:0:0:
256,192,67694,1,8,0:0:0:0:
256,192,68361,1,0,0:0:0:0:
256,192,69028,1,8,0:0:0:0:
256,192,69694,1,8,0:0:0:0:
256,192,70194,1,8,0:0:0:0:
256,192,70694,1,8,0:0:0:0:
256,192,71028,1,0,0:0:0:0:
256,192,71694,1,8,0:0:0:0:
256,192,72361,1,0,0:0:0:0:
256,192,72694,1,0,0:0:0:0:
256,192,73028,1,8,0:0:0:0:
256,192,73694,1,0,0:0:0:0:
256,192,74694,1,0,0:0:0:0:
256,192,75028,1,0,0:0:0:0:
256,192,75694,1,8,0:0:0:0:
240,192,76028,1,8,0:0:0:0:
256,192,76361,1,0,0:0:0:0:
256,192,77028,1,8,0:0:0:0:
256,192,77694,1,0,0:0:0:0:
256,192,78361,1,8,0:0:0:0:
256,192,78694,1,0,0:0:0:0:
256,192,79028,1,0,0:0:0:0:
256,192,79694,1,8,0:0:0:0:
256,192,80361,1,8,0:0:0:0:
256,192,80861,1,8,0:0:0:0:
256,192,81361,1,8,0:0:0:0:
256,192,81694,1,0,0:0:0:0:
256,192,82361,1,8,0:0:0:0:
256,192,82694,1,0,0:0:0:0:
256,192,83028,1,0,0:0:0:0:
256,192,83694,1,8,0:0:0:0:
256,192,84028,1,8,0:0:0:0:
256,192,84361,1,0,0:0:0:0:
256,192,85028,1,0,0:0:0:0:
256,192,85361,1,8,0:0:0:0:
256,192,85694,1,0,0:0:0:0:
256,192,86694,1,8,0:0:0:0:
256,192,87028,1,0,0:0:0:0:
256,192,87694,1,8,0:0:0:0:
256,192,88694,1,0,0:0:0:0:
256,192,89028,1,8,0:0:0:0:
256,192,89361,1,0,0:0:0:0:
256,192,89694,1,0,0:0:0:0:
256,192,90361,1,8,0:0:0:0:
256,192,91028,1,8,0:0:0:0:
256,192,91528,1,8,0:0:0:0:
256,192,92028,1,8,0:0:0:0:
256,192,92361,1,0,0:0:0:0:
256,192,93028,1,8,0:0:0:0:
256,192,94028,1,0,0:0:0:0:
256,192,94361,1,8,0:0:0:0:
256,192,94694,1,0,0:0:0:0:
256,192,95028,1,0,0:0:0:0:
256,192,95694,1,8,0:0:0:0:
256,192,96361,1,0,0:0:0:0:
256,192,96694,1,0,0:0:0:0:
256,192,97361,1,8,0:0:0:0:
256,192,97694,1,0,0:0:0:0:
256,192,98361,1,8,0:0:0:0:
256,192,99361,1,0,0:0:0:0:
256,192,99694,1,8,0:0:0:0:
256,192,100028,1,0,0:0:0:0:
256,192,100361,1,0,0:0:0:0:
256,192,101028,1,8,0:0:0:0:
256,192,101694,1,8,0:0:0:0:
256,192,102194,1,8,0:0:0:0:
256,192,102694,1,8,0:0:0:0:
256,192,103028,1,0,0:0:0:0:
256,192,104028,1,0,0:0:0:0:
256,192,104361,1,0,0:0:0:0:
256,192,105028,1,0,0:0:0:0:
256,192,105361,1,8,0:0:0:0:
256,192,105694,1,0,0:0:0:0:
256,192,106361,1,8,0:0:0:0:
256,192,107028,1,0,0:0:0:0:
256,192,107672,1,8,0:0:0:0:
256,192,108009,1,8,0:0:0:0:
256,192,108346,1,0,0:0:0:0:
256,192,110537,1,8,0:0:0:0:
256,192,110705,1,8,0:0:0:0:
256,192,111042,1,0,0:0:0:0:
256,192,113233,1,8,0:0:0:0:
256,192,113402,1,8,0:0:0:0:
256,192,113739,1,8,0:0:0:0:
256,192,115762,1,8,0:0:0:0:
256,192,115930,1,8,0:0:0:0:
256,192,116435,1,0,0:0:0:0:
256,192,118626,1,8,0:0:0:0:
256,192,119132,1,0,0:0:0:0:
256,192,119806,1,8,0:0:0:0:
256,192,120817,1,0,0:0:0:0:
256,192,121154,1,8,0:0:0:0:
256,192,121829,1,0,0:0:0:0:
256,192,122503,1,8,0:0:0:0:
256,192,123514,1,0,0:0:0:0:
256,192,123851,1,8,0:0:0:0:
256,192,124020,1,0,0:0:0:0:
256,192,124525,1,0,0:0:0:0:
256,192,125199,1,8,0:0:0:0:
256,192,126211,1,0,0:0:0:0:
256,192,126548,1,8,0:0:0:0:
256,192,127222,1,0,0:0:0:0:
256,192,127390,1,8,0:0:0:0:
256,192,127896,1,8,0:0:0:0:
256,192,128402,1,0,0:0:0:0:
256,192,128907,1,0,0:0:0:0:
256,192,129244,1,8,0:0:0:0:
256,192,129919,1,0,0:0:0:0:
256,192,130593,1,8,0:0:0:0:
256,192,131604,1,8,0:0:0:0:
256,192,131941,1,8,0:0:0:0:
256,192,132615,1,0,0:0:0:0:
256,192,133289,1,8,0:0:0:0:
256,192,134301,1,0,0:0:0:0:
256,192,134638,1,8,0:0:0:0:
256,192,134975,1,0,0:0:0:0:
256,192,135312,1,0,0:0:0:0:
256,192,135986,1,8,0:0:0:0:
256,192,136997,1,0,0:0:0:0:
256,192,137334,1,8,0:0:0:0:
256,192,138008,1,0,0:0:0:0:
256,192,138683,1,8,0:0:0:0:
256,192,139694,1,0,0:0:0:0:
256,192,140031,1,8,0:0:0:0:
256,192,140199,1,0,0:0:0:0:
256,192,140705,1,0,0:0:0:0:
256,192,141042,1,8,0:0:0:0:
256,192,141716,1,0,0:0:0:0:
256,192,142053,1,0,0:0:0:0:
256,192,142728,1,8,0:0:0:0:
256,192,143402,1,0,0:0:0:0:
256,192,143739,1,8,0:0:0:0:
256,192,144076,1,0,0:0:0:0:
256,192,144750,1,0,0:0:0:0:
256,192,145761,1,8,0:0:0:0:
256,192,146098,1,0,0:0:0:0:
256,192,146435,1,8,0:0:0:0:
256,192,147110,1,0,0:0:0:0:
256,192,147447,1,0,0:0:0:0:
256,192,148121,1,8,0:0:0:0:
256,192,148795,1,0,0:0:0:0:
256,192,149132,1,8,0:0:0:0:
256,192,149469,1,0,0:0:0:0:
256,192,149806,1,0,0:0:0:0:
256,192,150143,1,8,0:0:0:0:
256,192,151492,1,0,0:0:0:0:
256,192,151829,1,8,0:0:0:0:
256,192,152166,1,0,0:0:0:0:
256,192,152840,1,0,0:0:0:0:
256,192,153345,1,0,0:0:0:0:
256,192,154188,1,0,0:0:0:0:
256,192,154525,1,8,0:0:0:0:
256,192,154862,1,0,0:0:0:0:
256,192,155199,1,0,0:0:0:0:
256,192,155537,1,8,0:0:0:0:
256,192,156042,1,8,0:0:0:0:
256,192,156885,1,0,0:0:0:0:
256,192,157390,1,0,0:0:0:0:
256,192,158233,1,8,0:0:0:0:
256,192,158739,1,8,0:0:0:0:
256,192,159581,1,0,0:0:0:0:
256,192,162247,1,0,0:0:0:0:
256,192,162584,1,0,0:0:0:0:
256,192,163258,1,0,0:0:0:0:
256,192,163595,1,0,0:0:0:0:
256,192,163932,1,8,0:0:0:0:
256,192,164269,1,0,0:0:0:0:
256,192,164943,1,0,0:0:0:0:
256,192,165281,1,0,0:0:0:0:
256,192,165955,1,8,0:0:0:0:
256,192,166292,1,0,0:0:0:0:
256,192,166629,1,0,0:0:0:0:
256,192,166966,1,8,0:0:0:0:
256,192,167640,1,0,0:0:0:0:
256,192,167977,1,8,0:0:0:0:
256,192,168483,1,8,0:0:0:0:
256,192,168820,1,8,0:0:0:0:
256,192,169325,1,8,0:0:0:0:
256,192,170337,1,0,0:0:0:0:
256,192,170674,1,8,0:0:0:0:
256,192,171179,1,8,0:0:0:0:
256,192,171516,1,8,0:0:0:0:
256,192,172022,1,0,0:0:0:0:
256,192,173033,1,0,0:0:0:0:
256,192,173370,1,0,0:0:0:0:
256,192,174045,1,0,0:0:0:0:
256,192,174382,1,0,0:0:0:0:
256,192,174719,1,8,0:0:0:0:
256,192,175056,1,0,0:0:0:0:
256,192,175730,1,0,0:0:0:0:
256,192,176067,1,8,0:0:0:0:
256,192,176741,1,8,0:0:0:0:
256,192,177078,1,0,0:0:0:0:
256,192,177415,1,0,0:0:0:0:
256,192,177752,1,8,0:0:0:0:
256,192,178427,1,0,0:0:0:0:
256,192,178764,1,8,0:0:0:0:
256,192,179269,1,8,0:0:0:0:
256,192,179606,1,8,0:0:0:0:
256,192,180112,1,8,0:0:0:0:
256,192,181123,1,0,0:0:0:0:
256,192,181460,1,8,0:0:0:0:
256,192,181966,1,8,0:0:0:0:
256,192,182303,1,8,0:0:0:0:
256,192,182472,1,8,0:0:0:0:
256,192,183483,1,0,0:0:0:0:
256,192,183820,1,0,0:0:0:0:
256,192,184325,1,0,0:0:0:0:
256,192,184831,1,0,0:0:0:0:
256,192,185505,1,0,0:0:0:0:
256,192,185842,1,8,0:0:0:0:
256,192,186516,1,0,0:0:0:0:
256,192,187022,1,0,0:0:0:0:
256,192,187528,1,0,0:0:0:0:
256,192,188202,1,0,0:0:0:0:
256,192,188539,1,8,0:0:0:0:
256,192,189213,1,0,0:0:0:0:
256,192,189550,1,8,0:0:0:0:
256,192,190224,1,0,0:0:0:0:
256,192,190561,1,0,0:0:0:0:
256,192,190898,1,8,0:0:0:0:
256,192,191910,1,0,0:0:0:0:
256,192,192247,1,8,0:0:0:0:
256,192,192921,1,0,0:0:0:0:
256,192,193258,1,8,0:0:0:0:
256,192,193595,1,8,0:0:0:0:
256,192,193932,1,0,0:0:0:0:
96,96,194606,2,0,L|208:96,4,70
256,192,195618,1,0,0:0:0:0:
256,192,196292,1,8,0:0:0:0:
256,192,196629,1,0,0:0:0:0:
400,96,197303,2,0,L|304:96,4,70
256,192,198314,1,0,0:0:0:0:
256,192,198988,1,0,0:0:0:0:
256,192,199325,1,8,0:0:0:0:
208,160,200000,2,0,L|336:144,4,70
256,192,201011,1,0,0:0:0:0:
256,192,201685,1,8,0:0:0:0:
256,192,202022,1,0,0:0:0:0:
256,192,202359,1,0,0:0:0:0:
240,112,202696,2,0,L|160:112,4,70
256,176,203707,1,0,0:0:0:0:
256,176,204382,1,8,0:0:0:0:
256,176,204719,1,0,0:0:0:0:
256,192,205356,5,8,0:0:0:0:
