osu file format v14

[General]
AudioFilename: audio.mp3
AudioLeadIn: 0
PreviewTime: 266922
Countdown: 0
SampleSet: Normal
StackLeniency: 0.7
Mode: 1
LetterboxInBreaks: 0
EpilepsyWarning: 1
WidescreenStoryboard: 0

[Editor]
Bookmarks: 48699,71832,152796,175928,199061,303157,326290
DistanceSpacing: 1
BeatDivisor: 6
GridSize: 16
TimelineZoom: 2.799999

[Metadata]
Title:Angel Voices
TitleUnicode:Angel Voices
Artist:Virtual Self
ArtistUnicode:Virtual Self
Creator:Nifty
Version:
Source:
Tags:technic ghost remix trance electronic english instrumental porter robinson mappers' guild mpg mg featured artist fa
BeatmapID:1821121
BeatmapSetID:871607

[Difficulty]
HPDrainRate:5
CircleSize:2
OverallDifficulty:6.2
ApproachRate:10
SliderMultiplier:1.4
SliderTickRate:1

[Events]
//Background and Video events
0,0,"angel.jpeg",0,0
Video,0,"output.mp4"
//Break Periods
2,2634,6322
2,8417,13551
2,118297,122434
2,123880,128490
2,349261,359816
//Storyboard Layer 0 (Background)
//Storyboard Layer 1 (Fail)
//Storyboard Layer 2 (Pass)
//Storyboard Layer 3 (Foreground)
//Storyboard Layer 4 (Overlay)
//Storyboard Sound Samples

[TimingPoints]
989,361.44578313253,4,1,0,40,1,0
989,-200,4,1,0,40,0,0
14000,-200,4,1,0,40,0,0
14180,-198.53091,4,1,0,40,0,0
14361,-197.06451,4,1,0,40,0,0
14542,-195.60898,4,1,0,40,0,0
14903,-192.73795,4,1,0,40,0,0
15084,-191.31435,4,1,0,40,0,0
15265,-189.90128,4,1,0,40,0,0
15626,-187.11403,4,1,0,40,0,0
15807,-185.73196,4,1,0,40,0,0
15987,-184.36766,4,1,0,40,0,0
16349,-181.65419,4,1,0,40,0,0
16530,-180.31248,4,1,0,40,0,0
16710,-178.98799,4,1,0,40,0,0
17072,-176.35368,4,1,0,40,0,0
17253,-175.05112,4,1,0,40,0,0
17433,-173.76527,4,1,0,40,0,0
17795,-171.20784,4,1,0,40,0,0
17975,-169.95024,4,1,0,40,0,0
18156,-168.69496,4,1,0,40,0,0
18518,-166.21214,4,1,0,40,0,0
18698,-164.99123,4,1,0,40,0,0
18879,-163.77258,4,1,0,40,0,0
19060,-162.56293,4,1,0,40,0,0
19241,-161.36223,4,1,0,40,0,0
19421,-160.17694,4,1,0,40,0,0
19512,-159.58102,4,1,0,40,0,0
19602,-158.99384,4,1,0,40,0,0
19963,-156.66023,4,1,0,40,0,0
20144,-155.50311,4,1,0,40,0,0
20325,-154.35454,4,1,0,40,0,0
20686,-152.08902,4,1,0,40,0,0
20867,-150.96567,4,1,0,40,0,0
21048,-149.85062,4,1,0,40,0,0
21409,-147.6512,4,1,0,40,0,0
21590,-146.56062,4,1,0,40,0,0
21771,-145.4781,4,1,0,40,0,0
22132,-143.34286,4,1,0,40,0,0
22313,-142.2841,4,1,0,40,0,0
22494,-141.23317,4,1,0,40,0,0
22584,-140.71352,4,1,0,40,0,0
22674,-140.19576,4,1,0,40,0,0
22855,-139.16025,4,1,0,40,0,0
23036,-138.13239,4,1,0,40,0,0
23216,-137.11774,4,1,0,40,0,0
23307,-136.6076,4,1,0,40,0,0
23397,-136.10497,4,1,0,40,0,0
23578,-135.09967,4,1,0,40,0,0
23759,-134.1018,4,1,0,40,0,0
23939,-133.11676,4,1,0,40,0,0
24030,-132.62152,4,1,0,40,0,0
24120,-132.13354,4,1,0,40,0,0
24301,-131.15758,4,1,0,40,0,0
24481,-130.19417,4,1,0,40,0,0
24662,-129.23253,4,1,0,40,0,0
24843,-128.278,4,1,0,40,0,0
25024,-127.33051,4,1,0,40,0,0
25204,-126.39521,4,1,0,40,0,0
25475,-125.00001,4,1,0,40,0,0
26290,-200,4,1,0,40,0,0
37133,-200,4,1,0,40,0,0
37856,-184.627541628895,4,1,0,40,0,0
38127,-179.455245656286,4,1,0,40,0,0
38398,-174.564853461534,4,1,0,40,0,0
38579,-171.449831207641,4,1,0,40,0,0
38940,-165.542084108622,4,1,0,40,0,0
39482,-157.406197711629,4,1,0,40,0,0
40025,-150.032557064883,4,1,0,40,0,0
40386,-145.489039583203,4,1,0,40,0,0
40567,-143.318834244602,4,1,0,40,0,0
40748,-141.212421609454,4,1,0,40,0,0
40928,-139.16722333556,4,1,0,40,0,0
41470,-133.371922276179,4,1,0,40,0,0
41832,-129.769347960934,4,1,0,40,0,0
42013,-128.039989449505,4,1,0,40,0,0
42193,-126.356117025981,4,1,0,40,0,0
42374,-124.71611494336,4,1,0,40,0,0
42464,-123.911898640067,4,1,0,40,0,0
42645,-122.334185187043,4,1,0,40,0,0
42735,-121.560299378705,4,1,0,40,0,0
42916,-120.041678470765,4,1,0,40,0,0
43278,-117.115355111324,4,1,0,40,0,0
43639,-114.328179037928,4,1,0,40,0,0
43820,-112.983881719434,4,1,0,40,0,0
44181,-110.38770369291,4,1,0,40,0,0
44362,-109.133967401684,4,1,0,40,0,0
44723,-106.709805884192,4,1,0,40,0,0
44904,-105.537778303121,4,1,0,40,0,0
44995,-104.961311260669,4,1,0,40,0,0
45085,-104.391107547895,4,1,0,40,0,0
45266,-103.269192837662,4,1,0,40,0,0
45446,-102.17103226459,4,1,0,40,0,0
45808,-100.043418843778,4,1,0,40,0,0
45988,-142.945769234068,4,1,0,40,0,0
47705,-79.3650793650794,4,1,0,60,0,0
47976,-85.4700854700855,4,1,0,60,0,0
48157,-90.9449728347366,4,1,0,60,0,0
48338,-95.2380952380952,4,1,0,60,0,0
48699,-100.043418843778,4,1,0,80,0,0
49038,-105.263157894737,4,1,0,80,0,0
49219,-100,4,1,0,80,0,0
49513,-105.263157894737,4,1,0,80,0,0
49694,-100,4,1,0,80,0,0
50055,-105.263157894737,4,1,0,80,0,0
50236,-100,4,1,0,80,0,0
50597,-105.263157894737,4,1,0,80,0,0
50778,-100,4,1,0,80,0,0
51320,-105.263157894737,4,1,0,80,0,0
51501,-100,4,1,0,80,0,0
51862,-105.263157894737,4,1,0,80,0,0
52043,-100,4,1,0,80,0,0
52404,-105.263157894737,4,1,0,80,0,0
52585,-100,4,1,0,80,0,0
52946,-105.263157894737,4,1,0,80,0,0
53127,-100,4,1,0,80,0,0
53488,-105.263157894737,4,1,0,80,0,0
53669,-100,4,1,0,80,0,0
54211,-105.263157894737,4,1,0,80,0,0
54392,-100,4,1,0,80,0,0
54754,-105.263157894737,4,1,0,80,0,0
54935,-100,4,1,0,80,0,0
55296,-105.263157894737,4,1,0,80,0,0
55477,-100,4,1,0,80,0,0
55838,-105.263157894737,4,1,0,80,0,0
56019,-100,4,1,0,80,0,0
56380,-105.263157894737,4,1,0,80,0,0
56561,-100,4,1,0,80,0,0
57103,-105.263157894737,4,1,0,80,0,0
57284,-100,4,1,0,80,0,0
57645,-105.263157894737,4,1,0,80,0,0
57826,-100,4,1,0,80,0,0
58368,-95.2380952380952,4,1,0,80,0,0
58729,-100,4,1,0,80,0,0
58910,-95.2380952380952,4,1,0,80,0,0
59272,-90.9090909090909,4,1,0,80,0,0
59452,-86.9565217391304,4,1,0,80,0,0
59633,-89.2857142857143,4,1,0,80,0,0
59814,-92.5925925925926,4,1,0,80,0,0
59995,-96.1538461538461,4,1,0,80,0,0
60175,-100,4,1,0,80,0,0
60446,-105.263157894737,4,1,0,80,0,0
60717,-100,4,1,0,80,0,0
60898,-105.263157894737,4,1,0,80,0,0
61260,-100,4,1,0,80,0,0
61621,-105.263157894737,4,1,0,80,0,0
61802,-100,4,1,0,80,0,0
61982,-105.263157894737,4,1,0,80,0,0
62344,-102.564102564103,4,1,0,80,0,0
62434,-100,4,1,0,80,0,0
62525,-105.263157894737,4,1,0,80,0,0
62706,-100,4,1,0,80,0,0
62886,-105.263157894737,4,1,0,80,0,0
63067,-100,4,1,0,80,0,0
63338,-105.263157894737,4,1,0,80,0,0
63609,-100,4,1,0,80,0,0
63790,-105.263157894737,4,1,0,80,0,0
64151,-100,4,1,0,80,0,0
64513,-105.263157894737,4,1,0,80,0,0
64694,-100,4,1,0,80,0,0
64874,-102.564102564103,4,1,0,80,0,0
64964,-105.263157894737,4,1,0,80,0,0
65236,-100,4,1,0,80,0,0
65416,-105.263157894737,4,1,0,80,0,0
65597,-102.564102564103,4,1,0,80,0,0
65687,-100,4,1,0,80,0,0
65778,-105.263157894737,4,1,0,80,0,0
66049,-100,4,1,0,80,0,0
66229,-99.173586503665,4,1,0,80,0,0
66410,-98.3606234883202,4,1,0,80,0,0
66501,-97.959215660152,4,1,0,80,0,0
66591,-97.5609756097561,4,1,0,80,0,0
66772,-96.774224765879,4,1,0,80,0,0
66952,-95.9999692800098,4,1,0,80,0,0
67043,-95.6175603561945,4,1,0,80,0,0
67133,-95.2380952380952,4,1,0,80,0,0
67314,-94.4882187364469,4,1,0,80,0,0
67495,-93.7499707031342,4,1,0,80,0,0
67585,-93.3852430771185,4,1,0,80,0,0
67675,-93.0232558139535,4,1,0,80,0,0
67856,-92.3077207100679,4,1,0,80,0,0
68037,-91.6030254647251,4,1,0,80,0,0
68127,-91.2547806098192,4,1,0,80,0,0
68217,-90.9090909090909,4,1,0,80,0,0
68398,-90.2255910452905,4,1,0,80,0,0
68579,-89.5522120739665,4,1,0,80,0,0
68669,-89.2193573886565,4,1,0,80,0,0
68760,-88.8888888888889,4,1,0,80,0,0
68850,-88.5608594654289,4,1,0,80,0,0
68940,-88.2353200692118,4,1,0,80,0,0
69031,-87.9120879120879,4,1,0,80,0,0
69121,-87.591215301835,4,1,0,80,0,0
69211,-87.2727526611644,4,1,0,80,0,0
69302,-86.9565217391304,4,1,0,80,0,0
69392,-86.6425742548522,4,1,0,80,0,0
69482,-86.3309600952403,4,1,0,80,0,0
69573,-86.0215053763441,4,1,0,80,0,0
69663,-85.7142612244968,4,1,0,80,0,0
69754,-85.4092769848475,4,1,0,80,0,0
69844,-85.1063829787234,4,1,0,80,0,0
69934,-84.8056297369244,4,1,0,80,0,0
70025,-84.5070660583285,4,1,0,80,0,0
70115,-84.2105263157895,4,1,0,80,0,0
70205,-83.91606044306,4,1,0,80,0,0
70296,-83.6237166895378,4,1,0,80,0,0
70386,-83.3333333333333,4,1,0,80,0,0
70567,-125,4,1,0,80,0,0
71742,-100,4,1,0,80,0,0
72005,-200,4,1,0,80,0,0
82735,-192.307692307692,4,1,0,80,0,0
82796,-185.185185185185,4,1,0,80,0,0
82856,-178.571428571429,4,1,0,80,0,0
83037,-147.058823529412,4,1,0,80,0,0
83097,-151.515151515152,4,1,0,80,0,0
83157,-156.25,4,1,0,80,0,0
83217,-161.290322580645,4,1,0,80,0,0
83398,-100,4,1,0,80,0,0
83759,-125,4,1,0,80,0,0
83849,-124.42761,4,1,0,80,0,0
83939,-123.85785,4,1,0,80,0,0
84030,-123.284424,4,1,0,80,0,0
84120,-122.71988,4,1,0,80,0,0
84301,-121.59236,4,1,0,80,0,0
84481,-120.48136,4,1,0,80,0,0
84662,-119.37442,4,1,0,80,0,0
84753,-118.82172,4,1,0,80,0,0
84843,-118.277626,4,1,0,80,0,0
84933,-117.73602,4,1,0,80,0,0
85024,-117.19092,4,1,0,80,0,0
85114,-116.654305,4,1,0,80,0,0
85204,-116.12012,4,1,0,80,0,0
85295,-115.58251,4,1,0,80,0,0
85385,-115.053246,4,1,0,80,0,0
85475,-114.52641,4,1,0,80,0,0
85566,-113.99617,4,1,0,80,0,0
85747,-112.94881,4,1,0,80,0,0
85927,-111.91677,4,1,0,80,0,0
86108,-110.88851,4,1,0,80,0,0
86289,-109.869705,4,1,0,80,0,0
86650,-107.86556,4,1,0,80,0,0
86741,-107.36618,4,1,0,80,0,0
86831,-106.874535,4,1,0,80,0,0
86921,-106.38515,4,1,0,80,0,0
87012,-105.8926,4,1,0,80,0,0
87192,-104.92505,4,1,0,80,0,0
87373,-103.96102,4,1,0,80,0,0
87463,-103.48498,4,1,0,80,0,0
87554,-103.00586,4,1,0,80,0,0
87644,-102.53418,4,1,0,80,0,0
87734,-102.06467,4,1,0,80,0,0
87825,-101.59213,4,1,0,80,0,0
87915,-101.12694,4,1,0,80,0,0
88006,-100.65873,4,1,0,80,0,0
88096,-100.19781,4,1,0,80,0,0
88186,-99.739,4,1,0,80,0,0
88277,-99.277214,4,1,0,80,0,0
88367,-98.82262,4,1,0,80,0,0
88457,-98.3701,4,1,0,80,0,0
88638,-97.4663,4,1,0,80,0,0
88819,-96.57082,4,1,0,80,0,0
88879,-96.27578,4,1,0,80,0,0
88939,-95.981674,4,1,0,80,0,0
89000,-95.683556,4,1,0,80,0,0
89180,-94.80927,4,1,0,80,0,0
89542,-93.07512,4,1,0,80,0,0
89632,-92.64892,4,1,0,80,0,0
89722,-92.22466,4,1,0,80,0,0
89813,-91.79768,4,1,0,80,0,0
89903,-91.37733,4,1,0,80,0,0
90084,-90.53778,4,1,0,80,0,0
90265,-89.70595,4,1,0,80,0,0
90445,-88.88629,4,1,0,80,0,0
90536,-88.47476,4,1,0,80,0,0
90626,-88.069626,4,1,0,80,0,0
90716,-87.66635,4,1,0,80,0,0
90807,-87.26047,4,1,0,80,0,0
90897,-86.86089,4,1,0,80,0,0
90987,-86.46315,4,1,0,80,0,0
91078,-86.06284,4,1,0,80,0,0
91168,-85.668755,4,1,0,80,0,0
91259,-85.272125,4,1,0,80,0,0
91349,-84.88166,4,1,0,80,0,0
91530,-84.10178,4,1,0,80,0,0
91710,-83.33333,4,1,0,80,0,0
92073,-71.4285714285714,4,1,0,80,0,0
92254,-73.384046601805,4,1,0,80,0,0
92434,-75.4495472649916,4,1,0,80,0,0
92615,-77.6347486924367,4,1,0,80,0,0
92705,-78.7755134194087,4,1,0,80,0,0
92796,-79.9503028917225,4,1,0,80,0,0
92976,-82.4081643416577,4,1,0,80,0,0
93157,-85.0220121989583,4,1,0,80,0,0
93248,-86.3921182742656,4,1,0,80,0,0
93338,-87.807105350965,4,1,0,80,0,0
93428,-89.2692154217926,4,1,0,80,0,0
93519,-90.9090909090909,4,1,0,80,0,0
93699,-86.9565217391304,4,1,0,80,0,0
93760,-85.7142612244968,4,1,0,80,0,0
93820,-84.5070660583285,4,1,0,80,0,0
93880,-83.3333333333333,4,1,0,80,0,0
94061,-80,4,1,0,80,0,0
94151,-78.4313725490196,4,1,0,80,0,0
94242,-76.9230769230769,4,1,0,80,0,0
94362,-75.0000187500047,4,1,0,80,0,0
94482,-73.1707138608015,4,1,0,80,0,0
94603,-71.4285714285714,4,1,0,80,0,0
94784,-68.9655172413793,4,1,0,80,0,0
94964,-66.6666666666667,4,1,0,80,0,1
95055,-76.9230769230769,4,1,0,80,0,1
116651,-76.9230769230769,4,1,0,80,0,0
118007,-125,4,1,0,40,0,0
118317,-200,4,1,0,40,0,0
123067,-166.666666666667,4,1,0,60,0,0
123338,-200,4,1,0,40,0,0
128939,-166.66667,4,1,0,40,0,0
129210,-178.45471,4,1,0,40,0,0
129481,-191.07649,4,1,0,40,0,0
129662,-200,4,1,0,40,0,0
140507,-192.307692307692,4,1,0,40,0,0
140778,-181.818181818182,4,1,0,40,0,0
141049,-172.413793103448,4,1,0,40,0,0
141229,-166.666666666667,4,1,0,40,0,0
151802,-79.3650793650794,4,1,0,60,0,0
152073,-85.4700854700855,4,1,0,60,0,0
152254,-90.9090909090909,4,1,0,60,0,0
152434,-95.2380952380952,4,1,0,60,0,0
152796,-100,4,1,0,80,0,0
153135,-105.263157894737,4,1,0,80,0,0
153316,-100,4,1,0,80,0,0
153610,-105.263157894737,4,1,0,80,0,0
153791,-100,4,1,0,80,0,0
154152,-105.263157894737,4,1,0,80,0,0
154333,-100,4,1,0,80,0,0
154694,-105.263157894737,4,1,0,80,0,0
154875,-100,4,1,0,80,0,0
155417,-105.263157894737,4,1,0,80,0,0
155598,-100,4,1,0,80,0,0
155959,-105.263157894737,4,1,0,80,0,0
156140,-100,4,1,0,80,0,0
156501,-105.263157894737,4,1,0,80,0,0
156682,-100,4,1,0,80,0,0
157043,-105.263157894737,4,1,0,80,0,0
157224,-100,4,1,0,80,0,0
157585,-105.263157894737,4,1,0,80,0,0
157766,-100,4,1,0,80,0,0
158308,-105.263157894737,4,1,0,80,0,0
158489,-100,4,1,0,80,0,0
158851,-105.263157894737,4,1,0,80,0,0
159032,-100,4,1,0,80,0,0
159393,-105.263157894737,4,1,0,80,0,0
159574,-100,4,1,0,80,0,0
159935,-105.263157894737,4,1,0,80,0,0
160116,-100,4,1,0,80,0,0
160477,-105.263157894737,4,1,0,80,0,0
160658,-100,4,1,0,80,0,0
161200,-105.263157894737,4,1,0,80,0,0
161381,-100,4,1,0,80,0,0
161742,-105.263157894737,4,1,0,80,0,0
161923,-100,4,1,0,80,0,0
162465,-95.2380952380952,4,1,0,80,0,0
162826,-100,4,1,0,80,0,0
163007,-95.2380952380952,4,1,0,80,0,0
163369,-90.9090909090909,4,1,0,80,0,0
163549,-86.9565217391304,4,1,0,80,0,0
163730,-89.2857142857143,4,1,0,80,0,0
163911,-92.5925925925926,4,1,0,80,0,0
164092,-96.1538461538461,4,1,0,80,0,0
164272,-100,4,1,0,80,0,0
164701,-105.263157894737,4,1,0,80,0,0
164882,-100,4,1,0,80,0,0
165176,-105.263157894737,4,1,0,80,0,0
165357,-100,4,1,0,80,0,0
165718,-105.263157894737,4,1,0,80,0,0
165899,-100,4,1,0,80,0,0
166260,-105.263157894737,4,1,0,80,0,0
166441,-100,4,1,0,80,0,0
166983,-105.263157894737,4,1,0,80,0,0
167164,-100,4,1,0,80,0,0
167525,-105.263157894737,4,1,0,80,0,0
167706,-100,4,1,0,80,0,0
168067,-105.263157894737,4,1,0,80,0,0
168248,-100,4,1,0,80,0,0
168609,-105.263157894737,4,1,0,80,0,0
168790,-100,4,1,0,80,0,0
169151,-105.263157894737,4,1,0,80,0,0
169332,-100,4,1,0,80,0,0
169874,-105.263157894737,4,1,0,80,0,0
170055,-100,4,1,0,80,0,0
170417,-105.263157894737,4,1,0,80,0,0
170598,-100,4,1,0,80,0,0
170959,-105.263157894737,4,1,0,80,0,0
171140,-100,4,1,0,80,0,0
171501,-105.263157894737,4,1,0,80,0,0
171682,-100,4,1,0,80,0,0
172043,-105.263157894737,4,1,0,80,0,0
172224,-100,4,1,0,80,0,0
172766,-105.263157894737,4,1,0,80,0,0
172947,-100,4,1,0,80,0,0
173308,-105.263157894737,4,1,0,80,0,0
173489,-100,4,1,0,80,0,0
174031,-95.2380952380952,4,1,0,80,0,0
174392,-100,4,1,0,80,0,0
174573,-95.2380952380952,4,1,0,80,0,0
174935,-90.9090909090909,4,1,0,80,0,0
175115,-86.9565217391304,4,1,0,80,0,0
175296,-89.2857142857143,4,1,0,80,0,0
175477,-92.5925925925926,4,1,0,80,0,0
175658,-96.1538461538461,4,1,0,80,0,0
175838,-100,4,1,0,80,0,0
176109,-105.263157894737,4,1,0,80,0,0
176380,-100,4,1,0,80,0,0
176561,-105.263157894737,4,1,0,80,0,0
176923,-100,4,1,0,80,0,0
177284,-105.263157894737,4,1,0,80,0,0
177465,-100,4,1,0,80,0,0
177645,-105.263157894737,4,1,0,80,0,0
177976,-102.564102564103,4,1,0,80,0,0
178097,-100,4,1,0,80,0,0
178188,-105.263157894737,4,1,0,80,0,0
178369,-100,4,1,0,80,0,0
178549,-105.263157894737,4,1,0,80,0,0
178730,-100,4,1,0,80,0,0
179001,-105.263157894737,4,1,0,80,0,0
179272,-100,4,1,0,80,0,0
179453,-105.263157894737,4,1,0,80,0,0
179814,-100,4,1,0,80,0,0
180176,-105.263157894737,4,1,0,80,0,0
180357,-100,4,1,0,80,0,0
180507,-102.564102564103,4,1,0,80,0,0
180627,-105.263157894737,4,1,0,80,0,0
180899,-100,4,1,0,80,0,0
181079,-105.263157894737,4,1,0,80,0,0
181229,-102.564102564103,4,1,0,80,0,0
181350,-100,4,1,0,80,0,0
181441,-105.263157894737,4,1,0,80,0,0
181621,-100,4,1,0,80,0,0
181892,-105.263157894737,4,1,0,80,0,0
182163,-100,4,1,0,80,0,0
182344,-105.263157894737,4,1,0,80,0,0
182706,-100,4,1,0,80,0,0
183067,-105.263157894737,4,1,0,80,0,0
183248,-100,4,1,0,80,0,0
183428,-105.263157894737,4,1,0,80,0,0
183760,-102.564102564103,4,1,0,80,0,0
183880,-100,4,1,0,80,0,0
183971,-105.263157894737,4,1,0,80,0,0
184152,-100,4,1,0,80,0,0
184332,-105.263157894737,4,1,0,80,0,0
184513,-100,4,1,0,80,0,0
184784,-105.263157894737,4,1,0,80,0,0
185055,-100,4,1,0,80,0,0
185236,-105.263157894737,4,1,0,80,0,0
185597,-100,4,1,0,80,0,0
185959,-105.263157894737,4,1,0,80,0,0
186140,-100,4,1,0,80,0,0
186290,-102.564102564103,4,1,0,80,0,0
186410,-105.263157894737,4,1,0,80,0,0
186682,-100,4,1,0,80,0,0
186862,-105.263157894737,4,1,0,80,0,0
187013,-102.564102564103,4,1,0,80,0,0
187133,-100,4,1,0,80,0,0
187224,-105.263157894737,4,1,0,80,0,0
187404,-100,4,1,0,80,0,0
187675,-105.263157894737,4,1,0,80,0,0
187946,-100,4,1,0,80,0,0
188127,-105.263157894737,4,1,0,80,0,0
188489,-100,4,1,0,80,0,0
188850,-105.263157894737,4,1,0,80,0,0
189031,-100,4,1,0,80,0,0
189211,-105.263157894737,4,1,0,80,0,0
189543,-102.564102564103,4,1,0,80,0,0
189663,-100,4,1,0,80,0,0
189754,-105.263157894737,4,1,0,80,0,0
189935,-100,4,1,0,80,0,0
190115,-105.263157894737,4,1,0,80,0,0
190296,-100,4,1,0,80,0,0
190567,-105.263157894737,4,1,0,80,0,0
190838,-100,4,1,0,80,0,0
191019,-105.263157894737,4,1,0,80,0,0
191380,-100,4,1,0,80,0,0
191742,-105.263157894737,4,1,0,80,0,0
191923,-100,4,1,0,80,0,0
192073,-102.564102564103,4,1,0,80,0,0
192193,-105.263157894737,4,1,0,80,0,0
192465,-100,4,1,0,80,0,0
192645,-105.263157894737,4,1,0,80,0,0
192826,-102.564102564103,4,1,0,80,0,0
192886,-100,4,1,0,80,0,0
193007,-105.263157894737,4,1,0,80,0,0
193232,-100,4,1,0,80,0,0
193412,-99.173586503665,4,1,0,80,0,0
193593,-98.3606234883202,4,1,0,80,0,0
193684,-97.959215660152,4,1,0,80,0,0
193774,-97.5609756097561,4,1,0,80,0,0
193955,-96.774224765879,4,1,0,80,0,0
194135,-95.9999692800098,4,1,0,80,0,0
194226,-95.6175603561945,4,1,0,80,0,0
194316,-95.2380952380952,4,1,0,80,0,0
194497,-94.4882187364469,4,1,0,80,0,0
194678,-93.7499707031342,4,1,0,80,0,0
194768,-93.3852430771185,4,1,0,80,0,0
194858,-93.0232558139535,4,1,0,80,0,0
195039,-92.3077207100679,4,1,0,80,0,0
195220,-91.6030254647251,4,1,0,80,0,0
195310,-91.2547806098192,4,1,0,80,0,0
195400,-90.9090909090909,4,1,0,80,0,0
195581,-90.2255910452905,4,1,0,80,0,0
195762,-89.5522120739665,4,1,0,80,0,0
195852,-89.2193573886565,4,1,0,80,0,0
195943,-88.8888888888889,4,1,0,80,0,0
196033,-88.5608594654289,4,1,0,80,0,0
196123,-88.2353200692118,4,1,0,80,0,0
196214,-87.9120879120879,4,1,0,80,0,0
196304,-87.591215301835,4,1,0,80,0,0
196394,-87.2727526611644,4,1,0,80,0,0
196485,-86.9565217391304,4,1,0,80,0,0
196575,-86.6425742548522,4,1,0,80,0,0
196665,-86.3309600952403,4,1,0,80,0,0
196756,-86.0215053763441,4,1,0,80,0,0
196846,-85.7142612244968,4,1,0,80,0,0
196937,-85.4092769848475,4,1,0,80,0,0
197027,-85.1063829787234,4,1,0,80,0,0
197117,-84.8056297369244,4,1,0,80,0,0
197208,-84.5070660583285,4,1,0,80,0,0
197298,-84.2105263157895,4,1,0,80,0,0
197388,-83.91606044306,4,1,0,80,0,0
197479,-83.6237166895378,4,1,0,80,0,0
197569,-83.3333333333333,4,1,0,80,0,0
197750,-125,4,1,0,80,0,0
198157,-79.3650793650794,4,1,0,80,0,0
198338,-85.4700854700855,4,1,0,80,0,0
198519,-90.9090909090909,4,1,0,80,0,0
198699,-95.2380952380952,4,1,0,80,0,0
199061,-100,4,1,0,80,0,0
199203,-166.666666666667,4,1,0,80,0,0
209934,-161.290322580645,4,1,0,80,0,0
209995,-156.25,4,1,0,80,0,0
210055,-151.515151515152,4,1,0,80,0,0
210236,-128.205128205128,4,1,0,80,0,0
210296,-131.578947368421,4,1,0,80,0,0
210356,-135.135135135135,4,1,0,80,0,0
210416,-138.888888888889,4,1,0,80,0,0
210627,-90.9090909090909,4,1,0,80,0,0
210988,-100,4,1,0,80,0,0
220748,-111.111111111111,4,1,0,80,0,0
221470,-90.9090909090908,4,1,0,80,0,0
222193,-76.9230769230769,4,1,0,80,0,1
227434,-71.4285714285714,4,1,0,80,0,1
227495,-72.2714109475288,4,1,0,80,0,1
227555,-73.1343250835377,4,1,0,80,0,1
227615,-74.0181492501961,4,1,0,80,0,1
227705,-75.3845933491189,4,1,0,80,0,1
227796,-76.8024970027826,4,1,0,80,0,1
227976,-71.4285714285714,4,1,0,80,0,1
233037,-66.6666666666667,4,1,0,80,0,1
233097,-68.1818026859539,4,1,0,80,0,1
233157,-69.7674580854554,4,1,0,80,0,1
233217,-71.4285714285714,4,1,0,80,0,1
233398,-62.5,4,1,0,80,0,1
233458,-63.7755102040816,4,1,0,80,0,1
233519,-65.1041666666667,4,1,0,80,0,1
233579,-66.4893617021277,4,1,0,80,0,1
233760,-62.5,4,1,0,80,0,0
233850,-62.5,4,1,0,80,0,0
234121,-71.4285714285714,4,1,0,80,0,0
234302,-71.7590217236086,4,1,0,80,0,0
234663,-72.4292330178799,4,1,0,80,0,0
234844,-72.7690289191398,4,1,0,80,0,0
235205,-73.4583300277085,4,1,0,80,0,0
235386,-73.807873676348,4,1,0,80,0,0
235748,-74.5170919853887,4,1,0,80,0,0
235928,-74.8768089301077,4,1,0,80,0,0
236290,-75.6067631761796,4,1,0,80,0,0
236470,-75.9771612653236,4,1,0,80,0,0
236651,-76.3511480922139,4,1,0,80,0,0
237013,-77.1102769492707,4,1,0,80,0,0
237193,-77.4955905009005,4,1,0,80,0,0
237555,-78.2777639487062,4,1,0,80,0,0
237735,-78.6748635384492,4,1,0,80,0,0
238097,-79.4811470719145,4,1,0,80,0,0
238278,-79.8905180340861,4,1,0,80,0,0
238639,-80.7221076865205,4,1,0,80,0,0
238820,-81.1443956405985,4,1,0,80,0,0
239181,-82.0024338322361,4,1,0,80,0,0
239362,-82.4382599261848,4,1,0,80,0,0
239543,-82.8787434256437,4,1,0,80,0,0
239904,-83.7740546726236,4,1,0,80,0,0
240085,-84.2289680266837,4,1,0,80,0,0
240446,-85.153851721598,4,1,0,80,0,0
240627,-85.6239157871663,4,1,0,80,0,0
240988,-86.5798616973289,4,1,0,80,0,0
241169,-87.0658461581325,4,1,0,80,0,0
241531,-88.0543682891565,4,1,0,80,0,0
241711,-88.5571733967167,4,1,0,80,0,0
242073,-89.5800487315465,4,1,0,80,0,0
242254,-90.1004800553577,4,1,0,80,0,0
242434,-90.6269116614179,4,1,0,80,0,0
242796,-91.6984478203738,4,1,0,80,0,0
242976,-92.243859556879,4,1,0,80,0,0
243338,-93.3542073340932,4,1,0,80,0,0
243519,-93.9195541450926,4,1,0,80,0,0
243880,-95.0708610662958,4,1,0,80,0,0
244061,-95.6571647216376,4,1,0,80,0,0
244422,-96.8518312259989,4,1,0,80,0,0
244603,-97.4603774835341,4,1,0,80,0,0
244784,-98.0767156069478,4,1,0,80,0,0
244964,-98.7008013518062,4,1,0,80,0,0
245145,-99.3328803753988,4,1,0,80,0,0
245326,-99.973107234154,4,1,0,80,0,0
256350,-102.040816326531,4,1,0,80,0,0
256531,-104.166666666667,4,1,0,80,0,0
256711,-106.382978723404,4,1,0,80,0,0
256892,-108.695652173913,4,1,0,60,0,0
262675,-108.695652173913,4,1,0,60,0,0
262856,-105.380740615845,4,1,0,60,0,0
263037,-102.262140817013,4,1,0,60,0,0
263217,-99.322718383344,4,1,0,60,0,0
263398,-96.547555946895,4,1,0,60,0,0
263579,-93.9232590619508,4,1,0,60,0,0
263760,-91.4379346730819,4,1,0,60,0,0
263940,-89.0806696728423,4,1,0,60,0,0
264121,-86.8418904437447,4,1,0,60,0,0
264302,-84.7129543896982,4,1,0,60,0,0
264482,-82.6858343455458,4,1,0,60,0,0
264663,-80.753462102804,4,1,0,60,0,0
264844,-78.9093465753738,4,1,0,60,0,0
265025,-77.1476358878459,4,1,0,60,0,0
265205,-75.4628134347956,4,1,0,60,0,0
265386,-73.8500076804008,4,1,0,60,0,0
265567,-72.3047500605552,4,1,0,60,0,0
265657,-71.5560946114683,4,1,0,60,0,0
265748,-70.8227836895129,4,1,0,60,0,0
265838,-70.1043503254595,4,1,0,60,0,0
265928,-69.4003463077281,4,1,0,60,0,0
266019,-68.7103412499098,4,1,0,60,0,0
266109,-68.0339679995428,4,1,0,60,0,0
266199,-67.3707357692795,4,1,0,60,0,0
266290,-66.7203097957425,4,1,0,60,0,0
266967,-66.7203097957425,4,1,0,60,0,0
267013,-58.8235294117647,4,1,0,60,0,0
267073,-61.2245022907148,4,1,0,60,0,0
267133,-63.8297736532396,4,1,0,60,0,0
267193,-66.6666666666667,4,1,0,60,0,0
267254,-69.4444444444444,4,1,0,60,0,0
267690,-58.8235294117647,4,1,0,60,0,0
267750,-61.2245022907148,4,1,0,60,0,0
267810,-63.8297736532396,4,1,0,60,0,0
267870,-66.6666666666667,4,1,0,60,0,0
267976,-69.4444444444444,4,1,0,60,0,0
268458,-100,4,1,0,80,0,0
273699,-71.4285714285714,4,1,0,80,0,0
274242,-100,4,1,0,80,0,0
277013,-96.1538461538461,4,1,0,80,0,0
277073,-92.5925925925926,4,1,0,80,0,0
277133,-89.2857142857143,4,1,0,80,0,0
277314,-84.7681041359206,4,1,0,80,0,0
277404,-82.6764687888063,4,1,0,80,0,0
277495,-80.6856342455651,4,1,0,80,0,0
277585,-78.7883610681496,4,1,0,80,0,0
277675,-76.9783236738367,4,1,0,80,0,0
277766,-75.2495274329677,4,1,0,80,0,0
277856,-73.5967311275902,4,1,0,80,0,0
278037,-70.4996876863835,4,1,0,80,0,0
278127,-69.0469450179177,4,1,0,80,0,0
278217,-67.6528192621107,4,1,0,80,0,0
278308,-66.3139208171997,4,1,0,80,0,0
278398,-65.026947166906,4,1,0,80,0,0
278488,-63.789016551974,4,1,0,80,0,0
278579,-62.5,4,1,0,80,0,0
278760,-63.9920547464827,4,1,0,80,0,0
278940,-65.5570480710166,4,1,0,80,0,0
279121,-67.2005526573451,4,1,0,80,0,0
279211,-68.0535990145839,4,1,0,80,0,0
279302,-68.9285810293381,4,1,0,80,0,0
279482,-70.7477756899323,4,1,0,80,0,0
279663,-72.6656522541612,4,1,0,80,0,0
279844,-74.6904082577715,4,1,0,80,0,0
280025,-76.9230769230769,4,1,0,80,0,1
280205,-74.0740740740741,4,1,0,80,0,1
280296,-72.7272727272727,4,1,0,80,0,1
280386,-71.4285714285714,4,1,0,80,0,1
280567,-76.9230769230769,4,1,0,80,0,1
280657,-75.4716981132076,4,1,0,80,0,1
280748,-74.0740740740741,4,1,0,80,0,1
280838,-72.7272727272727,4,1,0,80,0,1
280928,-71.4285714285714,4,1,0,80,0,1
281199,-72.7272727272727,4,1,0,80,0,1
281290,-74.0740740740741,4,1,0,80,0,1
281380,-75.4716981132076,4,1,0,80,0,1
281470,-76.9230769230769,4,1,0,80,0,1
281621,-74.0740740740741,4,1,0,80,0,1
281712,-72.7272727272727,4,1,0,80,0,1
281802,-71.4285714285714,4,1,0,80,0,1
281983,-76.9230769230769,4,1,0,80,0,1
282073,-75.4716981132076,4,1,0,80,0,1
282164,-74.0740740740741,4,1,0,80,0,1
282254,-72.7272727272727,4,1,0,80,0,1
282344,-71.4285714285714,4,1,0,80,0,1
282615,-72.7272727272727,4,1,0,80,0,1
282706,-74.0740740740741,4,1,0,80,0,1
282886,-76.9230769230769,4,1,0,80,0,1
283067,-74.0740740740741,4,1,0,80,0,1
283158,-72.7272727272727,4,1,0,80,0,1
283248,-71.4285714285714,4,1,0,80,0,1
283429,-76.9230769230769,4,1,0,80,0,1
283519,-75.4716981132076,4,1,0,80,0,1
283610,-74.0740740740741,4,1,0,80,0,1
283700,-72.7272727272727,4,1,0,80,0,1
283790,-71.4285714285714,4,1,0,80,0,1
284061,-72.7272727272727,4,1,0,80,0,1
284152,-74.0740740740741,4,1,0,80,0,1
284242,-75.4716981132076,4,1,0,80,0,1
284332,-76.9230769230769,4,1,0,80,0,1
284543,-74.1023427455659,4,1,0,80,0,1
284633,-72.7681816759531,4,1,0,80,0,1
284723,-71.4812122355821,4,1,0,80,0,1
284904,-69.0391272349692,4,1,0,80,0,1
284995,-67.8796304089883,4,1,0,80,0,1
285085,-66.7584372650937,4,1,0,80,0,1
285266,-58.8949655405557,4,1,0,80,0,1
285808,-77.045282594392,4,1,0,80,0,1
285958,-74.0740740740741,4,1,0,80,0,1
286049,-72.7272727272727,4,1,0,80,0,1
286139,-71.4285714285714,4,1,0,80,0,1
286320,-76.9230769230769,4,1,0,80,0,1
286410,-75.4716981132076,4,1,0,80,0,1
286501,-74.0740740740741,4,1,0,80,0,1
286591,-72.7272727272727,4,1,0,80,0,1
286681,-71.4285714285714,4,1,0,80,0,1
286952,-72.7272727272727,4,1,0,80,0,1
287043,-74.0740740740741,4,1,0,80,0,1
287133,-75.4716981132076,4,1,0,80,0,1
287223,-76.9230769230769,4,1,0,80,0,1
287404,-74.0740740740741,4,1,0,80,0,1
287495,-72.7272727272727,4,1,0,80,0,1
287585,-71.4285714285714,4,1,0,80,0,1
287766,-76.9230769230769,4,1,0,80,0,1
287856,-75.4716981132076,4,1,0,80,0,1
287947,-74.0740740740741,4,1,0,80,0,1
288037,-72.7272727272727,4,1,0,80,0,1
288127,-71.4285714285714,4,1,0,80,0,1
288398,-72.7272727272727,4,1,0,80,0,1
288489,-74.0740740740741,4,1,0,80,0,1
288669,-76.9230769230769,4,1,0,80,0,1
288880,-74.7772013286413,4,1,0,80,0,1
288970,-73.748542544428,4,1,0,80,0,1
289061,-72.7478537564446,4,1,0,80,0,1
289151,-71.7739064527613,4,1,0,80,0,1
289242,-70.8256930116997,4,1,0,80,0,1
289422,-69.0024930600743,4,1,0,80,0,1
289513,-68.125645490491,4,1,0,80,0,1
289603,-67.2708485813923,4,1,0,80,0,1
289693,-66.4371926034145,4,1,0,80,0,1
289784,-65.6239459153687,4,1,0,80,0,1
289964,-64.0557541283934,4,1,0,80,0,1
290055,-63.299432267392,4,1,0,80,0,1
290145,-62.5607621402287,4,1,0,20,0,0
290507,-55.603559962323,4,1,0,20,0,0
290868,-50.0388802099231,4,1,0,20,0,0
291139,-50.0388802099231,4,1,0,80,0,0
291229,-55.603559962323,4,1,0,80,0,0
291320,-57.1428571428571,4,1,0,80,0,0
291410,-58.8235294117647,4,1,0,80,0,0
291501,-60.6060606060606,4,1,0,80,0,0
291591,-62.5,4,1,0,80,0,1
291952,-50,4,1,0,80,0,1
292314,-71.4285714285714,4,1,0,80,0,1
294482,-71.4285714285714,4,1,0,80,0,0
294663,-76.9230769230769,4,1,0,80,0,0
294844,-83.3333333333333,4,1,0,80,0,0
295025,-90.9090909090909,4,1,0,80,0,0
295205,-55.5555555555556,4,1,0,80,0,1
295296,-71.4285714285714,4,1,0,80,0,1
297555,-66.6666666666667,4,1,0,80,0,1
297645,-67.4157454866844,4,1,0,80,0,1
297735,-68.1818026859539,4,1,0,80,0,1
297826,-68.9655172413793,4,1,0,80,0,1
297916,-69.7674580854554,4,1,0,80,0,1
298007,-70.588218685125,4,1,0,80,0,1
298097,-71.4285714285714,4,1,0,80,0,1
298278,-66.6666666666667,4,1,0,80,0,1
298368,-67.4157454866844,4,1,0,80,0,1
298458,-68.1818026859539,4,1,0,80,0,1
298549,-68.9655172413793,4,1,0,80,0,1
298639,-69.7674580854554,4,1,0,80,0,1
298729,-70.588218685125,4,1,0,80,0,1
298820,-71.4285714285714,4,1,0,80,0,1
299001,-66.6666666666667,4,1,0,80,0,1
299091,-67.1140939597315,4,1,0,80,0,1
299181,-67.5675675675676,4,1,0,80,0,1
299272,-68.0272108843538,4,1,0,80,0,1
299362,-68.4931506849315,4,1,0,80,0,1
299543,-69.4444444444444,4,1,0,80,0,1
299633,-69.9300699300699,4,1,0,80,0,1
299723,-70.4225352112676,4,1,0,80,0,1
299904,-71.4285714285714,4,1,0,80,0,1
300145,-72.463768115942,4,1,0,80,0,1
300205,-73.5294117647059,4,1,0,80,0,1
300266,-74.6268656716418,4,1,0,80,0,1
300446,-73.5294117647059,4,1,0,80,0,1
300537,-72.992700729927,4,1,0,80,0,1
300717,-71.9424460431655,4,1,0,80,0,1
300808,-71.4285714285714,4,1,0,80,0,1
300898,-70.9219858156028,4,1,0,80,0,1
300988,-70.4225352112676,4,1,0,80,0,1
301169,-69.4444444444444,4,1,0,80,0,1
301260,-68.9655172413793,4,1,0,80,0,1
301440,-68.0272108843538,4,1,0,80,0,1
301531,-67.5675675675676,4,1,0,80,0,1
301621,-67.1140939597315,4,1,0,80,0,1
301711,-66.6666666666667,4,1,0,80,0,1
301802,-66.2251655629139,4,1,0,80,0,1
301892,-65.7894736842105,4,1,0,80,0,1
302073,-64.9350649350649,4,1,0,80,0,1
302254,-64.1025641025641,4,1,0,80,0,1
302434,-63.2911392405063,4,1,0,80,0,1
302615,-62.5,4,1,0,80,0,0
303157,-76.9230769230769,4,1,0,80,0,0
303880,-62.8797939554912,4,1,0,80,0,1
304061,-63.2642719452688,4,1,0,80,0,1
304151,-63.4582593780202,4,1,0,80,0,1
304332,-63.8498659791313,4,1,0,80,0,1
304422,-64.0474668586383,4,1,0,80,0,1
304603,-64.4463606495678,4,1,0,80,0,1
304784,-64.8502963334291,4,1,0,80,0,1
304874,-65.0541478199379,4,1,0,80,0,1
305055,-65.4657198577823,4,1,0,80,0,1
305145,-65.6734649648483,4,1,0,80,0,1
305326,-66.0929796037065,4,1,0,80,0,1
305507,-66.5178440768521,4,1,0,80,0,1
305597,-66.7323758127169,4,1,0,80,0,1
305778,-67.165527427379,4,1,0,80,0,1
305868,-67.384218750737,4,1,0,80,0,1
306049,-67.8259477658811,4,1,0,80,0,1
306229,-68.273459784884,4,1,0,80,0,1
306320,-68.4994376196171,4,1,0,80,0,1
306501,-68.9559585188536,4,1,0,80,0,1
306591,-69.1864845586145,4,1,0,80,0,1
306772,-69.6521917803449,4,1,0,80,0,1
306952,-70.124260189055,4,1,0,80,0,1
307043,-70.3626773843097,4,1,0,80,0,1
307223,-70.8444086758897,4,1,0,80,0,1
307314,-71.0878069482644,4,1,0,80,0,1
307495,-71.5795531574815,4,1,0,80,0,1
307675,-72.0781500133705,4,1,0,80,0,1
307766,-72.3301146432317,4,1,0,80,0,1
307946,-72.8392597783064,4,1,0,80,0,1
308037,-73.0965298153435,4,1,0,80,0,1
308217,-73.6166149755335,4,1,0,80,0,1
308308,-73.8794154956164,4,1,0,80,0,1
308398,-74.1440990565163,4,1,0,80,0,1
308579,-74.6792526100399,4,1,0,80,0,1
308639,-74.8593206217216,4,1,0,80,0,1
308699,-75.0403154094537,4,1,0,80,0,1
308760,-75.2221309527033,4,1,0,80,0,1
308940,-75.7729599645989,4,1,0,80,0,0
309302,-76.8992381592476,4,1,0,80,0,0
309663,-62.9061377518605,4,1,0,80,0,1
309844,-63.3175883596946,4,1,0,80,0,1
309934,-63.5253386694618,4,1,0,80,0,1
310115,-63.9449561817188,4,1,0,80,0,1
310205,-64.1568506685144,4,1,0,80,0,1
310296,-64.3701541343341,4,1,0,80,0,1
310386,-64.584880679433,4,1,0,80,0,1
310567,-65.018660355522,4,1,0,80,0,1
310657,-65.237742643629,4,1,0,80,0,1
310838,-65.6803664964451,4,1,0,80,0,1
310928,-65.9039384193599,4,1,0,80,0,1
311019,-66.1290375910514,4,1,0,80,0,1
311109,-66.3556797144052,4,1,0,80,0,1
311290,-66.8136567114318,4,1,0,80,0,1
311380,-67.0450240859249,4,1,0,80,0,1
311561,-67.5125995388889,4,1,0,80,0,1
311651,-67.7488414948104,4,1,0,80,0,1
311742,-67.9867425851959,4,1,0,80,0,1
311832,-68.2263203498646,4,1,0,80,0,1
312013,-68.7105773062705,4,1,0,80,0,1
312103,-68.9552928358899,4,1,0,80,0,1
312284,-69.4499907978762,4,1,0,80,0,1
312374,-69.7000111520018,4,1,0,80,0,1
312464,-69.9518381594272,4,1,0,80,0,1
312555,-70.2054914735431,4,1,0,80,0,1
312735,-70.7183570711285,4,1,0,80,0,1
312826,-70.9776101128899,4,1,0,80,0,1
313007,-71.5018608359283,4,1,0,80,0,1
313097,-71.7669011052103,4,1,0,80,0,1
313187,-72.0339135665071,4,1,0,80,0,1
313278,-72.3029203149515,4,1,0,80,0,1
313458,-72.847006716494,4,1,0,80,0,1
313549,-73.1221322413762,4,1,0,80,0,1
313729,-73.6786652373006,4,1,0,80,0,1
313820,-73.960120702917,4,1,0,80,0,1
313910,-74.2437347568332,4,1,0,80,0,1
314001,-74.5295323271846,4,1,0,80,0,1
314362,-75.6950699800922,4,1,0,80,0,1
314452,-75.992172806201,4,1,0,80,0,1
314543,-76.2916170771156,4,1,0,80,0,1
314723,-76.8976415493337,4,1,0,80,0,0
315446,-63.1868010355053,4,1,0,80,0,1
315537,-63.3608763062637,4,1,0,80,0,1
315627,-63.5359133573457,4,1,0,80,0,1
315808,-63.8889048611151,4,1,0,80,0,1
315898,-64.0668345217731,4,1,0,80,0,1
315988,-64.2457992884135,4,1,0,80,0,1
316079,-64.4257666988366,4,1,0,80,0,1
316169,-64.6067452026261,4,1,0,80,0,1
316350,-64.9717697660367,4,1,0,80,0,1
316440,-65.1557907534811,4,1,0,80,0,1
316531,-65.3408998095313,4,1,0,80,0,1
316621,-65.5270636601976,4,1,0,80,0,1
316711,-65.7142913469393,4,1,0,80,0,1
316802,-65.9025920148465,4,1,0,80,0,1
316892,-66.09197491413,4,1,0,80,0,1
317073,-66.4739807544531,4,1,0,80,0,1
317163,-66.6666666666667,4,1,0,80,0,1
317254,-66.8604728907527,4,1,0,80,0,1
317344,-67.0554092257514,4,1,0,80,0,1
317434,-67.2514403577239,4,1,0,80,0,1
317525,-67.4486665061388,4,1,0,80,0,1
317615,-67.6470528546718,4,1,0,80,0,1
317796,-68.0473473442821,4,1,0,80,0,1
317886,-68.2492763870471,4,1,0,80,0,1
317976,-68.4523605796546,4,1,0,80,0,1
318067,-68.6567041211873,4,1,0,80,0,1
318157,-68.8622713256125,4,1,0,80,0,1
318248,-69.0690732173617,4,1,0,80,0,1
318338,-69.2771209536966,4,1,0,80,0,1
318519,-69.6969506887104,4,1,0,80,0,1
318609,-69.9088039652274,4,1,0,80,0,1
318699,-70.1219490816479,4,1,0,80,0,1
318790,-70.3363978901894,4,1,0,80,0,1
318880,-70.5521623885011,4,1,0,80,0,1
318970,-70.7692547219016,4,1,0,80,0,1
319061,-70.9876367931761,4,1,0,80,0,1
319242,-71.4285714285714,4,1,0,80,0,1
319332,-71.651099271165,4,1,0,80,0,1
319422,-71.8750179687545,4,1,0,80,0,1
319513,-72.1002886174553,4,1,0,80,0,1
319603,-72.3270281041133,4,1,0,80,0,1
319693,-72.5551981808961,4,1,0,80,0,1
319784,-72.7848124298991,4,1,0,80,0,1
319964,-73.2484286380846,4,1,0,80,0,1
320055,-73.4824046382094,4,1,0,80,0,1
320145,-73.7179345414228,4,1,0,80,0,1
320235,-73.9549791668824,4,1,0,80,0,1
320326,-74.1935531737776,4,1,0,80,0,1
320416,-74.4336714110689,4,1,0,80,0,1
320507,-74.6753489205678,4,1,0,80,0,1
320687,-75.1633864112114,4,1,0,80,0,1
320778,-75.4098335931202,4,1,0,80,0,1
320868,-75.6579022030825,4,1,0,80,0,1
320958,-75.9076082954871,4,1,0,80,0,1
321049,-76.1589681373725,4,1,0,80,0,1
321139,-76.4119398240692,4,1,0,80,0,1
321229,-76.6666564444458,4,1,0,80,0,1
321410,-77.1812184135864,4,1,0,80,0,1
321501,-77.4410983006325,4,1,0,80,0,1
321591,-77.7026738267091,4,1,0,80,0,1
321681,-77.9660831944887,4,1,0,80,0,1
321772,-78.2312845342227,4,1,0,80,0,1
321862,-78.4982961944811,4,1,0,80,0,1
321952,-78.7671367751946,4,1,0,80,0,1
322133,-79.3103174792009,4,1,0,80,0,1
322223,-79.584758563718,4,1,0,80,0,1
322314,-79.861105565201,4,1,0,80,0,1
322404,-80.1393784069253,4,1,0,80,0,1
322495,-80.4195972908246,4,1,0,80,0,1
322585,-80.7017827023799,4,1,0,80,0,1
322675,-80.9858898284152,4,1,0,80,0,1
322856,-81.5602807957347,4,1,0,80,0,1
322946,-81.8505425463213,4,1,0,80,0,1
323037,-82.1428776785766,4,1,0,80,0,1
323127,-82.4373084878277,4,1,0,80,0,1
323217,-82.7337891413556,4,1,0,80,0,1
323308,-83.0324789844796,4,1,0,80,0,1
323398,-83.3333333333333,4,1,0,80,0,0
323579,-82.478648339911,4,1,0,80,0,0
323669,-82.0578130115792,4,1,0,80,0,0
323760,-81.6413170377265,4,1,0,80,0,0
323940,-80.8207508894324,4,1,0,80,0,0
324121,-80.016579435259,4,1,0,80,0,0
324302,-79.2282534289988,4,1,0,80,0,0
324482,-78.4553091099951,4,1,0,80,0,0
324573,-78.0744346044632,4,1,0,80,0,0
324663,-77.6972402717228,4,1,0,80,0,0
324754,-77.3237328186666,4,1,0,80,0,0
324844,-76.9537400287191,4,1,0,80,0,0
325025,-79.1957513063339,4,1,0,80,0,0
325205,-81.6067387580597,4,1,0,80,0,0
325386,-84.1692036667472,4,1,0,80,0,0
325476,-85.511745038181,4,1,0,80,0,0
325567,-86.8978090455405,4,1,0,80,0,0
325657,-88.3295469400878,4,1,0,80,0,0
325748,-89.8091734682147,4,1,0,80,0,0
325928,-92.9224673516911,4,1,0,80,0,0
326019,-94.5614852961618,4,1,0,80,0,0
326109,-96.2593612228789,4,1,0,80,0,0
326199,-98.0193235294406,4,1,0,80,0,0
326289,-99.84484,4,1,0,60,0,0
326650,-101.74106,4,1,0,60,0,0
327012,-103.67869,4,1,0,60,0,0
327373,-105.64771,4,1,0,60,0,0
327734,-107.65414,4,1,0,60,0,0
328096,-109.70439,4,1,0,60,0,0
328457,-111.78784,4,1,0,60,0,0
328819,-113.91682,4,1,0,60,0,0
329180,-116.080284,4,1,0,60,0,0
329542,-118.291,4,1,0,60,0,0
329903,-120.537544,4,1,0,60,0,0
330265,-122.83314,4,1,0,60,0,0
330626,-125.16595,4,1,0,60,0,0
330987,-127.54305,4,1,0,60,0,0
331349,-129.97208,4,1,0,60,0,0
331710,-132.44044,4,1,0,60,0,0
332072,-134.96274,4,1,0,60,0,0
332433,-137.52592,4,1,0,60,0,0
332795,-140.14505,4,1,0,60,0,0
333156,-142.80664,4,1,0,60,0,0
333518,-145.52635,4,1,0,60,0,0
333879,-148.29015,4,1,0,60,0,0
334241,-151.11429,4,1,0,60,0,0
334602,-153.98418,4,1,0,60,0,0
334963,-156.9086,4,1,0,60,0,0
335325,-159.89688,4,1,0,60,0,0
335686,-162.93356,4,1,0,60,0,0
336048,-166.0366,4,1,0,60,0,0
336409,-169.18993,4,1,0,60,0,0
336771,-172.41208,4,1,0,60,0,0
337132,-175.68646,4,1,0,60,0,0
337494,-179.03238,4,1,0,60,0,0
337855,-182.4325,4,1,0,60,0,0
338216,-185.89719,4,1,0,60,0,0
338578,-189.43755,4,1,0,60,0,0
338939,-193.0353,4,1,0,60,0,0
339301,-196.71158,4,1,0,60,0,0
339662,-200.44743,4,1,0,60,0,0
340024,-204.26491,4,1,0,60,0,0
340385,-208.14423,4,1,0,60,0,0
340747,-212.10829,4,1,0,60,0,0
341108,-216.13658,4,1,0,60,0,0
341469,-220.24136,4,1,0,60,0,0
341831,-224.4358,4,1,0,60,0,0
342192,-228.69818,4,1,0,60,0,0
342554,-233.05371,4,1,0,60,0,0
342915,-237.47977,4,1,0,60,0,0
343277,-242.0025,4,1,0,60,0,0
343638,-246.59853,4,1,0,60,0,0
344000,-251.29494,4,1,0,60,0,0
344361,-256.0674,4,1,0,60,0,0
344722,-260.93057,4,1,0,60,0,0
345084,-265.8999,4,1,0,60,0,0
345445,-270.94977,4,1,0,60,0,0
345807,-276.10995,4,1,0,60,0,0
346168,-281.35376,4,1,0,60,0,0
346530,-286.7121,4,1,0,60,0,0
346891,-292.15714,4,1,0,60,0,0
347253,-297.72122,4,1,0,60,0,0
347614,-303.37546,4,1,0,60,0,0
347975,-309.137,4,1,0,60,0,0
348337,-315.02448,4,1,0,60,0,0
348698,-321.00732,4,1,0,60,0,0
349060,-327.1208,4,1,0,60,0,0
349421,-333.33334,4,1,0,60,0,0
350803,-357.142857142857,4,1,0,60,0,0
352269,-384.615384615385,4,1,0,60,0,0
353737,-416.666666666667,4,1,0,60,0,0
355165,-454.545454545455,4,1,0,60,0,0
356586,-500.000015,4,1,0,60,0,0
358017,-526.315789473684,4,1,0,60,0,0
359453,-555.555555555556,4,1,0,60,0,0
360266,-333.333333333333,4,1,0,60,0,0
360808,-50,4,1,0,80,0,0
360988,-71.4285714285714,4,1,0,80,0,0
361079,-71.909491837194,4,1,0,79,0,0
361169,-72.396932107605,4,1,0,79,0,0
361350,-73.3918559993072,4,1,0,78,0,0
361440,-73.899670850866,4,1,0,77,0,0
361621,-74.9366785066619,4,1,0,77,0,0
361711,-75.4661164683669,4,1,0,76,0,0
361802,-76.0031465302663,4,1,0,75,0,0
361892,-76.5478745717146,4,1,0,75,0,0
361982,-77.1004673059323,4,1,0,74,0,0
362073,-77.6610962950997,4,1,0,73,0,0
362254,-78.8071124995173,4,1,0,73,0,0
362344,-79.3929299008065,4,1,0,72,0,0
362434,-80,4,1,0,72,0,0
362525,-80.5910872704766,4,1,0,71,0,0
362615,-81.2038305470946,4,1,0,71,0,0
362705,-81.8258957685375,4,1,0,70,0,0
362796,-82.4576332680269,4,1,0,69,0,0
362886,-83.099201333576,4,1,0,69,0,0
362976,-83.7508312269999,4,1,0,68,0,0
363157,-85.0851659969046,4,1,0,67,0,0
363248,-85.7684423593183,4,1,0,67,0,0
363428,-87.1684547822358,4,1,0,66,0,0
363519,-87.8857415051839,4,1,0,65,0,0
363699,-89.3562418909211,4,1,0,65,0,0
363880,-90.8768709275802,4,1,0,64,0,0
363970,-91.6567600985127,4,1,0,63,0,0
364061,-92.4501508786462,4,1,0,63,0,0
364242,-94.0787759222307,4,1,0,62,0,0
364332,-94.9148424033957,4,1,0,61,0,0
364513,-96.6323621780934,4,1,0,61,0,0
364603,-97.5145491707363,4,1,0,60,0,0
364693,-98.4130889408291,4,1,0,59,0,0
364784,-99.3283417530658,4,1,0,59,0,0
364874,-100.260778284318,4,1,0,58,0,0
364964,-101.210887052698,4,1,0,57,0,0
365145,-103.16606331714,4,1,0,57,0,0
365235,-104.172309333422,4,1,0,56,0,0
365326,-105.263157894737,4,1,0,56,0,0
365416,-106.244860404878,4,1,0,55,0,0
365507,-107.312257206018,4,1,0,55,0,0
365597,-108.401436535837,4,1,0,54,0,0
365687,-109.512952096845,4,1,0,53,0,0
365778,-110.647498094097,4,1,0,53,0,0
365868,-111.805797801451,4,1,0,52,0,0
366049,-114.196575701481,4,1,0,51,0,0
366410,-119.298856759056,4,1,0,51,0,0
366681,-119.298856759056,4,1,0,30,0,0
366772,-124.87824371238,4,1,0,30,0,0

[HitObjects]
264,150,2434,5,4,0:0:0:0:
246,134,6772,5,8,0:0:0:0:
296,137,8217,5,0,0:0:0:0:
274,136,14001,5,0,0:0:0:0:
274,136,14181,1,0,0:0:0:0:
279,120,14362,1,0,0:0:0:0:
274,136,14543,1,8,0:0:0:0:
278,132,14904,1,0,0:0:0:0:
279,121,15085,1,0,0:0:0:0:
278,132,15266,1,8,0:0:0:0:
279,123,15627,1,0,0:0:0:0:
279,123,15808,1,0,0:0:0:0:
279,123,15988,1,8,0:0:0:0:
278,119,16350,1,0,0:0:0:0:
278,119,16531,1,0,0:0:0:0:
278,119,16711,1,8,0:0:0:0:
277,119,17073,1,0,0:0:0:0:
277,119,17254,1,8,0:0:0:0:
277,119,17434,1,8,0:0:0:0:
280,116,17796,1,0,0:0:0:0:
280,116,17976,1,8,0:0:0:0:
280,116,18157,1,8,0:0:0:0:
270,109,18519,1,0,0:0:0:0:
270,109,18699,1,8,0:0:0:0:
270,109,18880,1,8,0:0:0:0:
277,105,19061,1,0,0:0:0:0:
277,105,19242,1,8,0:0:0:0:
277,105,19422,1,0,0:0:0:0:
277,105,19513,1,8,0:0:0:0:
277,105,19603,1,0,0:0:0:0:
277,117,19964,1,0,0:0:0:0:
272,94,20145,1,8,0:0:0:0:
274,108,20326,1,8,0:0:0:0:
276,107,20687,1,8,0:0:0:0:
273,101,20868,1,0,0:0:0:0:
276,107,21049,1,8,0:0:0:0:
272,102,21410,1,0,0:0:0:0:
272,102,21591,1,8,0:0:0:0:
272,102,21772,1,8,0:0:0:0:
271,102,22133,1,8,0:0:0:0:
271,102,22314,1,0,0:0:0:0:
271,102,22495,1,8,0:0:0:0:
263,91,22585,1,0,0:0:0:0:
263,91,22675,1,0,0:0:0:0:
263,104,22856,1,0,0:0:0:0:
263,104,23037,1,8,0:0:0:0:
265,96,23217,1,0,0:0:0:0:
265,96,23308,1,0,0:0:0:0:
265,96,23398,1,0,0:0:0:0:
265,96,23579,1,8,0:0:0:0:
265,96,23760,1,0,0:0:0:0:
265,96,23940,1,0,0:0:0:0:
265,96,24031,1,0,0:0:0:0:
265,96,24121,1,8,0:0:0:0:
265,96,24302,1,0,0:0:0:0:
265,96,24482,1,8,0:0:0:0:
265,96,24663,1,8,0:0:0:0:
265,96,24844,1,0,0:0:0:0:
265,96,25025,1,8,0:0:0:0:
265,96,25205,1,0,0:0:0:0:
266,96,25567,1,0,0:0:0:0:
271,104,26290,1,8,0:0:0:0:
269,104,26561,1,8,0:0:0:0:
268,104,26832,1,0,0:0:0:0:
265,89,27013,1,0,0:0:0:0:
261,133,29061,1,0,0:0:0:0:
261,133,29242,1,8,0:0:0:0:
274,128,29422,1,8,0:0:0:0:
288,136,30507,1,0,0:0:0:0:
288,136,30687,1,8,0:0:0:0:
288,136,30868,1,8,0:0:0:0:
274,121,32073,1,8,0:0:0:0:
270,122,32344,1,8,0:0:0:0:
270,122,32615,1,0,0:0:0:0:
270,99,32796,1,0,0:0:0:0:
245,86,34844,1,0,0:0:0:0:
245,86,35005,1,8,0:0:0:0:
245,86,35165,1,8,0:0:0:0:
252,72,35527,1,0,0:0:0:0:
275,108,37133,1,0,0:0:0:0:
275,103,37856,1,8,0:0:0:0:
275,104,38127,1,8,0:0:0:0:
274,92,38398,1,0,0:0:0:0:
265,102,38579,1,0,0:0:0:0:
257,104,38940,1,8,0:0:0:0:
250,100,39482,1,8,0:0:0:0:
258,101,40025,1,0,0:0:0:0:
283,87,40386,1,8,0:0:0:0:
279,84,40567,1,0,0:0:0:0:
283,94,40748,1,8,0:0:0:0:
283,94,40928,1,8,0:0:0:0:
257,101,41470,1,0,0:0:0:0:
257,101,41832,1,8,0:0:0:0:
261,95,42013,1,0,0:0:0:0:
261,95,42193,1,8,0:0:0:0:
269,107,42374,1,8,0:0:0:0:
263,93,42464,1,0,0:0:0:0:
263,93,42645,1,0,0:0:0:0:
263,93,42735,1,8,0:0:0:0:
263,93,42916,1,0,0:0:0:0:
264,88,43278,1,8,0:0:0:0:
263,88,43639,1,0,0:0:0:0:
263,88,43820,1,8,0:0:0:0:
260,89,44181,1,8,0:0:0:0:
260,89,44362,1,0,0:0:0:0:
257,87,44723,1,8,0:0:0:0:
257,87,44904,1,0,0:0:0:0:
257,87,44995,1,0,0:0:0:0:
257,87,45085,1,0,0:0:0:0:
257,87,45266,1,8,0:0:0:0:
264,80,45446,1,8,0:0:0:0:
266,79,45808,1,0,0:0:0:0:
255,212,46169,2,0,L|286:200,16,24.4848098236418
251,90,47796,1,8,0:0:0:0:
251,90,47976,1,0,0:0:0:0:
251,90,48157,1,0,0:0:0:0:
251,90,48338,1,8,0:0:0:0:
252,89,48699,1,8,0:0:0:0:
255,82,49061,1,0,0:0:0:0:
255,82,49242,1,8,0:0:0:0:
271,114,49603,1,0,0:0:0:0:
271,114,49784,1,8,0:0:0:0:
278,107,50145,1,0,0:0:0:0:
278,107,50326,1,8,0:0:0:0:
277,107,50687,1,0,0:0:0:0:
277,107,50868,1,8,0:0:0:0:
277,112,51229,1,8,0:0:0:0:
276,98,51410,1,0,0:0:0:0:
276,98,51591,1,8,0:0:0:0:
271,104,51952,1,0,0:0:0:0:
271,104,52133,1,8,0:0:0:0:
271,104,52495,1,0,0:0:0:0:
271,104,52675,1,8,0:0:0:0:
271,104,53037,1,0,0:0:0:0:
271,104,53217,1,8,0:0:0:0:
271,104,53579,1,0,0:0:0:0:
271,104,53760,1,8,0:0:0:0:
271,104,54031,1,8,0:0:0:0:
271,104,54121,1,8,0:0:0:0:
271,104,54302,1,0,0:0:0:0:
271,104,54482,1,8,0:0:0:0:
270,94,54844,1,0,0:0:0:0:
270,94,55025,1,8,0:0:0:0:
270,94,55386,1,0,0:0:0:0:
270,94,55567,1,8,0:0:0:0:
270,94,55928,1,0,0:0:0:0:
270,94,56109,1,8,0:0:0:0:
270,94,56470,1,0,0:0:0:0:
270,94,56651,1,8,0:0:0:0:
269,92,57013,1,8,0:0:0:0:
269,92,57193,1,0,0:0:0:0:
269,92,57374,1,8,0:0:0:0:
269,82,57735,1,0,0:0:0:0:
267,89,57916,1,8,0:0:0:0:
269,82,58278,1,8,0:0:0:0:
267,90,58458,1,8,0:0:0:0:
269,82,58820,1,0,0:0:0:0:
267,90,59001,1,8,0:0:0:0:
267,90,59362,1,8,0:0:0:0:
267,79,59543,1,8,0:0:0:0:
267,79,59723,1,0,0:0:0:0:
267,79,59904,1,8,0:0:0:0:
267,79,60085,1,0,0:0:0:0:
267,79,60266,1,8,0:0:0:0:
268,95,60537,1,8,0:0:0:0:
268,95,60627,1,0,0:0:0:0:
268,95,60808,1,8,0:0:0:0:
268,95,60988,1,0,0:0:0:0:
268,95,61169,1,0,0:0:0:0:
268,95,61350,1,8,0:0:0:0:
265,93,61711,1,0,0:0:0:0:
265,93,61892,1,8,0:0:0:0:
265,93,62073,1,0,0:0:0:0:
265,93,62254,1,0,0:0:0:0:
265,93,62344,1,0,0:0:0:0:
265,93,62434,1,8,0:0:0:0:
265,93,62615,1,0,0:0:0:0:
265,93,62796,1,8,0:0:0:0:
265,93,62976,1,0,0:0:0:0:
265,93,63157,1,8,0:0:0:0:
262,93,63428,1,8,0:0:0:0:
262,93,63519,1,0,0:0:0:0:
262,93,63699,1,8,0:0:0:0:
262,93,63880,1,0,0:0:0:0:
262,93,64061,1,0,0:0:0:0:
262,93,64242,1,8,0:0:0:0:
261,93,64603,1,0,0:0:0:0:
261,93,64784,1,8,0:0:0:0:
261,93,64874,1,8,0:0:0:0:
261,93,64964,1,0,0:0:0:0:
261,93,65145,1,0,0:0:0:0:
261,93,65326,1,8,0:0:0:0:
261,93,65507,1,0,0:0:0:0:
261,93,65597,1,0,0:0:0:0:
261,93,65687,1,8,0:0:0:0:
261,93,65868,1,0,0:0:0:0:
261,93,66049,1,8,0:0:0:0:
261,93,66229,1,0,0:0:0:0:
261,93,66410,1,0,0:0:0:0:
256,80,66501,1,0,0:0:0:0:
261,93,66591,1,8,0:0:0:0:
261,93,66772,1,0,0:0:0:0:
261,93,66952,1,0,0:0:0:0:
264,82,67043,1,0,0:0:0:0:
261,93,67133,1,8,0:0:0:0:
256,82,67314,1,0,0:0:0:0:
256,82,67495,1,0,0:0:0:0:
264,82,67585,1,0,0:0:0:0:
259,91,67675,1,8,0:0:0:0:
273,87,67856,1,0,0:0:0:0:
264,93,68037,1,0,0:0:0:0:
267,82,68127,1,0,0:0:0:0:
259,91,68217,1,8,0:0:0:0:
259,91,68398,1,0,0:0:0:0:
259,91,68579,1,8,0:0:0:0:
264,82,68669,1,8,0:0:0:0:
264,82,68760,1,0,0:0:0:0:
264,82,68850,1,0,0:0:0:0:
264,82,68940,1,8,0:0:0:0:
264,82,69031,1,0,0:0:0:0:
264,82,69121,1,0,0:0:0:0:
264,82,69211,1,0,0:0:0:0:
264,82,69302,1,8,0:0:0:0:
264,82,69392,1,8,0:0:0:0:
264,82,69482,1,0,0:0:0:0:
264,82,69573,1,0,0:0:0:0:
264,82,69663,1,8,0:0:0:0:
264,82,69754,1,8,0:0:0:0:
264,82,69844,1,8,0:0:0:0:
264,82,69934,1,8,0:0:0:0:
264,82,70025,1,0,0:0:0:0:
264,82,70115,1,0,0:0:0:0:
264,82,70205,1,8,0:0:0:0:
264,82,70296,1,8,0:0:0:0:
264,82,70386,1,0,0:0:0:0:
265,78,70928,1,0,0:0:0:0:
265,78,71019,1,0,0:0:0:0:
265,78,71109,1,8,0:0:0:0:
265,78,71290,1,0,0:0:0:0:
265,78,71470,1,8,0:0:0:0:
263,75,71832,1,4,0:0:0:0:
254,72,72374,1,8,0:0:0:0:
254,72,72555,1,0,0:0:0:0:
254,72,72916,1,8,0:0:0:0:
254,72,73097,1,8,0:0:0:0:
254,72,73278,1,0,0:0:0:0:
254,72,73820,1,8,0:0:0:0:
254,72,74001,1,0,0:0:0:0:
261,107,74362,1,0,0:0:0:0:
261,107,74543,1,0,0:0:0:0:
261,107,74723,1,0,0:0:0:0:
258,96,75266,1,8,0:0:0:0:
258,96,75446,1,0,0:0:0:0:
258,96,75808,1,8,0:0:0:0:
254,81,75988,1,8,0:0:0:0:
258,96,76169,1,0,0:0:0:0:
253,92,76711,1,8,0:0:0:0:
253,92,76892,1,0,0:0:0:0:
253,92,77073,1,8,0:0:0:0:
253,92,77133,1,8,0:0:0:0:
253,92,77193,1,8,0:0:0:0:
253,92,77254,1,0,0:0:0:0:
257,97,77344,1,0,0:0:0:0:
253,92,77434,1,0,0:0:0:0:
254,89,77615,1,0,0:0:0:0:
242,95,78157,1,8,0:0:0:0:
251,81,78338,1,0,0:0:0:0:
245,86,78699,1,8,0:0:0:0:
245,86,78880,1,8,0:0:0:0:
248,75,79061,1,0,0:0:0:0:
242,82,79603,1,8,0:0:0:0:
242,82,79784,1,0,0:0:0:0:
242,82,80145,1,0,0:0:0:0:
242,82,80326,1,0,0:0:0:0:
242,82,80507,1,0,0:0:0:0:
240,82,81049,1,8,0:0:0:0:
240,82,81229,1,0,0:0:0:0:
240,82,81591,1,8,0:0:0:0:
240,82,81772,1,8,0:0:0:0:
240,82,81952,1,0,0:0:0:0:
240,82,82223,1,0,0:0:0:0:
240,82,82314,1,0,0:0:0:0:
240,82,82495,1,8,0:0:0:0:
240,82,82675,1,0,0:0:0:0:
264,99,82735,1,0,0:0:0:0:
264,99,82796,1,8,0:0:0:0:
263,99,82856,1,8,0:0:0:0:
252,99,83037,1,8,0:0:0:0:
262,94,83097,1,8,0:0:0:0:
263,94,83157,1,0,0:0:0:0:
263,94,83217,1,0,0:0:0:0:
279,97,83398,1,4,0:0:0:0:
280,84,83760,1,8,0:0:0:0:
280,84,83850,1,0,0:0:0:0:
280,84,83940,1,8,0:0:0:0:
280,84,84031,1,0,0:0:0:0:
279,76,84121,1,8,0:0:0:0:
279,76,84302,1,0,0:0:0:0:
279,76,84482,1,8,0:0:0:0:
279,76,84663,1,8,0:0:0:0:
279,76,84754,1,8,0:0:0:0:
279,76,84844,1,0,0:0:0:0:
279,76,84934,1,8,0:0:0:0:
279,76,85025,1,0,0:0:0:0:
279,76,85115,1,0,0:0:0:0:
279,76,85205,1,8,0:0:0:0:
279,76,85296,1,8,0:0:0:0:
279,76,85386,1,0,0:0:0:0:
279,76,85476,1,0,0:0:0:0:
279,76,85567,1,8,0:0:0:0:
278,67,85748,1,8,0:0:0:0:
278,67,85928,1,0,0:0:0:0:
278,67,86109,1,0,0:0:0:0:
278,67,86290,1,0,0:0:0:0:
276,66,86651,1,8,0:0:0:0:
276,66,86742,1,0,0:0:0:0:
276,66,86832,1,8,0:0:0:0:
276,66,86922,1,0,0:0:0:0:
276,66,87013,1,8,0:0:0:0:
276,66,87193,1,0,0:0:0:0:
276,66,87374,1,8,0:0:0:0:
268,54,87464,1,8,0:0:0:0:
268,54,87555,1,0,0:0:0:0:
268,54,87645,1,0,0:0:0:0:
268,54,87735,1,8,0:0:0:0:
268,54,87826,1,0,0:0:0:0:
268,54,87916,1,0,0:0:0:0:
268,54,88007,1,0,0:0:0:0:
268,54,88097,1,8,0:0:0:0:
268,54,88187,1,0,0:0:0:0:
268,54,88278,1,8,0:0:0:0:
268,54,88368,1,0,0:0:0:0:
268,54,88458,1,8,0:0:0:0:
268,54,88639,1,0,0:0:0:0:
282,48,88820,1,8,0:0:0:0:
282,48,88880,1,8,0:0:0:0:
282,48,88940,1,0,0:0:0:0:
282,48,89001,1,0,0:0:0:0:
291,66,89181,1,0,0:0:0:0:
284,65,89543,1,8,0:0:0:0:
284,65,89633,1,0,0:0:0:0:
284,65,89723,1,8,0:0:0:0:
284,65,89814,1,0,0:0:0:0:
280,58,89904,1,8,0:0:0:0:
280,58,90085,1,0,0:0:0:0:
280,58,90266,1,8,0:0:0:0:
280,58,90446,1,8,0:0:0:0:
280,58,90537,1,8,0:0:0:0:
280,58,90627,1,0,0:0:0:0:
280,58,90717,1,8,0:0:0:0:
280,58,90808,1,0,0:0:0:0:
280,58,90898,1,0,0:0:0:0:
280,58,90988,1,8,0:0:0:0:
280,58,91079,1,0,0:0:0:0:
280,58,91169,1,0,0:0:0:0:
280,58,91260,1,0,0:0:0:0:
280,58,91350,1,8,0:0:0:0:
280,58,91531,1,0,0:0:0:0:
280,58,91711,1,8,0:0:0:0:
279,56,92073,1,0,0:0:0:0:
279,56,92254,1,0,0:0:0:0:
279,56,92434,1,8,0:0:0:0:
279,56,92615,1,0,0:0:0:0:
278,56,92705,1,0,0:0:0:0:
279,56,92796,1,0,0:0:0:0:
279,56,92976,1,8,0:0:0:0:
279,56,93157,1,0,0:0:0:0:
279,56,93248,1,0,0:0:0:0:
279,56,93338,1,8,0:0:0:0:
279,56,93428,1,0,0:0:0:0:
279,56,93519,1,8,0:0:0:0:
279,56,93699,1,0,0:0:0:0:
279,56,93760,1,8,0:0:0:0:
279,56,93820,1,8,0:0:0:0:
284,61,93880,1,0,0:0:0:0:
280,48,94061,1,0,0:0:0:0:
280,48,94151,1,8,0:0:0:0:
280,48,94242,1,0,0:0:0:0:
280,48,94362,1,0,0:0:0:0:
280,48,94482,1,0,0:0:0:0:
280,48,94603,1,0,0:0:0:0:
280,48,94784,1,8,0:0:0:0:
278,58,94964,1,4,0:0:0:0:
275,83,95326,1,8,0:0:0:0:
275,83,95416,1,8,0:0:0:0:
275,83,95507,1,0,0:0:0:0:
261,101,95687,1,8,0:0:0:0:
261,101,95778,1,0,0:0:0:0:
271,92,95868,1,8,0:0:0:0:
271,92,96049,1,0,0:0:0:0:
271,92,96139,1,0,0:0:0:0:
271,92,96229,1,8,0:0:0:0:
271,92,96320,1,8,0:0:0:0:
271,92,96410,1,0,0:0:0:0:
271,92,96501,1,8,0:0:0:0:
271,92,96591,1,0,0:0:0:0:
271,92,96772,1,8,0:0:0:0:
262,95,96862,1,8,0:0:0:0:
262,95,96952,1,0,0:0:0:0:
262,95,97133,1,8,0:0:0:0:
262,95,97223,1,0,0:0:0:0:
262,95,97314,1,8,0:0:0:0:
262,95,97495,1,0,0:0:0:0:
262,95,97585,1,8,0:0:0:0:
280,87,97675,1,0,0:0:0:0:
262,95,97766,1,8,0:0:0:0:
265,89,97856,1,0,0:0:0:0:
262,95,97946,1,0,0:0:0:0:
264,98,98037,1,8,0:0:0:0:
264,98,98217,1,0,0:0:0:0:
264,98,98308,1,8,0:0:0:0:
264,98,98398,1,0,0:0:0:0:
264,98,98579,1,8,0:0:0:0:
264,98,98669,1,8,0:0:0:0:
264,98,98760,1,0,0:0:0:0:
264,98,98940,1,8,0:0:0:0:
264,98,99031,1,0,0:0:0:0:
264,98,99121,1,8,0:0:0:0:
264,98,99302,1,0,0:0:0:0:
259,90,99392,1,0,0:0:0:0:
259,90,99482,1,8,0:0:0:0:
259,90,99663,1,0,0:0:0:0:
259,90,99754,1,8,0:0:0:0:
259,90,99844,1,0,0:0:0:0:
259,90,100025,1,8,0:0:0:0:
259,90,100115,1,8,0:0:0:0:
259,90,100205,1,0,0:0:0:0:
260,82,100266,1,0,0:0:0:0:
258,82,100326,1,8,0:0:0:0:
258,82,100386,1,8,0:0:0:0:
260,82,100476,1,0,0:0:0:0:
258,82,100567,1,0,0:0:0:0:
258,82,100748,1,8,0:0:0:0:
253,60,100838,1,0,0:0:0:0:
258,82,100928,1,8,0:0:0:0:
258,82,101109,1,0,0:0:0:0:
258,82,101199,1,0,0:0:0:0:
258,82,101290,1,0,0:0:0:0:
246,76,101470,1,8,0:0:0:0:
256,67,101561,1,0,0:0:0:0:
256,68,101651,1,8,0:0:0:0:
259,68,101832,1,0,0:0:0:0:
259,68,101922,1,8,0:0:0:0:
259,68,102013,1,0,0:0:0:0:
249,63,102193,1,8,0:0:0:0:
249,63,102284,1,0,0:0:0:0:
249,63,102374,1,8,0:0:0:0:
249,63,102555,1,0,0:0:0:0:
249,63,102645,1,0,0:0:0:0:
249,63,102735,1,8,0:0:0:0:
249,63,102916,1,8,0:0:0:0:
249,63,103007,1,0,0:0:0:0:
249,63,103097,1,8,0:0:0:0:
249,63,103278,1,0,0:0:0:0:
249,63,103368,1,8,0:0:0:0:
249,63,103458,1,0,0:0:0:0:
249,63,103549,1,8,0:0:0:0:
249,63,103639,1,0,0:0:0:0:
249,63,103729,1,0,0:0:0:0:
242,69,103820,1,8,0:0:0:0:
247,59,104001,1,0,0:0:0:0:
247,59,104091,1,8,0:0:0:0:
255,58,104181,1,0,0:0:0:0:
247,59,104362,1,8,0:0:0:0:
247,59,104452,1,0,0:0:0:0:
247,59,104543,1,8,0:0:0:0:
256,58,104723,1,8,0:0:0:0:
256,58,104904,1,0,0:0:0:0:
256,58,104995,1,8,0:0:0:0:
247,59,105040,1,8,0:0:0:0:
248,43,105085,1,8,0:0:0:0:
250,49,105175,1,0,0:0:0:0:
250,48,105266,1,0,0:0:0:0:
250,48,105446,1,8,0:0:0:0:
244,43,105537,1,0,0:0:0:0:
244,43,105627,1,8,0:0:0:0:
244,43,105808,1,8,0:0:0:0:
244,43,105988,1,0,0:0:0:0:
244,43,106079,1,0,0:0:0:0:
244,43,106169,1,8,0:0:0:0:
250,47,106260,1,0,0:0:0:0:
244,43,106350,1,8,0:0:0:0:
250,47,106531,1,4,0:0:0:0:
254,40,106892,1,8,0:0:0:0:
254,40,106982,1,0,0:0:0:0:
254,40,107073,1,0,0:0:0:0:
254,40,107254,1,8,0:0:0:0:
255,57,107344,1,8,0:0:0:0:
255,57,107434,1,0,0:0:0:0:
255,57,107615,1,8,0:0:0:0:
255,57,107705,1,0,0:0:0:0:
255,57,107796,1,0,0:0:0:0:
255,57,107886,1,0,0:0:0:0:
255,57,107976,1,8,0:0:0:0:
255,57,108067,1,8,0:0:0:0:
255,57,108157,1,0,0:0:0:0:
255,57,108338,1,8,0:0:0:0:
255,57,108428,1,0,0:0:0:0:
255,57,108519,1,0,0:0:0:0:
255,57,108699,1,8,0:0:0:0:
255,57,108790,1,8,0:0:0:0:
255,57,108880,1,0,0:0:0:0:
255,57,109061,1,8,0:0:0:0:
263,48,109151,1,0,0:0:0:0:
255,57,109242,1,8,0:0:0:0:
256,50,109332,1,0,0:0:0:0:
255,49,109422,1,8,0:0:0:0:
256,58,109513,1,8,0:0:0:0:
256,58,109603,1,0,0:0:0:0:
256,58,109784,1,8,0:0:0:0:
256,58,109874,1,0,0:0:0:0:
256,58,109964,1,0,0:0:0:0:
256,48,110145,1,8,0:0:0:0:
247,44,110235,1,0,0:0:0:0:
247,44,110326,1,8,0:0:0:0:
254,41,110507,1,8,0:0:0:0:
253,50,110597,1,8,0:0:0:0:
253,50,110687,1,0,0:0:0:0:
265,49,110778,1,0,0:0:0:0:
259,49,110868,1,8,0:0:0:0:
252,45,110958,1,0,0:0:0:0:
252,45,111049,1,8,0:0:0:0:
252,45,111229,1,8,0:0:0:0:
252,45,111320,1,0,0:0:0:0:
252,45,111410,1,0,0:0:0:0:
252,45,111591,1,8,0:0:0:0:
262,40,111681,1,0,0:0:0:0:
262,40,111772,1,8,0:0:0:0:
266,47,112133,1,0,0:0:0:0:
266,47,112314,1,8,0:0:0:0:
255,43,112404,1,8,0:0:0:0:
255,43,112495,1,0,0:0:0:0:
255,43,112675,1,8,0:0:0:0:
255,43,112766,1,0,0:0:0:0:
255,43,112856,1,0,0:0:0:0:
255,43,113037,1,8,0:0:0:0:
255,43,113127,1,8,0:0:0:0:
255,43,113217,1,8,0:0:0:0:
255,43,113398,1,8,0:0:0:0:
255,43,113488,1,0,0:0:0:0:
247,37,113579,1,0,0:0:0:0:
245,37,113669,1,0,0:0:0:0:
256,34,113760,1,8,0:0:0:0:
257,35,113850,1,8,0:0:0:0:
256,34,113940,1,0,0:0:0:0:
257,35,114121,1,8,0:0:0:0:
257,35,114211,1,0,0:0:0:0:
257,35,114302,1,8,0:0:0:0:
257,35,114482,1,8,0:0:0:0:
257,35,114573,1,8,0:0:0:0:
257,35,114663,1,8,0:0:0:0:
257,35,114844,1,8,0:0:0:0:
257,35,114934,1,0,0:0:0:0:
257,35,115025,1,8,0:0:0:0:
257,35,115115,1,0,0:0:0:0:
257,35,115205,1,8,0:0:0:0:
260,58,115386,1,0,0:0:0:0:
270,50,115476,1,8,0:0:0:0:
267,51,115567,1,8,0:0:0:0:
267,51,115748,1,0,0:0:0:0:
267,51,115838,1,8,0:0:0:0:
267,51,115928,1,8,0:0:0:0:
267,51,116019,1,8,0:0:0:0:
267,51,116109,1,0,0:0:0:0:
267,51,116199,1,0,0:0:0:0:
256,51,116290,1,8,0:0:0:0:
256,51,116470,1,8,0:0:0:0:
255,57,116651,1,0,0:0:0:0:
250,70,118097,1,4,0:0:0:0:
256,155,123157,5,8,0:0:0:0:
265,142,128940,5,8,0:0:0:0:
266,145,129211,1,8,0:0:0:0:
266,145,129482,1,0,0:0:0:0:
266,145,129663,1,0,0:0:0:0:
261,142,133157,1,0,0:0:0:0:
261,142,133338,1,8,0:0:0:0:
261,142,133519,1,8,0:0:0:0:
261,142,134603,1,0,0:0:0:0:
261,142,134784,1,8,0:0:0:0:
261,142,134964,1,8,0:0:0:0:
263,140,136169,1,8,0:0:0:0:
262,144,136440,1,8,0:0:0:0:
262,144,136711,1,0,0:0:0:0:
262,144,136892,1,0,0:0:0:0:
251,143,138940,1,0,0:0:0:0:
251,143,139101,1,8,0:0:0:0:
251,143,139262,1,8,0:0:0:0:
248,135,139623,1,0,0:0:0:0:
250,127,140326,1,0,0:0:0:0:
250,127,140507,1,8,0:0:0:0:
251,126,140778,1,8,0:0:0:0:
251,126,141049,1,8,0:0:0:0:
251,126,141229,1,0,0:0:0:0:
252,120,141952,1,8,0:0:0:0:
249,125,142223,1,8,0:0:0:0:
249,125,142495,1,0,0:0:0:0:
249,125,142675,1,0,0:0:0:0:
242,125,144708,1,0,0:0:0:0:
242,125,144889,1,8,0:0:0:0:
242,125,145070,1,8,0:0:0:0:
242,125,146154,1,0,0:0:0:0:
242,125,146335,1,8,0:0:0:0:
242,125,146516,1,8,0:0:0:0:
242,125,147735,1,8,0:0:0:0:
242,125,148007,1,8,0:0:0:0:
242,125,148278,1,0,0:0:0:0:
242,125,148458,1,0,0:0:0:0:
242,125,150507,1,0,0:0:0:0:
242,125,150667,1,8,0:0:0:0:
242,125,150828,1,8,0:0:0:0:
242,125,151189,1,0,0:0:0:0:
230,121,151892,1,8,0:0:0:0:
230,121,152073,1,0,0:0:0:0:
233,105,152254,1,0,0:0:0:0:
233,105,152434,1,8,0:0:0:0:
252,89,152796,1,8,0:0:0:0:
255,82,153157,1,0,0:0:0:0:
255,82,153338,1,8,0:0:0:0:
271,114,153699,1,0,0:0:0:0:
271,114,153880,1,8,0:0:0:0:
278,107,154242,1,0,0:0:0:0:
278,107,154422,1,8,0:0:0:0:
277,107,154784,1,0,0:0:0:0:
277,107,154964,1,8,0:0:0:0:
277,112,155326,1,8,0:0:0:0:
276,98,155507,1,0,0:0:0:0:
276,98,155687,1,8,0:0:0:0:
271,104,156049,1,0,0:0:0:0:
271,104,156229,1,8,0:0:0:0:
271,104,156591,1,0,0:0:0:0:
271,104,156772,1,8,0:0:0:0:
271,104,157133,1,0,0:0:0:0:
271,104,157314,1,8,0:0:0:0:
271,104,157675,1,0,0:0:0:0:
271,104,157856,1,8,0:0:0:0:
271,104,158127,1,8,0:0:0:0:
271,104,158217,1,8,0:0:0:0:
271,104,158398,1,0,0:0:0:0:
271,104,158579,1,8,0:0:0:0:
270,94,158940,1,0,0:0:0:0:
270,94,159121,1,8,0:0:0:0:
270,94,159482,1,0,0:0:0:0:
270,94,159663,1,8,0:0:0:0:
270,94,160025,1,0,0:0:0:0:
270,94,160205,1,8,0:0:0:0:
270,94,160567,1,0,0:0:0:0:
270,94,160748,1,8,0:0:0:0:
269,92,161109,1,8,0:0:0:0:
269,92,161290,1,0,0:0:0:0:
269,92,161470,1,8,0:0:0:0:
269,82,161832,1,0,0:0:0:0:
267,89,162013,1,8,0:0:0:0:
269,82,162374,1,8,0:0:0:0:
267,90,162555,1,8,0:0:0:0:
269,82,162916,1,0,0:0:0:0:
267,90,163097,1,8,0:0:0:0:
267,90,163458,1,8,0:0:0:0:
267,79,163639,1,8,0:0:0:0:
267,79,163820,1,0,0:0:0:0:
267,79,164001,1,8,0:0:0:0:
267,79,164181,1,0,0:0:0:0:
252,89,164362,1,8,0:0:0:0:
255,82,164723,1,0,0:0:0:0:
255,82,164904,1,8,0:0:0:0:
271,114,165266,1,0,0:0:0:0:
271,114,165446,1,8,0:0:0:0:
278,107,165808,1,0,0:0:0:0:
278,107,165988,1,8,0:0:0:0:
277,107,166350,1,0,0:0:0:0:
277,107,166531,1,8,0:0:0:0:
277,112,166892,1,8,0:0:0:0:
276,98,167073,1,0,0:0:0:0:
276,98,167254,1,8,0:0:0:0:
271,104,167615,1,0,0:0:0:0:
271,104,167796,1,8,0:0:0:0:
271,104,168157,1,0,0:0:0:0:
271,104,168338,1,8,0:0:0:0:
271,104,168699,1,0,0:0:0:0:
271,104,168880,1,8,0:0:0:0:
271,104,169242,1,0,0:0:0:0:
271,104,169422,1,8,0:0:0:0:
271,104,169693,1,8,0:0:0:0:
271,104,169784,1,8,0:0:0:0:
271,104,169964,1,0,0:0:0:0:
271,104,170145,1,8,0:0:0:0:
270,94,170507,1,0,0:0:0:0:
270,94,170687,1,8,0:0:0:0:
270,94,171049,1,0,0:0:0:0:
270,94,171229,1,8,0:0:0:0:
270,94,171591,1,0,0:0:0:0:
270,94,171772,1,8,0:0:0:0:
270,94,172133,1,0,0:0:0:0:
270,94,172314,1,8,0:0:0:0:
269,92,172675,1,8,0:0:0:0:
269,92,172856,1,0,0:0:0:0:
269,92,173037,1,8,0:0:0:0:
269,82,173398,1,0,0:0:0:0:
267,89,173579,1,8,0:0:0:0:
269,82,173940,1,8,0:0:0:0:
267,90,174121,1,8,0:0:0:0:
269,82,174482,1,0,0:0:0:0:
267,90,174663,1,8,0:0:0:0:
267,90,175025,1,8,0:0:0:0:
267,79,175205,1,8,0:0:0:0:
267,79,175386,1,0,0:0:0:0:
267,79,175567,1,8,0:0:0:0:
267,79,175748,1,0,0:0:0:0:
227,114,175928,1,8,0:0:0:0:
268,95,176199,1,8,0:0:0:0:
268,95,176290,1,0,0:0:0:0:
268,95,176470,1,8,0:0:0:0:
268,95,176651,1,0,0:0:0:0:
268,95,176832,1,0,0:0:0:0:
268,95,177013,1,8,0:0:0:0:
265,93,177374,1,0,0:0:0:0:
265,93,177555,1,8,0:0:0:0:
265,93,177735,1,0,0:0:0:0:
265,93,177916,1,0,0:0:0:0:
265,93,178007,1,0,0:0:0:0:
265,93,178097,1,8,0:0:0:0:
265,93,178278,1,0,0:0:0:0:
265,93,178458,1,8,0:0:0:0:
265,93,178639,1,0,0:0:0:0:
265,93,178820,1,8,0:0:0:0:
262,93,179091,1,8,0:0:0:0:
262,93,179181,1,0,0:0:0:0:
262,93,179362,1,8,0:0:0:0:
262,93,179543,1,0,0:0:0:0:
262,93,179723,1,0,0:0:0:0:
262,93,179904,1,8,0:0:0:0:
261,93,180266,1,0,0:0:0:0:
261,93,180446,1,8,0:0:0:0:
261,93,180537,1,8,0:0:0:0:
261,93,180627,1,0,0:0:0:0:
261,93,180808,1,0,0:0:0:0:
261,93,180988,1,8,0:0:0:0:
261,93,181169,1,0,0:0:0:0:
261,93,181260,1,0,0:0:0:0:
261,93,181350,1,8,0:0:0:0:
261,93,181531,1,0,0:0:0:0:
261,93,181711,1,8,0:0:0:0:
268,95,181982,1,8,0:0:0:0:
268,95,182073,1,0,0:0:0:0:
268,95,182254,1,8,0:0:0:0:
268,95,182434,1,0,0:0:0:0:
268,95,182615,1,0,0:0:0:0:
268,95,182796,1,8,0:0:0:0:
265,93,183157,1,0,0:0:0:0:
265,93,183338,1,8,0:0:0:0:
265,93,183519,1,0,0:0:0:0:
265,93,183699,1,0,0:0:0:0:
265,93,183790,1,0,0:0:0:0:
265,93,183880,1,8,0:0:0:0:
265,93,184061,1,0,0:0:0:0:
265,93,184242,1,8,0:0:0:0:
265,93,184422,1,0,0:0:0:0:
265,93,184603,1,8,0:0:0:0:
262,93,184874,1,8,0:0:0:0:
262,93,184964,1,0,0:0:0:0:
262,93,185145,1,8,0:0:0:0:
262,93,185326,1,0,0:0:0:0:
262,93,185507,1,0,0:0:0:0:
262,93,185687,1,8,0:0:0:0:
261,93,186049,1,0,0:0:0:0:
261,93,186229,1,8,0:0:0:0:
261,93,186320,1,8,0:0:0:0:
261,93,186410,1,0,0:0:0:0:
261,93,186591,1,0,0:0:0:0:
261,93,186772,1,8,0:0:0:0:
261,93,186952,1,0,0:0:0:0:
261,93,187043,1,0,0:0:0:0:
261,93,187133,1,8,0:0:0:0:
261,93,187314,1,0,0:0:0:0:
261,93,187495,1,8,0:0:0:0:
268,95,187766,1,8,0:0:0:0:
268,95,187856,1,0,0:0:0:0:
268,95,188037,1,8,0:0:0:0:
268,95,188217,1,0,0:0:0:0:
268,95,188398,1,0,0:0:0:0:
268,95,188579,1,8,0:0:0:0:
265,93,188940,1,0,0:0:0:0:
265,93,189121,1,8,0:0:0:0:
265,93,189302,1,0,0:0:0:0:
265,93,189482,1,0,0:0:0:0:
265,93,189573,1,0,0:0:0:0:
265,93,189663,1,8,0:0:0:0:
265,93,189844,1,0,0:0:0:0:
265,93,190025,1,8,0:0:0:0:
265,93,190205,1,0,0:0:0:0:
265,93,190386,1,8,0:0:0:0:
262,93,190657,1,8,0:0:0:0:
262,93,190748,1,0,0:0:0:0:
262,93,190928,1,8,0:0:0:0:
262,93,191109,1,0,0:0:0:0:
262,93,191290,1,0,0:0:0:0:
262,93,191470,1,8,0:0:0:0:
261,93,191832,1,0,0:0:0:0:
261,93,192013,1,8,0:0:0:0:
261,93,192103,1,8,0:0:0:0:
261,93,192193,1,0,0:0:0:0:
261,93,192374,1,0,0:0:0:0:
261,93,192555,1,8,0:0:0:0:
261,93,192735,1,0,0:0:0:0:
261,93,192826,1,0,0:0:0:0:
261,93,192916,1,8,0:0:0:0:
261,93,193097,1,0,0:0:0:0:
261,93,193278,1,8,0:0:0:0:
261,93,193458,1,0,0:0:0:0:
261,93,193639,1,0,0:0:0:0:
256,80,193729,1,0,0:0:0:0:
261,93,193820,1,8,0:0:0:0:
261,93,194001,1,0,0:0:0:0:
261,93,194181,1,0,0:0:0:0:
264,82,194272,1,0,0:0:0:0:
261,93,194362,1,8,0:0:0:0:
256,82,194543,1,0,0:0:0:0:
256,82,194723,1,0,0:0:0:0:
264,82,194814,1,0,0:0:0:0:
259,91,194904,1,8,0:0:0:0:
273,87,195085,1,0,0:0:0:0:
264,93,195266,1,0,0:0:0:0:
267,82,195356,1,0,0:0:0:0:
259,91,195446,1,8,0:0:0:0:
259,91,195627,1,0,0:0:0:0:
259,91,195808,1,8,0:0:0:0:
264,82,195898,1,8,0:0:0:0:
264,82,195988,1,0,0:0:0:0:
264,82,196079,1,0,0:0:0:0:
264,82,196169,1,8,0:0:0:0:
264,82,196260,1,0,0:0:0:0:
264,82,196350,1,0,0:0:0:0:
264,82,196440,1,0,0:0:0:0:
264,82,196531,1,8,0:0:0:0:
264,82,196621,1,8,0:0:0:0:
264,82,196711,1,0,0:0:0:0:
264,82,196802,1,0,0:0:0:0:
264,82,196892,1,8,0:0:0:0:
264,82,196982,1,8,0:0:0:0:
264,82,197073,1,8,0:0:0:0:
264,82,197163,1,8,0:0:0:0:
264,82,197254,1,0,0:0:0:0:
264,82,197344,1,0,0:0:0:0:
264,82,197434,1,8,0:0:0:0:
264,82,197525,1,8,0:0:0:0:
264,82,197615,1,0,0:0:0:0:
266,82,198157,1,8,0:0:0:0:
266,82,198338,1,0,0:0:0:0:
266,82,198519,1,0,0:0:0:0:
266,82,198699,1,8,0:0:0:0:
266,83,199061,1,4,0:0:0:0:
266,83,199603,1,8,0:0:0:0:
266,83,199784,1,0,0:0:0:0:
266,83,200145,1,8,0:0:0:0:
260,63,200326,1,8,0:0:0:0:
260,63,200507,1,0,0:0:0:0:
269,68,201049,1,8,0:0:0:0:
269,68,201229,1,0,0:0:0:0:
269,62,201591,1,0,0:0:0:0:
269,62,201772,1,0,0:0:0:0:
269,62,201952,1,0,0:0:0:0:
268,62,202495,1,8,0:0:0:0:
268,62,202675,1,0,0:0:0:0:
267,69,203037,1,8,0:0:0:0:
267,69,203217,1,8,0:0:0:0:
267,69,203398,1,0,0:0:0:0:
272,61,203940,1,8,0:0:0:0:
272,61,204121,1,0,0:0:0:0:
265,81,204302,1,8,0:0:0:0:
273,73,204362,1,8,0:0:0:0:
273,73,204422,1,8,0:0:0:0:
273,73,204482,1,0,0:0:0:0:
279,87,204573,1,0,0:0:0:0:
279,86,204663,1,0,0:0:0:0:
279,86,204844,1,0,0:0:0:0:
264,74,205386,1,8,0:0:0:0:
264,74,205567,1,0,0:0:0:0:
263,75,205928,1,8,0:0:0:0:
263,75,206109,1,8,0:0:0:0:
263,75,206290,1,0,0:0:0:0:
266,77,206832,1,8,0:0:0:0:
266,77,207013,1,0,0:0:0:0:
265,76,207374,1,0,0:0:0:0:
265,76,207555,1,0,0:0:0:0:
265,76,207735,1,0,0:0:0:0:
264,75,208278,1,8,0:0:0:0:
264,75,208458,1,0,0:0:0:0:
264,74,208820,1,8,0:0:0:0:
264,74,209001,1,8,0:0:0:0:
264,74,209181,1,0,0:0:0:0:
263,73,209452,1,0,0:0:0:0:
263,73,209543,1,0,0:0:0:0:
263,73,209723,1,0,0:0:0:0:
274,72,209904,1,0,0:0:0:0:
274,72,209964,1,0,0:0:0:0:
274,72,210025,1,8,0:0:0:0:
274,72,210085,1,8,0:0:0:0:
274,72,210266,1,8,0:0:0:0:
274,72,210326,1,8,0:0:0:0:
274,72,210386,1,0,0:0:0:0:
274,72,210446,1,0,0:0:0:0:
274,72,210627,1,4,0:0:0:0:
252,89,210988,1,0,0:0:0:0:
244,92,211169,1,8,0:0:0:0:
251,83,211260,1,0,0:0:0:0:
247,85,211350,1,8,0:0:0:0:
244,92,211531,1,0,0:0:0:0:
244,92,211711,1,8,0:0:0:0:
244,92,211892,1,8,0:0:0:0:
244,92,212073,1,0,0:0:0:0:
230,91,212434,1,0,0:0:0:0:
259,88,212615,1,0,0:0:0:0:
255,80,212705,1,0,0:0:0:0:
259,88,212796,1,8,0:0:0:0:
250,86,212976,1,0,0:0:0:0:
250,86,213157,1,8,0:0:0:0:
254,70,213248,1,8,0:0:0:0:
250,86,213338,1,8,0:0:0:0:
250,86,213519,1,0,0:0:0:0:
249,86,213880,1,0,0:0:0:0:
249,86,214061,1,8,0:0:0:0:
249,86,214151,1,0,0:0:0:0:
249,86,214242,1,8,0:0:0:0:
249,86,214422,1,0,0:0:0:0:
249,86,214603,1,8,0:0:0:0:
249,86,214784,1,8,0:0:0:0:
249,86,214964,1,0,0:0:0:0:
249,86,215145,1,8,0:0:0:0:
249,86,215326,1,0,0:0:0:0:
249,86,215507,1,0,0:0:0:0:
249,86,215597,1,0,0:0:0:0:
242,81,215687,1,8,0:0:0:0:
241,84,215958,1,0,0:0:0:0:
241,84,216049,1,8,0:0:0:0:
241,84,216229,1,8,0:0:0:0:
241,84,216410,1,0,0:0:0:0:
238,85,216772,1,0,0:0:0:0:
238,85,216952,1,8,0:0:0:0:
252,88,217043,1,0,0:0:0:0:
238,85,217133,1,8,0:0:0:0:
238,85,217314,1,0,0:0:0:0:
238,85,217495,1,8,0:0:0:0:
238,85,217675,1,8,0:0:0:0:
238,85,217856,1,0,0:0:0:0:
238,85,218037,1,8,0:0:0:0:
238,85,218217,1,8,0:0:0:0:
238,85,218398,1,0,0:0:0:0:
245,85,218488,1,0,0:0:0:0:
238,85,218579,1,8,0:0:0:0:
238,85,218760,1,0,0:0:0:0:
238,85,218940,1,8,0:0:0:0:
263,80,219121,1,0,0:0:0:0:
254,80,219302,1,8,0:0:0:0:
254,80,219392,1,8,0:0:0:0:
254,80,219482,1,0,0:0:0:0:
254,80,219663,1,0,0:0:0:0:
254,80,219754,1,0,0:0:0:0:
254,80,219844,1,8,0:0:0:0:
254,80,220025,1,8,0:0:0:0:
254,80,220205,1,0,0:0:0:0:
254,80,220296,1,8,0:0:0:0:
254,80,220386,1,0,0:0:0:0:
254,80,220476,1,0,0:0:0:0:
254,80,220567,1,8,0:0:0:0:
181,221,220748,2,0,L|225:209,6,31.4999990386963
302,229,221470,2,0,L|350:217,6,38.5000011749268
251,84,222193,1,12,0:0:0:0:
270,85,222555,1,0,0:0:0:0:
262,76,222645,1,0,0:0:0:0:
259,99,222735,1,8,0:0:0:0:
262,76,222826,1,0,0:0:0:0:
264,84,222916,1,8,0:0:0:0:
259,99,223097,1,0,0:0:0:0:
264,90,223278,1,8,0:0:0:0:
264,90,223458,1,8,0:0:0:0:
264,90,223639,1,0,0:0:0:0:
264,90,223820,1,8,0:0:0:0:
264,90,224001,1,0,0:0:0:0:
262,76,224091,1,0,0:0:0:0:
264,90,224181,1,0,0:0:0:0:
262,76,224272,1,0,0:0:0:0:
264,90,224362,1,8,0:0:0:0:
264,90,224543,1,8,0:0:0:0:
264,90,224723,1,0,0:0:0:0:
264,90,224904,1,0,0:0:0:0:
281,100,225085,5,8,0:0:0:0:
269,89,225446,1,0,0:0:0:0:
279,94,225537,1,0,0:0:0:0:
277,92,225627,1,8,0:0:0:0:
279,94,225717,1,0,0:0:0:0:
277,92,225808,1,8,0:0:0:0:
277,92,225988,1,0,0:0:0:0:
277,92,226169,1,8,0:0:0:0:
277,92,226350,1,8,0:0:0:0:
277,92,226531,1,0,0:0:0:0:
277,92,226711,1,8,0:0:0:0:
277,92,226892,1,0,0:0:0:0:
277,92,226982,1,0,0:0:0:0:
277,92,227073,1,0,0:0:0:0:
277,92,227163,1,0,0:0:0:0:
277,92,227254,1,8,0:0:0:0:
277,92,227434,1,0,0:0:0:0:
295,74,227495,1,0,0:0:0:0:
293,74,227555,1,8,0:0:0:0:
291,74,227615,1,8,0:0:0:0:
287,64,227705,1,0,0:0:0:0:
287,64,227796,1,0,0:0:0:0:
287,64,227976,1,8,0:0:0:0:
280,62,228338,1,0,0:0:0:0:
280,62,228428,1,0,0:0:0:0:
280,62,228519,1,8,0:0:0:0:
280,62,228609,1,0,0:0:0:0:
280,62,228699,1,8,0:0:0:0:
280,62,228880,1,0,0:0:0:0:
280,62,229061,1,8,0:0:0:0:
280,62,229242,1,8,0:0:0:0:
280,62,229422,1,0,0:0:0:0:
280,62,229603,1,8,0:0:0:0:
280,62,229784,1,0,0:0:0:0:
280,62,229874,1,0,0:0:0:0:
280,62,229964,1,0,0:0:0:0:
280,62,230055,1,0,0:0:0:0:
280,62,230145,1,8,0:0:0:0:
280,62,230326,1,0,0:0:0:0:
280,62,230507,1,8,0:0:0:0:
273,65,230687,1,0,0:0:0:0:
280,62,230868,1,8,0:0:0:0:
279,57,231229,1,0,0:0:0:0:
279,57,231320,1,0,0:0:0:0:
279,57,231410,1,8,0:0:0:0:
279,57,231501,1,0,0:0:0:0:
279,57,231591,1,8,0:0:0:0:
284,65,231772,1,0,0:0:0:0:
284,65,231952,1,8,0:0:0:0:
284,65,232133,1,8,0:0:0:0:
284,65,232314,1,0,0:0:0:0:
284,65,232495,1,8,0:0:0:0:
284,65,232585,1,0,0:0:0:0:
284,65,232675,1,0,0:0:0:0:
284,65,232856,1,0,0:0:0:0:
284,65,233037,1,8,0:0:0:0:
284,65,233097,1,8,0:0:0:0:
284,65,233157,1,0,0:0:0:0:
284,65,233217,1,0,0:0:0:0:
284,65,233398,1,8,0:0:0:0:
284,65,233458,1,8,0:0:0:0:
284,65,233519,1,0,0:0:0:0:
284,65,233579,1,0,0:0:0:0:
252,89,233760,1,12,0:0:0:0:
255,82,234121,1,0,0:0:0:0:
255,82,234302,1,8,0:0:0:0:
271,114,234663,1,0,0:0:0:0:
271,114,234844,1,8,0:0:0:0:
278,107,235205,1,0,0:0:0:0:
278,107,235386,1,8,0:0:0:0:
277,107,235748,1,0,0:0:0:0:
277,107,235928,1,8,0:0:0:0:
277,112,236290,1,8,0:0:0:0:
276,98,236470,1,0,0:0:0:0:
276,98,236651,1,8,0:0:0:0:
271,104,237013,1,0,0:0:0:0:
271,104,237193,1,8,0:0:0:0:
271,104,237555,1,0,0:0:0:0:
271,104,237735,1,8,0:0:0:0:
271,104,238097,1,0,0:0:0:0:
271,104,238278,1,8,0:0:0:0:
271,104,238639,1,0,0:0:0:0:
271,104,238820,1,8,0:0:0:0:
271,104,239181,1,8,0:0:0:0:
271,104,239362,1,0,0:0:0:0:
271,104,239543,1,8,0:0:0:0:
270,94,239904,1,0,0:0:0:0:
270,94,240085,1,8,0:0:0:0:
270,94,240446,1,0,0:0:0:0:
270,94,240627,1,8,0:0:0:0:
270,94,240988,1,0,0:0:0:0:
270,94,241169,1,8,0:0:0:0:
270,94,241531,1,0,0:0:0:0:
270,94,241711,1,8,0:0:0:0:
269,92,242073,1,8,0:0:0:0:
269,92,242254,1,0,0:0:0:0:
269,92,242434,1,8,0:0:0:0:
269,82,242796,1,0,0:0:0:0:
267,89,242976,1,8,0:0:0:0:
269,82,243338,1,8,0:0:0:0:
267,90,243519,1,8,0:0:0:0:
269,82,243880,1,0,0:0:0:0:
267,90,244061,1,8,0:0:0:0:
267,90,244422,1,8,0:0:0:0:
267,79,244603,1,8,0:0:0:0:
267,79,244784,1,0,0:0:0:0:
267,79,244964,1,8,0:0:0:0:
267,79,245145,1,0,0:0:0:0:
252,89,245326,1,0,0:0:0:0:
268,68,245416,1,0,0:0:0:0:
260,78,245507,1,8,0:0:0:0:
252,78,245687,1,0,0:0:0:0:
252,78,245778,1,0,0:0:0:0:
252,78,245868,1,8,0:0:0:0:
252,78,245958,1,0,0:0:0:0:
252,78,246049,1,8,0:0:0:0:
252,78,246229,1,0,0:0:0:0:
252,78,246320,1,0,0:0:0:0:
252,78,246410,1,0,0:0:0:0:
252,78,246501,1,0,0:0:0:0:
252,78,246591,1,8,0:0:0:0:
251,63,246772,1,0,0:0:0:0:
251,63,246862,1,8,0:0:0:0:
251,63,246952,1,8,0:0:0:0:
251,63,247133,1,0,0:0:0:0:
251,63,247223,1,8,0:0:0:0:
251,63,247314,1,0,0:0:0:0:
251,63,247404,1,0,0:0:0:0:
251,63,247495,1,8,0:0:0:0:
251,63,247675,1,0,0:0:0:0:
251,63,247766,1,8,0:0:0:0:
251,63,247856,1,8,0:0:0:0:
251,63,248037,1,0,0:0:0:0:
251,63,248217,1,0,0:0:0:0:
241,62,248398,1,0,0:0:0:0:
241,62,248579,1,0,0:0:0:0:
243,66,248940,1,8,0:0:0:0:
243,66,249121,1,0,0:0:0:0:
243,66,249211,1,0,0:0:0:0:
243,66,249302,1,0,0:0:0:0:
243,66,249392,1,0,0:0:0:0:
243,66,249482,1,8,0:0:0:0:
258,61,249543,1,0,0:0:0:0:
256,61,249603,1,0,0:0:0:0:
256,61,249663,1,8,0:0:0:0:
256,61,249844,1,0,0:0:0:0:
256,61,249934,1,8,0:0:0:0:
256,61,250025,1,0,0:0:0:0:
256,61,250115,1,0,0:0:0:0:
257,47,250205,1,8,0:0:0:0:
266,55,250386,1,8,0:0:0:0:
266,55,250567,1,0,0:0:0:0:
266,55,250748,1,8,0:0:0:0:
259,52,250928,1,8,0:0:0:0:
259,52,251109,1,0,0:0:0:0:
259,52,251199,1,0,0:0:0:0:
259,52,251290,1,8,0:0:0:0:
259,52,251470,1,0,0:0:0:0:
259,52,251561,1,8,0:0:0:0:
259,52,251651,1,0,0:0:0:0:
259,52,251742,1,0,0:0:0:0:
259,52,251832,1,8,0:0:0:0:
257,59,252013,1,0,0:0:0:0:
257,59,252193,1,0,0:0:0:0:
257,59,252374,1,8,0:0:0:0:
257,59,252555,1,8,0:0:0:0:
257,59,252645,1,0,0:0:0:0:
257,59,252735,1,0,0:0:0:0:
257,59,252916,1,0,0:0:0:0:
257,59,253097,1,8,0:0:0:0:
257,59,253278,1,8,0:0:0:0:
257,59,253458,1,8,0:0:0:0:
257,59,253639,1,8,0:0:0:0:
259,49,253820,1,0,0:0:0:0:
257,59,254001,1,0,0:0:0:0:
255,49,254181,1,8,0:0:0:0:
255,49,254362,1,0,0:0:0:0:
253,47,254723,1,8,0:0:0:0:
253,47,254904,1,0,0:0:0:0:
253,47,254995,1,0,0:0:0:0:
253,47,255085,1,0,0:0:0:0:
253,47,255175,1,0,0:0:0:0:
253,47,255266,1,8,0:0:0:0:
253,47,255446,1,8,0:0:0:0:
253,47,255627,1,0,0:0:0:0:
253,47,255717,1,0,0:0:0:0:
253,47,255808,1,0,0:0:0:0:
253,47,255898,1,0,0:0:0:0:
279,47,255988,1,8,0:0:0:0:
277,47,256049,1,0,0:0:0:0:
277,47,256109,1,0,0:0:0:0:
279,47,256169,1,8,0:0:0:0:
277,47,256350,1,0,0:0:0:0:
277,47,256531,1,8,0:0:0:0:
268,49,256711,1,0,0:0:0:0:
269,40,256892,1,0,0:0:0:0:
269,40,257254,1,8,0:0:0:0:
268,40,257615,1,8,0:0:0:0:
266,38,257976,1,8,0:0:0:0:
267,39,258338,1,8,0:0:0:0:
265,41,258699,1,8,0:0:0:0:
265,41,259061,1,8,0:0:0:0:
262,44,259422,1,8,0:0:0:0:
263,35,259693,1,8,0:0:0:0:
262,45,259784,1,8,0:0:0:0:
262,45,260145,1,8,0:0:0:0:
262,45,260507,1,8,0:0:0:0:
262,45,260868,1,8,0:0:0:0:
262,45,261229,1,8,0:0:0:0:
262,45,261591,1,8,0:0:0:0:
262,45,261952,1,8,0:0:0:0:
277,55,262043,1,8,0:0:0:0:
277,55,262223,1,8,0:0:0:0:
262,45,262314,1,8,0:0:0:0:
262,45,262495,1,0,0:0:0:0:
262,45,262555,1,0,0:0:0:0:
262,45,262615,1,0,0:0:0:0:
262,45,262675,1,8,0:0:0:0:
278,63,262856,1,8,0:0:0:0:
278,63,263037,1,8,0:0:0:0:
278,63,263217,1,8,0:0:0:0:
278,63,263398,1,8,0:0:0:0:
278,63,263579,1,8,0:0:0:0:
278,63,263760,1,8,0:0:0:0:
278,63,263940,1,8,0:0:0:0:
278,63,264121,1,8,0:0:0:0:
278,63,264302,1,8,0:0:0:0:
278,63,264482,1,8,0:0:0:0:
275,55,264663,1,8,0:0:0:0:
275,55,264844,1,8,0:0:0:0:
275,55,265025,1,8,0:0:0:0:
275,55,265205,1,8,0:0:0:0:
275,55,265386,1,8,0:0:0:0:
275,55,265567,1,8,0:0:0:0:
275,55,265657,1,8,0:0:0:0:
275,55,265748,1,8,0:0:0:0:
275,55,265838,1,8,0:0:0:0:
275,55,265928,1,8,0:0:0:0:
275,55,266019,1,8,0:0:0:0:
275,55,266109,1,8,0:0:0:0:
275,55,266199,1,8,0:0:0:0:
275,55,266290,1,8,0:0:0:0:
265,60,267013,1,8,0:0:0:0:
258,70,267073,1,8,0:0:0:0:
262,69,267133,1,0,0:0:0:0:
262,69,267193,1,0,0:0:0:0:
281,68,267254,1,0,0:0:0:0:
262,69,267735,1,8,0:0:0:0:
262,69,267796,1,8,0:0:0:0:
262,69,267856,1,0,0:0:0:0:
262,69,267916,1,0,0:0:0:0:
279,69,267976,1,0,0:0:0:0:
257,76,268458,1,0,0:0:0:0:
257,76,268639,1,8,0:0:0:0:
257,76,268729,1,0,0:0:0:0:
257,76,268910,1,0,0:0:0:0:
257,76,269001,1,8,0:0:0:0:
257,76,269091,1,8,0:0:0:0:
257,76,269181,1,0,0:0:0:0:
257,76,269362,1,8,0:0:0:0:
257,76,269452,1,0,0:0:0:0:
257,76,269633,1,0,0:0:0:0:
257,76,269723,1,8,0:0:0:0:
257,76,269814,1,8,0:0:0:0:
257,76,269904,1,0,0:0:0:0:
243,75,270085,1,8,0:0:0:0:
243,75,270175,1,0,0:0:0:0:
243,75,270356,1,0,0:0:0:0:
243,75,270446,1,8,0:0:0:0:
243,75,270537,1,8,0:0:0:0:
243,75,270627,1,0,0:0:0:0:
243,75,270717,1,0,0:0:0:0:
243,75,270808,1,0,0:0:0:0:
243,75,270988,1,0,0:0:0:0:
259,77,271169,1,0,0:0:0:0:
265,75,271229,1,0,0:0:0:0:
265,75,271290,1,0,0:0:0:0:
265,75,271350,1,0,0:0:0:0:
253,66,271531,1,8,0:0:0:0:
246,59,271621,1,0,0:0:0:0:
253,66,271802,1,0,0:0:0:0:
253,66,271892,1,8,0:0:0:0:
253,66,271982,1,8,0:0:0:0:
259,59,272073,1,0,0:0:0:0:
259,59,272254,1,8,0:0:0:0:
259,59,272344,1,0,0:0:0:0:
259,59,272525,1,0,0:0:0:0:
259,59,272615,1,8,0:0:0:0:
259,59,272705,1,8,0:0:0:0:
259,59,272796,1,0,0:0:0:0:
259,59,272976,1,8,0:0:0:0:
259,59,273067,1,0,0:0:0:0:
259,59,273248,1,0,0:0:0:0:
259,59,273338,1,8,0:0:0:0:
259,59,273428,1,8,0:0:0:0:
259,59,273519,1,0,0:0:0:0:
273,75,273699,5,12,0:0:0:0:
273,75,273880,1,12,0:0:0:0:
273,75,274061,1,12,0:0:0:0:
265,75,274242,1,0,0:0:0:0:
253,66,274422,1,8,0:0:0:0:
246,59,274513,1,0,0:0:0:0:
253,66,274693,1,0,0:0:0:0:
253,66,274784,1,8,0:0:0:0:
253,66,274874,1,8,0:0:0:0:
259,59,274964,1,0,0:0:0:0:
259,59,275145,1,8,0:0:0:0:
259,59,275235,1,0,0:0:0:0:
259,59,275416,1,0,0:0:0:0:
259,59,275507,1,8,0:0:0:0:
259,59,275597,1,8,0:0:0:0:
259,59,275687,1,0,0:0:0:0:
259,59,275868,1,8,0:0:0:0:
259,59,275958,1,0,0:0:0:0:
259,59,276139,1,0,0:0:0:0:
259,59,276229,1,8,0:0:0:0:
259,59,276320,1,8,0:0:0:0:
259,59,276410,1,0,0:0:0:0:
271,59,276501,1,0,0:0:0:0:
259,59,276591,1,0,0:0:0:0:
262,52,276772,1,0,0:0:0:0:
279,64,276952,1,0,0:0:0:0:
279,64,277013,1,0,0:0:0:0:
279,64,277073,1,0,0:0:0:0:
266,49,277133,1,8,0:0:0:0:
275,47,277314,1,0,0:0:0:0:
275,47,277404,1,0,0:0:0:0:
275,47,277495,1,8,0:0:0:0:
275,47,277585,1,0,0:0:0:0:
275,47,277675,1,0,0:0:0:0:
275,47,277766,1,0,0:0:0:0:
275,47,277856,1,8,0:0:0:0:
282,50,278037,1,0,0:0:0:0:
282,50,278127,1,0,0:0:0:0:
282,50,278217,1,8,0:0:0:0:
282,50,278308,1,0,0:0:0:0:
282,50,278398,1,0,0:0:0:0:
282,50,278488,1,0,0:0:0:0:
282,50,278579,1,8,0:0:0:0:
282,50,278760,1,0,0:0:0:0:
287,54,278940,1,8,0:0:0:0:
287,54,279121,1,0,0:0:0:0:
287,54,279211,1,0,0:0:0:0:
287,54,279302,1,0,0:0:0:0:
289,42,279482,1,8,0:0:0:0:
289,42,279663,1,0,0:0:0:0:
289,42,279844,1,8,0:0:0:0:
289,42,280025,1,0,0:0:0:0:
290,51,280205,1,0,0:0:0:0:
290,51,280296,1,0,0:0:0:0:
290,51,280386,1,8,0:0:0:0:
290,51,280567,1,0,0:0:0:0:
289,44,280657,1,8,0:0:0:0:
290,51,280748,1,0,0:0:0:0:
290,51,280838,1,0,0:0:0:0:
290,51,280928,1,8,0:0:0:0:
282,48,281109,1,0,0:0:0:0:
282,48,281199,1,8,0:0:0:0:
282,48,281290,1,0,0:0:0:0:
282,48,281380,1,8,0:0:0:0:
282,48,281470,1,0,0:0:0:0:
296,49,281651,1,0,0:0:0:0:
276,53,281742,1,0,0:0:0:0:
285,53,281832,1,8,0:0:0:0:
285,53,282013,1,0,0:0:0:0:
285,53,282103,1,0,0:0:0:0:
285,53,282193,1,0,0:0:0:0:
285,53,282284,1,0,0:0:0:0:
285,46,282374,1,8,0:0:0:0:
285,46,282555,1,0,0:0:0:0:
284,46,282645,1,8,0:0:0:0:
285,46,282735,1,0,0:0:0:0:
297,47,282916,1,0,0:0:0:0:
297,47,283097,1,0,0:0:0:0:
297,47,283187,1,0,0:0:0:0:
297,47,283278,1,8,0:0:0:0:
293,54,283458,1,0,0:0:0:0:
293,54,283549,1,8,0:0:0:0:
293,54,283639,1,0,0:0:0:0:
293,54,283729,1,0,0:0:0:0:
293,54,283820,1,8,0:0:0:0:
293,54,284001,1,0,0:0:0:0:
293,54,284091,1,8,0:0:0:0:
293,54,284181,1,0,0:0:0:0:
293,54,284272,1,8,0:0:0:0:
293,54,284362,1,0,0:0:0:0:
293,54,284543,1,0,0:0:0:0:
293,54,284633,1,0,0:0:0:0:
293,54,284723,1,8,0:0:0:0:
293,54,284904,1,0,0:0:0:0:
293,54,284995,1,0,0:0:0:0:
293,54,285085,1,0,0:0:0:0:
217,221,285266,2,0,L|283:200,4,59.4278294097751
255,110,285808,1,0,0:0:0:0:
255,110,285988,1,0,0:0:0:0:
255,110,286079,1,0,0:0:0:0:
255,110,286169,1,8,0:0:0:0:
255,82,286350,1,0,0:0:0:0:
255,82,286440,1,8,0:0:0:0:
255,82,286531,1,0,0:0:0:0:
269,88,286621,1,0,0:0:0:0:
269,88,286711,1,8,0:0:0:0:
267,101,286892,1,0,0:0:0:0:
267,101,286982,1,8,0:0:0:0:
267,101,287073,1,0,0:0:0:0:
267,101,287163,1,8,0:0:0:0:
267,101,287254,1,0,0:0:0:0:
267,101,287434,1,0,0:0:0:0:
267,101,287525,1,0,0:0:0:0:
267,101,287615,1,8,0:0:0:0:
267,101,287796,1,0,0:0:0:0:
267,101,287886,1,0,0:0:0:0:
267,101,287976,1,0,0:0:0:0:
267,101,288067,1,0,0:0:0:0:
268,93,288157,1,8,0:0:0:0:
268,93,288338,1,0,0:0:0:0:
268,93,288428,1,8,0:0:0:0:
268,93,288519,1,0,0:0:0:0:
260,93,288699,1,0,0:0:0:0:
260,93,288880,1,0,0:0:0:0:
260,93,288970,1,0,0:0:0:0:
260,93,289061,1,0,0:0:0:0:
260,93,289151,1,0,0:0:0:0:
260,93,289242,1,8,0:0:0:0:
260,93,289422,1,0,0:0:0:0:
260,93,289513,1,8,0:0:0:0:
260,93,289603,1,0,0:0:0:0:
246,90,289693,1,0,0:0:0:0:
260,93,289784,1,8,0:0:0:0:
251,90,289964,1,0,0:0:0:0:
251,90,290055,1,0,0:0:0:0:
256,192,290145,12,0,290416,0:0:0:0:
256,192,290507,12,0,290778,0:0:0:0:
256,192,290868,12,0,291139,0:0:0:0:
260,94,291229,5,8,0:0:0:0:
260,94,291320,1,8,0:0:0:0:
260,94,291410,1,8,0:0:0:0:
260,94,291501,1,8,0:0:0:0:
260,94,291591,1,4,0:0:0:0:
259,95,291952,1,12,0:0:0:0:
258,94,292314,1,4,0:0:0:0:
258,94,292495,1,8,0:0:0:0:
250,102,292585,1,0,0:0:0:0:
253,89,292766,1,0,0:0:0:0:
259,107,292856,1,8,0:0:0:0:
259,107,292946,1,8,0:0:0:0:
259,107,293037,1,0,0:0:0:0:
255,99,293217,1,8,0:0:0:0:
255,99,293308,1,0,0:0:0:0:
260,83,293398,1,0,0:0:0:0:
255,99,293488,1,0,0:0:0:0:
255,99,293579,1,8,0:0:0:0:
250,89,293669,1,0,0:0:0:0:
261,82,293760,1,8,0:0:0:0:
245,96,293850,1,0,0:0:0:0:
246,97,293940,1,0,0:0:0:0:
252,94,294121,1,0,0:0:0:0:
252,94,294302,1,0,0:0:0:0:
251,82,294362,1,0,0:0:0:0:
252,94,294422,1,0,0:0:0:0:
252,94,294482,1,8,0:0:0:0:
249,86,294663,1,8,0:0:0:0:
249,86,294844,1,8,0:0:0:0:
249,86,295025,1,8,0:0:0:0:
240,85,295205,1,12,0:0:0:0:
269,105,295386,1,8,0:0:0:0:
269,105,295476,1,0,0:0:0:0:
269,105,295657,1,0,0:0:0:0:
269,105,295748,1,8,0:0:0:0:
269,105,295838,1,8,0:0:0:0:
269,105,295928,1,0,0:0:0:0:
256,98,296109,1,8,0:0:0:0:
256,98,296199,1,0,0:0:0:0:
269,105,296290,1,0,0:0:0:0:
256,98,296380,1,0,0:0:0:0:
256,98,296470,1,8,0:0:0:0:
256,98,296561,1,0,0:0:0:0:
256,98,296651,1,8,0:0:0:0:
262,91,296832,1,0,0:0:0:0:
257,101,297193,1,8,0:0:0:0:
264,93,297374,1,0,0:0:0:0:
239,87,297555,1,0,0:0:0:0:
260,71,297645,1,0,0:0:0:0:
255,76,297735,1,8,0:0:0:0:
254,78,297826,1,0,0:0:0:0:
250,100,297916,1,8,0:0:0:0:
254,78,298007,1,8,0:0:0:0:
255,76,298097,1,0,0:0:0:0:
255,76,298278,1,8,0:0:0:0:
255,76,298368,1,0,0:0:0:0:
255,76,298458,1,8,0:0:0:0:
255,76,298549,1,0,0:0:0:0:
255,76,298639,1,0,0:0:0:0:
255,76,298729,1,0,0:0:0:0:
255,76,298820,1,8,0:0:0:0:
255,76,299001,1,0,0:0:0:0:
255,76,299091,1,8,0:0:0:0:
255,76,299181,1,0,0:0:0:0:
255,76,299272,1,0,0:0:0:0:
255,76,299362,1,8,0:0:0:0:
255,76,299543,1,0,0:0:0:0:
255,76,299633,1,0,0:0:0:0:
255,76,299723,1,0,0:0:0:0:
255,76,299904,1,0,0:0:0:0:
266,69,300085,1,0,0:0:0:0:
268,69,300145,1,0,0:0:0:0:
266,69,300205,1,0,0:0:0:0:
288,68,300266,1,0,0:0:0:0:
287,76,300446,1,8,0:0:0:0:
287,76,300537,1,0,0:0:0:0:
287,76,300717,1,0,0:0:0:0:
287,76,300808,1,8,0:0:0:0:
287,76,300898,1,8,0:0:0:0:
287,76,300988,1,0,0:0:0:0:
276,76,301169,1,8,0:0:0:0:
276,76,301260,1,0,0:0:0:0:
276,76,301440,1,0,0:0:0:0:
276,76,301531,1,8,0:0:0:0:
276,76,301621,1,8,0:0:0:0:
276,76,301711,1,0,0:0:0:0:
282,70,301802,1,0,0:0:0:0:
282,70,301892,1,0,0:0:0:0:
282,70,302073,1,0,0:0:0:0:
282,70,302254,1,0,0:0:0:0:
282,70,302434,1,0,0:0:0:0:
282,70,302615,1,0,0:0:0:0:
276,71,303157,1,0,0:0:0:0:
276,71,303519,1,0,0:0:0:0:
276,71,303699,1,8,0:0:0:0:
276,71,303880,1,0,0:0:0:0:
276,71,304061,1,8,0:0:0:0:
276,71,304151,1,0,0:0:0:0:
276,71,304332,1,0,0:0:0:0:
276,71,304422,1,8,0:0:0:0:
273,64,304603,1,0,0:0:0:0:
276,71,304784,1,0,0:0:0:0:
276,71,304874,1,8,0:0:0:0:
276,71,305055,1,0,0:0:0:0:
276,71,305145,1,8,0:0:0:0:
273,64,305326,1,8,0:0:0:0:
273,64,305507,1,0,0:0:0:0:
273,64,305597,1,0,0:0:0:0:
273,64,305778,1,0,0:0:0:0:
273,64,305868,1,8,0:0:0:0:
273,64,306049,1,0,0:0:0:0:
273,64,306229,1,0,0:0:0:0:
273,64,306320,1,8,0:0:0:0:
273,64,306501,1,0,0:0:0:0:
275,57,306591,1,8,0:0:0:0:
275,57,306772,1,8,0:0:0:0:
275,57,306952,1,0,0:0:0:0:
275,57,307043,1,0,0:0:0:0:
275,57,307223,1,0,0:0:0:0:
275,57,307314,1,8,0:0:0:0:
275,57,307495,1,0,0:0:0:0:
275,57,307675,1,0,0:0:0:0:
275,57,307766,1,8,0:0:0:0:
275,57,307946,1,0,0:0:0:0:
275,57,308037,1,8,0:0:0:0:
275,57,308217,1,8,0:0:0:0:
275,57,308308,1,0,0:0:0:0:
275,57,308398,1,0,0:0:0:0:
275,57,308579,1,0,0:0:0:0:
287,64,308639,1,0,0:0:0:0:
286,62,308699,1,8,0:0:0:0:
286,62,308760,1,8,0:0:0:0:
272,50,308940,1,0,0:0:0:0:
284,51,309302,1,0,0:0:0:0:
284,51,309482,1,8,0:0:0:0:
284,51,309663,1,8,0:0:0:0:
284,51,309844,1,0,0:0:0:0:
278,46,309934,1,0,0:0:0:0:
284,51,310115,1,0,0:0:0:0:
284,51,310205,1,8,0:0:0:0:
284,51,310296,1,8,0:0:0:0:
275,45,310386,1,0,0:0:0:0:
288,35,310567,1,8,0:0:0:0:
284,51,310657,1,0,0:0:0:0:
284,51,310838,1,0,0:0:0:0:
284,51,310928,1,8,0:0:0:0:
284,51,311019,1,0,0:0:0:0:
284,51,311109,1,8,0:0:0:0:
284,51,311290,1,0,0:0:0:0:
284,51,311380,1,0,0:0:0:0:
284,51,311561,1,0,0:0:0:0:
284,51,311651,1,8,0:0:0:0:
271,53,311742,1,8,0:0:0:0:
284,51,311832,1,0,0:0:0:0:
284,51,312013,1,8,0:0:0:0:
284,51,312103,1,0,0:0:0:0:
284,51,312284,1,0,0:0:0:0:
284,51,312374,1,8,0:0:0:0:
273,53,312464,1,0,0:0:0:0:
284,51,312555,1,8,0:0:0:0:
284,51,312735,1,0,0:0:0:0:
284,51,312826,1,0,0:0:0:0:
284,51,313007,1,0,0:0:0:0:
286,41,313097,1,8,0:0:0:0:
280,42,313187,1,8,0:0:0:0:
286,41,313278,1,0,0:0:0:0:
286,41,313458,1,8,0:0:0:0:
286,41,313549,1,0,0:0:0:0:
286,41,313729,1,0,0:0:0:0:
286,41,313820,1,8,0:0:0:0:
286,41,313910,1,0,0:0:0:0:
286,41,314001,1,8,0:0:0:0:
285,37,314362,1,0,0:0:0:0:
285,37,314452,1,0,0:0:0:0:
283,30,314543,1,0,0:0:0:0:
285,37,314723,1,0,0:0:0:0:
281,51,315085,1,8,0:0:0:0:
285,36,315175,1,0,0:0:0:0:
281,38,315266,1,0,0:0:0:0:
268,38,315446,1,8,0:0:0:0:
279,35,315537,1,8,0:0:0:0:
279,35,315627,1,0,0:0:0:0:
279,35,315808,1,8,0:0:0:0:
279,35,315898,1,0,0:0:0:0:
279,35,315988,1,8,0:0:0:0:
279,35,316079,1,8,0:0:0:0:
279,35,316169,1,0,0:0:0:0:
276,48,316350,1,0,0:0:0:0:
276,48,316440,1,8,0:0:0:0:
276,48,316531,1,0,0:0:0:0:
276,48,316621,1,8,0:0:0:0:
276,48,316711,1,8,0:0:0:0:
276,48,316802,1,0,0:0:0:0:
276,48,316892,1,8,0:0:0:0:
276,48,317073,1,0,0:0:0:0:
276,48,317163,1,0,0:0:0:0:
276,48,317254,1,8,0:0:0:0:
276,48,317344,1,0,0:0:0:0:
276,48,317434,1,8,0:0:0:0:
276,48,317525,1,8,0:0:0:0:
276,48,317615,1,0,0:0:0:0:
276,48,317796,1,0,0:0:0:0:
276,48,317886,1,8,0:0:0:0:
276,48,317976,1,0,0:0:0:0:
276,48,318067,1,0,0:0:0:0:
276,48,318157,1,8,0:0:0:0:
275,41,318248,1,0,0:0:0:0:
272,39,318338,1,8,0:0:0:0:
272,39,318519,1,0,0:0:0:0:
272,39,318609,1,8,0:0:0:0:
272,39,318699,1,8,0:0:0:0:
272,39,318790,1,0,0:0:0:0:
272,39,318880,1,8,0:0:0:0:
272,39,318970,1,8,0:0:0:0:
272,39,319061,1,0,0:0:0:0:
272,39,319242,1,0,0:0:0:0:
272,39,319332,1,8,0:0:0:0:
272,39,319422,1,0,0:0:0:0:
269,46,319513,1,8,0:0:0:0:
272,39,319603,1,8,0:0:0:0:
269,46,319693,1,0,0:0:0:0:
293,46,319784,1,8,0:0:0:0:
269,39,319964,1,0,0:0:0:0:
277,42,320055,1,0,0:0:0:0:
277,44,320145,1,8,0:0:0:0:
277,42,320235,1,0,0:0:0:0:
272,38,320326,1,8,0:0:0:0:
277,42,320416,1,8,0:0:0:0:
287,51,320507,1,0,0:0:0:0:
261,41,320687,1,0,0:0:0:0:
261,41,320778,1,8,0:0:0:0:
279,40,320868,1,0,0:0:0:0:
285,43,320958,1,0,0:0:0:0:
276,49,321049,1,8,0:0:0:0:
276,49,321139,1,0,0:0:0:0:
285,53,321229,1,8,0:0:0:0:
279,41,321410,1,0,0:0:0:0:
279,41,321501,1,0,0:0:0:0:
279,41,321591,1,8,0:0:0:0:
279,41,321681,1,0,0:0:0:0:
279,41,321772,1,8,0:0:0:0:
279,41,321862,1,8,0:0:0:0:
285,53,321952,1,0,0:0:0:0:
279,40,322133,1,0,0:0:0:0:
279,40,322223,1,8,0:0:0:0:
279,40,322314,1,0,0:0:0:0:
279,40,322404,1,8,0:0:0:0:
279,40,322495,1,8,0:0:0:0:
279,40,322585,1,0,0:0:0:0:
285,53,322675,1,8,0:0:0:0:
283,37,322856,1,0,0:0:0:0:
284,38,322946,1,0,0:0:0:0:
283,37,323037,1,8,0:0:0:0:
284,38,323127,1,0,0:0:0:0:
283,37,323217,1,8,0:0:0:0:
284,38,323308,1,8,0:0:0:0:
285,48,323398,1,0,0:0:0:0:
281,38,323579,1,0,0:0:0:0:
281,38,323669,1,0,0:0:0:0:
281,38,323760,1,8,0:0:0:0:
281,38,323940,1,0,0:0:0:0:
281,38,324121,1,0,0:0:0:0:
281,38,324302,1,8,0:0:0:0:
281,38,324482,1,0,0:0:0:0:
281,38,324573,1,8,0:0:0:0:
281,38,324663,1,0,0:0:0:0:
281,38,324754,1,8,0:0:0:0:
281,38,324844,1,0,0:0:0:0:
281,38,325025,1,0,0:0:0:0:
281,38,325205,1,8,0:0:0:0:
281,38,325386,1,0,0:0:0:0:
281,38,325476,1,0,0:0:0:0:
281,38,325567,1,0,0:0:0:0:
281,38,325657,1,0,0:0:0:0:
281,38,325748,1,8,0:0:0:0:
281,38,325928,1,0,0:0:0:0:
281,38,326019,1,8,0:0:0:0:
281,38,326109,1,0,0:0:0:0:
281,38,326199,1,8,0:0:0:0:
281,38,326290,1,0,0:0:0:0:
280,38,326651,1,0,0:0:0:0:
282,37,327013,1,0,0:0:0:0:
282,37,327374,1,0,0:0:0:0:
276,42,327735,1,0,0:0:0:0:
278,43,328097,1,0,0:0:0:0:
278,43,328458,1,0,0:0:0:0:
281,42,328820,1,0,0:0:0:0:
281,42,329181,1,0,0:0:0:0:
281,42,329543,1,0,0:0:0:0:
281,42,329904,1,0,0:0:0:0:
281,42,330266,1,0,0:0:0:0:
281,42,330627,1,0,0:0:0:0:
281,42,330988,1,0,0:0:0:0:
281,42,331350,1,0,0:0:0:0:
281,42,331711,1,0,0:0:0:0:
281,42,332073,1,0,0:0:0:0:
281,42,332434,1,0,0:0:0:0:
281,42,332796,1,0,0:0:0:0:
281,42,333157,1,0,0:0:0:0:
282,41,333519,1,0,0:0:0:0:
282,41,333880,1,0,0:0:0:0:
282,40,334242,1,0,0:0:0:0:
282,40,334603,1,0,0:0:0:0:
282,40,334964,1,0,0:0:0:0:
282,40,335326,1,0,0:0:0:0:
282,40,335687,1,0,0:0:0:0:
282,40,336049,1,0,0:0:0:0:
282,40,336410,1,0,0:0:0:0:
282,40,336772,1,0,0:0:0:0:
282,40,337133,1,0,0:0:0:0:
282,40,337495,1,0,0:0:0:0:
254,131,337856,1,0,0:0:0:0:
241,126,338217,1,0,0:0:0:0:
243,128,338579,1,0,0:0:0:0:
241,126,338940,1,0,0:0:0:0:
237,133,339302,1,0,0:0:0:0:
235,134,339663,1,0,0:0:0:0:
237,133,340025,1,0,0:0:0:0:
235,134,340386,1,0,0:0:0:0:
237,133,340748,1,0,0:0:0:0:
235,134,341109,1,0,0:0:0:0:
237,133,341470,1,0,0:0:0:0:
235,134,341832,1,0,0:0:0:0:
237,133,342193,1,0,0:0:0:0:
235,134,342555,1,0,0:0:0:0:
237,133,342916,1,0,0:0:0:0:
235,134,343278,1,0,0:0:0:0:
237,133,343639,1,0,0:0:0:0:
235,134,344001,1,0,0:0:0:0:
237,133,344362,1,0,0:0:0:0:
235,134,344723,1,0,0:0:0:0:
237,133,345085,1,0,0:0:0:0:
235,134,345446,1,0,0:0:0:0:
237,133,345808,1,0,0:0:0:0:
235,134,346169,1,0,0:0:0:0:
241,146,346531,1,0,0:0:0:0:
242,147,346892,1,0,0:0:0:0:
241,146,347254,1,0,0:0:0:0:
242,147,347615,1,0,0:0:0:0:
241,146,347976,1,0,0:0:0:0:
242,147,348338,1,0,0:0:0:0:
249,147,348699,1,0,0:0:0:0:
249,147,349061,1,0,0:0:0:0:
254,123,360266,5,0,0:0:0:0:
254,123,360627,1,0,0:0:0:0:
253,115,360808,1,12,0:0:0:0:
253,115,360988,1,0,0:0:0:0:
253,115,361079,1,0,0:0:0:0:
253,115,361169,1,8,0:0:0:0:
256,108,361350,1,0,0:0:0:0:
256,108,361440,1,8,0:0:0:0:
256,108,361621,1,8,0:0:0:0:
256,108,361711,1,0,0:0:0:0:
256,108,361802,1,0,0:0:0:0:
256,108,361892,1,8,0:0:0:0:
256,108,361982,1,0,0:0:0:0:
256,108,362073,1,8,0:0:0:0:
256,108,362254,1,0,0:0:0:0:
256,108,362344,1,8,0:0:0:0:
256,108,362525,1,8,0:0:0:0:
256,108,362615,1,0,0:0:0:0:
256,108,362705,1,0,0:0:0:0:
256,108,362796,1,8,0:0:0:0:
256,108,362886,1,0,0:0:0:0:
254,101,362976,1,8,0:0:0:0:
253,109,363157,1,0,0:0:0:0:
253,109,363248,1,8,0:0:0:0:
253,109,363428,1,0,0:0:0:0:
253,109,363519,1,8,0:0:0:0:
253,109,363699,1,8,0:0:0:0:
253,109,363880,1,0,0:0:0:0:
253,109,363970,1,0,0:0:0:0:
253,109,364061,1,8,0:0:0:0:
253,109,364242,1,0,0:0:0:0:
253,109,364332,1,8,0:0:0:0:
253,109,364513,1,8,0:0:0:0:
253,109,364603,1,0,0:0:0:0:
253,109,364693,1,0,0:0:0:0:
253,109,364784,1,8,0:0:0:0:
253,109,364874,1,0,0:0:0:0:
253,109,364964,1,8,0:0:0:0:
253,109,365145,1,0,0:0:0:0:
253,109,365235,1,8,0:0:0:0:
249,101,365416,1,8,0:0:0:0:
249,101,365507,1,0,0:0:0:0:
249,101,365597,1,0,0:0:0:0:
249,101,365687,1,8,0:0:0:0:
257,104,365778,1,0,0:0:0:0:
257,104,365868,1,8,0:0:0:0:
244,93,366049,1,0,0:0:0:0:
258,98,366410,1,0,0:0:0:0:
260,202,366772,2,0,B|380:172|147:63,1,224.218402189975
