osu file format v14

[General]
AudioFilename: audio.mp3
AudioLeadIn: 0
PreviewTime: 64236
Countdown: 0
SampleSet: Soft
StackLeniency: 0.3
Mode: 0
LetterboxInBreaks: 0
WidescreenStoryboard: 0

[Editor]
Bookmarks: 3785,17071,30748,41910,53073,64236,75399,86561,97724,108887,120050,131213,142375,153538,164701,175864,187027,198189,209352,220515,231678,244218,257932,271646,285360,299075
DistanceSpacing: 0.7
BeatDivisor: 4
GridSize: 32
TimelineZoom: 1.62

[Metadata]
Title:Edge
TitleUnicode:Edge
Artist:Virtual Riot feat. Varia
ArtistUnicode:Virtual Riot feat. Varia
Creator:C00L
Version:Boundary
Source:
Tags:drumstep neurofunk dubstep dnb cool
BeatmapID:1369388
BeatmapSetID:646291

[Difficulty]
HPDrainRate:5.5
CircleSize:4
OverallDifficulty:8.2
ApproachRate:9.2
SliderMultiplier:2.1
SliderTickRate:1

[Events]
//Background and Video events
0,0,"bg.png",0,0
//Break Periods
2,28842,30178
2,153738,158550
2,160541,161213
//Storyboard Layer 0 (Background)
//Storyboard Layer 1 (Fail)
//Storyboard Layer 2 (Pass)
//Storyboard Layer 3 (Foreground)
//Storyboard Sound Samples

[TimingPoints]
357,428.571428571429,4,2,1,10,1,0
357,-200,4,2,1,10,0,0
17071,-166.666666666667,4,2,1,15,0,0
30748,348.837209302326,4,2,1,50,1,0
30748,-166.666666666667,4,2,1,50,0,0
31271,-125,4,2,1,50,0,0
32143,-166.666666666667,4,2,1,50,0,0
32666,-125,4,2,1,50,0,0
33538,-166.666666666667,4,2,1,50,0,0
34061,-125,4,2,1,50,0,0
34934,-166.666666666667,4,2,1,50,0,0
35457,-125,4,2,1,50,0,0
36329,-166.666666666667,4,2,1,50,0,0
36852,-125,4,2,1,50,0,0
37724,-166.666666666667,4,2,1,50,0,0
38248,-125,4,2,1,50,0,0
39120,-125,4,2,1,50,0,0
40515,-200,4,2,1,70,0,0
41910,-83.3333333333334,4,3,1,80,0,1
42259,-125,4,3,1,80,0,1
42521,-83.3333333333333,4,3,1,80,0,1
42957,-76.9230769230769,4,3,2,80,0,1
43306,-90.9090909090909,4,3,1,80,0,1
43654,-90.9090909090909,4,3,1,80,0,1
44352,-76.9230769230769,4,3,1,80,0,1
44701,-83.3333333333333,4,3,1,80,0,1
45050,-125,4,3,1,80,0,1
45311,-83.3333333333333,4,3,1,80,0,1
46096,-83.3333333333333,4,3,2,80,0,1
46445,-125,4,3,1,80,0,1
46707,-76.9230769230769,4,3,2,80,0,1
47143,-100,4,3,1,80,0,1
47492,-83.3333333333333,4,3,1,80,0,1
47841,-125,4,3,1,80,0,1
48102,-83.3333333333333,4,3,1,80,0,1
48538,-76.9230769230769,4,3,2,80,0,1
48887,-100,4,3,1,80,0,1
49236,-90.9090909090909,4,3,1,80,0,1
49759,-100,4,3,1,80,0,1
50282,-83.3333333333333,4,3,1,70,0,1
50806,-100,4,3,1,70,0,1
51154,-83.3333333333333,4,3,1,70,0,1
52724,-100,4,3,1,60,0,1
53073,-83.3333333333333,4,3,1,80,0,1
53422,-125,4,3,1,80,0,1
53684,-83.3333333333333,4,3,1,80,0,1
54120,-83.3333333333333,4,3,2,80,0,1
54468,-90.9090909090909,4,3,1,80,0,1
55515,-76.9230769230769,4,3,2,80,0,1
55864,-83.3333333333333,4,3,1,80,0,1
56213,-125,4,3,1,80,0,1
56474,-83.3333333333333,4,3,1,80,0,1
56910,-100,4,3,1,80,0,1
57259,-83.3333333333333,4,3,2,80,0,1
57608,-125,4,3,1,80,0,1
57870,-76.9230769230769,4,3,2,80,0,1
58306,-90.9090909090909,4,3,1,80,0,1
58654,-83.3333333333333,4,3,1,80,0,1
59003,-125,4,3,1,80,0,1
59265,-83.3333333333333,4,3,1,80,0,1
59701,-76.9230769230769,4,3,2,80,0,1
60050,-100,4,3,1,80,0,1
60399,-90.9090909090909,4,3,1,80,0,1
60922,-100,4,3,1,80,0,1
61445,-83.3333333333333,4,3,1,70,0,1
61968,-100,4,3,1,70,0,1
62317,-83.3333333333333,4,3,1,70,0,1
63538,-125,4,3,1,55,0,0
63713,-125,4,3,1,10,0,0
63829,-125,4,3,1,55,0,0
64236,-100,4,1,1,65,0,0
86561,-125,4,3,2,45,0,0
87957,-83.3333333333333,4,3,2,55,0,0
88306,-100,4,3,1,60,0,0
88393,-100,4,3,1,30,0,0
88480,-100,4,3,1,60,0,0
88567,-100,4,3,1,30,0,0
88653,-83.3333333333333,4,3,1,65,0,0
88742,-83.3333333333333,4,3,1,30,0,0
88829,-83.3333333333333,4,3,1,65,0,0
88916,-83.3333333333333,4,3,1,30,0,0
89003,-83.3333333333333,4,3,1,70,0,0
89352,-83.3333333333333,4,3,1,80,0,1
89700,-125,4,3,1,80,0,1
89962,-83.3333333333333,4,3,1,80,0,1
90747,-83.3333333333333,4,3,2,80,0,1
91095,-125,4,3,1,80,0,1
91357,-76.9230769230769,4,3,2,80,0,1
91793,-90.9090909090909,4,3,1,80,0,1
92142,-83.3333333333333,4,3,1,80,0,1
92491,-125,4,3,1,80,0,1
92752,-83.3333333333333,4,3,1,80,0,1
93188,-76.9230769230769,4,3,2,80,0,1
93537,-100,4,3,2,80,0,1
93886,-90.9090909090909,4,3,1,80,0,1
94410,-100,4,3,1,80,0,1
94933,-83.3333333333333,4,3,1,70,0,1
95456,-100,4,3,1,70,0,1
95805,-83.3333333333333,4,3,1,70,0,1
97374,-100,4,3,1,70,0,1
97723,-83.3333333333333,4,3,1,80,0,1
98072,-125,4,3,1,80,0,1
98334,-83.3333333333333,4,3,1,80,0,1
98770,-76.9230769230769,4,3,2,80,0,1
99031,-100,4,3,1,80,0,1
99467,-83.3333333333333,4,3,1,80,0,1
99730,-100,4,3,1,80,0,1
100165,-76.9230769230769,4,3,2,80,0,1
100514,-83.3333333333333,4,3,1,80,0,1
100863,-125,4,3,1,80,0,1
101124,-83.3333333333333,4,3,1,80,0,1
101560,-83.3333333333333,4,3,2,80,0,1
101823,-100,4,3,1,80,0,1
102258,-83.3333333333333,4,3,1,80,0,1
102521,-100,4,3,1,80,0,1
102956,-90.9090909090909,4,3,1,80,0,1
103305,-83.3333333333333,4,3,1,80,0,1
103653,-125,4,3,1,80,0,1
103915,-83.3333333333333,4,3,1,80,0,1
104351,-76.9230769230769,4,3,2,80,0,1
104700,-100,4,3,1,80,0,1
105049,-90.9090909090909,4,3,1,80,0,1
105573,-100,4,3,1,80,0,1
106095,-83.3333333333333,4,3,1,70,0,1
106619,-100,4,3,1,70,0,1
106967,-83.3333333333333,4,3,1,70,0,1
108188,-125,4,3,1,70,0,1
108364,-125,4,3,1,10,0,1
108480,-125,4,3,1,70,0,1
108887,-166.666666666667,4,2,1,70,0,0
109236,-166.666666666667,4,2,1,25,0,0
120049,-166.666666666667,4,2,2,30,0,0
131213,-125,4,2,3,35,0,0
142375,-100,4,2,3,50,0,0
144643,-100,4,2,4,45,0,0
145166,-100,4,2,3,50,0,0
147434,-100,4,2,4,55,0,0
147957,-100,4,2,3,50,0,0
150224,-100,4,2,4,45,0,0
150748,-100,4,2,3,50,0,0
153015,-100,4,2,4,55,0,0
153538,-100,4,2,1,10,0,0
159120,-125,4,3,1,10,0,0
164701,-166.666666666667,4,2,1,35,0,0
165224,-125,4,2,1,35,0,0
166096,-166.666666666667,4,2,1,35,0,0
166620,-125,4,2,1,35,0,0
167492,-166.666666666667,4,2,1,35,0,0
168015,-125,4,2,1,35,0,0
168887,-166.666666666667,4,2,1,35,0,0
169410,-125,4,2,1,35,0,0
170282,-111.111111111111,4,2,1,35,0,0
173073,-100,4,2,1,30,0,0
174468,-166.666666666667,4,2,1,20,0,0
175166,-125,4,2,1,15,0,0
175515,-125,4,2,1,10,0,0
175864,-83.3333333333333,4,3,1,80,0,1
176213,-125,4,3,1,80,0,1
176474,-83.3333333333333,4,3,1,80,0,1
176910,-90.9090909090909,4,3,2,80,0,1
177172,-90.9090909090909,4,3,1,80,0,1
177608,-100,4,3,1,80,0,1
177870,-76.9230769230769,4,3,2,80,0,1
178306,-100,4,3,1,80,0,1
178654,-83.3333333333333,4,3,2,80,0,1
179003,-125,4,3,1,80,0,1
179265,-100,4,3,2,80,0,1
180050,-83.3333333333333,4,3,2,80,0,1
180399,-125,4,3,1,80,0,1
180748,-125,4,3,1,80,0,1
181096,-90.9090909090909,4,3,1,80,0,1
181445,-83.3333333333333,4,3,1,80,0,1
181794,-125,4,3,1,80,0,1
182056,-83.3333333333333,4,3,1,80,0,1
182492,-90.9090909090909,4,3,2,80,0,1
182753,-90.9090909090909,4,3,1,80,0,1
183189,-76.9230769230769,4,3,1,80,0,1
183451,-90.9090909090909,4,3,2,80,0,1
183887,-100,4,3,1,80,0,1
184236,-83.3333333333333,4,3,1,80,0,1
184759,-100,4,3,1,80,0,1
185108,-83.3333333333333,4,3,1,80,0,1
186154,-76.9230769230769,4,3,1,80,0,1
187027,-83.3333333333333,4,3,1,80,0,1
187375,-125,4,3,1,80,0,1
187550,-83.3333333333333,4,3,1,80,0,1
187899,-125,4,3,1,80,0,1
188073,-90.9090909090909,4,3,1,80,0,1
188422,-125,4,3,1,80,0,1
188771,-76.9230769230769,4,3,1,80,0,1
189032,-166.666666666667,4,3,2,80,0,1
189468,-76.9230769230769,4,3,2,80,0,1
189817,-90.9090909090909,4,3,1,80,0,1
190428,-125,4,3,1,80,0,1
190864,-83.3333333333333,4,3,1,80,0,1
191213,-100,4,3,1,80,0,1
191561,-90.9090909090909,4,3,1,80,0,1
192259,-90.9090909090909,4,3,1,80,0,1
192608,-83.3333333333333,4,3,1,80,0,1
192957,-125,4,3,1,80,0,1
193131,-83.3333333333333,4,3,1,80,0,1
193480,-125,4,3,1,80,0,1
193654,-90.9090909090909,4,3,1,80,0,1
194003,-125,4,3,1,80,0,1
194352,-76.9230769230769,4,3,1,80,0,1
194614,-90.9090909090909,4,3,2,80,0,1
195050,-100,4,3,1,70,0,1
195399,-83.3333333333333,4,3,1,70,0,1
195922,-100,4,3,1,70,0,1
196271,-83.3333333333333,4,3,1,70,0,1
197492,-125,4,3,1,55,0,0
197666,-125,4,3,1,10,0,0
197782,-125,4,3,1,55,0,0
198189,-100,4,1,1,65,0,0
220515,-83.3333333333333,4,3,2,55,0,0
220864,-100,4,3,1,55,0,0
221561,-83.3333333333333,4,3,2,55,0,0
221910,-125,4,3,1,55,0,0
222259,-90.9090909090909,4,3,2,55,0,0
222957,-90.9090909090909,4,3,1,55,0,0
223306,-83.3333333333333,4,3,1,80,0,1
223654,-125,4,3,1,80,0,1
223916,-100,4,3,1,80,0,1
224352,-76.9230769230769,4,3,2,80,0,1
224701,-90.9090909090909,4,3,1,80,0,1
225050,-76.9230769230769,4,3,1,80,0,1
225311,-100,4,3,1,80,0,1
225748,-90.9090909090909,4,3,1,80,0,1
226096,-83.3333333333333,4,3,2,80,0,1
226445,-125,4,3,1,80,0,1
226620,-100,4,3,1,80,0,1
227143,-83.3333333333333,4,3,2,80,0,1
227492,-125,4,3,1,80,0,1
227841,-83.3333333333333,4,3,1,80,0,1
228102,-100,4,3,1,80,0,1
228538,-90.9090909090909,4,3,1,80,0,1
228887,-83.3333333333333,4,3,1,70,0,1
229410,-100,4,3,1,70,0,1
229759,-83.3333333333333,4,3,1,70,0,1
230806,-76.9230769230769,4,3,1,80,0,1
231329,-76.9230769230769,4,3,1,75,0,1
231678,-83.3333333333333,4,3,1,80,0,1
232027,-125,4,3,1,80,0,1
232288,-90.9090909090909,4,3,1,80,0,1
232724,-90.9090909090909,4,3,1,80,0,1
233073,-100,4,3,2,80,0,1
233422,-125,4,3,1,80,0,1
233684,-100,4,3,2,80,0,1
234120,-76.9230769230769,4,3,2,80,0,1
234468,-83.3333333333333,4,3,1,80,0,1
234817,-90.9090909090909,4,3,1,80,0,1
235864,-76.9230769230769,4,3,1,80,0,1
236213,-90.9090909090909,4,3,2,80,0,1
236474,-83.3333333333333,4,3,1,80,0,1
237259,-83.3333333333333,4,3,1,80,0,1
237608,-125,4,3,1,80,0,1
237870,-90.9090909090909,4,3,1,80,0,1
238306,-90.9090909090909,4,3,1,80,0,1
238654,-100,4,3,1,80,0,1
239003,-90.9090909090909,4,3,2,80,0,1
239352,-83.3333333333333,4,3,2,80,0,1
239701,-90.9090909090909,4,3,1,80,0,1
240050,-90.9090909090909,4,3,1,70,0,0
240137,-90.9090909090909,4,2,1,65,0,0
240399,-90.9090909090909,4,2,1,60,0,0
240573,-90.9090909090909,4,2,1,55,0,0
240748,-90.9090909090909,4,2,1,50,0,0
240922,-90.9090909090909,4,2,1,45,0,0
241096,-90.9090909090909,4,2,1,40,0,0
241271,-90.9090909090909,4,2,1,35,0,0
241445,-90.9090909090909,4,2,1,40,0,0
241794,-90.9090909090909,4,2,1,45,0,0
241968,-90.9090909090909,4,2,1,50,0,0
242143,-90.9090909090909,4,2,1,55,0,0
242317,-90.9090909090909,4,2,1,60,0,0
242492,-90.9090909090909,4,2,1,65,0,0
242666,-90.9090909090909,4,2,1,70,0,0
242841,-90.9090909090909,4,2,1,75,0,0
243364,-90.9090909090909,4,3,1,80,0,0
244218,428.571428571429,4,3,1,80,1,1
244218,-71.4285714285714,4,3,1,80,0,1
244646,-83.3333333333333,4,3,1,80,0,1
245075,-100,4,3,1,80,0,1
245503,-62.5,4,3,1,80,0,1
245932,-100,4,3,1,80,0,1
246360,-62.5,4,3,1,80,0,1
247646,-71.4285714285714,4,3,1,80,0,1
248075,-66.6666666666667,4,3,1,80,0,1
248503,-83.3333333333333,4,3,1,80,0,1
248932,-83.3333333333333,4,3,1,80,0,1
249360,-71.4285714285714,4,3,1,80,0,1
249789,-62.5,4,3,1,80,0,1
251075,-71.4285714285714,4,3,1,80,0,1
251932,-100,4,3,1,80,0,1
252360,-62.5,4,3,1,80,0,1
252789,-100,4,3,1,80,0,1
253218,-62.5,4,3,1,80,0,1
254503,-76.9230769230769,4,3,1,80,0,0
255360,-125,4,3,1,80,0,0
255789,-76.9230769230769,4,3,1,80,0,0
257075,-100,4,3,1,70,0,0
257503,-100,4,3,2,70,0,0
257932,-71.4285714285714,4,3,1,80,0,1
258360,-83.3333333333333,4,3,1,80,0,1
258789,-100,4,3,1,80,0,1
259218,-62.5,4,3,1,80,0,1
259646,-100,4,3,1,80,0,1
260075,-62.5,4,3,1,80,0,1
261360,-71.4285714285714,4,3,1,80,0,1
261789,-66.6666666666667,4,3,1,80,0,1
262218,-83.3333333333333,4,3,1,80,0,1
262646,-83.3333333333333,4,3,1,80,0,1
263075,-71.4285714285714,4,3,1,80,0,1
263503,-62.5,4,3,1,80,0,1
264789,-71.4285714285714,4,3,1,80,0,1
265218,-83.3333333333333,4,3,1,80,0,1
265646,-100,4,3,1,80,0,1
266075,-62.5,4,3,1,80,0,1
266503,-100,4,3,1,80,0,1
266932,-62.5,4,3,1,80,0,1
268218,-76.9230769230769,4,3,1,80,0,0
269075,-125,4,3,1,80,0,0
269503,-76.9230769230769,4,3,1,80,0,0
270789,-100,4,3,1,70,0,0
271218,-100,4,3,2,70,0,0
271646,-125,4,1,1,55,0,0
285360,-125,4,1,1,55,0,0
288789,-142.857142857143,4,1,1,45,0,0
292218,-166.666666666667,4,1,1,35,0,0
295646,-200,4,1,1,25,0,0
299075,-333.333333333333,4,1,1,24,0,0
299503,-333.333333333333,4,1,1,23,0,0
299932,-333.333333333333,4,1,1,22,0,0
300360,-333.333333333333,4,1,1,21,0,0
300789,-333.333333333333,4,1,1,20,0,0
301218,-333.333333333333,4,1,1,19,0,0
301646,-333.333333333333,4,1,1,18,0,0
302075,-333.333333333333,4,1,1,17,0,0
302503,-333.333333333333,4,1,1,16,0,0
302932,-333.333333333333,4,1,1,15,0,0
303360,-333.333333333333,4,1,1,14,0,0
303789,-333.333333333333,4,1,1,13,0,0
304218,-333.333333333333,4,1,1,12,0,0
304646,-333.333333333333,4,1,1,11,0,0
305075,-333.333333333333,4,1,1,10,0,0
305503,-333.333333333333,4,1,1,9,0,0
305932,-333.333333333333,4,1,1,8,0,0
306360,-333.333333333333,4,1,1,7,0,0
306789,-333.333333333333,4,1,1,6,0,0
307218,-333.333333333333,4,2,1,5,0,0

[Colours]
Combo1 : 143,143,143
Combo2 : 255,0,0
Combo3 : 187,187,187
Combo4 : 255,117,117

[HitObjects]
256,192,357,12,0,3357,0:0:0:0:
48,287,3785,5,2,0:0:0:0:
125,278,4214,1,0,0:0:0:0:
202,270,4642,1,2,0:0:0:0:
255,101,5499,5,2,0:0:0:0:
332,109,5927,1,0,0:0:0:0:
409,118,6356,1,2,0:0:0:0:
279,261,7214,5,2,0:0:0:0:
202,269,7642,1,0,0:0:0:0:
125,278,8071,1,2,0:0:0:0:
332,110,8928,5,2,0:0:0:0:
255,101,9357,1,0,0:0:0:0:
178,93,9785,1,2,0:0:0:0:
357,292,10642,6,0,P|362:246|330:195,2,105,2|0|2,0:0|0:0|0:0,0:0:0:0:
121,29,12357,2,0,P|93:72|97:124,2,105,2|0|2,0:0|0:0|0:0,0:0:0:0:
174,272,14071,6,0,L|297:258,2,105,2|0|2,0:0|0:0|0:0,0:0:0:0:
282,104,15785,2,0,L|177:92,2,105,2|0|2,0:0|0:0|0:0,0:0:0:0:
382,65,17071,6,0,B|385:129|385:129|354:189,1,125.999996154785,2|0,0:0|0:0,0:0:0:0:
308,258,17714,1,0,0:0:0:0:
244,318,17928,2,0,P|299:344|369:321,1,125.999996154785,2|0,0:0|0:0,0:0:0:0:
308,258,18785,6,0,B|269:219|216:232|216:232|156:244|122:197,1,188.999994232178,2|2,0:0|0:0,0:0:0:0:
196,136,19642,1,0,0:0:0:0:
62,265,20071,2,0,P|45:206|80:136,1,125.999996154785,2|0,0:0|0:0,0:0:0:0:
128,85,20928,5,2,0:0:0:0:
196,136,21357,1,0,0:0:0:0:
257,79,21785,2,0,P|317:62|386:86,1,125.999996154785,2|0,0:0|0:0,0:0:0:0:
435,147,22642,5,2,0:0:0:0:
389,222,23071,1,0,0:0:0:0:
314,274,23499,2,0,P|295:215|322:159,1,125.999996154785,2|0,0:0|0:0,0:0:0:0:
139,70,24357,6,0,P|199:55|257:79,2,125.999996154785,2|0|2,0:0|0:0|0:0,0:0:0:0:
61,285,26071,5,2,0:0:0:0:
133,348,26499,1,0,0:0:0:0:
227,345,26928,2,0,B|247:315|225:271|225:271|183:218|199:150|265:142|322:183|321:234|289:271|243:272|218:264|218:264|183:248|149:264|149:264|129:232|136:191,1,503.999984619141,2|0,0:0|0:0,0:0:0:0:
144,359,30748,6,0,L|141:286,2,62.9999980773926,8|0|0,0:0|0:0|0:0,0:0:0:0:
58,241,31271,2,0,B|137:207|137:207|239:243,1,168,2|0,0:0|0:0,0:0:0:0:
141,296,31794,1,2,0:0:0:0:
390,361,32143,6,0,L|393:288,1,62.9999980773926,8|0,0:0|0:0,0:0:0:0:
395,218,32492,1,0,0:0:0:0:
308,341,32666,2,0,B|316:224|316:224|259:293,1,168,2|0,0:0|0:0,0:0:0:0:
228,329,33189,1,2,0:0:0:0:
257,167,33364,1,2,0:0:0:0:
37,221,33538,6,0,L|108:221,2,62.9999980773926,8|0|0,0:0|0:0|0:0,0:0:0:0:
152,301,34061,2,0,B|186:224|186:224|157:132,1,168,2|0,0:0|0:0,0:0:0:0:
100,221,34585,1,10,0:0:0:0:
258,26,34934,6,0,L|258:111,1,62.9999980773926,8|0,0:0|0:0,0:0:0:0:
257,167,35282,1,0,0:0:0:0:
414,90,35457,2,0,P|375:72|311:73,1,84,2|0,0:0|0:0,0:0:0:0:
176,78,35806,1,8,0:0:0:0:
160,84,35893,1,8,0:0:0:0:
144,90,35980,1,8,0:0:0:0:
257,167,36154,1,0,0:0:0:0:
54,132,36329,6,0,P|43:100|48:56,2,62.9999980773926,8|0|0,0:0|0:0|0:0,0:0:0:0:
186,248,36852,2,0,B|147:216|146:172|146:172|129:217|76:229,1,168,2|0,0:0|0:0,0:0:0:0:
121,299,37375,1,10,0:0:0:0:
377,305,37724,6,0,P|389:270|380:227,1,62.9999980773926,8|0,0:0|0:0,0:0:0:0:
366,163,38073,1,0,0:0:0:0:
275,299,38248,2,0,B|267:243|279:182|279:182|286:218|321:239,1,168,2|0,0:0|0:0,0:0:0:0:
366,163,38771,1,2,0:0:0:0:
186,248,38945,1,2,0:0:0:0:
422,104,39120,6,0,P|361:80|305:104,1,126,2|0,0:0|0:0,0:0:0:0:
289,120,39468,2,0,P|228:144|172:120,1,126,8|0,0:0|0:0,0:0:0:0:
121,63,39817,6,0,B|79:91|79:91|56:181,1,126,2|0,0:0|0:0,0:0:0:0:
100,247,40166,2,0,B|139:219|139:219|163:128,1,126,8|0,0:0|0:0,0:0:0:0:
231,62,40515,5,2,0:0:0:0:
273,286,40864,2,0,L|263:234,1,52.5
231,62,41387,1,0,0:0:0:0:
304,104,41561,5,0,0:0:0:0:
174,121,41736,1,0,0:0:0:0:
434,87,41910,6,0,B|440:142|440:142|418:188|418:188|435:282,1,188.999994232178,8|0,0:0|0:0,0:0:0:0:
512,284,42259,6,0,L|495:194,1,84,2|0,0:0|0:0,0:0:0:0:
432,269,42521,2,0,B|376:295|376:295|284:289,1,125.999996154785,8|0,0:0|0:0,0:0:0:0:
311,290,42782,1,2,0:0:0:0:
174,121,42957,2,0,B|154:185|195:253|195:253|232:226|214:179,1,204.749990627289,8|0,0:0|0:0,0:0:0:0:
237,68,43306,6,0,P|181:40|124:58,1,115.50000352478,2|0,0:0|0:0,0:0:0:0:
0,110,43654,2,0,P|3:148|22:179,1,57.7500017623902,2|0,0:0|0:0,0:0:0:0:
77,276,43829,2,0,P|113:286|149:278,1,57.7500017623902
166,162,44003,2,0,P|128:165|97:184,1,57.7500017623902,2|0,0:0|0:0,0:0:0:0:
11,238,44178,2,0,P|0:274|8:310,1,57.7500017623902,2|0,0:0|0:0,0:0:0:0:
162,365,44352,2,0,P|213:307|198:236,1,136.499993751526,8|0,0:0|0:0,0:0:0:0:
377,367,44701,6,0,B|303:326|341:249|341:249|384:262|381:308,1,188.999994232178,8|0,0:0|0:0,0:0:0:0:
429,213,45050,6,0,P|394:186|354:171,1,84,2|0,0:0|0:0,0:0:0:0:
377,279,45311,2,0,B|435:302|435:302|521:266,1,125.999996154785,8|0,0:0|0:0,0:0:0:0:
493,277,45573,1,2,0:0:0:0:
274,209,45748,5,0,0:0:0:0:
271,176,45835,1,0,0:0:0:0:
289,150,45922,1,0,0:0:0:0:
295,118,46009,1,0,0:0:0:0:
321,93,46096,6,0,P|252:112|188:88,1,125.999996154785,4|0,0:0|0:0,0:0:0:0:
67,43,46445,2,0,B|55:86|55:86|71:158,1,84,8|0,0:0|0:0,0:0:0:0:
123,186,46707,2,0,B|136:234|110:286|110:286|56:255|44:205,1,204.749990627289,8|0,0:0|0:0,0:0:0:0:
108,364,47143,2,0,L|183:344,1,52.5,2|0,0:0|0:0,0:0:0:0:
334,349,47317,2,0,L|384:362,1,52.5,2|0,0:0|0:0,0:0:0:0:
247,352,47492,6,0,B|247:303|247:303|271:260|271:260|271:147,1,188.999994232178,8|0,0:0|0:0,0:0:0:0:
196,153,47841,6,0,L|197:254,1,84,2|0,0:0|0:0,0:0:0:0:
271,168,48102,2,0,B|334:156|334:156|401:173,1,125.999996154785,8|0,0:0|0:0,0:0:0:0:
393,171,48364,1,2,0:0:0:0:
201,68,48538,2,0,B|141:64|116:122|116:122|137:64|101:24,1,204.749990627289,8|0,0:0|0:0,0:0:0:0:
26,111,48887,6,0,P|47:185|87:212,1,105,2|0,0:0|0:0,0:0:0:0:
246,351,49236,2,0,L|130:369,1,115.50000352478,8|0,0:0|0:0,0:0:0:0:
195,275,49498,2,0,B|251:267|251:267|310:287,1,115.50000352478,2|0,0:0|0:0,0:0:0:0:
398,358,49759,2,0,L|397:293,1,52.5
395,226,49934,2,0,L|394:161,1,52.5,2|0,0:0|0:0,0:0:0:0:
392,94,50108,2,0,L|391:29,1,52.5,2|0,0:0|0:0,0:0:0:0:
137,177,50282,6,0,B|192:202|192:202|261:186,1,125.999996154785,2|0,0:0|0:0,0:0:0:0:
282,178,50544,1,0,0:0:0:0:
306,171,50631,1,0,0:0:0:0:
202,106,50806,2,0,L|202:47,2,52.5,2|0|0,0:0|0:0|0:0,0:0:0:0:
90,246,51154,5,2,0:0:0:0:
63,218,51242,1,0,0:0:0:0:
53,181,51329,1,0,0:0:0:0:
56,143,51416,1,0,0:0:0:0:
78,112,51503,1,2,0:0:0:0:
30,317,51678,6,0,B|93:336|93:336|163:311,1,125.999996154785,2|0,0:0|0:0,0:0:0:0:
172,304,51939,1,0,0:0:0:0:
195,293,52027,1,0,0:0:0:0:
373,361,52201,2,0,B|384:296|370:242|370:242|331:266|325:308,1,188.999994232178,2|0,0:0|0:0,0:0:0:0:
262,356,52550,1,0,0:0:0:0:
262,151,52724,2,0,B|249:197|262:244|262:244|275:210|307:182,1,157.5,8|0,0:0|0:0,0:0:0:0:
318,88,53073,6,0,B|263:70|263:70|224:80|224:80|186:69|186:69|117:87,1,188.999994232178,8|0,0:0|0:0,0:0:0:0:
92,170,53422,6,0,L|175:149,1,84,2|0,0:0|0:0,0:0:0:0:
136,81,53684,2,0,L|121:19,2,62.9999980773926,8|0|0,0:0|0:0|0:0,0:0:0:0:
165,193,53945,1,2,0:0:0:0:
12,139,54120,2,0,B|-5:189|24:229|24:229|55:274|26:344,1,188.999994232178,8|0,0:0|0:0,0:0:0:0:
123,293,54468,6,0,P|181:300|237:271,1,115.50000352478,2|0,0:0|0:0,0:0:0:0:
371,379,54817,2,0,L|370:289,1,57.7500017623902,2|0,0:0|0:0,0:0:0:0:
370,192,54992,2,0,L|369:102,1,57.7500017623902
488,183,55166,2,0,P|464:211|424:221,1,57.7500017623902,2|0,0:0|0:0,0:0:0:0:
295,217,55341,2,0,P|262:198|246:160,1,57.7500017623902,2|0,0:0|0:0,0:0:0:0:
303,46,55515,2,0,P|368:26|450:55,1,136.499993751526,4|0,0:0|0:0,0:0:0:0:
209,46,55864,6,0,B|146:4|77:51|77:51|103:74|133:58,1,188.999994232178,8|0,0:0|0:0,0:0:0:0:
171,129,56213,6,0,P|176:176|147:228,1,84,2|0,0:0|0:0,0:0:0:0:
82,159,56474,2,0,P|48:150|24:136,2,62.9999980773926,8|0|0,0:0|0:0|0:0,0:0:0:0:
198,201,56736,1,2,0:0:0:0:
31,335,56910,5,0,0:0:0:0:
60,322,56998,1,0,0:0:0:0:
93,336,57085,1,0,0:0:0:0:
121,322,57172,1,0,0:0:0:0:
153,335,57259,2,0,L|286:337,1,125.999996154785,4|0,0:0|0:0,0:0:0:0:
433,376,57608,6,0,B|439:331|439:331|420:273,1,84,8|0,0:0|0:0,0:0:0:0:
338,259,57870,2,0,B|309:213|316:166|334:138|334:138|367:159|368:192|350:217,1,204.749990627289,8|0,0:0|0:0,0:0:0:0:
375,58,58306,2,0,L|282:39,1,57.7500017623902,2|0,0:0|0:0,0:0:0:0:
160,47,58480,2,0,L|103:58,1,57.7500017623902,2|0,0:0|0:0,0:0:0:0:
240,80,58654,6,0,B|250:139|250:139|239:173|239:173|246:216|246:216|233:286,1,188.999994232178,8|0,0:0|0:0,0:0:0:0:
146,302,59003,6,0,L|168:207,1,84,2|0,0:0|0:0,0:0:0:0:
236,265,59265,2,0,L|302:279,2,62.9999980773926,8|0|0,0:0|0:0|0:0,0:0:0:0:
122,235,59527,1,2,0:0:0:0:
303,359,59701,2,0,B|360:352|376:297|376:297|390:351|459:364,1,204.749990627289,4|0,0:0|0:0,0:0:0:0:
449,249,60050,6,0,P|420:222|345:213,1,105,2|0,0:0|0:0,0:0:0:0:
182,52,60399,2,0,L|305:37,1,115.50000352478,8|0,0:0|0:0,0:0:0:0:
228,128,60660,2,0,B|170:135|170:135|81:106,1,115.50000352478,2|0,0:0|0:0,0:0:0:0:
34,27,60922,2,0,L|34:88,1,52.5
33,163,61096,2,0,L|33:224,1,52.5,2|0,0:0|0:0,0:0:0:0:
32,300,61271,2,0,L|32:361,1,52.5,2|0,0:0|0:0,0:0:0:0:
150,226,61445,6,0,B|217:218|217:218|279:248,1,125.999996154785,2|0,0:0|0:0,0:0:0:0:
291,256,61707,1,0,0:0:0:0:
313,266,61794,1,0,0:0:0:0:
196,316,61968,2,0,L|183:375,2,52.5,2|0|0,0:0|0:0|0:0,0:0:0:0:
373,197,62317,5,2,0:0:0:0:
395,226,62404,1,0,0:0:0:0:
402,263,62492,1,0,0:0:0:0:
396,300,62579,1,0,0:0:0:0:
375,331,62666,1,2,0:0:0:0:
303,119,62841,6,0,B|362:92|362:92|454:112,1,125.999996154785,2|0,0:0|0:0,0:0:0:0:
209,119,63189,2,0,B|150:92|150:92|58:112,1,125.999996154785,2|0,0:0|0:0,0:0:0:0:
130,340,63538,6,0,L|138:220,1,84,2|0,0:0|0:0,0:0:0:0:
141,176,63829,1,2,0:0:0:0:
313,266,64061,5,2,0:0:0:0:
313,266,64149,1,2,0:0:0:0:
313,266,64236,2,0,P|366:278|441:254,1,105,2|2,0:0|0:0,0:0:0:0:
374,82,64585,5,8,0:0:0:0:
372,107,64672,1,0,0:0:0:0:
369,133,64759,1,0,0:0:0:0:
367,159,64846,1,0,0:0:0:0:
364,185,64934,1,0,0:0:0:0:
221,65,65108,6,0,L|279:72,1,52.5,2|0,0:0|0:0,0:0:0:0:
374,82,65282,1,8,0:0:0:0:
273,172,65457,1,0,0:0:0:0:
146,17,65631,6,0,P|134:76|154:127,1,105,2|0,0:0|0:0,0:0:0:0:
159,135,65893,1,0,0:0:0:0:
174,149,65980,1,8,0:0:0:0:
57,96,66154,1,0,0:0:0:0:
90,259,66329,5,0,0:0:0:0:
107,278,66416,1,0,0:0:0:0:
130,290,66503,1,2,0:0:0:0:
155,296,66591,1,0,0:0:0:0:
181,296,66678,1,8,0:0:0:0:
352,376,66852,5,0,0:0:0:0:
352,376,66939,1,0,0:0:0:0:
352,376,67027,2,0,P|366:309|356:268,1,105,2|2,0:0|0:0,0:0:0:0:
276,103,67375,5,8,0:0:0:0:
299,89,67463,1,0,0:0:0:0:
323,79,67550,1,0,0:0:0:0:
349,79,67637,1,0,0:0:0:0:
374,82,67724,1,0,0:0:0:0:
260,240,67899,6,0,P|274:209|275:168,1,52.5,2|0,0:0|0:0,0:0:0:0:
276,103,68073,1,8,0:0:0:0:
378,178,68248,1,0,0:0:0:0:
193,151,68422,6,0,P|138:137|78:156,1,105,2|0,0:0|0:0,0:0:0:0:
74,159,68684,1,0,0:0:0:0:
57,172,68771,1,8,0:0:0:0:
142,48,68945,1,0,0:0:0:0:
138,227,69120,5,0,0:0:0:0:
136,253,69207,1,0,0:0:0:0:
135,279,69294,1,2,0:0:0:0:
133,305,69381,1,0,0:0:0:0:
131,331,69468,1,8,0:0:0:0:
330,378,69643,5,0,0:0:0:0:
330,378,69730,1,0,0:0:0:0:
330,378,69817,2,0,P|315:319|331:269,1,105,2|2,0:0|0:0,0:0:0:0:
509,326,70166,5,8,0:0:0:0:
482,325,70253,1,0,0:0:0:0:
455,325,70341,1,0,0:0:0:0:
428,325,70428,1,0,0:0:0:0:
401,326,70515,1,0,0:0:0:0:
508,188,70689,6,0,L|508:256,1,52.5,2|0,0:0|0:0,0:0:0:0:
509,326,70864,1,8,0:0:0:0:
396,108,71038,2,0,L|396:176,1,52.5
397,246,71213,1,2,0:0:0:0:
284,28,71387,2,0,L|284:96,1,52.5
285,166,71561,1,8,0:0:0:0:
182,81,71736,1,0,0:0:0:0:
37,159,71910,5,0,0:0:0:0:
63,154,71998,1,0,0:0:0:0:
89,157,72085,1,2,0:0:0:0:
112,167,72172,1,0,0:0:0:0:
131,184,72259,1,8,0:0:0:0:
190,364,72434,5,0,0:0:0:0:
190,364,72521,1,0,0:0:0:0:
190,364,72608,2,0,P|242:376|309:355,1,105,2|0,0:0|0:0,0:0:0:0:
401,197,72957,5,8,0:0:0:0:
379,181,73044,1,0,0:0:0:0:
354,171,73131,1,0,0:0:0:0:
327,168,73218,1,0,0:0:0:0:
300,170,73306,1,0,0:0:0:0:
413,329,73480,6,0,P|399:298|398:266,1,52.5,2|0,0:0|0:0,0:0:0:0:
401,197,73654,1,8,0:0:0:0:
231,213,73829,2,0,P|217:162|237:114,1,105,0|2,0:0|0:0,0:0:0:0:
413,65,74178,2,0,P|399:96|398:128,1,52.5
401,197,74352,1,8,0:0:0:0:
484,111,74527,1,0,0:0:0:0:
293,53,74701,5,0,0:0:0:0:
270,39,74788,1,0,0:0:0:0:
244,33,74875,1,2,0:0:0:0:
217,36,74963,1,0,0:0:0:0:
194,48,75050,1,8,0:0:0:0:
37,157,75224,5,0,0:0:0:0:
37,157,75311,1,0,0:0:0:0:
37,157,75399,2,0,B|0:211|42:281,1,105,2|2,0:0|0:0,0:0:0:0:
100,354,75748,2,0,P|110:326|110:285,1,52.5,8|0,0:0|0:0,0:0:0:0:
107,212,75922,1,0,0:0:0:0:
207,314,76096,5,0,0:0:0:0:
235,328,76184,1,0,0:0:0:0:
266,331,76271,1,2,0:0:0:0:
296,323,76358,1,0,0:0:0:0:
322,306,76445,1,8,0:0:0:0:
433,376,76620,1,0,0:0:0:0:
260,241,76794,6,0,B|259:184|259:184|277:133,1,105,2|0,0:0|0:0,0:0:0:0:
370,68,77143,2,0,L|352:128,1,52.5,8|0,0:0|0:0,0:0:0:0:
336,197,77317,1,0,0:0:0:0:
217,46,77492,5,0,0:0:0:0:
187,35,77579,1,0,0:0:0:0:
155,30,77666,1,2,0:0:0:0:
123,35,77753,1,0,0:0:0:0:
93,47,77841,6,0,L|86:107,1,52.5,8|0,0:0|0:0,0:0:0:0:
69,255,78015,2,0,L|62:315,1,52.5
25,183,78189,6,0,B|85:149|153:211,1,105,2|2,0:0|0:0,0:0:0:0:
203,264,78538,2,0,P|175:275|140:272,1,52.5,8|0,0:0|0:0,0:0:0:0:
69,255,78713,1,0,0:0:0:0:
266,203,78887,5,0,0:0:0:0:
282,229,78974,1,0,0:0:0:0:
289,259,79061,1,2,0:0:0:0:
285,290,79149,1,0,0:0:0:0:
272,318,79236,1,8,0:0:0:0:
368,220,79410,1,0,0:0:0:0:
170,62,79585,6,0,B|219:42|219:42|288:43,1,105,2|0,0:0|0:0,0:0:0:0:
373,119,79934,2,0,L|305:117,1,52.5,8|0,0:0|0:0,0:0:0:0:
236,118,80108,1,0,0:0:0:0:
394,24,80282,5,0,0:0:0:0:
424,33,80370,1,0,0:0:0:0:
449,51,80457,1,2,0:0:0:0:
464,78,80544,1,0,0:0:0:0:
471,108,80631,6,0,L|466:171,1,52.5,8|0,0:0|0:0,0:0:0:0:
456,315,80806,2,0,L|451:378,1,52.5
512,255,80980,6,0,B|461:207|386:258,1,105,2|2,0:0|0:0,0:0:0:0:
320,293,81329,2,0,P|342:310|379:316,1,52.5,8|0,0:0|0:0,0:0:0:0:
456,315,81503,1,0,0:0:0:0:
274,207,81678,5,0,0:0:0:0:
245,194,81765,1,0,0:0:0:0:
213,191,81852,1,2,0:0:0:0:
182,197,81939,1,0,0:0:0:0:
155,214,82027,6,0,L|139:276,1,52.5,8|0,0:0|0:0,0:0:0:0:
120,343,82201,1,0,0:0:0:0:
1,108,82375,2,0,L|17:170,1,52.5,2|0,0:0|0:0,0:0:0:0:
36,237,82549,1,0,0:0:0:0:
155,2,82724,2,0,L|139:64,1,52.5,8|0,0:0|0:0,0:0:0:0:
120,131,82898,1,0,0:0:0:0:
270,38,83073,5,0,0:0:0:0:
299,27,83160,1,0,0:0:0:0:
330,23,83248,1,2,0:0:0:0:
361,25,83335,1,0,0:0:0:0:
389,37,83422,6,0,L|389:104,1,52.5,8|0,0:0|0:0,0:0:0:0:
391,245,83596,2,0,L|391:312,1,52.5
443,182,83771,6,0,B|388:141|328:191,1,105,2|2,0:0|0:0,0:0:0:0:
256,242,84120,2,0,P|285:254|319:253,1,52.5,8|0,0:0|0:0,0:0:0:0:
391,245,84294,1,0,0:0:0:0:
221,145,84468,5,0,0:0:0:0:
193,129,84556,1,0,0:0:0:0:
162,123,84643,1,2,0:0:0:0:
132,126,84730,1,0,0:0:0:0:
104,139,84817,1,8,0:0:0:0:
26,39,84992,1,0,0:0:0:0:
161,222,85166,6,0,B|162:282|162:282|135:341,1,105,2|0,0:0|0:0,0:0:0:0:
19,382,85515,2,0,L|52:313,1,52.5,8|0,0:0|0:0,0:0:0:0:
77,258,85689,1,0,0:0:0:0:
217,354,85864,1,0,0:0:0:0:
243,370,85951,1,0,0:0:0:0:
273,376,86038,1,2,0:0:0:0:
304,375,86125,1,0,0:0:0:0:
333,362,86213,6,0,L|341:297,1,52.5,8|0,0:0|0:0,0:0:0:0:
359,154,86387,2,0,L|367:89,1,52.5
297,237,86561,6,0,B|350:229|350:229|394:250|394:250|481:233,1,168,4|0,0:0|0:0,0:0:0:0:
280,38,87259,2,0,B|268:149|268:149|260:113|221:79,1,168,4|0,0:0|0:0,0:0:0:0:
75,121,87957,6,0,B|154:116|184:161|184:161|132:176|113:146,1,188.999994232178,2|0,0:0|0:0,0:0:0:0:
26,207,88306,6,0,L|33:263,1,52.5
156,346,88480,2,0,L|162:293,1,52.5
283,200,88654,2,0,B|289:272,1,62.9999980773926
424,348,88829,2,0,B|429:285,1,62.9999980773926
441,134,89003,2,0,B|452:48|452:48|409:93,1,125.999996154785,8|0,0:0|0:0,0:0:0:0:
208,233,89352,6,0,B|204:167|204:167|231:132|231:132|224:38,1,188.999994232178,8|0,0:0|0:0,0:0:0:0:
143,21,89701,6,0,L|154:136,1,84,2|0,0:0|0:0,0:0:0:0:
225,53,89963,2,0,B|286:32|286:32|351:48,1,125.999996154785,8|0,0:0|0:0,0:0:0:0:
345,46,90224,1,2,0:0:0:0:
505,199,90399,5,0,0:0:0:0:
478,217,90486,1,0,0:0:0:0:
447,211,90573,1,0,0:0:0:0:
415,225,90660,1,0,0:0:0:0:
386,211,90748,6,0,P|395:288|446:332,1,125.999996154785,4|0,0:0|0:0,0:0:0:0:
285,266,91096,2,0,B|240:253|240:253|173:268,1,84,8|0,0:0|0:0,0:0:0:0:
159,332,91358,2,0,B|125:358|78:361|30:336|30:336|52:307|97:309|111:335,1,204.749990627289,8|0,0:0|0:0,0:0:0:0:
10,228,91794,2,0,L|26:166,1,57.7500017623902,2|0,0:0|0:0,0:0:0:0:
231,126,91968,2,0,L|245:181,1,57.7500017623902,2|0,0:0|0:0,0:0:0:0:
123,227,92143,6,0,B|122:170|122:170|148:125|148:125|147:25,1,188.999994232178,8|0,0:0|0:0,0:0:0:0:
65,18,92492,6,0,L|66:108,1,84,2|0,0:0|0:0,0:0:0:0:
147,44,92753,2,0,B|209:30|209:30|272:46,1,125.999996154785,8|0,0:0|0:0,0:0:0:0:
269,45,93015,1,2,0:0:0:0:
467,138,93189,2,0,B|492:109|460:75|460:75|418:101|414:165|449:215,1,204.749990627289,8|0,0:0|0:0,0:0:0:0:
482,297,93538,6,0,P|414:303|359:275,1,105,4|0,0:0|0:0,0:0:0:0:
142,289,93887,2,0,L|261:270,1,115.50000352478,8|0,0:0|0:0,0:0:0:0:
193,363,94149,2,0,B|136:371|136:371|71:353,1,115.50000352478,2|0,0:0|0:0,0:0:0:0:
0,326,94410,2,0,L|0:257,1,52.5
0,189,94585,2,0,L|0:120,1,52.5,2|0,0:0|0:0,0:0:0:0:
0,54,94759,2,0,L|0:-15,1,52.5,2|0,0:0|0:0,0:0:0:0:
186,173,94934,6,0,B|252:190|252:190|319:174,1,125.999996154785,2|0,0:0|0:0,0:0:0:0:
331,166,95195,1,0,0:0:0:0:
354,156,95282,1,0,0:0:0:0:
253,93,95457,2,0,L|253:32,2,52.5,2|0|0,0:0|0:0|0:0,0:0:0:0:
139,245,95806,5,2,0:0:0:0:
113,216,95893,1,0,0:0:0:0:
103,178,95980,1,0,0:0:0:0:
110,141,96067,1,0,0:0:0:0:
131,109,96154,1,2,0:0:0:0:
78,319,96329,6,0,B|139:336|139:336|212:315,1,125.999996154785,2|0,0:0|0:0,0:0:0:0:
222,307,96591,1,0,0:0:0:0:
245,299,96678,1,0,0:0:0:0:
425,344,96852,2,0,B|452:316|463:268|446:233|446:233|411:242|399:275|412:306,1,188.999994232178,2|0,0:0|0:0,0:0:0:0:
332,344,97201,1,0,0:0:0:0:
261,209,97375,2,0,B|306:218|324:255|324:255|332:209|365:181,1,157.5,8|0,0:0|0:0,0:0:0:0:
312,115,97724,6,0,B|257:97|257:97|218:107|218:107|180:96|180:96|111:114,1,188.999994232178,8|0,0:0|0:0,0:0:0:0:
89,208,98073,6,0,L|183:183,1,84,2|0,0:0|0:0,0:0:0:0:
130,108,98335,2,0,L|111:47,2,62.9999980773926,8|0|0,0:0|0:0|0:0,0:0:0:0:
166,219,98596,1,2,0:0:0:0:
4,160,98771,2,0,B|0:229|0:229|36:301,1,136.499993751526,4|0,0:0|0:0,0:0:0:0:
124,341,99032,5,2,0:0:0:0:
124,341,99120,2,0,L|175:333,1,52.5
244,233,99294,2,0,L|295:240,1,52.5,2|0,0:0|0:0,0:0:0:0:
415,348,99468,2,0,B|445:289|445:289|441:208,1,125.999996154785,8|0,0:0|0:0,0:0:0:0:
370,135,99730,5,2,0:0:0:0:
370,135,99817,2,0,L|367:187,1,52.5
504,124,99992,2,0,L|496:71,1,52.5,2|0,0:0|0:0,0:0:0:0:
363,45,100166,2,0,P|299:25|237:51,1,136.499993751526,4|0,0:0|0:0,0:0:0:0:
14,45,100515,6,0,B|79:9|138:49|138:49|129:70|100:80|68:61,1,188.999994232178,8|0,0:0|0:0,0:0:0:0:
26,128,100864,6,0,P|32:173|58:209,1,84,2|0,0:0|0:0,0:0:0:0:
131,153,101125,2,0,P|168:140|196:113,2,62.9999980773926,8|0|0,0:0|0:0|0:0,0:0:0:0:
8,205,101387,1,2,0:0:0:0:
240,239,101561,2,0,B|302:223|302:223|380:244,1,125.999996154785,4|0,0:0|0:0,0:0:0:0:
392,330,101823,5,2,0:0:0:0:
392,330,101910,2,0,L|341:315,1,52.5
326,148,102085,2,0,L|376:162,1,52.5,2|0,0:0|0:0,0:0:0:0:
483,232,102259,2,0,B|505:174|505:174|493:108,1,125.999996154785,8|0,0:0|0:0,0:0:0:0:
424,15,102521,5,2,0:0:0:0:
424,15,102608,2,0,L|373:29,1,52.5
326,148,102782,2,0,L|275:133,1,52.5,2|0,0:0|0:0,0:0:0:0:
399,170,102957,2,0,L|376:227,1,57.7500017623902,2|0,0:0|0:0,0:0:0:0:
183,166,103131,2,0,L|204:112,1,57.7500017623902,2|0,0:0|0:0,0:0:0:0:
240,239,103306,6,0,B|183:254|183:254|144:244|144:244|108:256|108:256|28:242,1,188.999994232178,8|0,0:0|0:0,0:0:0:0:
8,161,103654,6,0,L|94:177,1,84,2|0,0:0|0:0,0:0:0:0:
56,247,103916,2,0,L|42:309,2,62.9999980773926,8|0|0,0:0|0:0|0:0,0:0:0:0:
78,134,104178,1,2,0:0:0:0:
316,17,104352,2,0,B|343:54|349:112|326:148|326:148|299:129|289:95|300:63,1,204.749990627289,8|0,0:0|0:0,0:0:0:0:
421,109,104701,6,0,P|405:175|358:231,1,105,2|0,0:0|0:0,0:0:0:0:
208,346,105050,2,0,L|324:350,1,115.50000352478,8|0,0:0|0:0,0:0:0:0:
247,266,105311,2,0,B|191:263|191:263|125:297,1,115.50000352478,2|0,0:0|0:0,0:0:0:0:
66,373,105573,2,0,L|66:295,1,52.5
66,235,105748,2,0,L|66:157,1,52.5,2|0,0:0|0:0,0:0:0:0:
66,98,105922,2,0,L|66:20,1,52.5,2|0,0:0|0:0,0:0:0:0:
180,186,106096,6,0,B|246:189|246:189|318:158,1,125.999996154785,2|0,0:0|0:0,0:0:0:0:
323,153,106358,1,0,0:0:0:0:
345,141,106445,1,0,0:0:0:0:
229,100,106620,2,0,L|217:41,2,52.5,2|0|0,0:0|0:0|0:0,0:0:0:0:
422,194,106968,5,2,0:0:0:0:
437,164,107056,1,0,0:0:0:0:
442,132,107143,1,0,0:0:0:0:
432,102,107230,1,0,0:0:0:0:
414,75,107317,1,2,0:0:0:0:
360,273,107492,6,0,B|424:287|424:287|485:268,1,125.999996154785,2|0,0:0|0:0,0:0:0:0:
213,273,107841,2,0,B|149:287|149:287|88:268,1,125.999996154785,2|0,0:0|0:0,0:0:0:0:
158,41,108189,6,0,L|155:156,1,84,2|0,0:0|0:0,0:0:0:0:
153,207,108480,1,2,0:0:0:0:
314,136,108713,6,0,L|366:139,2,42,2|0|4,0:0|0:0|0:0,0:0:0:0:
158,41,109236,5,2,0:0:0:0:
155,124,109585,1,0,0:0:0:0:
153,207,109934,1,2,0:0:0:0:
355,138,110631,5,2,0:0:0:0:
358,221,110980,1,0,0:0:0:0:
360,304,111329,1,2,0:0:0:0:
151,290,112027,5,2,0:0:0:0:
153,207,112376,1,0,0:0:0:0:
156,124,112724,1,2,0:0:0:0:
358,221,113422,5,2,0:0:0:0:
356,138,113771,1,0,0:0:0:0:
353,55,114120,1,2,0:0:0:0:
308,303,114817,6,0,P|368:316|427:288,2,125.999996154785,2|0|2,0:0|0:0|0:0,0:0:0:0:
206,46,116213,2,0,P|145:33|89:58,2,125.999996154785,2|0|2,0:0|0:0|0:0,0:0:0:0:
152,249,117608,6,0,L|156:122,2,125.999996154785,2|0|2,0:0|0:0|0:0,0:0:0:0:
354,95,119003,2,0,L|357:220,2,125.999996154785,2|0|2,0:0|0:0|0:0,0:0:0:0:
89,249,120050,6,0,L|152:249,2,62.9999980773926,8|0|0,0:0|0:0|0:0,0:0:0:0:
21,310,120573,2,0,P|-1:256|32:176,1,125.999996154785,2|0,0:0|0:0,0:0:0:0:
89,249,121096,1,2,0:0:0:0:
286,97,121445,6,0,L|286:27,2,62.9999980773926,8|0|0,0:0|0:0|0:0,0:0:0:0:
210,159,121968,2,0,L|210:29,1,125.999996154785,2|0,0:0|0:0,0:0:0:0:
286,97,122492,1,2,0:0:0:0:
168,66,122666,1,2,0:0:0:0:
351,248,122841,6,0,L|351:314,2,62.9999980773926,8|0|0,0:0|0:0|0:0,0:0:0:0:
406,184,123364,2,0,P|348:164|291:187,1,125.999996154785,2|0,0:0|0:0,0:0:0:0:
351,248,123886,1,2,0:0:0:0:
144,336,124236,6,0,L|74:336,2,62.9999980773926,8|0|0,0:0|0:0|0:0,0:0:0:0:
205,260,124759,2,0,L|62:260,1,125.999996154785,2|0,0:0|0:0,0:0:0:0:
144,336,125281,1,2,0:0:0:0:
105,223,125456,1,2,0:0:0:0:
290,124,125631,6,0,L|290:193,2,62.9999980773926,8|0|0,0:0|0:0|0:0,0:0:0:0:
229,67,126154,2,0,P|286:42|347:66,1,125.999996154785,2|0,0:0|0:0,0:0:0:0:
394,124,126678,1,2,0:0:0:0:
489,332,127027,6,0,L|426:332,1,62.9999980773926,8|0,0:0|0:0,0:0:0:0:
347,333,127375,1,0,0:0:0:0:
445,258,127550,2,0,L|307:258,1,125.999996154785,2|0,0:0|0:0,0:0:0:0:
239,257,128073,1,2,0:0:0:0:
347,184,128248,1,2,0:0:0:0:
157,89,128422,6,0,L|157:24,2,62.9999980773926,8|0|0,0:0|0:0|0:0,0:0:0:0:
98,153,128945,2,0,P|137:172|218:147,1,125.999996154785,2|0,0:0|0:0,0:0:0:0:
255,84,129468,1,2,0:0:0:0:
350,325,129817,6,0,L|350:258,1,62.9999980773926,8|0,0:0|0:0,0:0:0:0:
347,184,130166,1,0,0:0:0:0:
427,287,130341,2,0,L|427:144,1,125.999996154785,2|0,0:0|0:0,0:0:0:0:
425,83,130864,1,2,0:0:0:0:
347,184,131038,1,2,0:0:0:0:
280,58,131213,5,2,0:0:0:0:
214,156,131387,2,0,L|210:197,1,42
133,239,131561,2,0,L|133:196,1,42
52,158,131736,2,0,L|55:199,1,42
93,323,131910,5,8,0:0:0:0:
112,330,131998,1,0,0:0:0:0:
132,331,132085,1,0,0:0:0:0:
152,329,132172,1,0,0:0:0:0:
172,322,132259,1,0,0:0:0:0:
268,378,132434,1,0,0:0:0:0:
294,246,132608,5,2,0:0:0:0:
453,307,132782,2,0,L|411:303,1,42
381,227,132957,2,0,L|424:227,1,42
455,149,133131,2,0,L|413:152,1,42
308,160,133306,5,8,0:0:0:0:
286,161,133393,1,0,0:0:0:0:
265,163,133480,1,0,0:0:0:0:
244,165,133567,1,0,0:0:0:0:
223,168,133654,1,0,0:0:0:0:
255,63,133829,1,0,0:0:0:0:
77,101,134003,5,2,0:0:0:0:
0,185,134178,2,0,L|4:240,1,42
74,273,134352,2,0,L|74:231,1,42
149,183,134527,2,0,L|145:224,1,42
117,354,134701,5,8,0:0:0:0:
96,360,134788,1,0,0:0:0:0:
75,362,134875,1,0,0:0:0:0:
53,362,134963,1,0,0:0:0:0:
32,358,135050,1,0,0:0:0:0:
74,273,135224,1,0,0:0:0:0:
228,293,135399,5,2,0:0:0:0:
335,380,135573,2,0,L|339:328,1,42
347,255,135748,1,2,0:0:0:0:
463,314,135922,2,0,L|458:262,1,42
452,183,136096,5,8,0:0:0:0:
449,161,136184,1,0,0:0:0:0:
446,140,136271,1,0,0:0:0:0:
443,119,136358,1,0,0:0:0:0:
440,98,136445,1,2,0:0:0:0:
369,169,136620,1,0,0:0:0:0:
244,84,136794,5,2,0:0:0:0:
127,157,136968,2,0,L|131:207,1,42
207,238,137143,2,0,L|207:196,1,42
286,157,137317,2,0,L|282:198,1,42
248,320,137492,5,8,0:0:0:0:
227,327,137579,1,0,0:0:0:0:
205,330,137666,1,0,0:0:0:0:
184,328,137753,1,0,0:0:0:0:
164,320,137841,1,0,0:0:0:0:
69,382,138015,1,0,0:0:0:0:
0,192,138189,5,2,0:0:0:0:
64,92,138364,2,0,L|105:88,1,42
147,165,138538,2,0,L|105:165,1,42
69,240,138713,2,0,L|110:243,1,42
210,254,138887,5,8,0:0:0:0:
230,256,138974,1,0,0:0:0:0:
250,257,139061,1,0,0:0:0:0:
271,258,139149,1,0,0:0:0:0:
291,260,139236,1,0,0:0:0:0:
395,301,139410,1,0,0:0:0:0:
385,103,139585,5,2,0:0:0:0:
281,174,139759,2,0,L|277:132,1,42
197,96,139934,2,0,L|197:138,1,42
116,178,140108,2,0,L|119:136,1,42
166,18,140282,5,8,0:0:0:0:
186,12,140370,1,0,0:0:0:0:
206,13,140457,1,0,0:0:0:0:
226,17,140544,1,0,0:0:0:0:
244,23,140631,1,0,0:0:0:0:
197,96,140806,1,0,0:0:0:0:
345,20,140980,5,2,0:0:0:0:
431,89,141154,2,0,L|437:159,1,42
442,206,141329,1,2,0:0:0:0:
317,134,141503,2,0,L|310:204,1,42
306,256,141678,5,8,0:0:0:0:
305,276,141765,1,0,0:0:0:0:
303,296,141852,1,0,0:0:0:0:
301,316,141939,1,0,0:0:0:0:
299,337,142027,1,2,0:0:0:0:
386,305,142201,1,0,0:0:0:0:
241,206,142375,5,2,0:0:0:0:
213,189,142463,1,0,0:0:0:0:
183,179,142550,1,0,0:0:0:0:
151,181,142637,1,0,0:0:0:0:
124,197,142724,1,0,0:0:0:0:
97,213,142811,1,0,0:0:0:0:
65,215,142898,1,0,0:0:0:0:
35,205,142985,1,0,0:0:0:0:
10,184,143073,6,0,L|4:124,3,52.5,8|0|0|0,0:0|0:0|0:0|0:0,0:0:0:0:
111,55,143422,2,0,L|106:107,3,52.5
97,213,143771,1,2,0:0:0:0:
44,331,143945,5,0,0:0:0:0:
67,342,144032,1,0,0:0:0:0:
93,345,144120,1,0,0:0:0:0:
119,342,144207,1,0,0:0:0:0:
143,333,144294,1,0,0:0:0:0:
303,384,144468,5,8,0:0:0:0:
395,309,144643,1,0,0:0:0:0:
396,277,144730,1,0,0:0:0:0:
398,245,144817,1,0,0:0:0:0:
361,215,144904,1,0,0:0:0:0:
358,179,144991,1,0,0:0:0:0:
357,143,145078,1,0,0:0:0:0:
356,105,145166,5,2,0:0:0:0:
328,89,145253,1,0,0:0:0:0:
296,84,145341,1,0,0:0:0:0:
264,86,145428,1,0,0:0:0:0:
235,100,145515,1,0,0:0:0:0:
206,114,145602,1,0,0:0:0:0:
174,116,145689,1,0,0:0:0:0:
142,111,145777,1,0,0:0:0:0:
112,99,145864,6,0,L|107:44,3,52.5,8|0|0|0,0:0|0:0|0:0|0:0,0:0:0:0:
24,160,146213,2,0,L|19:212,3,52.5
4,342,146561,1,2,0:0:0:0:
91,247,146736,6,0,L|153:252,1,52.5
223,257,146910,1,2,0:0:0:0:
236,384,147085,1,0,0:0:0:0:
119,338,147259,1,8,0:0:0:0:
282,316,147434,5,0,0:0:0:0:
314,313,147521,1,0,0:0:0:0:
346,310,147608,1,2,0:0:0:0:
377,342,147695,1,0,0:0:0:0:
412,346,147782,1,0,0:0:0:0:
447,349,147869,1,0,0:0:0:0:
478,351,147957,5,2,0:0:0:0:
490,322,148044,1,0,0:0:0:0:
496,291,148131,1,0,0:0:0:0:
488,260,148218,1,0,0:0:0:0:
476,230,148306,1,0,0:0:0:0:
464,200,148393,1,0,0:0:0:0:
456,169,148480,1,0,0:0:0:0:
462,138,148567,1,0,0:0:0:0:
471,107,148654,6,0,L|476:45,3,52.5,8|0|0|0,0:0|0:0|0:0|0:0,0:0:0:0:
348,103,149003,2,0,L|352:155,3,52.5
365,297,149352,1,2,0:0:0:0:
255,230,149527,5,0,0:0:0:0:
230,221,149614,1,0,0:0:0:0:
203,219,149701,1,0,0:0:0:0:
177,222,149788,1,0,0:0:0:0:
153,234,149875,1,0,0:0:0:0:
85,359,150050,1,8,0:0:0:0:
23,238,150224,5,0,0:0:0:0:
25,206,150311,1,0,0:0:0:0:
28,174,150399,1,0,0:0:0:0:
64,149,150486,1,0,0:0:0:0:
59,113,150573,1,0,0:0:0:0:
56,78,150661,1,0,0:0:0:0:
50,43,150748,5,2,0:0:0:0:
76,26,150835,1,0,0:0:0:0:
106,20,150922,1,0,0:0:0:0:
137,24,151009,1,0,0:0:0:0:
165,37,151096,1,0,0:0:0:0:
193,50,151184,1,0,0:0:0:0:
224,54,151271,1,0,0:0:0:0:
254,48,151358,1,0,0:0:0:0:
284,38,151445,6,0,L|288:103,3,52.5,8|0|0|0,0:0|0:0|0:0|0:0,0:0:0:0:
429,183,151794,2,0,L|432:130,3,52.5
440,5,152143,1,2,0:0:0:0:
357,120,152317,6,0,L|350:195,1,52.5
343,256,152492,1,2,0:0:0:0:
255,185,152666,1,0,0:0:0:0:
243,328,152841,1,8,0:0:0:0:
126,224,153015,5,0,0:0:0:0:
127,192,153102,1,0,0:0:0:0:
130,160,153189,1,2,0:0:0:0:
168,138,153277,1,0,0:0:0:0:
166,102,153364,1,0,0:0:0:0:
163,67,153451,1,0,0:0:0:0:
159,30,153538,5,4,0:0:0:0:
122,161,159120,6,0,B|130:201|130:201|157:219|157:219|171:280,1,126,8|0,0:0|0:0,0:0:0:0:
110,347,159468,2,0,L|91:263,2,84,2|0|0,0:0|0:0|0:0,0:0:0:0:
245,272,159992,2,0,B|289:267|289:267|338:289,1,84,8|0,0:0|0:0,0:0:0:0:
400,321,160341,1,2,0:0:0:0:
463,111,161910,6,0,B|423:101|423:101|403:110|403:110|379:100|379:100|327:109,1,126,8|0,0:0|0:0,0:0:0:0:
286,193,162259,6,0,L|369:180,1,84,2|0,0:0|0:0,0:0:0:0:
342,106,162521,2,0,B|250:123|250:123|278:97,1,126
222,3,162957,2,0,L|150:71,1,84,8|0,0:0|0:0,0:0:0:0:
53,93,163306,6,0,B|72:132|72:132|126:166,1,84,2|0,0:0|0:0,0:0:0:0:
53,291,163654,2,0,B|72:252|72:252|126:218,1,84,2|0,0:0|0:0,0:0:0:0:
259,194,164003,2,0,L|166:194,2,84,8|0|0,0:0|0:0|0:0,0:0:0:0:
431,322,164701,6,0,L|431:260,2,62.9999980773926,8|0|0,0:0|0:0|0:0,0:0:0:0:
511,199,165224,2,0,B|429:166|429:166|332:198,1,168,2|0,0:0|0:0,0:0:0:0:
431,260,165748,1,2,0:0:0:0:
180,342,166096,6,0,L|179:279,1,62.9999980773926,8|0,0:0|0:0,0:0:0:0:
180,192,166445,1,0,0:0:0:0:
101,332,166620,2,0,B|104:214|104:214|66:261,1,168,2|0,0:0|0:0,0:0:0:0:
17,317,167143,1,2,0:0:0:0:
0,171,167317,1,2,0:0:0:0:
157,109,167492,6,0,L|235:82,2,62.9999980773926,8|0|0,0:0|0:0|0:0,0:0:0:0:
253,0,168015,2,0,B|298:71|298:71|277:166,1,168,2|0,0:0|0:0,0:0:0:0:
216,88,168538,1,2,0:0:0:0:
371,107,168887,6,0,L|353:195,1,62.9999980773926,8|0,0:0|0:0,0:0:0:0:
338,250,169236,1,0,0:0:0:0:
441,164,169410,2,0,B|415:277|415:277|456:235,1,168,2|0,0:0|0:0,0:0:0:0:
512,193,169934,1,2,0:0:0:0:
469,345,170108,1,2,0:0:0:0:
309,166,170282,5,8,0:0:0:0:
358,333,170457,1,8,0:0:0:0:
234,191,170631,1,8,0:0:0:0:
234,364,170806,1,8,0:0:0:0:
154,191,170980,1,8,0:0:0:0:
154,364,171155,1,8,0:0:0:0:
73,171,171329,1,8,0:0:0:0:
24,338,171504,1,8,0:0:0:0:
195,277,171678,5,8,0:0:0:0:
13,96,171852,2,0,B|61:80|61:80|121:100,1,94.499997116089,8|8,0:0|0:0,0:0:0:0:
232,49,172201,2,0,L|123:10,2,94.499997116089,8|8|8,0:0|0:0|0:0,0:0:0:0:
358,93,172724,1,8,0:0:0:0:
238,190,172899,1,8,0:0:0:0:
418,19,173073,5,8,0:0:0:0:
445,50,173160,1,8,0:0:0:0:
454,91,173248,1,8,0:0:0:0:
445,131,173335,1,8,0:0:0:0:
423,166,173422,1,8,0:0:0:0:
414,206,173509,1,8,0:0:0:0:
423,247,173597,1,8,0:0:0:0:
454,274,173684,1,8,0:0:0:0:
492,257,173771,5,8,0:0:0:0:
492,215,173858,1,8,0:0:0:0:
464,183,173945,1,8,0:0:0:0:
423,166,174032,1,8,0:0:0:0:
384,182,174120,1,8,0:0:0:0:
353,210,174207,1,8,0:0:0:0:
314,226,174295,1,8,0:0:0:0:
273,209,174382,1,8,0:0:0:0:
243,172,174468,6,0,L|240:146,6,15.7499995193482,2|0|0|0|0|0|0,0:0|0:0|0:0|0:0|0:0|0:0|0:0,0:0:0:0:
137,260,174817,2,0,L|135:275,6,15.7499995193482,2|0|0|0|0|0|0,0:0|0:0|0:0|0:0|0:0|0:0|0:0,0:0:0:0:
20,190,175166,6,0,L|16:159,5,28,2|0|0|0|0|0,0:0|0:0|0:0|0:0|0:0|0:0,0:0:0:0:
51,287,175515,2,0,L|42:349,2,42,2|0|0,0:0|0:0|0:0,0:0:0:0:
0,63,175864,6,0,B|53:66|53:66|89:91|89:91|126:69|126:69|212:74,1,188.999994232178,8|0,0:0|0:0,0:0:0:0:
238,153,176213,6,0,L|145:146,1,84,2|0,0:0|0:0,0:0:0:0:
174,71,176474,2,0,B|238:75|238:75|296:55,1,125.999996154785,8|0,0:0|0:0,0:0:0:0:
296,55,176736,1,2,0:0:0:0:
421,170,176910,2,0,L|435:48,1,115.50000352478,4|0,0:0|0:0,0:0:0:0:
510,143,177172,6,0,B|503:207|503:207|457:255,1,115.50000352478,2|0,0:0|0:0,0:0:0:0:
439,260,177434,1,2,0:0:0:0:
238,153,177608,2,0,L|237:270,1,105,2|0,0:0|0:0,0:0:0:0:
158,306,177870,2,0,B|160:176|160:176|150:229|83:251,1,204.749990627289,8|0,0:0|0:0,0:0:0:0:
40,63,178306,2,0,P|40:114|70:156,1,105,2|0,0:0|0:0,0:0:0:0:
250,70,178654,6,0,B|303:77|321:128|321:128|337:77|397:66,1,188.999994232178,8|0,0:0|0:0,0:0:0:0:
472,26,179003,6,0,P|481:72|467:122,1,84,8|0,0:0|0:0,0:0:0:0:
416,189,179265,2,0,B|445:200|445:200|492:205,2,52.5,4|0|0,0:0|0:0|0:0,0:0:0:0:
321,128,179527,1,4,0:0:0:0:
312,283,179701,2,0,L|316:217,1,52.5
321,128,179875,1,4,0:0:0:0:
303,379,180050,6,0,B|246:363|246:363|217:318|217:318|138:302,1,188.999994232178,8|0,0:0|0:0,0:0:0:0:
84,369,180399,6,0,L|178:386,1,84,8|0,0:0|0:0,0:0:0:0:
146,307,180660,1,0,0:0:0:0:
146,307,180748,2,0,L|147:246,1,42,2|0,0:0|0:0,0:0:0:0:
149,177,180922,2,0,L|151:112,1,42,2|0,0:0|0:0,0:0:0:0:
48,27,181096,2,0,P|27:45|17:74,1,57.7500017623902,2|0,0:0|0:0,0:0:0:0:
17,183,181271,2,0,P|31:205|61:225,1,57.7500017623902,2|0,0:0|0:0,0:0:0:0:
125,46,181445,6,0,B|178:49|178:49|214:74|214:74|251:52|251:52|337:57,1,188.999994232178,8|0,0:0|0:0,0:0:0:0:
356,137,181794,6,0,L|271:132,1,84,2|0,0:0|0:0,0:0:0:0:
299,54,182056,2,0,B|361:57|361:57|426:33,1,125.999996154785,8|0,0:0|0:0,0:0:0:0:
421,35,182317,1,2,0:0:0:0:
290,214,182492,6,0,L|414:220,1,115.50000352478,4|0,0:0|0:0,0:0:0:0:
317,296,182753,2,0,B|253:292|253:292|208:248,1,115.50000352478,2|0,0:0|0:0,0:0:0:0:
201,232,183015,1,2,0:0:0:0:
36,329,183189,6,0,B|82:277|82:277|135:337,1,136.499993751526,8|0,0:0|0:0,0:0:0:0:
82,254,183451,2,0,B|76:224|76:224|83:196|83:196|77:170|77:170|85:141|85:141|75:109|75:109|87:68|87:68|77:27|77:27,1,231.000007049561,4|0,0:0|0:0,0:0:0:0:
155,6,183887,2,0,B|169:66|169:66|157:109,1,105,2|2,0:0|0:0,0:0:0:0:
295,36,184236,6,0,B|357:20|357:20|426:42,1,125.999996154785,2|0,0:0|0:0,0:0:0:0:
440,46,184498,1,0,0:0:0:0:
463,55,184585,1,0,0:0:0:0:
354,120,184759,2,0,L|349:184,2,52.5,2|0|0,0:0|0:0|0:0,0:0:0:0:
414,268,185108,1,2,0:0:0:0:
379,282,185195,1,0,0:0:0:0:
341,286,185282,1,0,0:0:0:0:
303,279,185370,1,0,0:0:0:0:
274,254,185457,1,2,0:0:0:0:
157,25,185631,6,0,B|133:84|133:84|141:146,1,125.999996154785,2|0,0:0|0:0,0:0:0:0:
145,170,185893,1,0,0:0:0:0:
149,194,185980,1,0,0:0:0:0:
98,364,186154,6,0,B|128:318|97:264|97:264|145:297|200:267,1,204.749990627289,2|0,0:0|0:0,0:0:0:0:
274,254,186503,1,0,0:0:0:0:
488,231,186678,6,0,B|494:264|494:264|488:298,1,68.2499968757631,2|0,0:0|0:0,0:0:0:0:
304,180,186852,2,0,B|298:144|298:144|304:112,1,68.2499968757631,2|0,0:0|0:0,0:0:0:0:
506,25,187027,6,0,B|457:22|457:22|420:44|420:44|384:19|384:19|331:16,1,188.999994232178,8|0,0:0|0:0,0:0:0:0:
228,8,187375,1,2,0:0:0:0:
305,113,187550,2,0,B|256:110|256:110|221:84|221:84|183:106|183:106|130:103,1,188.999994232178,8|0,0:0|0:0,0:0:0:0:
48,98,187899,1,2,0:0:0:0:
37,294,188073,2,0,B|45:178|45:178|88:251,1,173.250005287171,8|0,0:0|0:0,0:0:0:0:
180,253,188422,2,0,L|128:160,1,84,2|0,0:0|0:0,0:0:0:0:
127,332,188771,6,0,B|194:349|194:349|263:305,1,136.499993751526,2|0,3:0|3:0,3:0:0:0:
357,322,189032,2,0,B|328:341|328:341|316:368|316:368|285:389,1,94.499997116089,8|0,0:0|0:0,0:0:0:0:
333,183,189468,2,0,B|351:148|318:123|318:123|284:151|281:212|320:262,1,204.749990627289,4|0,0:0|0:0,0:0:0:0:
414,218,189817,6,0,P|432:156|409:89,1,115.50000352478,8|0,0:0|0:0,0:0:0:0:
185,81,190166,2,0,L|254:87,1,57.7500017623902,2|0,0:0|0:0,0:0:0:0:
331,44,190341,1,0,0:0:0:0:
331,44,190428,2,0,B|273:8|273:8|202:1,1,126,2|0,0:0|0:0,0:0:0:0:
71,77,190864,6,0,B|65:115|87:146|87:146|58:177|58:177|83:213|59:260,1,188.999994232178,8|0,0:0|0:0,0:0:0:0:
6,315,191213,2,0,P|52:335|106:324,1,105,2|0,0:0|0:0,0:0:0:0:
261,200,191561,2,0,B|135:198,1,115.50000352478,2|0,0:0|0:0,0:0:0:0:
232,282,191823,2,0,B|290:280|290:280|349:241,1,115.50000352478
358,229,192085,1,2,0:0:0:0:
157,124,192259,2,0,P|170:93|190:76,1,57.7500017623902,2|0,0:0|0:0,0:0:0:0:
292,29,192434,2,0,P|325:24|350:33,1,57.7500017623902,2|0,0:3|0:3,0:3:0:0:
439,190,192608,6,0,B|463:245|433:285|433:285|470:251|528:266,1,188.999994232178,8|0,0:0|0:0,0:0:0:0:
493,349,192957,1,2,0:0:0:0:
358,229,193131,2,0,B|324:278|347:323|347:323|316:283|257:288,1,188.999994232178,8|0,0:0|0:0,0:0:0:0:
277,378,193480,1,2,0:0:0:0:
76,352,193654,2,0,B|134:337|190:356|190:356|161:324|162:280,1,173.250005287171,8|0,0:0|0:0,0:0:0:0:
94,244,194003,2,0,P|128:220|169:213,1,84,2|0,0:0|0:0,0:0:0:0:
336,137,194352,6,0,B|271:110|271:110|335:75,1,136.499993751526,8|0,0:0|0:0,0:0:0:0:
243,110,194614,2,0,B|213:116|213:116|185:109|185:109|159:115|159:115|130:107|130:107|98:117|98:117|57:105|57:105|19:114,1,231.000007049561,4|0,0:0|0:0,0:0:0:0:
0,38,195050,2,0,B|56:23|56:23|122:42,1,105,2|2,0:0|0:0,0:0:0:0:
270,187,195399,6,0,B|281:250|281:250|263:316,1,125.999996154785,2|0,0:0|0:0,0:0:0:0:
256,333,195660,1,0,0:0:0:0:
244,355,195748,1,0,0:0:0:0:
187,251,195922,2,0,L|130:249,2,52.5,2|0|0,0:0|0:0|0:0,0:0:0:0:
345,117,196271,5,2,0:0:0:0:
317,91,196358,1,0,0:0:0:0:
280,81,196445,1,0,0:0:0:0:
242,84,196532,1,0,0:0:0:0:
208,101,196620,1,2,0:0:0:0:
445,180,196794,6,0,B|462:119|462:119|443:50,1,125.999996154785,2|0,0:0|0:0,0:0:0:0:
447,263,197143,2,0,B|464:324|464:324|445:393,1,125.999996154785,2|0,0:0|0:0,0:0:0:0:
225,326,197492,6,0,L|341:329,1,84,2|0,0:0|0:0,0:0:0:0:
385,329,197782,1,2,0:0:0:0:
296,180,198015,5,2,0:0:0:0:
296,180,198102,1,2,0:0:0:0:
296,180,198189,2,0,P|299:124|270:69,1,105,2|2,0:0|0:0,0:0:0:0:
117,167,198538,5,8,0:0:0:0:
142,162,198625,1,0,0:0:0:0:
167,156,198713,1,0,0:0:0:0:
192,150,198800,1,0,0:0:0:0:
217,143,198887,1,0,0:0:0:0:
151,305,199061,6,0,L|134:243,1,52.5,2|0,0:0|0:0,0:0:0:0:
117,167,199236,1,8,0:0:0:0:
239,245,199410,1,0,0:0:0:0:
176,63,199585,6,0,P|228:52|280:76,1,105,2|0,0:0|0:0,0:0:0:0:
292,83,199846,1,0,0:0:0:0:
305,99,199934,1,8,0:0:0:0:
418,14,200108,1,0,0:0:0:0:
479,146,200282,5,0,0:0:0:0:
475,172,200370,1,0,0:0:0:0:
472,198,200457,1,2,0:0:0:0:
469,224,200544,1,0,0:0:0:0:
465,249,200631,1,8,0:0:0:0:
287,362,200806,5,0,0:0:0:0:
287,362,200893,1,0,0:0:0:0:
287,362,200980,2,0,P|350:372|402:354,1,105,2|2,0:0|0:0,0:0:0:0:
246,201,201329,5,8,0:0:0:0:
221,208,201416,1,0,0:0:0:0:
197,222,201503,1,0,0:0:0:0:
179,242,201591,1,0,0:0:0:0:
165,264,201678,1,0,0:0:0:0:
364,268,201852,6,0,P|346:239|323:221,1,52.5,2|0,0:0|0:0,0:0:0:0:
246,201,202027,1,8,0:0:0:0:
376,140,202201,1,0,0:0:0:0:
205,130,202375,6,0,P|165:128|110:97,1,105,2|0,0:0|0:0,0:0:0:0:
94,81,202637,1,0,0:0:0:0:
83,62,202724,1,8,0:0:0:0:
77,193,202899,1,0,0:0:0:0:
187,42,203073,5,0,0:0:0:0:
211,32,203160,1,0,0:0:0:0:
237,29,203248,1,2,0:0:0:0:
263,31,203335,1,0,0:0:0:0:
287,41,203422,1,8,0:0:0:0:
301,246,203596,5,0,0:0:0:0:
301,246,203684,1,0,0:0:0:0:
301,246,203771,2,0,P|306:305|335:347,1,105,2|2,0:0|0:0,0:0:0:0:
504,252,204120,5,8,0:0:0:0:
477,255,204207,1,0,0:0:0:0:
450,259,204294,1,0,0:0:0:0:
423,264,204381,1,0,0:0:0:0:
398,270,204468,1,0,0:0:0:0:
477,121,204643,6,0,L|489:180,1,52.5,2|0,0:0|0:0,0:0:0:0:
504,252,204817,1,8,0:0:0:0:
373,59,204992,2,0,L|385:118,1,52.5
400,189,205166,1,2,0:0:0:0:
269,0,205341,2,0,L|281:59,1,52.5
296,130,205515,1,8,0:0:0:0:
192,71,205689,1,0,0:0:0:0:
27,151,205864,5,0,0:0:0:0:
49,164,205951,1,0,0:0:0:0:
74,171,206038,1,2,0:0:0:0:
100,171,206125,1,0,0:0:0:0:
125,165,206213,1,8,0:0:0:0:
33,319,206387,5,0,0:0:0:0:
33,319,206474,1,0,0:0:0:0:
33,319,206561,2,0,P|93:306|161:323,1,105,2|2,0:0|0:0,0:0:0:0:
333,305,206910,5,8,0:0:0:0:
341,280,206998,1,0,0:0:0:0:
345,254,207085,1,0,0:0:0:0:
344,227,207172,1,0,0:0:0:0:
337,201,207259,1,0,0:0:0:0:
215,249,207434,6,0,P|236:268|264:279,1,52.5,2|0,0:0|0:0,0:0:0:0:
333,305,207608,1,8,0:0:0:0:
283,135,207782,2,0,P|336:118|396:137,1,105,0|2,0:0|0:0,0:0:0:0:
463,294,208131,2,0,P|438:304|412:306,1,52.5
333,305,208305,1,8,0:0:0:0:
421,210,208480,1,0,0:0:0:0:
213,164,208654,5,0,0:0:0:0:
187,158,208742,1,0,0:0:0:0:
161,151,208829,1,2,0:0:0:0:
135,145,208916,1,0,0:0:0:0:
109,137,209003,1,8,0:0:0:0:
11,322,209178,5,0,0:0:0:0:
11,322,209265,1,0,0:0:0:0:
11,322,209352,2,0,P|75:343|140:330,1,105,2|2,0:0|0:0,0:0:0:0:
221,294,209701,2,0,P|199:273|156:259,1,52.5,8|0,0:0|0:0,0:0:0:0:
76,245,209875,1,0,0:0:0:0:
208,381,210050,5,0,0:0:0:0:
239,383,210137,1,0,0:0:0:0:
268,372,210224,1,2,0:0:0:0:
292,352,210311,1,0,0:0:0:0:
306,323,210399,1,8,0:0:0:0:
441,352,210573,1,0,0:0:0:0:
330,175,210748,6,0,B|385:162|385:162|445:180,1,105,2|0,0:0|0:0,0:0:0:0:
512,279,211096,2,0,L|446:258,1,52.5,8|0,0:0|0:0,0:0:0:0:
386,240,211271,1,0,0:0:0:0:
262,103,211445,5,0,0:0:0:0:
234,88,211532,1,0,0:0:0:0:
202,81,211620,1,2,0:0:0:0:
170,83,211707,1,0,0:0:0:0:
142,98,211794,6,0,L|136:160,1,52.5,8|0,0:0|0:0,0:0:0:0:
121,303,211968,2,0,L|115:365,1,52.5
80,235,212143,6,0,P|129:224|181:251,1,105,2|2,0:0|0:0,0:0:0:0:
262,328,212492,2,0,P|232:333|186:319,1,52.5,8|0,0:0|0:0,0:0:0:0:
121,303,212666,1,0,0:0:0:0:
263,243,212841,5,0,0:0:0:0:
293,249,212928,1,0,0:0:0:0:
320,264,213015,1,2,0:0:0:0:
339,288,213102,1,0,0:0:0:0:
346,318,213189,1,8,0:0:0:0:
466,277,213364,1,0,0:0:0:0:
331,105,213538,6,0,B|386:92|386:92|444:107,1,105,2|0,0:0|0:0,0:0:0:0:
512,200,213887,2,0,L|460:188,1,52.5,8|0,0:0|0:0,0:0:0:0:
386,173,214061,1,0,0:0:0:0:
301,22,214236,5,0,0:0:0:0:
271,10,214323,1,0,0:0:0:0:
239,6,214410,1,2,0:0:0:0:
207,6,214498,1,0,0:0:0:0:
176,13,214585,6,0,L|171:82,1,52.5,8|0,0:0|0:0,0:0:0:0:
159,224,214759,2,0,L|154:293,1,52.5
215,165,214934,6,0,P|163:144|113:157,1,105,2|2,0:0|0:0,0:0:0:0:
14,211,215282,2,0,P|39:225|84:228,1,52.5,8|0,0:0|0:0,0:0:0:0:
159,224,215457,1,0,0:0:0:0:
299,126,215631,5,0,0:0:0:0:
326,114,215718,1,0,0:0:0:0:
357,113,215806,1,2,0:0:0:0:
387,119,215893,1,0,0:0:0:0:
414,133,215980,6,0,L|428:73,1,52.5,8|0,0:0|0:0,0:0:0:0:
448,4,216154,1,0,0:0:0:0:
333,255,216329,2,0,L|319:195,1,52.5,2|0,0:0|0:0,0:0:0:0:
299,126,216503,1,0,0:0:0:0:
414,377,216678,2,0,L|428:317,1,52.5,8|0,0:0|0:0,0:0:0:0:
448,248,216852,1,0,0:0:0:0:
280,343,217027,5,0,0:0:0:0:
249,350,217114,1,0,0:0:0:0:
217,351,217201,1,2,0:0:0:0:
185,347,217288,1,0,0:0:0:0:
155,337,217375,6,0,L|150:252,1,52.5,8|0,0:0|0:0,0:0:0:0:
144,133,217550,2,0,L|141:48,1,52.5
96,199,217724,6,0,P|148:214|205:188,1,105,2|2,0:0|0:0,0:0:0:0:
278,113,218073,2,0,P|245:109|217:113,1,52.5,8|0,0:0|0:0,0:0:0:0:
144,133,218248,1,0,0:0:0:0:
291,216,218422,5,0,0:0:0:0:
322,211,218509,1,0,0:0:0:0:
348,194,218596,1,2,0:0:0:0:
368,169,218684,1,0,0:0:0:0:
376,138,218771,1,8,0:0:0:0:
473,234,218945,1,0,0:0:0:0:
339,366,219120,6,0,B|281:370|281:370|210:342,1,105,2|0,0:0|0:0,0:0:0:0:
171,239,219468,2,0,L|238:266,1,52.5,8|0,0:0|0:0,0:0:0:0:
295,289,219643,1,0,0:0:0:0:
52,266,219817,5,0,0:0:0:0:
48,232,219904,1,0,0:0:0:0:
54,202,219992,1,2,0:0:0:0:
68,173,220079,1,0,0:0:0:0:
93,156,220166,2,0,L|159:141,1,52.5,8|0,0:0|0:0,0:0:0:0:
304,105,220341,2,0,L|370:90,1,52.5
220,96,220515,6,0,B|234:151|234:151|268:183|268:183|289:267,1,188.999994232178,4|0,0:0|0:0,0:0:0:0:
295,289,220864,1,0,0:0:0:0:
478,209,221038,5,8,0:0:0:0:
437,191,221125,1,0,0:0:0:0:
392,197,221213,1,0,0:0:0:0:
346,359,221387,5,8,0:0:0:0:
305,377,221474,1,0,0:0:0:0:
260,371,221561,2,0,B|208:344|204:291|204:291|181:340|119:340,1,188.999994232178,4|0,0:0|0:0,0:0:0:0:
33,377,221910,6,0,P|24:323|45:270,1,84,2|0,0:0|0:0,0:0:0:0:
40,151,222259,2,0,B|93:118|146:141|146:141|215:168|249:119|249:119|271:77|205:37|165:81,1,346.500010574341,4|0,0:0|0:0,0:0:0:0:
103,217,222957,6,0,P|140:231|183:238,1,57.7500017623902,2|0,0:0|0:0,0:0:0:0:
275,213,223131,2,0,P|303:194|329:150,1,57.7500017623902,2|0,0:0|0:0,0:0:0:0:
430,14,223306,6,0,B|431:73|431:73|447:103|447:103|427:136|427:136|428:206,1,188.999994232178,8|0,0:0|0:0,0:0:0:0:
505,240,223654,6,0,L|503:140,1,84,2|0,0:0|0:0,0:0:0:0:
428,193,223916,2,0,B|430:251|430:251|403:302,1,105,8|0,0:0|0:0,0:0:0:0:
395,313,224178,1,2,0:0:0:0:
129,356,224352,2,0,B|164:344|164:344|199:355|199:355|229:342|229:342|259:355|259:355|292:341|292:341|346:369,1,204.749990627289,8|0,0:0|0:0,0:0:0:0:
259,273,224701,2,0,B|259:192|259:192|233:223,1,115.50000352478,2|0,0:0|0:0,0:0:0:0:
59,294,225050,6,0,B|39:228|39:228|61:140,1,136.499993751526,8|0,0:0|0:0,0:0:0:0:
152,103,225311,2,0,L|126:209,1,105,2|0,0:0|0:0,0:0:0:0:
121,227,225573,1,0,0:0:0:0:
45,30,225748,2,0,L|109:30,1,57.7500017623902,2|0,0:0|0:0,0:0:0:0:
199,32,225922,2,0,L|265:32,1,57.7500017623902,2|0,0:0|0:0,0:0:0:0:
490,119,226096,6,0,B|431:120|431:120|401:136|401:136|368:116|368:116|298:117,1,188.999994232178,4|0,0:0|0:0,0:0:0:0:
232,118,226445,1,2,0:0:0:0:
409,214,226620,5,8,0:0:0:0:
427,262,226707,1,0,0:0:0:0:
415,313,226794,1,0,0:0:0:0:
238,217,226968,5,8,0:0:0:0:
220,169,227055,1,0,0:0:0:0:
232,118,227143,2,0,B|165:118|165:118|127:91|127:91|34:91,1,188.999994232178,4|0,0:0|0:0,0:0:0:0:
14,169,227492,6,0,B|113:170,1,84,2|0,0:0|0:0,0:0:0:0:
283,305,227841,2,0,B|216:305|216:305|156:271,1,125.999996154785,8|0,0:0|0:0,0:0:0:0:
238,217,228102,2,0,L|360:217,1,105
368,217,228364,1,0,0:0:0:0:
509,113,228538,2,0,P|491:85|445:60,1,57.7500017623902,2|0,0:0|0:0,0:0:0:0:
361,28,228713,2,0,P|327:23|279:42,1,57.7500017623902,2|0,0:0|0:0,0:0:0:0:
176,140,228887,6,0,B|108:140|108:140|42:106,1,125.999996154785,2|0,0:0|0:0,0:0:0:0:
36,98,229149,1,0,0:0:0:0:
16,82,229236,1,0,0:0:0:0:
132,53,229410,2,0,L|148:0,2,52.5,2|0|0,0:0|0:0|0:0,0:0:0:0:
214,223,229759,5,2,0:0:0:0:
245,201,229846,1,0,0:0:0:0:
262,166,229934,1,0,0:0:0:0:
266,128,230021,1,0,0:0:0:0:
253,92,230108,1,2,0:0:0:0:
143,308,230282,6,0,B|205:332|205:332|279:317,1,125.999996154785,2|0,0:0|0:0,0:0:0:0:
288,314,230544,1,0,0:0:0:0:
312,307,230631,1,0,0:0:0:0:
507,279,230806,6,0,B|442:274|416:325|416:325|429:270|379:221,1,204.749990627289,2|0,0:0|0:0,0:0:0:0:
341,176,231154,1,0,0:0:0:0:
489,77,231329,6,0,B|497:116|497:116|489:161,1,68.2499968757631,2|0,0:0|0:0,0:0:0:0:
261,218,231503,2,0,B|253:181|253:181|261:134,1,68.2499968757631,2|0,0:0|0:0,0:0:0:0:
415,4,231678,6,0,B|356:5|356:5|326:21|326:21|293:1|293:1|223:2,1,188.999994232178,8|0,0:0|0:0,0:0:0:0:
191,81,232027,6,0,L|289:78,1,84,2|0,0:0|0:0,0:0:0:0:
235,1,232288,2,0,B|170:5|170:5|105:43,1,115.50000352478,8|0,0:0|0:0,0:0:0:0:
105,45,232550,1,2,0:0:0:0:
0,180,232724,2,0,P|1:147|16:112,1,57.7500017623902,2|0,0:0|0:0,0:0:0:0:
166,191,232899,2,0,P|165:224|150:259,1,57.7500017623902,2|0,0:0|0:0,0:0:0:0:
1,334,233073,2,0,B|51:355|51:355|124:355,1,105,4|0,0:0|0:0,0:0:0:0:
315,355,233422,6,0,L|212:355,1,84,8|0,0:0|0:0,0:0:0:0:
288,277,233684,2,0,B|347:278|347:278|401:320,1,105,8|0,0:0|0:0,0:0:0:0:
401,322,233945,1,0,0:0:0:0:
356,139,234120,2,0,B|459:222|459:222|418:127,1,204.749990627289,4|0,0:0|0:0,0:0:0:0:
395,62,234468,6,0,B|347:38|304:68|304:68|286:19|226:8,1,188.999994232178,8|0,0:0|0:0,0:0:0:0:
221,95,234817,1,0,0:0:0:0:
46,15,234992,2,0,L|43:82,1,57.7500017623902,2|0,0:0|0:0,0:0:0:0:
42,163,235166,2,0,L|39:230,1,57.7500017623902,2|0,0:0|0:0,0:0:0:0:
39,311,235341,2,0,L|36:378,1,57.7500017623902,2|0,0:0|0:0,0:0:0:0:
125,260,235515,6,0,P|148:245|190:237,1,57.7500017623902,2|0,0:0|0:0,0:0:0:0:
337,242,235689,2,0,P|364:251|387:268,1,57.7500017623902,2|0,0:0|0:0,0:0:0:0:
250,384,235864,6,0,B|245:348|245:348|251:300,1,68.2499968757631,2|0,0:0|0:0,0:0:0:0:
469,305,236038,2,0,B|476:270|476:270|468:221,1,68.2499968757631,2|0,0:0|0:0,0:0:0:0:
278,88,236213,6,0,L|261:211,1,115.50000352478,4|0,0:0|0:0,0:0:0:0:
356,138,236474,2,0,B|363:75|363:75|330:18,1,125.999996154785,2|0,0:0|0:0,0:0:0:0:
281,11,236736,1,8,0:0:0:0:
232,23,236823,1,0,0:0:0:0:
203,64,236910,1,0,0:0:0:0:
417,3,237085,1,2,0:0:0:0:
102,42,237259,6,0,B|101:99|101:99|121:132|121:132|105:162|105:162|104:221,1,188.999994232178,8|0,0:0|0:0,0:0:0:0:
188,274,237608,6,0,L|188:173,1,84,2|0,0:0|0:0,0:0:0:0:
104,221,237870,2,0,B|104:287|104:287|133:345,1,115.50000352478,8|0,0:0|0:0,0:0:0:0:
140,352,238131,1,2,0:0:0:0:
308,251,238306,6,0,P|299:284|306:320,1,57.7500017623902,2|0,0:0|0:0,0:0:0:0:
450,372,238480,2,0,P|459:339|452:303,1,57.7500017623902,2|0,0:0|0:0,0:0:0:0:
407,101,238654,2,0,L|407:225,1,105,2|0,0:0|0:0,0:0:0:0:
352,31,239003,2,0,B|408:14|408:14|465:33,1,115.50000352478,4|0,0:0|0:0,0:0:0:0:
332,111,239265,5,0,0:0:0:0:
332,111,239352,2,0,B|276:128|276:128|230:111|230:111|140:144,1,188.999994232178,8|0,0:0|0:0,0:0:0:0:
174,217,239701,2,0,L|243:192,1,57.7500017623902,2|0,0:0|0:0,0:0:0:0:
215,34,239875,2,0,L|160:53,1,57.7500017623902,2|0,0:0|0:0,0:0:0:0:
79,168,240050,1,8,0:0:0:0:
256,192,240137,12,2,243364,0:0:0:0:
77,330,244218,6,0,B|136:336|136:336|176:320|176:320|213:341|213:341|294:349,1,195.999994018555,10|0,0:0|0:0,0:0:0:0:
363,279,244646,2,0,B|240:266|240:266|306:230,1,167.999994873047,2|0,0:0|0:0,0:0:0:0:
421,218,245075,2,0,P|443:254|444:294,1,70,8|0,0:0|0:0,0:0:0:0:
388,372,245360,1,0,0:0:0:0:
346,187,245503,6,0,B|330:122|332:48|332:48|343:98|409:115,1,224,2|0,0:0|0:0,0:0:0:0:
480,41,245932,6,0,P|442:25|408:30,1,70,8|0,0:0|0:0,0:0:0:0:
301,93,246218,1,0,0:0:0:0:
117,61,246360,6,0,B|80:42|71:1|71:1|39:40|42:96|72:146,1,224,2|0,0:0|0:0,0:0:0:0:
25,237,246789,2,0,P|85:243|154:199,1,112,10|0,0:0|0:0,0:0:0:0:
214,159,247075,1,2,0:0:0:0:
286,328,247218,2,0,B|226:306|215:242|215:242|192:300|125:318,1,224,2|0,0:0|0:0,0:0:0:0:
313,233,247646,6,0,B|364:223|364:223|444:245,1,97.9999970092774,8|0,0:0|0:0,0:0:0:0:
510,263,247932,1,0,0:0:0:0:
414,126,248075,2,0,B|360:114|360:114|281:137,1,105.000004005432
214,159,248361,1,0,0:0:0:0:
71,15,248503,6,0,B|59:41|78:72|78:72|53:94|53:94|87:132|59:179,1,167.999994873047,8|0,0:0|0:0,0:0:0:0:
8,236,248932,2,0,P|41:254|109:244,1,83.9999974365235
161,227,249218,1,0,0:0:0:0:
309,368,249360,6,0,B|355:365|383:319|383:319|410:373|495:370,1,195.999994018555,8|0,0:0|0:0,0:0:0:0:
298,275,249789,5,2,0:0:0:0:
464,274,249932,1,2,0:0:0:0:
379,168,250075,1,2,0:0:0:0:
383,319,250218,1,10,0:0:0:0:
437,87,250503,6,0,P|378:69|321:86,1,112,2|0,0:0|0:0,0:0:0:0:
161,227,250932,5,0,0:0:0:0:
109,346,251075,2,0,B|111:296|111:296|81:258|81:258|81:147,1,195.999994018555,8|0,0:0|0:0,0:0:0:0:
162,45,251503,2,0,L|161:175,1,97.9999970092774
161,227,251789,1,0,0:0:0:0:
261,76,251932,6,0,P|297:73|343:86,1,70,8|0,0:0|0:0,0:0:0:0:
426,131,252218,1,0,0:0:0:0:
351,316,252360,2,0,B|325:261|326:217|337:165|337:165|352:206|414:232,1,224,2|0,0:3|0:3,0:3:0:0:
512,198,252789,6,0,P|514:241|495:282,1,70,8|0,0:0|0:0,0:0:0:0:
456,340,253075,1,0,0:0:0:0:
218,241,253218,6,0,B|161:216|102:224|68:256|68:256|111:247|155:277,1,224,2|0,0:0|0:0,0:0:0:0:
186,357,253646,2,0,P|132:372|78:360,1,112,10|0,0:0|0:0,0:0:0:0:
4,315,253932,1,2,0:0:0:0:
269,317,254075,6,0,B|316:287|308:221|308:221|339:283|448:268,1,224,2|0,0:0|0:0,0:0:0:0:
386,176,254503,5,2,0:0:0:0:
314,136,254646,1,2,0:0:0:0:
240,172,254789,1,2,0:0:0:0:
387,91,254932,5,2,0:0:0:0:
315,51,255075,1,2,0:0:0:0:
241,87,255218,1,2,0:0:0:0:
462,140,255360,5,8,0:0:0:0:
238,342,255789,5,2,0:0:0:0:
239,257,255932,1,2,0:0:0:0:
240,172,256075,1,2,0:0:0:0:
132,244,256218,5,2,0:0:0:0:
240,172,256360,1,2,0:0:0:0:
348,244,256503,1,2,0:0:0:0:
133,159,256646,5,2,0:0:0:0:
241,87,256788,1,2,0:0:0:0:
349,159,256931,1,2,0:0:0:0:
134,74,257075,6,0,B|63:93|63:93|-7:72,1,140,8|0,0:0|0:0,0:0:0:0:
15,162,257503,2,0,B|15:201|15:201|32:233|32:233|32:309,1,140,4|0,0:0|0:0,0:0:0:0:
180,364,257932,6,0,B|239:364|239:364|277:345|277:345|316:363|316:363|397:364,1,195.999994018555
452,289,258360,2,0,B|336:287|336:287|412:230,1,167.999994873047,2|0,0:0|0:0,0:0:0:0:
461,193,258789,6,0,P|432:164|377:155,1,70,8|0,0:0|0:0,0:0:0:0:
315,148,259075,1,0,0:0:0:0:
146,290,259218,2,0,B|106:242|99:174|134:144|134:144|130:182|152:218,1,224,2|0,0:0|0:0,0:0:0:0:
196,86,259646,6,0,P|164:64|122:60,1,70,8|0,0:0|0:0,0:0:0:0:
42,78,259932,1,0,0:0:0:0:
281,65,260075,6,0,B|345:45|387:93|387:93|430:46|510:63,1,224,2|0,0:0|0:0,0:0:0:0:
440,186,260503,2,0,P|378:204|329:185,1,112,10|0,0:0|0:0,0:0:0:0:
258,155,260789,1,2,0:0:0:0:
194,348,260932,2,0,B|219:287|182:231|182:231|226:274|291:257,1,224,2|0,0:0|0:0,0:0:0:0:
98,298,261360,6,0,B|81:249|81:249|86:171,1,97.9999970092774,8|0,0:0|0:0,0:0:0:0:
90,117,261646,1,0,0:0:0:0:
263,73,261789,2,0,B|207:59|207:59|122:84,1,105.000004005432
90,117,262075,1,0,0:0:0:0:
354,51,262218,6,0,B|368:84|349:120|349:120|373:140|373:140|355:177|377:218,1,167.999994873047,8|0,0:0|0:0,0:0:0:0:
335,295,262646,2,0,P|376:299|416:287,1,83.9999974365235
474,225,262932,1,0,0:0:0:0:
259,163,263075,6,0,B|205:174|188:231|188:231|168:176|84:167,1,195.999994018555,8|0,0:0|0:0,0:0:0:0:
272,246,263503,5,2,0:0:0:0:
109,260,263646,1,2,0:0:0:0:
213,384,263789,1,2,0:0:0:0:
189,231,263932,1,10,0:0:0:0:
467,335,264218,6,0,P|478:275|471:216,1,112,2|0,0:0|0:0,0:0:0:0:
294,41,264646,5,0,0:0:0:0:
120,95,264789,2,0,B|173:96|202:46|202:46|207:106|285:140,1,195.999994018555,8|0,0:0|0:0,0:0:0:0:
376,0,265218,2,0,P|385:35|358:103,1,83.9999974365235
329,144,265503,1,0,0:0:0:0:
146,177,265646,6,0,P|97:178|52:148,1,70,8|0,0:0|0:0,0:0:0:0:
10,116,265932,1,0,0:0:0:0:
166,384,266075,6,0,B|192:326|150:267|150:267|223:260|237:181,1,224,2|0,0:0|0:0,0:0:0:0:
405,279,266503,6,0,P|374:295|340:302,1,70,8|0,0:0|0:0,0:0:0:0:
252,310,266789,1,0,0:0:0:0:
395,81,266932,6,0,B|432:133|404:188|404:188|476:188|494:257,1,224,2|0,0:0|0:0,0:0:0:0:
328,139,267360,2,0,P|310:111|321:33,1,112,10|0,0:0|0:0,0:0:0:0:
425,0,267646,1,2,0:0:0:0:
227,63,267789,6,0,B|170:71|155:133|155:133|118:74|39:90,1,224,2|0,0:0|0:0,0:0:0:0:
73,182,268218,5,2,0:0:0:0:
143,223,268360,1,2,0:0:0:0:
222,201,268503,1,2,0:0:0:0:
64,264,268646,5,2,0:0:0:0:
134,305,268788,1,2,0:0:0:0:
213,283,268931,1,2,0:0:0:0:
0,216,269075,5,8,0:0:0:0:
240,37,269503,5,2,0:0:0:0:
231,119,269646,1,2,0:0:0:0:
222,201,269789,1,2,0:0:0:0:
120,123,269932,5,2,0:0:0:0:
222,201,270075,1,2,0:0:0:0:
341,156,270218,1,2,0:0:0:0:
111,205,270360,5,2,0:0:0:0:
213,283,270503,1,2,0:0:0:0:
332,238,270646,1,2,0:0:0:0:
28,154,270789,6,0,B|21:225|21:225|56:287,1,140,8|0,0:0|0:0,0:0:0:0:
111,205,271218,2,0,L|130:52,1,140,4|0,0:0|0:0,0:0:0:0:
321,49,271646,5,0,0:0:0:0:
369,35,271789,1,0,0:0:0:0:
419,37,271932,1,0,0:0:0:0:
460,65,272075,1,0,0:0:0:0:
370,264,272360,5,0,0:0:0:0:
380,181,272503,2,0,L|386:126,2,56,8|0|0,0:0|0:0|0:0,0:0:0:0:
185,329,272932,2,0,P|239:314|299:335,1,112
242,233,273360,5,0,0:0:0:0:
240,182,273503,1,0,0:0:0:0:
239,131,273646,1,0,0:0:0:0:
237,80,273789,2,0,L|235:17,2,56
144,169,274218,6,0,L|137:47,1,112,8|0,0:0|0:0,0:0:0:0:
62,208,274646,2,0,P|110:254|168:260,1,112
379,188,275075,5,0,0:0:0:0:
336,160,275218,1,0,0:0:0:0:
285,160,275360,1,0,0:0:0:0:
240,182,275503,1,0,0:0:0:0:
312,384,275789,5,0,0:0:0:0:
309,302,275932,2,0,L|309:246,2,56,8|0|0,0:0|0:0|0:0,0:0:0:0:
145,283,276360,6,0,P|82:284|27:313,1,112
71,207,276789,1,0,0:0:0:0:
61,157,276932,1,0,0:0:0:0:
49,107,277075,1,0,0:0:0:0:
37,58,277218,2,0,L|24:-3,2,56
168,122,277646,6,0,L|139:0,1,112,8|0,0:0|0:0,0:0:0:0:
161,205,278075,2,0,P|217:193|250:123,1,112
358,28,278503,5,0,0:0:0:0:
405,12,278646,1,0,0:0:0:0:
455,14,278789,1,0,0:0:0:0:
500,36,278932,1,0,0:0:0:0:
414,240,279218,5,0,0:0:0:0:
420,157,279360,2,0,L|424:102,2,56,8|0|0,0:0|0:0|0:0,0:0:0:0:
511,360,279789,2,0,P|456:336|378:352,1,112
252,372,280218,5,0,0:0:0:0:
247,322,280360,1,0,0:0:0:0:
242,271,280503,1,0,0:0:0:0:
237,220,280646,2,0,L|230:146,2,56
116,287,281075,6,0,L|100:150,1,112,8|0,0:0|0:0,0:0:0:0:
157,364,281503,2,0,P|95:369|42:332,1,112
25,140,281932,5,0,0:0:0:0:
59,102,282075,1,0,0:0:0:0:
108,90,282218,1,0,0:0:0:0:
155,106,282360,1,0,0:0:0:0:
119,309,282646,5,0,0:0:0:0:
109,230,282789,2,0,L|103:175,2,56,8|0|0,0:0|0:0|0:0,0:0:0:0:
241,117,283218,6,0,P|289:93|359:103,1,112
489,149,283646,5,0,0:0:0:0:
486,199,283789,1,0,0:0:0:0:
481,249,283932,1,0,0:0:0:0:
475,299,284075,5,0,0:0:0:0:
430,256,284218,1,0,0:0:0:0:
371,238,284360,1,0,0:0:0:0:
310,248,284503,5,8,0:0:0:0:
305,275,284646,1,0,0:0:0:0:
299,302,284789,1,0,0:0:0:0:
293,329,284932,5,0,0:0:0:0:
232,339,285075,1,0,0:0:0:0:
173,321,285217,1,0,0:0:0:0:
128,278,285360,6,0,P|99:309|92:349,2,56
227,206,285789,2,0,P|173:158|119:156,1,112
43,211,286218,2,0,B|27:152|27:152|50:92,1,112,8|0,0:0|0:0,0:0:0:0:
135,67,286646,5,0,0:0:0:0:
185,68,286789,1,0,0:0:0:0:
235,68,286932,1,0,0:0:0:0:
285,67,287075,6,0,L|274:6,2,56
311,210,287503,2,0,P|364:196|401:155,1,112
295,296,287932,2,0,B|247:265|247:265|228:214,1,112,8|0,0:0|0:0,0:0:0:0:
116,182,288360,5,0,0:0:0:0:
128,212,288503,1,0,0:0:0:0:
139,243,288646,1,0,0:0:0:0:
149,272,288789,6,0,P|134:296|100:312,2,48.9999985046387
183,130,289218,2,0,P|230:120|278:134,1,97.9999970092774
385,211,289646,2,0,B|405:164|405:164|399:106,1,97.9999970092774,8|0,0:0|0:0,0:0:0:0:
401,293,290075,5,0,0:0:0:0:
371,294,290217,1,0,0:0:0:0:
343,283,290360,1,0,0:0:0:0:
322,261,290503,6,0,P|307:236|304:211,2,48.9999985046387
464,241,290932,2,0,P|485:285|469:346,1,97.9999970092774
385,211,291360,2,0,B|377:156|377:156|386:105,1,97.9999970092774,8|0,0:0|0:0,0:0:0:0:
300,61,291789,5,0,0:0:0:0:
270,59,291932,1,0,0:0:0:0:
240,58,292075,1,0,0:0:0:0:
210,58,292218,2,0,L|206:6,2,41.9999987182618
255,159,292646,6,0,P|203:171|161:157,1,83.9999974365235
82,102,293075,2,0,B|65:145|65:145|64:204,1,83.9999974365235,8|0,0:0|0:0,0:0:0:0:
115,278,293503,5,0,0:0:0:0:
140,280,293646,1,0,0:0:0:0:
163,289,293789,1,0,0:0:0:0:
183,304,293932,6,0,P|192:326|191:353,2,41.9999987182618
252,250,294360,2,0,P|297:240|359:267,1,83.9999974365235
406,311,294789,2,0,B|425:270|425:270|423:226,1,83.9999974365235,8|0,0:0|0:0,0:0:0:0:
385,144,295218,5,0,0:0:0:0:
360,141,295360,1,0,0:0:0:0:
334,138,295503,1,0,0:0:0:0:
310,134,295646,6,0,L|298:179,2,35
356,56,296075,2,0,P|318:42|264:54,1,70
224,117,296503,2,0,B|188:119|188:119|157:104,1,70,8|0,0:0|0:0,0:0:0:0:
51,99,296932,5,0,0:0:0:0:
44,119,297075,1,0,0:0:0:0:
44,139,297218,1,0,0:0:0:0:
48,159,297360,6,0,P|57:189|70:205,2,35
141,206,297789,2,0,P|132:236|119:252,2,35
59,292,298218,1,0,0:0:0:0:
75,304,298360,1,0,0:0:0:0:
93,313,298503,1,0,0:0:0:0:
113,318,298646,2,0,P|148:324|166:320,1,35
237,326,298932,1,0,0:0:0:0:
237,326,299075,6,0,B|316:351|348:263|348:263|291:203|230:241|230:241|209:186|247:140|247:140|309:98|296:5|194:-9|145:39|141:106|185:155|246:138|246:138|312:122|379:153|408:185|408:185|432:213|477:214|517:187|523:151|515:110|493:81|455:73|410:79|387:135,1,1196.99996347046
