osu file format v14

[General]
AudioFilename: shindeiru.mp3
AudioLeadIn: 0
PreviewTime: 22410
Countdown: 0
SampleSet: None
StackLeniency: 0.7
Mode: 3
LetterboxInBreaks: 0
SpecialStyle: 0
WidescreenStoryboard: 1

[Editor]
DistanceSpacing: 0.8
BeatDivisor: 12
GridSize: 32
TimelineZoom: 2

[Metadata]
Title:Shindeiru
TitleUnicode:Shindeiru
Artist:Virtual Riot
ArtistUnicode:Virtual Riot
Creator:lemonguy
Version:Edit
Source:
Tags:omae wa mou shindeiru nani hokuto no ken fist of the north star gekido stepmania etterna dump not wafles electronic instrumental
BeatmapID:2968850
BeatmapSetID:866120

[Difficulty]
HPDrainRate:8
CircleSize:4
OverallDifficulty:8
ApproachRate:5
SliderMultiplier:1.4
SliderTickRate:1

[Events]
//Background and Video events
0,0,"shindeirubg.jpg",0,0
//Break Periods
//Storyboard Layer 0 (Background)
//Storyboard Layer 1 (Fail)
//Storyboard Layer 2 (Pass)
//Storyboard Layer 3 (Foreground)
//Storyboard Layer 4 (Overlay)
//Storyboard Sound Samples

[TimingPoints]
10,400,4,1,0,35,1,0

[HitObjects]
64,192,10,5,0,0:0:0:0:
192,192,10,1,0,0:0:0:0:
320,192,10,1,0,0:0:0:0:
448,192,10,1,0,0:0:0:0:
192,192,2810,128,0,3077:0:0:0:0:
448,192,3077,128,0,3210:0:0:0:0:
320,192,3210,128,0,5943:0:0:0:0:
192,192,3610,1,0,0:0:0:0:
192,192,5210,1,0,0:0:0:0:
448,192,5943,128,0,6077:0:0:0:0:
320,192,6077,128,0,6410:0:0:0:0:
64,192,6410,128,0,9477:0:0:0:0:
448,192,6410,1,0,0:0:0:0:
192,192,6810,1,0,0:0:0:0:
320,192,6810,1,0,0:0:0:0:
448,192,7210,1,0,0:0:0:0:
192,192,7610,1,0,0:0:0:0:
448,192,8010,1,0,0:0:0:0:
192,192,8410,1,0,0:0:0:0:
320,192,8410,1,0,0:0:0:0:
448,192,8810,1,0,0:0:0:0:
192,192,9210,128,0,9477:0:0:0:0:
320,192,9210,1,0,0:0:0:0:
448,192,9477,128,0,9610:0:0:0:0:
192,192,9610,1,0,0:0:0:0:
320,192,9610,128,0,12010:0:0:0:0:
64,192,10010,1,0,0:0:0:0:
448,192,10010,1,0,0:0:0:0:
192,192,10410,1,0,0:0:0:0:
64,192,10810,1,0,0:0:0:0:
192,192,11210,1,0,0:0:0:0:
64,192,11610,1,0,0:0:0:0:
448,192,11610,1,0,0:0:0:0:
192,192,12010,1,0,0:0:0:0:
448,192,12010,128,0,12143:0:0:0:0:
320,192,12143,128,0,12810:0:0:0:0:
64,192,12410,1,0,0:0:0:0:
64,192,12810,1,0,0:0:0:0:
192,192,12810,1,0,0:0:0:0:
448,192,12810,1,0,0:0:0:0:
320,192,13077,1,0,0:0:0:0:
192,192,13210,1,0,0:0:0:0:
320,192,13343,1,0,0:0:0:0:
320,192,13477,1,0,0:0:0:0:
64,192,13610,1,0,0:0:0:0:
320,192,13610,1,0,0:0:0:0:
448,192,13610,1,0,0:0:0:0:
448,192,13877,1,0,0:0:0:0:
64,192,14010,1,0,0:0:0:0:
192,192,14010,1,0,0:0:0:0:
320,192,14277,1,0,0:0:0:0:
192,192,14410,1,0,0:0:0:0:
192,192,14677,1,0,0:0:0:0:
320,192,14810,1,0,0:0:0:0:
192,192,14943,1,0,0:0:0:0:
192,192,15077,1,0,0:0:0:0:
64,192,15210,1,0,0:0:0:0:
192,192,15210,1,0,0:0:0:0:
448,192,15210,1,0,0:0:0:0:
64,192,15477,1,0,0:0:0:0:
320,192,15610,1,0,0:0:0:0:
448,192,15610,1,0,0:0:0:0:
192,192,15877,1,0,0:0:0:0:
64,192,16010,1,0,0:0:0:0:
448,192,16010,1,0,0:0:0:0:
448,192,16277,1,0,0:0:0:0:
192,192,16410,1,0,0:0:0:0:
320,192,16410,1,0,0:0:0:0:
448,192,16543,1,0,0:0:0:0:
448,192,16677,1,0,0:0:0:0:
64,192,16810,1,0,0:0:0:0:
320,192,16810,1,0,0:0:0:0:
448,192,16810,1,0,0:0:0:0:
448,192,17077,1,0,0:0:0:0:
64,192,17210,1,0,0:0:0:0:
192,192,17210,1,0,0:0:0:0:
320,192,17477,1,0,0:0:0:0:
64,192,17610,1,0,0:0:0:0:
64,192,17877,1,0,0:0:0:0:
192,192,18010,1,0,0:0:0:0:
320,192,18010,1,0,0:0:0:0:
64,192,18143,1,0,0:0:0:0:
64,192,18277,1,0,0:0:0:0:
64,192,18410,1,0,0:0:0:0:
192,192,18410,1,0,0:0:0:0:
448,192,18410,1,0,0:0:0:0:
64,192,18677,1,0,0:0:0:0:
320,192,18810,1,0,0:0:0:0:
448,192,18810,1,0,0:0:0:0:
192,192,19077,1,0,0:0:0:0:
64,192,19210,1,0,0:0:0:0:
448,192,19210,1,0,0:0:0:0:
192,192,19610,1,0,0:0:0:0:
320,192,19610,1,0,0:0:0:0:
64,192,20010,1,0,0:0:0:0:
320,192,20010,1,0,0:0:0:0:
448,192,20010,1,0,0:0:0:0:
192,192,20410,1,0,0:0:0:0:
320,192,20410,1,0,0:0:0:0:
64,192,20810,1,0,0:0:0:0:
192,192,20810,1,0,0:0:0:0:
64,192,21210,1,0,0:0:0:0:
192,192,21210,1,0,0:0:0:0:
320,192,21210,1,0,0:0:0:0:
64,192,21610,1,0,0:0:0:0:
320,192,21610,1,0,0:0:0:0:
448,192,21610,1,0,0:0:0:0:
64,192,21743,1,0,0:0:0:0:
64,192,21877,1,0,0:0:0:0:
64,192,22010,1,0,0:0:0:0:
192,192,22010,1,0,0:0:0:0:
448,192,22010,1,0,0:0:0:0:
64,192,22143,1,0,0:0:0:0:
64,192,22277,1,0,0:0:0:0:
192,192,22343,1,0,0:0:0:0:
64,192,22410,1,0,0:0:0:0:
448,192,22543,1,0,0:0:0:0:
320,192,22643,1,0,0:0:0:0:
448,192,22810,1,0,0:0:0:0:
64,192,22943,128,0,23210:0:0:0:0:
448,192,23560,1,0,0:0:0:0:
64,192,23610,1,0,0:0:0:0:
192,192,23660,1,0,0:0:0:0:
320,192,23710,128,0,23910:0:0:0:0:
192,192,23910,1,0,0:0:0:0:
448,192,24010,1,0,0:0:0:0:
64,192,24076,1,0,0:0:0:0:
192,192,24318,1,0,0:0:0:0:
320,192,24318,1,0,0:0:0:0:
448,192,24318,1,0,0:0:0:0:
64,192,24443,1,0,0:0:0:0:
192,192,24443,1,0,0:0:0:0:
320,192,24443,1,0,0:0:0:0:
320,192,24810,1,0,0:0:0:0:
448,192,24810,1,0,0:0:0:0:
64,192,24852,1,0,0:0:0:0:
192,192,24893,1,0,0:0:0:0:
320,192,24927,1,0,0:0:0:0:
448,192,24968,1,0,0:0:0:0:
64,192,25010,1,0,0:0:0:0:
320,192,25060,1,0,0:0:0:0:
64,192,25110,1,0,0:0:0:0:
320,192,25160,1,0,0:0:0:0:
64,192,25210,1,0,0:0:0:0:
320,192,25260,1,0,0:0:0:0:
64,192,25310,1,0,0:0:0:0:
448,192,25385,1,0,0:0:0:0:
192,192,25435,1,0,0:0:0:0:
320,192,25485,1,0,0:0:0:0:
192,192,25610,1,0,0:0:0:0:
64,192,25610,1,0,0:0:0:0:
448,192,25610,1,0,0:0:0:0:
192,192,25910,1,0,0:0:0:0:
448,192,25943,1,0,0:0:0:0:
320,192,25977,1,0,0:0:0:0:
192,192,26010,1,0,0:0:0:0:
64,192,26110,1,0,0:0:0:0:
320,192,26135,1,0,0:0:0:0:
448,192,26160,1,0,0:0:0:0:
64,192,26243,1,0,0:0:0:0:
192,192,26268,1,0,0:0:0:0:
448,192,26293,1,0,0:0:0:0:
64,192,26410,1,0,0:0:0:0:
192,192,26410,1,0,0:0:0:0:
448,192,26510,1,0,0:0:0:0:
320,192,26543,1,0,0:0:0:0:
192,192,26577,1,0,0:0:0:0:
64,192,26610,1,0,0:0:0:0:
448,192,26685,1,0,0:0:0:0:
64,192,26735,1,0,0:0:0:0:
320,192,26810,1,0,0:0:0:0:
64,192,26852,1,0,0:0:0:0:
192,192,26893,1,0,0:0:0:0:
320,192,26927,1,0,0:0:0:0:
448,192,26968,1,0,0:0:0:0:
320,192,27210,1,0,0:0:0:0:
448,192,27210,1,0,0:0:0:0:
64,192,27310,1,0,0:0:0:0:
192,192,27343,1,0,0:0:0:0:
320,192,27377,1,0,0:0:0:0:
448,192,27410,1,0,0:0:0:0:
64,192,27485,1,0,0:0:0:0:
448,192,27535,1,0,0:0:0:0:
192,192,27610,1,0,0:0:0:0:
448,192,27652,1,0,0:0:0:0:
320,192,27693,1,0,0:0:0:0:
192,192,27727,1,0,0:0:0:0:
64,192,27768,1,0,0:0:0:0:
64,192,28010,1,0,0:0:0:0:
192,192,28010,1,0,0:0:0:0:
448,192,28110,1,0,0:0:0:0:
320,192,28143,1,0,0:0:0:0:
192,192,28177,1,0,0:0:0:0:
64,192,28210,1,0,0:0:0:0:
448,192,28285,1,0,0:0:0:0:
64,192,28335,1,0,0:0:0:0:
320,192,28410,1,0,0:0:0:0:
64,192,28452,1,0,0:0:0:0:
192,192,28493,1,0,0:0:0:0:
320,192,28527,1,0,0:0:0:0:
448,192,28568,1,0,0:0:0:0:
448,192,28685,1,0,0:0:0:0:
64,192,28735,1,0,0:0:0:0:
320,192,28810,1,0,0:0:0:0:
448,192,28810,1,0,0:0:0:0:
64,192,28910,1,0,0:0:0:0:
192,192,28943,1,0,0:0:0:0:
320,192,28977,1,0,0:0:0:0:
448,192,29010,1,0,0:0:0:0:
64,192,29085,1,0,0:0:0:0:
448,192,29135,1,0,0:0:0:0:
192,192,29210,1,0,0:0:0:0:
448,192,29252,1,0,0:0:0:0:
320,192,29293,1,0,0:0:0:0:
192,192,29327,1,0,0:0:0:0:
64,192,29368,1,0,0:0:0:0:
320,192,29410,1,0,0:0:0:0:
448,192,29460,1,0,0:0:0:0:
192,192,29510,1,0,0:0:0:0:
320,192,29543,1,0,0:0:0:0:
448,192,29577,1,0,0:0:0:0:
64,192,29610,1,0,0:0:0:0:
192,192,29610,1,0,0:0:0:0:
448,192,29710,1,0,0:0:0:0:
320,192,29743,1,0,0:0:0:0:
192,192,29777,1,0,0:0:0:0:
64,192,29810,1,0,0:0:0:0:
448,192,29885,1,0,0:0:0:0:
64,192,29935,1,0,0:0:0:0:
320,192,30010,1,0,0:0:0:0:
64,192,30052,1,0,0:0:0:0:
192,192,30093,1,0,0:0:0:0:
320,192,30127,1,0,0:0:0:0:
448,192,30168,1,0,0:0:0:0:
320,192,30410,1,0,0:0:0:0:
448,192,30410,1,0,0:0:0:0:
64,192,30510,1,0,0:0:0:0:
192,192,30543,1,0,0:0:0:0:
320,192,30577,1,0,0:0:0:0:
448,192,30610,1,0,0:0:0:0:
64,192,30685,1,0,0:0:0:0:
448,192,30735,1,0,0:0:0:0:
192,192,30810,1,0,0:0:0:0:
448,192,30852,1,0,0:0:0:0:
320,192,30893,1,0,0:0:0:0:
192,192,30927,1,0,0:0:0:0:
64,192,30968,1,0,0:0:0:0:
320,192,31010,128,0,31210:0:0:0:0:
64,192,31210,1,0,0:0:0:0:
192,192,31210,1,0,0:0:0:0:
448,192,31302,1,0,0:0:0:0:
192,192,31368,1,0,0:0:0:0:
320,192,31452,1,0,0:0:0:0:
64,192,31543,1,0,0:0:0:0:
448,192,31610,1,0,0:0:0:0:
320,192,31643,1,0,0:0:0:0:
448,192,31677,1,0,0:0:0:0:
64,192,31710,1,0,0:0:0:0:
192,192,31793,1,0,0:0:0:0:
320,192,31793,1,0,0:0:0:0:
64,192,31910,1,0,0:0:0:0:
320,192,31910,1,0,0:0:0:0:
192,192,32010,1,0,0:0:0:0:
64,192,32010,1,0,0:0:0:0:
448,192,32010,1,0,0:0:0:0:
192,192,32310,1,0,0:0:0:0:
448,192,32343,1,0,0:0:0:0:
320,192,32377,1,0,0:0:0:0:
192,192,32410,1,0,0:0:0:0:
64,192,32510,1,0,0:0:0:0:
320,192,32535,1,0,0:0:0:0:
448,192,32560,1,0,0:0:0:0:
64,192,32643,1,0,0:0:0:0:
192,192,32668,1,0,0:0:0:0:
448,192,32693,1,0,0:0:0:0:
64,192,32810,1,0,0:0:0:0:
192,192,32810,1,0,0:0:0:0:
448,192,32860,1,0,0:0:0:0:
320,192,32910,1,0,0:0:0:0:
448,192,33043,1,0,0:0:0:0:
64,192,33093,1,0,0:0:0:0:
192,192,33143,1,0,0:0:0:0:
64,192,33210,1,0,0:0:0:0:
320,192,33310,1,0,0:0:0:0:
448,192,33352,1,0,0:0:0:0:
192,192,33385,1,0,0:0:0:0:
320,192,33418,1,0,0:0:0:0:
64,192,33460,1,0,0:0:0:0:
192,192,33493,1,0,0:0:0:0:
320,192,33610,1,0,0:0:0:0:
448,192,33610,1,0,0:0:0:0:
64,192,33660,1,0,0:0:0:0:
192,192,33710,1,0,0:0:0:0:
64,192,33843,1,0,0:0:0:0:
448,192,33893,1,0,0:0:0:0:
320,192,33943,1,0,0:0:0:0:
448,192,34010,1,0,0:0:0:0:
192,192,34110,1,0,0:0:0:0:
64,192,34152,1,0,0:0:0:0:
320,192,34185,1,0,0:0:0:0:
192,192,34218,1,0,0:0:0:0:
448,192,34260,1,0,0:0:0:0:
320,192,34293,1,0,0:0:0:0:
64,192,34410,1,0,0:0:0:0:
192,192,34410,1,0,0:0:0:0:
448,192,34460,1,0,0:0:0:0:
320,192,34510,1,0,0:0:0:0:
448,192,34643,1,0,0:0:0:0:
64,192,34693,1,0,0:0:0:0:
192,192,34743,1,0,0:0:0:0:
64,192,34810,1,0,0:0:0:0:
320,192,34910,1,0,0:0:0:0:
448,192,34952,1,0,0:0:0:0:
192,192,34985,1,0,0:0:0:0:
320,192,35018,1,0,0:0:0:0:
64,192,35060,1,0,0:0:0:0:
192,192,35093,1,0,0:0:0:0:
448,192,35127,1,0,0:0:0:0:
320,192,35177,1,0,0:0:0:0:
192,192,35210,1,0,0:0:0:0:
64,192,35210,1,0,0:0:0:0:
448,192,35210,1,0,0:0:0:0:
192,192,35510,1,0,0:0:0:0:
448,192,35543,1,0,0:0:0:0:
320,192,35577,1,0,0:0:0:0:
192,192,35610,1,0,0:0:0:0:
64,192,35710,1,0,0:0:0:0:
320,192,35735,1,0,0:0:0:0:
448,192,35760,1,0,0:0:0:0:
64,192,35843,1,0,0:0:0:0:
192,192,35868,1,0,0:0:0:0:
448,192,35893,1,0,0:0:0:0:
64,192,36010,1,0,0:0:0:0:
192,192,36010,1,0,0:0:0:0:
448,192,36077,1,0,0:0:0:0:
320,192,36110,1,0,0:0:0:0:
192,192,36143,1,0,0:0:0:0:
64,192,36177,1,0,0:0:0:0:
320,192,36310,1,0,0:0:0:0:
192,192,36360,1,0,0:0:0:0:
448,192,36410,1,0,0:0:0:0:
192,192,36585,1,0,0:0:0:0:
320,192,36635,1,0,0:0:0:0:
64,192,36685,1,0,0:0:0:0:
448,192,36810,1,0,0:0:0:0:
320,192,36843,1,0,0:0:0:0:
192,192,36877,1,0,0:0:0:0:
64,192,36910,1,0,0:0:0:0:
448,192,36943,1,0,0:0:0:0:
320,192,36977,1,0,0:0:0:0:
192,192,37010,1,0,0:0:0:0:
64,192,37110,1,0,0:0:0:0:
320,192,37243,1,0,0:0:0:0:
448,192,37387,1,0,0:0:0:0:
192,192,37410,1,0,0:0:0:0:
64,192,37460,1,0,0:0:0:0:
320,192,37510,1,0,0:0:0:0:
192,192,37560,1,0,0:0:0:0:
448,192,37610,1,0,0:0:0:0:
64,192,37652,1,0,0:0:0:0:
192,192,37693,1,0,0:0:0:0:
320,192,37727,1,0,0:0:0:0:
448,192,37768,1,0,0:0:0:0:
64,192,37810,1,0,0:0:0:0:
320,192,37860,1,0,0:0:0:0:
64,192,37910,1,0,0:0:0:0:
320,192,37960,1,0,0:0:0:0:
64,192,38010,1,0,0:0:0:0:
320,192,38060,1,0,0:0:0:0:
64,192,38110,1,0,0:0:0:0:
448,192,38143,1,0,0:0:0:0:
192,192,38277,1,0,0:0:0:0:
320,192,38410,1,0,0:0:0:0:
448,192,38410,1,0,0:0:0:0:
64,192,38410,1,0,0:0:0:0:
320,192,38710,1,0,0:0:0:0:
64,192,38743,1,0,0:0:0:0:
192,192,38777,1,0,0:0:0:0:
320,192,38810,1,0,0:0:0:0:
448,192,38910,1,0,0:0:0:0:
192,192,38935,1,0,0:0:0:0:
64,192,38960,1,0,0:0:0:0:
448,192,39043,1,0,0:0:0:0:
320,192,39068,1,0,0:0:0:0:
64,192,39093,1,0,0:0:0:0:
320,192,39210,1,0,0:0:0:0:
448,192,39210,1,0,0:0:0:0:
64,192,39310,1,0,0:0:0:0:
192,192,39343,1,0,0:0:0:0:
320,192,39377,1,0,0:0:0:0:
448,192,39410,1,0,0:0:0:0:
64,192,39485,1,0,0:0:0:0:
448,192,39535,1,0,0:0:0:0:
192,192,39610,1,0,0:0:0:0:
320,192,39652,1,0,0:0:0:0:
64,192,39693,1,0,0:0:0:0:
192,192,39727,1,0,0:0:0:0:
448,192,39743,1,0,0:0:0:0:
320,192,39768,1,0,0:0:0:0:
64,192,39877,1,0,0:0:0:0:
64,192,40010,1,0,0:0:0:0:
192,192,40010,1,0,0:0:0:0:
448,192,40110,1,0,0:0:0:0:
320,192,40143,1,0,0:0:0:0:
192,192,40177,1,0,0:0:0:0:
64,192,40210,1,0,0:0:0:0:
448,192,40285,1,0,0:0:0:0:
64,192,40335,1,0,0:0:0:0:
320,192,40410,1,0,0:0:0:0:
192,192,40452,1,0,0:0:0:0:
448,192,40493,1,0,0:0:0:0:
320,192,40527,1,0,0:0:0:0:
64,192,40543,1,0,0:0:0:0:
192,192,40568,1,0,0:0:0:0:
320,192,40660,1,0,0:0:0:0:
192,192,40710,1,0,0:0:0:0:
64,192,40760,1,0,0:0:0:0:
320,192,40810,1,0,0:0:0:0:
448,192,40810,1,0,0:0:0:0:
64,192,40910,1,0,0:0:0:0:
192,192,40943,1,0,0:0:0:0:
320,192,40977,1,0,0:0:0:0:
448,192,41010,1,0,0:0:0:0:
64,192,41085,1,0,0:0:0:0:
448,192,41135,1,0,0:0:0:0:
192,192,41210,1,0,0:0:0:0:
320,192,41252,1,0,0:0:0:0:
64,192,41293,1,0,0:0:0:0:
192,192,41327,1,0,0:0:0:0:
448,192,41343,1,0,0:0:0:0:
320,192,41368,1,0,0:0:0:0:
64,192,41485,1,0,0:0:0:0:
448,192,41535,1,0,0:0:0:0:
64,192,41610,1,0,0:0:0:0:
192,192,41610,1,0,0:0:0:0:
448,192,41710,1,0,0:0:0:0:
320,192,41743,1,0,0:0:0:0:
192,192,41777,1,0,0:0:0:0:
64,192,41810,1,0,0:0:0:0:
448,192,41885,1,0,0:0:0:0:
64,192,41935,1,0,0:0:0:0:
320,192,42010,1,0,0:0:0:0:
192,192,42052,1,0,0:0:0:0:
448,192,42093,1,0,0:0:0:0:
320,192,42127,1,0,0:0:0:0:
64,192,42168,1,0,0:0:0:0:
448,192,42210,1,0,0:0:0:0:
192,192,42268,1,0,0:0:0:0:
320,192,42302,1,0,0:0:0:0:
64,192,42335,1,0,0:0:0:0:
192,192,42368,1,0,0:0:0:0:
320,192,42410,1,0,0:0:0:0:
448,192,42410,1,0,0:0:0:0:
64,192,42510,1,0,0:0:0:0:
192,192,42543,1,0,0:0:0:0:
320,192,42577,1,0,0:0:0:0:
448,192,42610,1,0,0:0:0:0:
64,192,42685,1,0,0:0:0:0:
448,192,42735,1,0,0:0:0:0:
192,192,42810,1,0,0:0:0:0:
320,192,42852,1,0,0:0:0:0:
64,192,42893,1,0,0:0:0:0:
192,192,42927,1,0,0:0:0:0:
448,192,42943,1,0,0:0:0:0:
320,192,42968,1,0,0:0:0:0:
64,192,43077,1,0,0:0:0:0:
64,192,43210,1,0,0:0:0:0:
192,192,43210,1,0,0:0:0:0:
448,192,43310,1,0,0:0:0:0:
320,192,43343,1,0,0:0:0:0:
192,192,43377,1,0,0:0:0:0:
64,192,43410,1,0,0:0:0:0:
448,192,43485,1,0,0:0:0:0:
64,192,43535,1,0,0:0:0:0:
320,192,43610,1,0,0:0:0:0:
192,192,43652,1,0,0:0:0:0:
448,192,43693,1,0,0:0:0:0:
320,192,43727,1,0,0:0:0:0:
64,192,43743,1,0,0:0:0:0:
192,192,43768,1,0,0:0:0:0:
448,192,43877,1,0,0:0:0:0:
320,192,44010,1,0,0:0:0:0:
448,192,44010,1,0,0:0:0:0:
64,192,44102,1,0,0:0:0:0:
320,192,44168,1,0,0:0:0:0:
192,192,44252,1,0,0:0:0:0:
448,192,44343,1,0,0:0:0:0:
64,192,44410,1,0,0:0:0:0:
192,192,44443,1,0,0:0:0:0:
64,192,44477,1,0,0:0:0:0:
448,192,44510,1,0,0:0:0:0:
192,192,44593,1,0,0:0:0:0:
320,192,44593,1,0,0:0:0:0:
192,192,44710,1,0,0:0:0:0:
448,192,44710,1,0,0:0:0:0:
320,192,44810,1,0,0:0:0:0:
448,192,44810,1,0,0:0:0:0:
64,192,44810,1,0,0:0:0:0:
320,192,45110,1,0,0:0:0:0:
64,192,45143,1,0,0:0:0:0:
192,192,45177,1,0,0:0:0:0:
320,192,45210,1,0,0:0:0:0:
448,192,45310,1,0,0:0:0:0:
192,192,45335,1,0,0:0:0:0:
64,192,45360,1,0,0:0:0:0:
448,192,45443,1,0,0:0:0:0:
320,192,45468,1,0,0:0:0:0:
64,192,45493,1,0,0:0:0:0:
320,192,45610,1,0,0:0:0:0:
448,192,45610,1,0,0:0:0:0:
64,192,45660,1,0,0:0:0:0:
192,192,45710,1,0,0:0:0:0:
448,192,45743,1,0,0:0:0:0:
64,192,45876,1,0,0:0:0:0:
320,192,45927,1,0,0:0:0:0:
192,192,45977,1,0,0:0:0:0:
448,192,46010,1,0,0:0:0:0:
192,192,46110,1,0,0:0:0:0:
64,192,46152,1,0,0:0:0:0:
320,192,46185,1,0,0:0:0:0:
192,192,46218,1,0,0:0:0:0:
448,192,46260,1,0,0:0:0:0:
320,192,46293,1,0,0:0:0:0:
64,192,46410,1,0,0:0:0:0:
192,192,46410,1,0,0:0:0:0:
448,192,46460,1,0,0:0:0:0:
320,192,46510,1,0,0:0:0:0:
64,192,46543,1,0,0:0:0:0:
448,192,46677,1,0,0:0:0:0:
192,192,46727,1,0,0:0:0:0:
320,192,46777,1,0,0:0:0:0:
64,192,46810,1,0,0:0:0:0:
320,192,46910,1,0,0:0:0:0:
448,192,46952,1,0,0:0:0:0:
192,192,46985,1,0,0:0:0:0:
320,192,47018,1,0,0:0:0:0:
64,192,47060,1,0,0:0:0:0:
192,192,47093,1,0,0:0:0:0:
320,192,47210,1,0,0:0:0:0:
448,192,47210,1,0,0:0:0:0:
64,192,47260,1,0,0:0:0:0:
192,192,47310,1,0,0:0:0:0:
448,192,47343,1,0,0:0:0:0:
64,192,47477,1,0,0:0:0:0:
320,192,47527,1,0,0:0:0:0:
192,192,47577,1,0,0:0:0:0:
448,192,47610,1,0,0:0:0:0:
192,192,47710,1,0,0:0:0:0:
64,192,47752,1,0,0:0:0:0:
320,192,47785,1,0,0:0:0:0:
192,192,47818,1,0,0:0:0:0:
448,192,47860,1,0,0:0:0:0:
320,192,47893,1,0,0:0:0:0:
64,192,47927,1,0,0:0:0:0:
192,192,47977,1,0,0:0:0:0:
64,192,48010,1,0,0:0:0:0:
448,192,48010,1,0,0:0:0:0:
320,192,48010,1,0,0:0:0:0:
320,192,48310,1,0,0:0:0:0:
64,192,48343,1,0,0:0:0:0:
192,192,48377,1,0,0:0:0:0:
320,192,48410,1,0,0:0:0:0:
448,192,48510,1,0,0:0:0:0:
192,192,48535,1,0,0:0:0:0:
64,192,48560,1,0,0:0:0:0:
448,192,48643,1,0,0:0:0:0:
320,192,48668,1,0,0:0:0:0:
64,192,48693,1,0,0:0:0:0:
320,192,48810,1,0,0:0:0:0:
448,192,48810,1,0,0:0:0:0:
64,192,48877,1,0,0:0:0:0:
192,192,48910,1,0,0:0:0:0:
320,192,48943,1,0,0:0:0:0:
448,192,48977,1,0,0:0:0:0:
192,192,49110,1,0,0:0:0:0:
320,192,49160,1,0,0:0:0:0:
64,192,49210,1,0,0:0:0:0:
320,192,49385,1,0,0:0:0:0:
192,192,49435,1,0,0:0:0:0:
448,192,49485,1,0,0:0:0:0:
64,192,49610,1,0,0:0:0:0:
192,192,49643,1,0,0:0:0:0:
320,192,49677,1,0,0:0:0:0:
448,192,49710,1,0,0:0:0:0:
64,192,49743,1,0,0:0:0:0:
192,192,49777,1,0,0:0:0:0:
320,192,49810,1,0,0:0:0:0:
192,192,49960,1,0,0:0:0:0:
64,192,49960,1,0,0:0:0:0:
448,192,50210,1,0,0:0:0:0:
192,192,50260,1,0,0:0:0:0:
320,192,50310,1,0,0:0:0:0:
64,192,50360,1,0,0:0:0:0:
448,192,50360,1,0,0:0:0:0:
192,192,50476,1,0,0:0:0:0:
64,192,50476,1,0,0:0:0:0:
320,192,50576,1,0,0:0:0:0:
448,192,50576,1,0,0:0:0:0:
192,192,50785,1,0,0:0:0:0:
448,192,50960,1,0,0:0:0:0:
64,192,50960,1,0,0:0:0:0:
192,192,51010,1,0,0:0:0:0:
64,192,51060,1,0,0:0:0:0:
320,192,51110,1,0,0:0:0:0:
192,192,51160,1,0,0:0:0:0:
448,192,51210,128,0,51360:0:0:0:0:
320,192,51210,128,0,51360:0:0:0:0:
64,192,51210,1,0,0:0:0:0:
192,192,51360,1,0,0:0:0:0:
192,192,51610,1,0,0:0:0:0:
448,192,51610,1,0,0:0:0:0:
192,192,51743,1,0,0:0:0:0:
448,192,51743,1,0,0:0:0:0:
448,192,51877,1,0,0:0:0:0:
192,192,51910,1,0,0:0:0:0:
64,192,51943,1,0,0:0:0:0:
320,192,52010,1,0,0:0:0:0:
448,192,52043,1,0,0:0:0:0:
192,192,52077,1,0,0:0:0:0:
320,192,52110,1,0,0:0:0:0:
64,192,52143,1,0,0:0:0:0:
192,192,52177,1,0,0:0:0:0:
448,192,52210,1,0,0:0:0:0:
320,192,52260,1,0,0:0:0:0:
64,192,52410,1,0,0:0:0:0:
320,192,52410,1,0,0:0:0:0:
64,192,52543,1,0,0:0:0:0:
320,192,52543,1,0,0:0:0:0:
64,192,52677,1,0,0:0:0:0:
448,192,52710,1,0,0:0:0:0:
192,192,52743,1,0,0:0:0:0:
320,192,52810,128,0,52960:0:0:0:0:
448,192,52810,128,0,52960:0:0:0:0:
192,192,52960,1,0,0:0:0:0:
192,192,53210,1,0,0:0:0:0:
448,192,53210,1,0,0:0:0:0:
192,192,53343,1,0,0:0:0:0:
448,192,53343,1,0,0:0:0:0:
448,192,53477,1,0,0:0:0:0:
192,192,53510,1,0,0:0:0:0:
64,192,53543,1,0,0:0:0:0:
320,192,53610,1,0,0:0:0:0:
448,192,53643,1,0,0:0:0:0:
192,192,53677,1,0,0:0:0:0:
320,192,53710,1,0,0:0:0:0:
64,192,53743,1,0,0:0:0:0:
192,192,53777,1,0,0:0:0:0:
448,192,53810,1,0,0:0:0:0:
320,192,53860,1,0,0:0:0:0:
320,192,54010,1,0,0:0:0:0:
192,192,54010,1,0,0:0:0:0:
64,192,54010,1,0,0:0:0:0:
192,192,54143,1,0,0:0:0:0:
320,192,54143,1,0,0:0:0:0:
448,192,54143,1,0,0:0:0:0:
448,192,54410,1,0,0:0:0:0:
192,192,54410,128,0,54560:0:0:0:0:
64,192,54410,128,0,54560:0:0:0:0:
320,192,54560,1,0,0:0:0:0:
64,192,54810,1,0,0:0:0:0:
320,192,54810,1,0,0:0:0:0:
448,192,54810,1,0,0:0:0:0:
64,192,54943,1,0,0:0:0:0:
448,192,54943,1,0,0:0:0:0:
64,192,55077,1,0,0:0:0:0:
448,192,55077,1,0,0:0:0:0:
64,192,55210,1,0,0:0:0:0:
192,192,55210,1,0,0:0:0:0:
320,192,55210,1,0,0:0:0:0:
448,192,55210,1,0,0:0:0:0:
64,192,55343,1,0,0:0:0:0:
448,192,55343,1,0,0:0:0:0:
64,192,55477,1,0,0:0:0:0:
448,192,55477,1,0,0:0:0:0:
64,192,55610,1,0,0:0:0:0:
448,192,55610,1,0,0:0:0:0:
192,192,55677,1,0,0:0:0:0:
320,192,55677,1,0,0:0:0:0:
64,192,55743,1,0,0:0:0:0:
448,192,55743,1,0,0:0:0:0:
448,192,55876,1,0,0:0:0:0:
64,192,55876,1,0,0:0:0:0:
64,192,56010,1,0,0:0:0:0:
448,192,56010,1,0,0:0:0:0:
192,192,56010,1,0,0:0:0:0:
64,192,56143,1,0,0:0:0:0:
448,192,56143,1,0,0:0:0:0:
64,192,56277,1,0,0:0:0:0:
448,192,56277,1,0,0:0:0:0:
64,192,56410,1,0,0:0:0:0:
448,192,56410,1,0,0:0:0:0:
320,192,56410,1,0,0:0:0:0:
64,192,56543,1,0,0:0:0:0:
448,192,56543,1,0,0:0:0:0:
64,192,56677,1,0,0:0:0:0:
448,192,56677,1,0,0:0:0:0:
64,192,56810,1,0,0:0:0:0:
448,192,56810,1,0,0:0:0:0:
192,192,56810,1,0,0:0:0:0:
320,192,56877,1,0,0:0:0:0:
448,192,56910,1,0,0:0:0:0:
192,192,56943,1,0,0:0:0:0:
320,192,56977,1,0,0:0:0:0:
64,192,57010,1,0,0:0:0:0:
192,192,57060,1,0,0:0:0:0:
320,192,57210,1,0,0:0:0:0:
192,192,57243,1,0,0:0:0:0:
64,192,57277,1,0,0:0:0:0:
448,192,57310,1,0,0:0:0:0:
320,192,57343,1,0,0:0:0:0:
192,192,57377,1,0,0:0:0:0:
64,192,57477,1,0,0:0:0:0:
448,192,57510,1,0,0:0:0:0:
192,192,57543,1,0,0:0:0:0:
64,192,57610,1,0,0:0:0:0:
320,192,57610,128,0,57760:0:0:0:0:
448,192,57610,128,0,57760:0:0:0:0:
192,192,57760,1,0,0:0:0:0:
192,192,58010,1,0,0:0:0:0:
320,192,58010,1,0,0:0:0:0:
448,192,58010,1,0,0:0:0:0:
320,192,58143,1,0,0:0:0:0:
448,192,58143,1,0,0:0:0:0:
320,192,58277,1,0,0:0:0:0:
448,192,58277,1,0,0:0:0:0:
64,192,58410,1,0,0:0:0:0:
448,192,58410,1,0,0:0:0:0:
192,192,58477,1,0,0:0:0:0:
64,192,58510,1,0,0:0:0:0:
320,192,58543,1,0,0:0:0:0:
192,192,58577,1,0,0:0:0:0:
448,192,58610,1,0,0:0:0:0:
320,192,58660,1,0,0:0:0:0:
64,192,58810,1,0,0:0:0:0:
192,192,58810,1,0,0:0:0:0:
448,192,58810,1,0,0:0:0:0:
64,192,58943,1,0,0:0:0:0:
192,192,58943,1,0,0:0:0:0:
64,192,59077,1,0,0:0:0:0:
192,192,59077,1,0,0:0:0:0:
64,192,59210,1,0,0:0:0:0:
320,192,59210,128,0,59360:0:0:0:0:
448,192,59210,128,0,59360:0:0:0:0:
192,192,59360,1,0,0:0:0:0:
192,192,59610,1,0,0:0:0:0:
320,192,59610,1,0,0:0:0:0:
448,192,59610,1,0,0:0:0:0:
320,192,59743,1,0,0:0:0:0:
448,192,59743,1,0,0:0:0:0:
320,192,59877,1,0,0:0:0:0:
448,192,59877,1,0,0:0:0:0:
64,192,60010,1,0,0:0:0:0:
448,192,60010,1,0,0:0:0:0:
192,192,60077,1,0,0:0:0:0:
64,192,60110,1,0,0:0:0:0:
320,192,60143,1,0,0:0:0:0:
192,192,60177,1,0,0:0:0:0:
448,192,60210,1,0,0:0:0:0:
320,192,60260,1,0,0:0:0:0:
64,192,60410,128,0,60543:0:0:0:0:
448,192,60410,128,0,60543:0:0:0:0:
192,192,60677,1,0,0:0:0:0:
320,192,60677,1,0,0:0:0:0:
448,192,60810,1,0,0:0:0:0:
192,192,60810,128,0,60960:0:0:0:0:
64,192,60810,128,0,60960:0:0:0:0:
320,192,60960,1,0,0:0:0:0:
64,192,61210,1,0,0:0:0:0:
192,192,61210,1,0,0:0:0:0:
320,192,61210,1,0,0:0:0:0:
192,192,61343,1,0,0:0:0:0:
320,192,61343,1,0,0:0:0:0:
192,192,61477,1,0,0:0:0:0:
320,192,61477,1,0,0:0:0:0:
64,192,61610,1,0,0:0:0:0:
192,192,61610,1,0,0:0:0:0:
320,192,61610,1,0,0:0:0:0:
448,192,61610,1,0,0:0:0:0:
192,192,61743,1,0,0:0:0:0:
320,192,61743,1,0,0:0:0:0:
192,192,61877,1,0,0:0:0:0:
320,192,61877,1,0,0:0:0:0:
448,192,62010,1,0,0:0:0:0:
64,192,62060,1,0,0:0:0:0:
320,192,62110,1,0,0:0:0:0:
192,192,62160,1,0,0:0:0:0:
448,192,62210,1,0,0:0:0:0:
320,192,62260,1,0,0:0:0:0:
64,192,62310,1,0,0:0:0:0:
192,192,62360,1,0,0:0:0:0:
448,192,62410,1,0,0:0:0:0:
320,192,62443,1,0,0:0:0:0:
192,192,62477,1,0,0:0:0:0:
64,192,62510,1,0,0:0:0:0:
448,192,62543,1,0,0:0:0:0:
320,192,62577,1,0,0:0:0:0:
192,192,62610,1,0,0:0:0:0:
64,192,62710,1,0,0:0:0:0:
320,192,62843,1,0,0:0:0:0:
448,192,62987,1,0,0:0:0:0:
192,192,63010,1,0,0:0:0:0:
64,192,63060,1,0,0:0:0:0:
320,192,63110,1,0,0:0:0:0:
192,192,63160,1,0,0:0:0:0:
448,192,63210,1,0,0:0:0:0:
64,192,63252,1,0,0:0:0:0:
192,192,63293,1,0,0:0:0:0:
320,192,63327,1,0,0:0:0:0:
448,192,63368,1,0,0:0:0:0:
64,192,63410,1,0,0:0:0:0:
320,192,63460,1,0,0:0:0:0:
64,192,63510,1,0,0:0:0:0:
320,192,63560,1,0,0:0:0:0:
64,192,63610,1,0,0:0:0:0:
320,192,63660,1,0,0:0:0:0:
64,192,63710,1,0,0:0:0:0:
448,192,63743,1,0,0:0:0:0:
192,192,63877,1,0,0:0:0:0:
64,192,64010,1,0,0:0:0:0:
320,192,64010,128,0,64160:0:0:0:0:
448,192,64010,128,0,64160:0:0:0:0:
192,192,64160,1,0,0:0:0:0:
448,192,64277,1,0,0:0:0:0:
192,192,64410,1,0,0:0:0:0:
320,192,64410,1,0,0:0:0:0:
192,192,64543,1,0,0:0:0:0:
192,192,64677,1,0,0:0:0:0:
64,192,64810,1,0,0:0:0:0:
192,192,64810,1,0,0:0:0:0:
448,192,64810,1,0,0:0:0:0:
192,192,64943,1,0,0:0:0:0:
192,192,65077,1,0,0:0:0:0:
192,192,65210,1,0,0:0:0:0:
320,192,65210,1,0,0:0:0:0:
192,192,65343,1,0,0:0:0:0:
192,192,65477,1,0,0:0:0:0:
64,192,65610,1,0,0:0:0:0:
192,192,65610,1,0,0:0:0:0:
192,192,65743,1,0,0:0:0:0:
192,192,65877,1,0,0:0:0:0:
192,192,66010,1,0,0:0:0:0:
320,192,66010,1,0,0:0:0:0:
192,192,66143,1,0,0:0:0:0:
320,192,66235,1,0,0:0:0:0:
192,192,66277,1,0,0:0:0:0:
448,192,66327,1,0,0:0:0:0:
320,192,66377,1,0,0:0:0:0:
64,192,66410,1,0,0:0:0:0:
192,192,66410,1,0,0:0:0:0:
448,192,66410,1,0,0:0:0:0:
320,192,66543,1,0,0:0:0:0:
64,192,66677,1,0,0:0:0:0:
192,192,66810,1,0,0:0:0:0:
320,192,66810,1,0,0:0:0:0:
448,192,66943,1,0,0:0:0:0:
192,192,67077,1,0,0:0:0:0:
64,192,67210,1,0,0:0:0:0:
448,192,67210,1,0,0:0:0:0:
320,192,67277,1,0,0:0:0:0:
448,192,67310,1,0,0:0:0:0:
192,192,67343,1,0,0:0:0:0:
320,192,67377,1,0,0:0:0:0:
64,192,67410,1,0,0:0:0:0:
192,192,67460,1,0,0:0:0:0:
192,192,67610,1,0,0:0:0:0:
320,192,67610,1,0,0:0:0:0:
320,192,67743,1,0,0:0:0:0:
320,192,67877,1,0,0:0:0:0:
64,192,68010,1,0,0:0:0:0:
320,192,68010,1,0,0:0:0:0:
448,192,68010,1,0,0:0:0:0:
320,192,68143,1,0,0:0:0:0:
320,192,68277,1,0,0:0:0:0:
192,192,68410,1,0,0:0:0:0:
320,192,68410,1,0,0:0:0:0:
320,192,68543,1,0,0:0:0:0:
320,192,68677,1,0,0:0:0:0:
320,192,68810,1,0,0:0:0:0:
448,192,68810,1,0,0:0:0:0:
320,192,68943,1,0,0:0:0:0:
320,192,69077,1,0,0:0:0:0:
192,192,69210,1,0,0:0:0:0:
320,192,69210,1,0,0:0:0:0:
320,192,69343,1,0,0:0:0:0:
192,192,69435,1,0,0:0:0:0:
320,192,69477,1,0,0:0:0:0:
64,192,69527,1,0,0:0:0:0:
192,192,69577,1,0,0:0:0:0:
64,192,69610,1,0,0:0:0:0:
320,192,69610,1,0,0:0:0:0:
448,192,69610,1,0,0:0:0:0:
192,192,69743,1,0,0:0:0:0:
448,192,69877,1,0,0:0:0:0:
192,192,70010,1,0,0:0:0:0:
320,192,70010,1,0,0:0:0:0:
448,192,70143,1,0,0:0:0:0:
192,192,70277,1,0,0:0:0:0:
64,192,70410,1,0,0:0:0:0:
320,192,70410,128,0,70560:0:0:0:0:
448,192,70410,128,0,70560:0:0:0:0:
192,192,70560,1,0,0:0:0:0:
448,192,70677,1,0,0:0:0:0:
64,192,70810,1,0,0:0:0:0:
320,192,70810,1,0,0:0:0:0:
64,192,70943,1,0,0:0:0:0:
64,192,71077,1,0,0:0:0:0:
64,192,71210,1,0,0:0:0:0:
192,192,71210,1,0,0:0:0:0:
448,192,71210,1,0,0:0:0:0:
64,192,71343,1,0,0:0:0:0:
64,192,71477,1,0,0:0:0:0:
64,192,71610,1,0,0:0:0:0:
320,192,71610,1,0,0:0:0:0:
64,192,71743,1,0,0:0:0:0:
64,192,71877,1,0,0:0:0:0:
64,192,72010,1,0,0:0:0:0:
192,192,72010,1,0,0:0:0:0:
64,192,72143,1,0,0:0:0:0:
64,192,72277,1,0,0:0:0:0:
64,192,72410,1,0,0:0:0:0:
320,192,72410,1,0,0:0:0:0:
64,192,72543,1,0,0:0:0:0:
320,192,72635,1,0,0:0:0:0:
64,192,72677,1,0,0:0:0:0:
448,192,72727,1,0,0:0:0:0:
320,192,72777,1,0,0:0:0:0:
64,192,72810,1,0,0:0:0:0:
192,192,72810,1,0,0:0:0:0:
448,192,72810,1,0,0:0:0:0:
320,192,72943,1,0,0:0:0:0:
192,192,73077,1,0,0:0:0:0:
64,192,73210,1,0,0:0:0:0:
320,192,73210,1,0,0:0:0:0:
448,192,73343,1,0,0:0:0:0:
192,192,73477,1,0,0:0:0:0:
64,192,73610,1,0,0:0:0:0:
448,192,73610,1,0,0:0:0:0:
320,192,73677,1,0,0:0:0:0:
448,192,73710,1,0,0:0:0:0:
192,192,73743,1,0,0:0:0:0:
320,192,73777,1,0,0:0:0:0:
64,192,73810,1,0,0:0:0:0:
192,192,73860,1,0,0:0:0:0:
192,192,74010,1,0,0:0:0:0:
448,192,74010,1,0,0:0:0:0:
448,192,74143,1,0,0:0:0:0:
448,192,74277,1,0,0:0:0:0:
64,192,74410,1,0,0:0:0:0:
320,192,74410,1,0,0:0:0:0:
448,192,74410,1,0,0:0:0:0:
448,192,74543,1,0,0:0:0:0:
448,192,74677,1,0,0:0:0:0:
192,192,74810,1,0,0:0:0:0:
448,192,74810,1,0,0:0:0:0:
448,192,74943,1,0,0:0:0:0:
448,192,75077,1,0,0:0:0:0:
64,192,75210,1,0,0:0:0:0:
448,192,75210,1,0,0:0:0:0:
192,192,75277,1,0,0:0:0:0:
320,192,75310,1,0,0:0:0:0:
64,192,75343,1,0,0:0:0:0:
192,192,75377,1,0,0:0:0:0:
448,192,75410,1,0,0:0:0:0:
320,192,75460,1,0,0:0:0:0:
64,192,75510,1,0,0:0:0:0:
448,192,75560,1,0,0:0:0:0:
192,192,75610,1,0,0:0:0:0:
320,192,75743,1,0,0:0:0:0:
64,192,75876,1,0,0:0:0:0:
192,192,76010,1,0,0:0:0:0:
320,192,76010,1,0,0:0:0:0:
448,192,76010,1,0,0:0:0:0:
192,192,76210,1,0,0:0:0:0:
64,192,76210,1,0,0:0:0:0:
448,192,76277,1,0,0:0:0:0:
320,192,76343,1,0,0:0:0:0:
192,192,76410,1,0,0:0:0:0:
448,192,76543,1,0,0:0:0:0:
64,192,76677,1,0,0:0:0:0:
64,192,76810,1,0,0:0:0:0:
192,192,76810,1,0,0:0:0:0:
320,192,76810,1,0,0:0:0:0:
448,192,76810,1,0,0:0:0:0:
192,192,79610,128,0,79877:0:0:0:0:
448,192,79877,128,0,80010:0:0:0:0:
320,192,80010,128,0,82743:0:0:0:0:
192,192,80410,1,0,0:0:0:0:
192,192,82010,1,0,0:0:0:0:
448,192,82743,128,0,82877:0:0:0:0:
320,192,82877,128,0,83210:0:0:0:0:
64,192,83210,128,0,86277:0:0:0:0:
448,192,83210,1,0,0:0:0:0:
192,192,83610,1,0,0:0:0:0:
320,192,83610,1,0,0:0:0:0:
192,192,83876,1,0,0:0:0:0:
448,192,84010,1,0,0:0:0:0:
320,192,84010,1,0,0:0:0:0:
320,192,84276,1,0,0:0:0:0:
192,192,84410,1,0,0:0:0:0:
448,192,84410,1,0,0:0:0:0:
448,192,84810,1,0,0:0:0:0:
192,192,85210,1,0,0:0:0:0:
320,192,85210,1,0,0:0:0:0:
192,192,85476,1,0,0:0:0:0:
448,192,85610,1,0,0:0:0:0:
320,192,85610,1,0,0:0:0:0:
448,192,85876,1,0,0:0:0:0:
192,192,86010,128,0,86277:0:0:0:0:
320,192,86010,1,0,0:0:0:0:
448,192,86277,128,0,86410:0:0:0:0:
192,192,86410,1,0,0:0:0:0:
320,192,86410,128,0,88810:0:0:0:0:
448,192,86810,1,0,0:0:0:0:
64,192,86810,1,0,0:0:0:0:
64,192,87076,1,0,0:0:0:0:
192,192,87210,1,0,0:0:0:0:
448,192,87210,1,0,0:0:0:0:
448,192,87476,1,0,0:0:0:0:
64,192,87610,1,0,0:0:0:0:
192,192,87610,1,0,0:0:0:0:
192,192,88010,1,0,0:0:0:0:
64,192,88410,1,0,0:0:0:0:
448,192,88410,1,0,0:0:0:0:
64,192,88676,1,0,0:0:0:0:
192,192,88810,1,0,0:0:0:0:
448,192,88810,128,0,88943:0:0:0:0:
320,192,88943,128,0,89610:0:0:0:0:
448,192,89076,1,0,0:0:0:0:
64,192,89210,1,0,0:0:0:0:
192,192,89210,1,0,0:0:0:0:
64,192,89610,1,0,0:0:0:0:
192,192,89610,1,0,0:0:0:0:
448,192,89610,1,0,0:0:0:0:
320,192,89877,1,0,0:0:0:0:
192,192,90010,1,0,0:0:0:0:
320,192,90143,1,0,0:0:0:0:
320,192,90277,1,0,0:0:0:0:
64,192,90410,1,0,0:0:0:0:
320,192,90410,1,0,0:0:0:0:
448,192,90410,1,0,0:0:0:0:
448,192,90677,1,0,0:0:0:0:
64,192,90810,1,0,0:0:0:0:
192,192,90810,1,0,0:0:0:0:
320,192,91077,1,0,0:0:0:0:
192,192,91210,1,0,0:0:0:0:
192,192,91477,1,0,0:0:0:0:
320,192,91610,1,0,0:0:0:0:
192,192,91743,1,0,0:0:0:0:
192,192,91877,1,0,0:0:0:0:
64,192,92010,1,0,0:0:0:0:
192,192,92010,1,0,0:0:0:0:
448,192,92010,1,0,0:0:0:0:
64,192,92277,1,0,0:0:0:0:
320,192,92410,1,0,0:0:0:0:
448,192,92410,1,0,0:0:0:0:
192,192,92677,1,0,0:0:0:0:
64,192,92810,1,0,0:0:0:0:
448,192,92810,1,0,0:0:0:0:
448,192,93077,1,0,0:0:0:0:
192,192,93210,1,0,0:0:0:0:
320,192,93210,1,0,0:0:0:0:
448,192,93343,1,0,0:0:0:0:
448,192,93477,1,0,0:0:0:0:
64,192,93610,1,0,0:0:0:0:
320,192,93610,1,0,0:0:0:0:
448,192,93610,1,0,0:0:0:0:
448,192,93877,1,0,0:0:0:0:
64,192,94010,1,0,0:0:0:0:
192,192,94010,1,0,0:0:0:0:
320,192,94277,1,0,0:0:0:0:
64,192,94410,1,0,0:0:0:0:
64,192,94677,1,0,0:0:0:0:
192,192,94810,1,0,0:0:0:0:
320,192,94810,1,0,0:0:0:0:
64,192,94943,1,0,0:0:0:0:
64,192,95077,1,0,0:0:0:0:
64,192,95210,1,0,0:0:0:0:
192,192,95210,1,0,0:0:0:0:
448,192,95210,1,0,0:0:0:0:
64,192,95477,1,0,0:0:0:0:
320,192,95610,1,0,0:0:0:0:
448,192,95610,1,0,0:0:0:0:
192,192,95877,1,0,0:0:0:0:
64,192,96010,1,0,0:0:0:0:
448,192,96010,1,0,0:0:0:0:
192,192,96410,1,0,0:0:0:0:
320,192,96410,1,0,0:0:0:0:
64,192,96810,1,0,0:0:0:0:
320,192,96810,1,0,0:0:0:0:
448,192,96810,1,0,0:0:0:0:
192,192,97210,1,0,0:0:0:0:
320,192,97210,1,0,0:0:0:0:
64,192,97610,1,0,0:0:0:0:
192,192,97610,1,0,0:0:0:0:
64,192,98010,1,0,0:0:0:0:
192,192,98010,1,0,0:0:0:0:
320,192,98010,1,0,0:0:0:0:
64,192,98410,1,0,0:0:0:0:
320,192,98410,1,0,0:0:0:0:
448,192,98410,1,0,0:0:0:0:
64,192,98543,1,0,0:0:0:0:
64,192,98677,1,0,0:0:0:0:
64,192,98810,1,0,0:0:0:0:
192,192,98810,1,0,0:0:0:0:
448,192,98810,1,0,0:0:0:0:
64,192,98943,1,0,0:0:0:0:
64,192,99077,1,0,0:0:0:0:
192,192,99143,1,0,0:0:0:0:
64,192,99210,1,0,0:0:0:0:
448,192,99343,1,0,0:0:0:0:
320,192,99443,1,0,0:0:0:0:
448,192,99610,1,0,0:0:0:0:
64,192,99743,128,0,100010:0:0:0:0:
448,192,100360,1,0,0:0:0:0:
64,192,100410,1,0,0:0:0:0:
192,192,100460,1,0,0:0:0:0:
320,192,100510,128,0,100710:0:0:0:0:
192,192,100710,1,0,0:0:0:0:
448,192,100810,1,0,0:0:0:0:
64,192,100876,1,0,0:0:0:0:
192,192,101118,1,0,0:0:0:0:
320,192,101118,1,0,0:0:0:0:
448,192,101118,1,0,0:0:0:0:
64,192,101243,1,0,0:0:0:0:
192,192,101243,1,0,0:0:0:0:
320,192,101243,1,0,0:0:0:0:
320,192,101610,1,0,0:0:0:0:
448,192,101610,1,0,0:0:0:0:
64,192,101652,1,0,0:0:0:0:
192,192,101693,1,0,0:0:0:0:
320,192,101727,1,0,0:0:0:0:
448,192,101768,1,0,0:0:0:0:
64,192,101810,1,0,0:0:0:0:
320,192,101860,1,0,0:0:0:0:
64,192,101910,1,0,0:0:0:0:
320,192,101960,1,0,0:0:0:0:
64,192,102010,1,0,0:0:0:0:
320,192,102060,1,0,0:0:0:0:
64,192,102110,1,0,0:0:0:0:
448,192,102185,1,0,0:0:0:0:
192,192,102235,1,0,0:0:0:0:
320,192,102285,1,0,0:0:0:0:
192,192,102410,1,0,0:0:0:0:
64,192,102410,1,0,0:0:0:0:
448,192,102410,1,0,0:0:0:0:
192,192,102710,1,0,0:0:0:0:
448,192,102743,1,0,0:0:0:0:
320,192,102777,1,0,0:0:0:0:
192,192,102810,1,0,0:0:0:0:
64,192,102910,1,0,0:0:0:0:
320,192,102935,1,0,0:0:0:0:
448,192,102960,1,0,0:0:0:0:
64,192,103043,1,0,0:0:0:0:
192,192,103068,1,0,0:0:0:0:
448,192,103093,1,0,0:0:0:0:
64,192,103210,1,0,0:0:0:0:
192,192,103210,1,0,0:0:0:0:
320,192,103310,1,0,0:0:0:0:
192,192,103343,1,0,0:0:0:0:
448,192,103377,1,0,0:0:0:0:
320,192,103410,1,0,0:0:0:0:
192,192,103443,1,0,0:0:0:0:
64,192,103477,1,0,0:0:0:0:
448,192,103610,1,0,0:0:0:0:
64,192,103710,1,0,0:0:0:0:
320,192,103743,1,0,0:0:0:0:
448,192,103777,1,0,0:0:0:0:
192,192,103810,1,0,0:0:0:0:
320,192,103843,1,0,0:0:0:0:
192,192,103943,1,0,0:0:0:0:
64,192,103977,1,0,0:0:0:0:
320,192,104010,1,0,0:0:0:0:
448,192,104010,1,0,0:0:0:0:
64,192,104110,1,0,0:0:0:0:
192,192,104135,1,0,0:0:0:0:
320,192,104160,1,0,0:0:0:0:
448,192,104185,1,0,0:0:0:0:
64,192,104210,1,0,0:0:0:0:
64,192,104410,1,0,0:0:0:0:
448,192,104510,1,0,0:0:0:0:
192,192,104543,1,0,0:0:0:0:
64,192,104577,1,0,0:0:0:0:
320,192,104610,1,0,0:0:0:0:
192,192,104643,1,0,0:0:0:0:
320,192,104743,1,0,0:0:0:0:
448,192,104777,1,0,0:0:0:0:
64,192,104810,1,0,0:0:0:0:
192,192,104810,1,0,0:0:0:0:
448,192,104910,1,0,0:0:0:0:
320,192,104935,1,0,0:0:0:0:
192,192,104960,1,0,0:0:0:0:
64,192,104985,1,0,0:0:0:0:
448,192,105010,1,0,0:0:0:0:
448,192,105210,1,0,0:0:0:0:
64,192,105310,1,0,0:0:0:0:
320,192,105343,1,0,0:0:0:0:
448,192,105377,1,0,0:0:0:0:
192,192,105410,1,0,0:0:0:0:
320,192,105443,1,0,0:0:0:0:
192,192,105543,1,0,0:0:0:0:
64,192,105577,1,0,0:0:0:0:
320,192,105610,1,0,0:0:0:0:
448,192,105610,1,0,0:0:0:0:
64,192,105660,1,0,0:0:0:0:
192,192,105710,1,0,0:0:0:0:
320,192,105760,1,0,0:0:0:0:
64,192,105810,1,0,0:0:0:0:
192,192,105876,1,0,0:0:0:0:
448,192,105876,1,0,0:0:0:0:
320,192,106010,1,0,0:0:0:0:
64,192,106010,1,0,0:0:0:0:
192,192,106143,1,0,0:0:0:0:
320,192,106210,1,0,0:0:0:0:
64,192,106277,1,0,0:0:0:0:
448,192,106343,1,0,0:0:0:0:
64,192,106410,1,0,0:0:0:0:
192,192,106410,1,0,0:0:0:0:
448,192,106510,1,0,0:0:0:0:
320,192,106535,1,0,0:0:0:0:
192,192,106560,1,0,0:0:0:0:
64,192,106585,1,0,0:0:0:0:
448,192,106610,1,0,0:0:0:0:
448,192,106810,1,0,0:0:0:0:
64,192,106910,1,0,0:0:0:0:
320,192,106943,1,0,0:0:0:0:
448,192,106977,1,0,0:0:0:0:
192,192,107010,1,0,0:0:0:0:
320,192,107043,1,0,0:0:0:0:
192,192,107143,1,0,0:0:0:0:
64,192,107177,1,0,0:0:0:0:
320,192,107210,1,0,0:0:0:0:
448,192,107210,1,0,0:0:0:0:
192,192,107260,1,0,0:0:0:0:
320,192,107310,1,0,0:0:0:0:
448,192,107360,1,0,0:0:0:0:
192,192,107410,1,0,0:0:0:0:
448,192,107477,1,0,0:0:0:0:
320,192,107510,1,0,0:0:0:0:
64,192,107543,1,0,0:0:0:0:
192,192,107610,1,0,0:0:0:0:
320,192,107660,1,0,0:0:0:0:
192,192,107710,1,0,0:0:0:0:
64,192,107760,1,0,0:0:0:0:
320,192,107810,1,0,0:0:0:0:
64,192,107877,1,0,0:0:0:0:
192,192,107910,1,0,0:0:0:0:
448,192,107943,1,0,0:0:0:0:
64,192,108010,1,0,0:0:0:0:
320,192,108010,1,0,0:0:0:0:
448,192,108102,1,0,0:0:0:0:
192,192,108168,1,0,0:0:0:0:
320,192,108252,1,0,0:0:0:0:
64,192,108343,1,0,0:0:0:0:
448,192,108410,1,0,0:0:0:0:
320,192,108443,1,0,0:0:0:0:
448,192,108477,1,0,0:0:0:0:
64,192,108510,1,0,0:0:0:0:
192,192,108593,1,0,0:0:0:0:
320,192,108593,1,0,0:0:0:0:
64,192,108710,1,0,0:0:0:0:
320,192,108710,1,0,0:0:0:0:
64,192,108810,1,0,0:0:0:0:
192,192,108810,1,0,0:0:0:0:
448,192,108810,1,0,0:0:0:0:
192,192,109110,1,0,0:0:0:0:
448,192,109143,1,0,0:0:0:0:
320,192,109177,1,0,0:0:0:0:
192,192,109210,1,0,0:0:0:0:
64,192,109310,1,0,0:0:0:0:
320,192,109335,1,0,0:0:0:0:
448,192,109360,1,0,0:0:0:0:
64,192,109443,1,0,0:0:0:0:
192,192,109468,1,0,0:0:0:0:
448,192,109493,1,0,0:0:0:0:
64,192,109610,1,0,0:0:0:0:
192,192,109610,1,0,0:0:0:0:
320,192,109652,1,0,0:0:0:0:
448,192,109693,1,0,0:0:0:0:
320,192,109735,1,0,0:0:0:0:
64,192,109827,1,0,0:0:0:0:
192,192,109868,1,0,0:0:0:0:
320,192,109910,1,0,0:0:0:0:
192,192,109952,1,0,0:0:0:0:
448,192,110010,1,0,0:0:0:0:
64,192,110110,1,0,0:0:0:0:
320,192,110143,1,0,0:0:0:0:
448,192,110177,1,0,0:0:0:0:
192,192,110210,1,0,0:0:0:0:
320,192,110243,1,0,0:0:0:0:
192,192,110343,1,0,0:0:0:0:
64,192,110377,1,0,0:0:0:0:
320,192,110410,1,0,0:0:0:0:
448,192,110410,1,0,0:0:0:0:
64,192,110510,1,0,0:0:0:0:
192,192,110535,1,0,0:0:0:0:
320,192,110560,1,0,0:0:0:0:
448,192,110585,1,0,0:0:0:0:
64,192,110610,1,0,0:0:0:0:
64,192,110810,1,0,0:0:0:0:
448,192,110910,1,0,0:0:0:0:
192,192,110943,1,0,0:0:0:0:
64,192,110977,1,0,0:0:0:0:
320,192,111010,1,0,0:0:0:0:
192,192,111043,1,0,0:0:0:0:
320,192,111143,1,0,0:0:0:0:
448,192,111177,1,0,0:0:0:0:
64,192,111210,1,0,0:0:0:0:
192,192,111210,1,0,0:0:0:0:
320,192,111310,1,0,0:0:0:0:
192,192,111343,1,0,0:0:0:0:
448,192,111377,1,0,0:0:0:0:
320,192,111410,1,0,0:0:0:0:
192,192,111443,1,0,0:0:0:0:
64,192,111477,1,0,0:0:0:0:
448,192,111610,1,0,0:0:0:0:
64,192,111710,1,0,0:0:0:0:
320,192,111743,1,0,0:0:0:0:
448,192,111777,1,0,0:0:0:0:
192,192,111810,1,0,0:0:0:0:
320,192,111843,1,0,0:0:0:0:
64,192,111927,1,0,0:0:0:0:
192,192,111977,1,0,0:0:0:0:
320,192,112010,1,0,0:0:0:0:
448,192,112010,1,0,0:0:0:0:
64,192,112010,1,0,0:0:0:0:
192,192,112310,1,0,0:0:0:0:
448,192,112343,1,0,0:0:0:0:
320,192,112377,1,0,0:0:0:0:
192,192,112410,1,0,0:0:0:0:
64,192,112510,1,0,0:0:0:0:
320,192,112535,1,0,0:0:0:0:
448,192,112560,1,0,0:0:0:0:
64,192,112643,1,0,0:0:0:0:
192,192,112668,1,0,0:0:0:0:
448,192,112693,1,0,0:0:0:0:
64,192,112810,1,0,0:0:0:0:
192,192,112810,1,0,0:0:0:0:
448,192,112877,1,0,0:0:0:0:
320,192,112910,1,0,0:0:0:0:
192,192,112943,1,0,0:0:0:0:
64,192,112977,1,0,0:0:0:0:
320,192,113110,1,0,0:0:0:0:
192,192,113160,1,0,0:0:0:0:
448,192,113210,1,0,0:0:0:0:
192,192,113385,1,0,0:0:0:0:
320,192,113435,1,0,0:0:0:0:
64,192,113485,1,0,0:0:0:0:
448,192,113610,1,0,0:0:0:0:
320,192,113643,1,0,0:0:0:0:
192,192,113677,1,0,0:0:0:0:
64,192,113710,1,0,0:0:0:0:
448,192,113743,1,0,0:0:0:0:
320,192,113777,1,0,0:0:0:0:
192,192,113810,1,0,0:0:0:0:
64,192,113910,1,0,0:0:0:0:
320,192,114043,1,0,0:0:0:0:
448,192,114187,1,0,0:0:0:0:
192,192,114210,1,0,0:0:0:0:
64,192,114260,1,0,0:0:0:0:
320,192,114310,1,0,0:0:0:0:
192,192,114360,1,0,0:0:0:0:
448,192,114410,1,0,0:0:0:0:
64,192,114452,1,0,0:0:0:0:
192,192,114493,1,0,0:0:0:0:
320,192,114527,1,0,0:0:0:0:
448,192,114568,1,0,0:0:0:0:
64,192,114610,1,0,0:0:0:0:
320,192,114660,1,0,0:0:0:0:
64,192,114710,1,0,0:0:0:0:
320,192,114760,1,0,0:0:0:0:
64,192,114810,1,0,0:0:0:0:
320,192,114860,1,0,0:0:0:0:
64,192,114910,1,0,0:0:0:0:
448,192,114943,1,0,0:0:0:0:
192,192,115077,1,0,0:0:0:0:
320,192,115210,1,0,0:0:0:0:
448,192,115210,1,0,0:0:0:0:
64,192,115210,1,0,0:0:0:0:
192,192,115510,1,0,0:0:0:0:
448,192,115543,1,0,0:0:0:0:
320,192,115577,1,0,0:0:0:0:
192,192,115610,1,0,0:0:0:0:
64,192,115710,1,0,0:0:0:0:
320,192,115735,1,0,0:0:0:0:
448,192,115760,1,0,0:0:0:0:
64,192,115843,1,0,0:0:0:0:
192,192,115868,1,0,0:0:0:0:
448,192,115893,1,0,0:0:0:0:
64,192,116010,1,0,0:0:0:0:
192,192,116010,1,0,0:0:0:0:
448,192,116052,1,0,0:0:0:0:
320,192,116093,1,0,0:0:0:0:
448,192,116135,1,0,0:0:0:0:
192,192,116227,1,0,0:0:0:0:
64,192,116268,1,0,0:0:0:0:
192,192,116310,1,0,0:0:0:0:
320,192,116352,1,0,0:0:0:0:
64,192,116410,1,0,0:0:0:0:
448,192,116477,1,0,0:0:0:0:
320,192,116510,1,0,0:0:0:0:
192,192,116543,1,0,0:0:0:0:
64,192,116577,1,0,0:0:0:0:
448,192,116610,1,0,0:0:0:0:
192,192,116676,1,0,0:0:0:0:
320,192,116710,1,0,0:0:0:0:
64,192,116760,1,0,0:0:0:0:
320,192,116810,1,0,0:0:0:0:
448,192,116810,1,0,0:0:0:0:
64,192,116910,1,0,0:0:0:0:
192,192,116935,1,0,0:0:0:0:
320,192,116960,1,0,0:0:0:0:
448,192,116985,1,0,0:0:0:0:
64,192,117010,1,0,0:0:0:0:
320,192,117077,1,0,0:0:0:0:
448,192,117210,1,0,0:0:0:0:
64,192,117277,1,0,0:0:0:0:
192,192,117310,1,0,0:0:0:0:
320,192,117343,1,0,0:0:0:0:
448,192,117377,1,0,0:0:0:0:
64,192,117410,1,0,0:0:0:0:
320,192,117476,1,0,0:0:0:0:
192,192,117510,1,0,0:0:0:0:
448,192,117543,1,0,0:0:0:0:
320,192,117577,1,0,0:0:0:0:
64,192,117610,1,0,0:0:0:0:
192,192,117610,1,0,0:0:0:0:
448,192,117710,1,0,0:0:0:0:
320,192,117735,1,0,0:0:0:0:
192,192,117760,1,0,0:0:0:0:
64,192,117785,1,0,0:0:0:0:
448,192,117810,1,0,0:0:0:0:
192,192,117877,1,0,0:0:0:0:
64,192,118010,1,0,0:0:0:0:
448,192,118077,1,0,0:0:0:0:
320,192,118110,1,0,0:0:0:0:
192,192,118143,1,0,0:0:0:0:
64,192,118177,1,0,0:0:0:0:
448,192,118210,1,0,0:0:0:0:
192,192,118276,1,0,0:0:0:0:
320,192,118310,1,0,0:0:0:0:
64,192,118360,1,0,0:0:0:0:
320,192,118410,1,0,0:0:0:0:
448,192,118410,1,0,0:0:0:0:
64,192,118460,1,0,0:0:0:0:
192,192,118510,1,0,0:0:0:0:
320,192,118560,1,0,0:0:0:0:
64,192,118610,1,0,0:0:0:0:
192,192,118676,1,0,0:0:0:0:
448,192,118676,1,0,0:0:0:0:
320,192,118810,1,0,0:0:0:0:
64,192,118810,1,0,0:0:0:0:
192,192,118943,1,0,0:0:0:0:
320,192,119010,1,0,0:0:0:0:
64,192,119077,1,0,0:0:0:0:
448,192,119143,1,0,0:0:0:0:
64,192,119210,1,0,0:0:0:0:
192,192,119210,1,0,0:0:0:0:
448,192,119252,1,0,0:0:0:0:
320,192,119293,1,0,0:0:0:0:
448,192,119335,1,0,0:0:0:0:
192,192,119427,1,0,0:0:0:0:
64,192,119468,1,0,0:0:0:0:
192,192,119510,1,0,0:0:0:0:
320,192,119552,1,0,0:0:0:0:
64,192,119610,1,0,0:0:0:0:
448,192,119677,1,0,0:0:0:0:
320,192,119710,1,0,0:0:0:0:
192,192,119743,1,0,0:0:0:0:
64,192,119777,1,0,0:0:0:0:
448,192,119810,1,0,0:0:0:0:
192,192,119876,1,0,0:0:0:0:
320,192,119910,1,0,0:0:0:0:
448,192,119960,1,0,0:0:0:0:
64,192,120010,1,0,0:0:0:0:
192,192,120010,1,0,0:0:0:0:
320,192,120060,1,0,0:0:0:0:
192,192,120110,1,0,0:0:0:0:
64,192,120160,1,0,0:0:0:0:
320,192,120210,1,0,0:0:0:0:
64,192,120277,1,0,0:0:0:0:
192,192,120310,1,0,0:0:0:0:
448,192,120343,1,0,0:0:0:0:
320,192,120410,1,0,0:0:0:0:
192,192,120460,1,0,0:0:0:0:
320,192,120510,1,0,0:0:0:0:
448,192,120560,1,0,0:0:0:0:
192,192,120610,1,0,0:0:0:0:
448,192,120677,1,0,0:0:0:0:
320,192,120710,1,0,0:0:0:0:
64,192,120743,1,0,0:0:0:0:
192,192,120810,1,0,0:0:0:0:
448,192,120810,1,0,0:0:0:0:
64,192,120902,1,0,0:0:0:0:
320,192,120969,1,0,0:0:0:0:
192,192,121052,1,0,0:0:0:0:
448,192,121143,1,0,0:0:0:0:
64,192,121210,1,0,0:0:0:0:
192,192,121243,1,0,0:0:0:0:
64,192,121276,1,0,0:0:0:0:
448,192,121310,1,0,0:0:0:0:
320,192,121393,1,0,0:0:0:0:
192,192,121393,1,0,0:0:0:0:
448,192,121510,1,0,0:0:0:0:
192,192,121510,1,0,0:0:0:0:
320,192,121610,1,0,0:0:0:0:
448,192,121610,1,0,0:0:0:0:
64,192,121610,1,0,0:0:0:0:
192,192,121910,1,0,0:0:0:0:
448,192,121943,1,0,0:0:0:0:
320,192,121977,1,0,0:0:0:0:
192,192,122010,1,0,0:0:0:0:
64,192,122110,1,0,0:0:0:0:
320,192,122135,1,0,0:0:0:0:
448,192,122160,1,0,0:0:0:0:
64,192,122243,1,0,0:0:0:0:
192,192,122268,1,0,0:0:0:0:
448,192,122293,1,0,0:0:0:0:
64,192,122410,1,0,0:0:0:0:
192,192,122410,1,0,0:0:0:0:
448,192,122452,1,0,0:0:0:0:
320,192,122493,1,0,0:0:0:0:
448,192,122535,1,0,0:0:0:0:
192,192,122627,1,0,0:0:0:0:
64,192,122668,1,0,0:0:0:0:
192,192,122710,1,0,0:0:0:0:
320,192,122752,1,0,0:0:0:0:
64,192,122810,1,0,0:0:0:0:
448,192,122877,1,0,0:0:0:0:
320,192,122910,1,0,0:0:0:0:
192,192,122943,1,0,0:0:0:0:
64,192,122977,1,0,0:0:0:0:
448,192,123010,1,0,0:0:0:0:
192,192,123076,1,0,0:0:0:0:
320,192,123110,1,0,0:0:0:0:
64,192,123160,1,0,0:0:0:0:
320,192,123210,1,0,0:0:0:0:
448,192,123210,1,0,0:0:0:0:
64,192,123310,1,0,0:0:0:0:
448,192,123335,1,0,0:0:0:0:
320,192,123360,1,0,0:0:0:0:
192,192,123385,1,0,0:0:0:0:
64,192,123410,1,0,0:0:0:0:
320,192,123477,1,0,0:0:0:0:
448,192,123610,1,0,0:0:0:0:
192,192,123677,1,0,0:0:0:0:
64,192,123710,1,0,0:0:0:0:
320,192,123743,1,0,0:0:0:0:
192,192,123777,1,0,0:0:0:0:
448,192,123810,1,0,0:0:0:0:
64,192,123876,1,0,0:0:0:0:
320,192,123910,1,0,0:0:0:0:
448,192,123960,1,0,0:0:0:0:
64,192,124010,1,0,0:0:0:0:
192,192,124010,1,0,0:0:0:0:
448,192,124110,1,0,0:0:0:0:
64,192,124135,1,0,0:0:0:0:
192,192,124160,1,0,0:0:0:0:
320,192,124185,1,0,0:0:0:0:
448,192,124210,1,0,0:0:0:0:
192,192,124277,1,0,0:0:0:0:
64,192,124410,1,0,0:0:0:0:
320,192,124477,1,0,0:0:0:0:
448,192,124510,1,0,0:0:0:0:
192,192,124543,1,0,0:0:0:0:
320,192,124577,1,0,0:0:0:0:
64,192,124610,1,0,0:0:0:0:
192,192,124660,1,0,0:0:0:0:
448,192,124710,1,0,0:0:0:0:
320,192,124760,1,0,0:0:0:0:
192,192,124810,1,0,0:0:0:0:
64,192,124810,1,0,0:0:0:0:
448,192,124810,1,0,0:0:0:0:
320,192,125110,1,0,0:0:0:0:
64,192,125143,1,0,0:0:0:0:
192,192,125177,1,0,0:0:0:0:
320,192,125210,1,0,0:0:0:0:
448,192,125310,1,0,0:0:0:0:
192,192,125335,1,0,0:0:0:0:
64,192,125360,1,0,0:0:0:0:
448,192,125443,1,0,0:0:0:0:
320,192,125468,1,0,0:0:0:0:
64,192,125493,1,0,0:0:0:0:
320,192,125610,1,0,0:0:0:0:
448,192,125610,1,0,0:0:0:0:
64,192,125677,1,0,0:0:0:0:
192,192,125710,1,0,0:0:0:0:
320,192,125743,1,0,0:0:0:0:
448,192,125777,1,0,0:0:0:0:
192,192,125910,1,0,0:0:0:0:
320,192,125960,1,0,0:0:0:0:
64,192,126010,1,0,0:0:0:0:
320,192,126185,1,0,0:0:0:0:
192,192,126235,1,0,0:0:0:0:
448,192,126285,1,0,0:0:0:0:
64,192,126410,1,0,0:0:0:0:
192,192,126443,1,0,0:0:0:0:
320,192,126477,1,0,0:0:0:0:
448,192,126510,1,0,0:0:0:0:
64,192,126543,1,0,0:0:0:0:
192,192,126577,1,0,0:0:0:0:
320,192,126610,1,0,0:0:0:0:
192,192,126760,1,0,0:0:0:0:
64,192,126760,1,0,0:0:0:0:
448,192,127010,1,0,0:0:0:0:
192,192,127060,1,0,0:0:0:0:
320,192,127110,1,0,0:0:0:0:
64,192,127160,1,0,0:0:0:0:
448,192,127160,1,0,0:0:0:0:
192,192,127276,1,0,0:0:0:0:
64,192,127276,1,0,0:0:0:0:
320,192,127376,1,0,0:0:0:0:
448,192,127376,1,0,0:0:0:0:
192,192,127585,1,0,0:0:0:0:
448,192,127760,1,0,0:0:0:0:
64,192,127760,1,0,0:0:0:0:
192,192,127810,1,0,0:0:0:0:
64,192,127860,1,0,0:0:0:0:
320,192,127910,1,0,0:0:0:0:
192,192,127960,1,0,0:0:0:0:
64,192,128010,1,0,0:0:0:0:
448,192,128010,128,0,128160:0:0:0:0:
320,192,128010,128,0,128160:0:0:0:0:
192,192,128160,1,0,0:0:0:0:
192,192,128410,1,0,0:0:0:0:
448,192,128410,1,0,0:0:0:0:
192,192,128543,1,0,0:0:0:0:
448,192,128543,1,0,0:0:0:0:
448,192,128677,1,0,0:0:0:0:
192,192,128710,1,0,0:0:0:0:
64,192,128743,1,0,0:0:0:0:
320,192,128810,1,0,0:0:0:0:
448,192,128843,1,0,0:0:0:0:
192,192,128877,1,0,0:0:0:0:
320,192,128910,1,0,0:0:0:0:
64,192,128943,1,0,0:0:0:0:
192,192,128977,1,0,0:0:0:0:
448,192,129010,1,0,0:0:0:0:
320,192,129060,1,0,0:0:0:0:
64,192,129210,1,0,0:0:0:0:
320,192,129210,1,0,0:0:0:0:
64,192,129343,1,0,0:0:0:0:
320,192,129343,1,0,0:0:0:0:
64,192,129477,1,0,0:0:0:0:
448,192,129510,1,0,0:0:0:0:
192,192,129543,1,0,0:0:0:0:
320,192,129610,128,0,129760:0:0:0:0:
448,192,129610,128,0,129760:0:0:0:0:
192,192,129760,1,0,0:0:0:0:
192,192,130010,1,0,0:0:0:0:
448,192,130010,1,0,0:0:0:0:
192,192,130143,1,0,0:0:0:0:
448,192,130143,1,0,0:0:0:0:
448,192,130277,1,0,0:0:0:0:
192,192,130310,1,0,0:0:0:0:
64,192,130343,1,0,0:0:0:0:
320,192,130410,1,0,0:0:0:0:
448,192,130443,1,0,0:0:0:0:
192,192,130477,1,0,0:0:0:0:
320,192,130510,1,0,0:0:0:0:
64,192,130543,1,0,0:0:0:0:
192,192,130577,1,0,0:0:0:0:
448,192,130610,1,0,0:0:0:0:
320,192,130660,1,0,0:0:0:0:
320,192,130810,1,0,0:0:0:0:
192,192,130810,1,0,0:0:0:0:
64,192,130810,1,0,0:0:0:0:
192,192,130943,1,0,0:0:0:0:
320,192,130943,1,0,0:0:0:0:
448,192,130943,1,0,0:0:0:0:
448,192,131210,1,0,0:0:0:0:
192,192,131210,128,0,131360:0:0:0:0:
64,192,131210,128,0,131360:0:0:0:0:
320,192,131360,1,0,0:0:0:0:
64,192,131610,1,0,0:0:0:0:
320,192,131610,1,0,0:0:0:0:
448,192,131610,1,0,0:0:0:0:
64,192,131743,1,0,0:0:0:0:
448,192,131743,1,0,0:0:0:0:
64,192,131877,1,0,0:0:0:0:
448,192,131877,1,0,0:0:0:0:
64,192,132010,1,0,0:0:0:0:
192,192,132010,1,0,0:0:0:0:
320,192,132010,1,0,0:0:0:0:
448,192,132010,1,0,0:0:0:0:
64,192,132143,1,0,0:0:0:0:
448,192,132143,1,0,0:0:0:0:
64,192,132277,1,0,0:0:0:0:
448,192,132277,1,0,0:0:0:0:
64,192,132410,1,0,0:0:0:0:
448,192,132410,1,0,0:0:0:0:
192,192,132477,1,0,0:0:0:0:
320,192,132477,1,0,0:0:0:0:
64,192,132543,1,0,0:0:0:0:
448,192,132543,1,0,0:0:0:0:
64,192,132677,1,0,0:0:0:0:
448,192,132677,1,0,0:0:0:0:
64,192,132810,1,0,0:0:0:0:
192,192,132810,1,0,0:0:0:0:
448,192,132810,1,0,0:0:0:0:
64,192,132943,1,0,0:0:0:0:
448,192,132943,1,0,0:0:0:0:
64,192,133077,1,0,0:0:0:0:
448,192,133077,1,0,0:0:0:0:
320,192,133210,1,0,0:0:0:0:
64,192,133210,1,0,0:0:0:0:
448,192,133210,1,0,0:0:0:0:
64,192,133343,1,0,0:0:0:0:
448,192,133343,1,0,0:0:0:0:
64,192,133477,1,0,0:0:0:0:
448,192,133477,1,0,0:0:0:0:
192,192,133610,1,0,0:0:0:0:
64,192,133610,1,0,0:0:0:0:
448,192,133610,1,0,0:0:0:0:
320,192,133677,1,0,0:0:0:0:
448,192,133710,1,0,0:0:0:0:
192,192,133743,1,0,0:0:0:0:
320,192,133777,1,0,0:0:0:0:
64,192,133810,1,0,0:0:0:0:
192,192,133860,1,0,0:0:0:0:
320,192,134010,1,0,0:0:0:0:
192,192,134043,1,0,0:0:0:0:
64,192,134077,1,0,0:0:0:0:
448,192,134110,1,0,0:0:0:0:
320,192,134143,1,0,0:0:0:0:
192,192,134177,1,0,0:0:0:0:
64,192,134277,1,0,0:0:0:0:
448,192,134310,1,0,0:0:0:0:
192,192,134343,1,0,0:0:0:0:
320,192,134410,128,0,134560:0:0:0:0:
448,192,134410,128,0,134560:0:0:0:0:
64,192,134410,1,0,0:0:0:0:
192,192,134560,1,0,0:0:0:0:
192,192,134810,1,0,0:0:0:0:
320,192,134810,1,0,0:0:0:0:
448,192,134810,1,0,0:0:0:0:
320,192,134943,1,0,0:0:0:0:
448,192,134943,1,0,0:0:0:0:
320,192,135077,1,0,0:0:0:0:
448,192,135077,1,0,0:0:0:0:
64,192,135210,1,0,0:0:0:0:
448,192,135210,1,0,0:0:0:0:
192,192,135277,1,0,0:0:0:0:
64,192,135310,1,0,0:0:0:0:
320,192,135343,1,0,0:0:0:0:
192,192,135377,1,0,0:0:0:0:
448,192,135410,1,0,0:0:0:0:
320,192,135460,1,0,0:0:0:0:
64,192,135610,1,0,0:0:0:0:
192,192,135610,1,0,0:0:0:0:
448,192,135610,1,0,0:0:0:0:
64,192,135743,1,0,0:0:0:0:
192,192,135743,1,0,0:0:0:0:
64,192,135877,1,0,0:0:0:0:
192,192,135877,1,0,0:0:0:0:
64,192,136010,1,0,0:0:0:0:
320,192,136010,128,0,136160:0:0:0:0:
448,192,136010,128,0,136160:0:0:0:0:
192,192,136160,1,0,0:0:0:0:
192,192,136410,1,0,0:0:0:0:
320,192,136410,1,0,0:0:0:0:
448,192,136410,1,0,0:0:0:0:
320,192,136543,1,0,0:0:0:0:
448,192,136543,1,0,0:0:0:0:
320,192,136677,1,0,0:0:0:0:
448,192,136677,1,0,0:0:0:0:
64,192,136810,1,0,0:0:0:0:
448,192,136810,1,0,0:0:0:0:
192,192,136877,1,0,0:0:0:0:
64,192,136910,1,0,0:0:0:0:
320,192,136943,1,0,0:0:0:0:
192,192,136977,1,0,0:0:0:0:
448,192,137010,1,0,0:0:0:0:
320,192,137060,1,0,0:0:0:0:
64,192,137210,128,0,137343:0:0:0:0:
448,192,137210,128,0,137343:0:0:0:0:
192,192,137477,1,0,0:0:0:0:
320,192,137477,1,0,0:0:0:0:
448,192,137610,1,0,0:0:0:0:
192,192,137610,128,0,137760:0:0:0:0:
64,192,137610,128,0,137760:0:0:0:0:
320,192,137760,1,0,0:0:0:0:
64,192,138010,1,0,0:0:0:0:
192,192,138010,1,0,0:0:0:0:
320,192,138010,1,0,0:0:0:0:
192,192,138143,1,0,0:0:0:0:
320,192,138143,1,0,0:0:0:0:
192,192,138277,1,0,0:0:0:0:
320,192,138277,1,0,0:0:0:0:
64,192,138410,1,0,0:0:0:0:
192,192,138410,1,0,0:0:0:0:
320,192,138410,1,0,0:0:0:0:
448,192,138410,1,0,0:0:0:0:
192,192,138543,1,0,0:0:0:0:
320,192,138543,1,0,0:0:0:0:
192,192,138677,1,0,0:0:0:0:
320,192,138677,1,0,0:0:0:0:
448,192,138810,1,0,0:0:0:0:
64,192,138860,1,0,0:0:0:0:
320,192,138910,1,0,0:0:0:0:
192,192,138960,1,0,0:0:0:0:
448,192,139010,1,0,0:0:0:0:
320,192,139060,1,0,0:0:0:0:
64,192,139110,1,0,0:0:0:0:
192,192,139160,1,0,0:0:0:0:
448,192,139210,1,0,0:0:0:0:
320,192,139243,1,0,0:0:0:0:
192,192,139277,1,0,0:0:0:0:
64,192,139310,1,0,0:0:0:0:
448,192,139343,1,0,0:0:0:0:
320,192,139377,1,0,0:0:0:0:
192,192,139410,1,0,0:0:0:0:
64,192,139510,1,0,0:0:0:0:
320,192,139643,1,0,0:0:0:0:
448,192,139787,1,0,0:0:0:0:
192,192,139810,1,0,0:0:0:0:
64,192,139860,1,0,0:0:0:0:
320,192,139910,1,0,0:0:0:0:
192,192,139960,1,0,0:0:0:0:
448,192,140010,1,0,0:0:0:0:
64,192,140052,1,0,0:0:0:0:
192,192,140093,1,0,0:0:0:0:
320,192,140127,1,0,0:0:0:0:
448,192,140168,1,0,0:0:0:0:
64,192,140210,1,0,0:0:0:0:
320,192,140260,1,0,0:0:0:0:
64,192,140310,1,0,0:0:0:0:
320,192,140360,1,0,0:0:0:0:
64,192,140410,1,0,0:0:0:0:
320,192,140460,1,0,0:0:0:0:
64,192,140510,1,0,0:0:0:0:
448,192,140543,1,0,0:0:0:0:
192,192,140677,1,0,0:0:0:0:
320,192,140810,128,0,140960:0:0:0:0:
448,192,140810,128,0,140960:0:0:0:0:
64,192,140810,1,0,0:0:0:0:
192,192,140960,1,0,0:0:0:0:
448,192,141077,1,0,0:0:0:0:
192,192,141210,1,0,0:0:0:0:
320,192,141210,1,0,0:0:0:0:
192,192,141343,1,0,0:0:0:0:
192,192,141477,1,0,0:0:0:0:
64,192,141610,1,0,0:0:0:0:
192,192,141610,1,0,0:0:0:0:
448,192,141610,1,0,0:0:0:0:
192,192,141743,1,0,0:0:0:0:
192,192,141877,1,0,0:0:0:0:
192,192,142010,1,0,0:0:0:0:
320,192,142010,1,0,0:0:0:0:
192,192,142143,1,0,0:0:0:0:
192,192,142277,1,0,0:0:0:0:
64,192,142410,1,0,0:0:0:0:
192,192,142410,1,0,0:0:0:0:
192,192,142543,1,0,0:0:0:0:
192,192,142677,1,0,0:0:0:0:
192,192,142810,1,0,0:0:0:0:
320,192,142810,1,0,0:0:0:0:
192,192,142943,1,0,0:0:0:0:
320,192,143035,1,0,0:0:0:0:
192,192,143077,1,0,0:0:0:0:
448,192,143127,1,0,0:0:0:0:
320,192,143177,1,0,0:0:0:0:
64,192,143210,1,0,0:0:0:0:
192,192,143210,1,0,0:0:0:0:
448,192,143210,1,0,0:0:0:0:
320,192,143343,1,0,0:0:0:0:
64,192,143477,1,0,0:0:0:0:
192,192,143610,1,0,0:0:0:0:
320,192,143610,1,0,0:0:0:0:
448,192,143743,1,0,0:0:0:0:
192,192,143877,1,0,0:0:0:0:
64,192,144010,1,0,0:0:0:0:
448,192,144010,1,0,0:0:0:0:
320,192,144077,1,0,0:0:0:0:
448,192,144110,1,0,0:0:0:0:
192,192,144143,1,0,0:0:0:0:
320,192,144177,1,0,0:0:0:0:
64,192,144210,1,0,0:0:0:0:
192,192,144260,1,0,0:0:0:0:
192,192,144410,1,0,0:0:0:0:
320,192,144410,1,0,0:0:0:0:
320,192,144543,1,0,0:0:0:0:
320,192,144677,1,0,0:0:0:0:
64,192,144810,1,0,0:0:0:0:
320,192,144810,1,0,0:0:0:0:
448,192,144810,1,0,0:0:0:0:
320,192,144943,1,0,0:0:0:0:
320,192,145077,1,0,0:0:0:0:
192,192,145210,1,0,0:0:0:0:
320,192,145210,1,0,0:0:0:0:
320,192,145343,1,0,0:0:0:0:
320,192,145477,1,0,0:0:0:0:
320,192,145610,1,0,0:0:0:0:
448,192,145610,1,0,0:0:0:0:
320,192,145743,1,0,0:0:0:0:
320,192,145877,1,0,0:0:0:0:
192,192,146010,1,0,0:0:0:0:
320,192,146010,1,0,0:0:0:0:
320,192,146143,1,0,0:0:0:0:
192,192,146235,1,0,0:0:0:0:
320,192,146277,1,0,0:0:0:0:
64,192,146327,1,0,0:0:0:0:
192,192,146377,1,0,0:0:0:0:
64,192,146410,1,0,0:0:0:0:
320,192,146410,1,0,0:0:0:0:
448,192,146410,1,0,0:0:0:0:
192,192,146543,1,0,0:0:0:0:
448,192,146677,1,0,0:0:0:0:
192,192,146810,1,0,0:0:0:0:
320,192,146810,1,0,0:0:0:0:
448,192,146943,1,0,0:0:0:0:
192,192,147077,1,0,0:0:0:0:
64,192,147210,1,0,0:0:0:0:
320,192,147210,128,0,147360:0:0:0:0:
448,192,147210,128,0,147360:0:0:0:0:
192,192,147360,1,0,0:0:0:0:
448,192,147477,1,0,0:0:0:0:
64,192,147610,1,0,0:0:0:0:
320,192,147610,1,0,0:0:0:0:
64,192,147743,1,0,0:0:0:0:
64,192,147877,1,0,0:0:0:0:
64,192,148010,1,0,0:0:0:0:
192,192,148010,1,0,0:0:0:0:
448,192,148010,1,0,0:0:0:0:
64,192,148143,1,0,0:0:0:0:
64,192,148277,1,0,0:0:0:0:
64,192,148410,1,0,0:0:0:0:
320,192,148410,1,0,0:0:0:0:
64,192,148543,1,0,0:0:0:0:
64,192,148677,1,0,0:0:0:0:
64,192,148810,1,0,0:0:0:0:
192,192,148810,1,0,0:0:0:0:
64,192,148943,1,0,0:0:0:0:
64,192,149077,1,0,0:0:0:0:
64,192,149210,1,0,0:0:0:0:
320,192,149210,1,0,0:0:0:0:
64,192,149343,1,0,0:0:0:0:
320,192,149435,1,0,0:0:0:0:
64,192,149477,1,0,0:0:0:0:
448,192,149527,1,0,0:0:0:0:
320,192,149577,1,0,0:0:0:0:
64,192,149610,1,0,0:0:0:0:
192,192,149610,1,0,0:0:0:0:
448,192,149610,1,0,0:0:0:0:
320,192,149743,1,0,0:0:0:0:
192,192,149877,1,0,0:0:0:0:
64,192,150010,1,0,0:0:0:0:
320,192,150010,1,0,0:0:0:0:
448,192,150143,1,0,0:0:0:0:
192,192,150277,1,0,0:0:0:0:
64,192,150410,1,0,0:0:0:0:
448,192,150410,1,0,0:0:0:0:
320,192,150477,1,0,0:0:0:0:
448,192,150510,1,0,0:0:0:0:
192,192,150543,1,0,0:0:0:0:
320,192,150577,1,0,0:0:0:0:
64,192,150610,1,0,0:0:0:0:
192,192,150660,1,0,0:0:0:0:
192,192,150810,1,0,0:0:0:0:
448,192,150810,1,0,0:0:0:0:
448,192,150943,1,0,0:0:0:0:
448,192,151077,1,0,0:0:0:0:
64,192,151210,1,0,0:0:0:0:
320,192,151210,1,0,0:0:0:0:
448,192,151210,1,0,0:0:0:0:
448,192,151343,1,0,0:0:0:0:
448,192,151477,1,0,0:0:0:0:
192,192,151610,1,0,0:0:0:0:
448,192,151610,1,0,0:0:0:0:
448,192,151743,1,0,0:0:0:0:
448,192,151877,1,0,0:0:0:0:
64,192,152010,1,0,0:0:0:0:
448,192,152010,1,0,0:0:0:0:
192,192,152077,1,0,0:0:0:0:
320,192,152110,1,0,0:0:0:0:
64,192,152143,1,0,0:0:0:0:
192,192,152177,1,0,0:0:0:0:
448,192,152210,1,0,0:0:0:0:
320,192,152260,1,0,0:0:0:0:
64,192,152310,1,0,0:0:0:0:
448,192,152360,1,0,0:0:0:0:
192,192,152410,1,0,0:0:0:0:
320,192,152543,1,0,0:0:0:0:
64,192,152676,1,0,0:0:0:0:
192,192,152810,1,0,0:0:0:0:
320,192,152810,1,0,0:0:0:0:
448,192,152810,1,0,0:0:0:0:
192,192,153010,1,0,0:0:0:0:
64,192,153010,1,0,0:0:0:0:
448,192,153077,1,0,0:0:0:0:
320,192,153143,1,0,0:0:0:0:
192,192,153210,1,0,0:0:0:0:
448,192,153343,1,0,0:0:0:0:
64,192,153477,1,0,0:0:0:0:
64,192,153610,1,0,0:0:0:0:
192,192,153610,1,0,0:0:0:0:
320,192,153610,1,0,0:0:0:0:
448,192,153610,1,0,0:0:0:0:
