osu file format v14

[General]
AudioFilename: shindeiru_1.2.mp3
AudioLeadIn: 0
PreviewTime: 18675
Countdown: 0
SampleSet: None
StackLeniency: 0.7
Mode: 3
LetterboxInBreaks: 0
SpecialStyle: 0
WidescreenStoryboard: 1

[Editor]
DistanceSpacing: 0.8
BeatDivisor: 12
GridSize: 32
TimelineZoom: 2

[Metadata]
Title:Shindeiru
TitleUnicode:Shindeiru
Artist:Virtual Riot
ArtistUnicode:Virtual Riot
Creator:lemonguy
Version:Edit x1.2
Source:
Tags:omae wa mou shindeiru nani hokuto no ken fist of the north star gekido stepmania etterna dump not wafles electronic instrumental
BeatmapID:2968848
BeatmapSetID:866120

[Difficulty]
HPDrainRate:8
CircleSize:4
OverallDifficulty:8
ApproachRate:5
SliderMultiplier:1.4
SliderTickRate:1

[Events]
//Background and Video events
0,0,"shindeirubg.jpg",0,0
//Break Periods
//Storyboard Layer 0 (Background)
//Storyboard Layer 1 (Fail)
//Storyboard Layer 2 (Pass)
//Storyboard Layer 3 (Foreground)
//Storyboard Layer 4 (Overlay)
//Storyboard Sound Samples

[TimingPoints]
8,333.333333333333,4,1,0,35,1,0

[HitObjects]
64,192,8,5,0,0:0:0:0:
192,192,8,1,0,0:0:0:0:
320,192,8,1,0,0:0:0:0:
448,192,8,1,0,0:0:0:0:
192,192,2341,128,0,2564:0:0:0:0:
448,192,2564,128,0,2675:0:0:0:0:
320,192,2675,128,0,4952:0:0:0:0:
192,192,3008,1,0,0:0:0:0:
192,192,4341,1,0,0:0:0:0:
448,192,4952,128,0,5064:0:0:0:0:
320,192,5064,128,0,5341:0:0:0:0:
64,192,5341,128,0,7897:0:0:0:0:
448,192,5341,1,0,0:0:0:0:
192,192,5675,1,0,0:0:0:0:
320,192,5675,1,0,0:0:0:0:
448,192,6008,1,0,0:0:0:0:
192,192,6341,1,0,0:0:0:0:
448,192,6675,1,0,0:0:0:0:
192,192,7008,1,0,0:0:0:0:
320,192,7008,1,0,0:0:0:0:
448,192,7341,1,0,0:0:0:0:
192,192,7675,128,0,7897:0:0:0:0:
320,192,7675,1,0,0:0:0:0:
448,192,7897,128,0,8008:0:0:0:0:
192,192,8008,1,0,0:0:0:0:
320,192,8008,128,0,10008:0:0:0:0:
64,192,8341,1,0,0:0:0:0:
448,192,8341,1,0,0:0:0:0:
192,192,8675,1,0,0:0:0:0:
64,192,9008,1,0,0:0:0:0:
192,192,9341,1,0,0:0:0:0:
64,192,9675,1,0,0:0:0:0:
448,192,9675,1,0,0:0:0:0:
192,192,10008,1,0,0:0:0:0:
448,192,10008,128,0,10119:0:0:0:0:
320,192,10119,128,0,10675:0:0:0:0:
64,192,10341,1,0,0:0:0:0:
64,192,10675,1,0,0:0:0:0:
192,192,10675,1,0,0:0:0:0:
448,192,10675,1,0,0:0:0:0:
320,192,10897,1,0,0:0:0:0:
192,192,11008,1,0,0:0:0:0:
320,192,11119,1,0,0:0:0:0:
320,192,11230,1,0,0:0:0:0:
64,192,11341,1,0,0:0:0:0:
320,192,11341,1,0,0:0:0:0:
448,192,11341,1,0,0:0:0:0:
448,192,11564,1,0,0:0:0:0:
64,192,11675,1,0,0:0:0:0:
192,192,11675,1,0,0:0:0:0:
320,192,11897,1,0,0:0:0:0:
192,192,12008,1,0,0:0:0:0:
192,192,12230,1,0,0:0:0:0:
320,192,12341,1,0,0:0:0:0:
192,192,12452,1,0,0:0:0:0:
192,192,12564,1,0,0:0:0:0:
64,192,12675,1,0,0:0:0:0:
192,192,12675,1,0,0:0:0:0:
448,192,12675,1,0,0:0:0:0:
64,192,12897,1,0,0:0:0:0:
320,192,13008,1,0,0:0:0:0:
448,192,13008,1,0,0:0:0:0:
192,192,13230,1,0,0:0:0:0:
64,192,13341,1,0,0:0:0:0:
448,192,13341,1,0,0:0:0:0:
448,192,13564,1,0,0:0:0:0:
192,192,13675,1,0,0:0:0:0:
320,192,13675,1,0,0:0:0:0:
448,192,13785,1,0,0:0:0:0:
448,192,13897,1,0,0:0:0:0:
64,192,14008,1,0,0:0:0:0:
320,192,14008,1,0,0:0:0:0:
448,192,14008,1,0,0:0:0:0:
448,192,14230,1,0,0:0:0:0:
64,192,14341,1,0,0:0:0:0:
192,192,14341,1,0,0:0:0:0:
320,192,14564,1,0,0:0:0:0:
64,192,14675,1,0,0:0:0:0:
64,192,14897,1,0,0:0:0:0:
192,192,15008,1,0,0:0:0:0:
320,192,15008,1,0,0:0:0:0:
64,192,15119,1,0,0:0:0:0:
64,192,15230,1,0,0:0:0:0:
64,192,15341,1,0,0:0:0:0:
192,192,15341,1,0,0:0:0:0:
448,192,15341,1,0,0:0:0:0:
64,192,15564,1,0,0:0:0:0:
320,192,15675,1,0,0:0:0:0:
448,192,15675,1,0,0:0:0:0:
192,192,15897,1,0,0:0:0:0:
64,192,16008,1,0,0:0:0:0:
448,192,16008,1,0,0:0:0:0:
192,192,16341,1,0,0:0:0:0:
320,192,16341,1,0,0:0:0:0:
64,192,16675,1,0,0:0:0:0:
320,192,16675,1,0,0:0:0:0:
448,192,16675,1,0,0:0:0:0:
192,192,17008,1,0,0:0:0:0:
320,192,17008,1,0,0:0:0:0:
64,192,17341,1,0,0:0:0:0:
192,192,17341,1,0,0:0:0:0:
64,192,17675,1,0,0:0:0:0:
192,192,17675,1,0,0:0:0:0:
320,192,17675,1,0,0:0:0:0:
64,192,18008,1,0,0:0:0:0:
320,192,18008,1,0,0:0:0:0:
448,192,18008,1,0,0:0:0:0:
64,192,18119,1,0,0:0:0:0:
64,192,18230,1,0,0:0:0:0:
64,192,18341,1,0,0:0:0:0:
192,192,18341,1,0,0:0:0:0:
448,192,18341,1,0,0:0:0:0:
64,192,18452,1,0,0:0:0:0:
64,192,18564,1,0,0:0:0:0:
192,192,18619,1,0,0:0:0:0:
64,192,18675,1,0,0:0:0:0:
448,192,18785,1,0,0:0:0:0:
320,192,18869,1,0,0:0:0:0:
448,192,19008,1,0,0:0:0:0:
64,192,19119,128,0,19341:0:0:0:0:
448,192,19633,1,0,0:0:0:0:
64,192,19675,1,0,0:0:0:0:
192,192,19716,1,0,0:0:0:0:
320,192,19758,128,0,19925:0:0:0:0:
192,192,19925,1,0,0:0:0:0:
448,192,20008,1,0,0:0:0:0:
64,192,20063,1,0,0:0:0:0:
192,192,20265,1,0,0:0:0:0:
320,192,20265,1,0,0:0:0:0:
448,192,20265,1,0,0:0:0:0:
64,192,20369,1,0,0:0:0:0:
192,192,20369,1,0,0:0:0:0:
320,192,20369,1,0,0:0:0:0:
320,192,20675,1,0,0:0:0:0:
448,192,20675,1,0,0:0:0:0:
64,192,20710,1,0,0:0:0:0:
192,192,20744,1,0,0:0:0:0:
320,192,20772,1,0,0:0:0:0:
448,192,20806,1,0,0:0:0:0:
64,192,20841,1,0,0:0:0:0:
320,192,20883,1,0,0:0:0:0:
64,192,20925,1,0,0:0:0:0:
320,192,20966,1,0,0:0:0:0:
64,192,21008,1,0,0:0:0:0:
320,192,21050,1,0,0:0:0:0:
64,192,21091,1,0,0:0:0:0:
448,192,21154,1,0,0:0:0:0:
192,192,21195,1,0,0:0:0:0:
320,192,21237,1,0,0:0:0:0:
192,192,21341,1,0,0:0:0:0:
64,192,21341,1,0,0:0:0:0:
448,192,21341,1,0,0:0:0:0:
192,192,21591,1,0,0:0:0:0:
448,192,21619,1,0,0:0:0:0:
320,192,21647,1,0,0:0:0:0:
192,192,21675,1,0,0:0:0:0:
64,192,21758,1,0,0:0:0:0:
320,192,21779,1,0,0:0:0:0:
448,192,21800,1,0,0:0:0:0:
64,192,21869,1,0,0:0:0:0:
192,192,21890,1,0,0:0:0:0:
448,192,21910,1,0,0:0:0:0:
64,192,22008,1,0,0:0:0:0:
192,192,22008,1,0,0:0:0:0:
448,192,22091,1,0,0:0:0:0:
320,192,22119,1,0,0:0:0:0:
192,192,22147,1,0,0:0:0:0:
64,192,22175,1,0,0:0:0:0:
448,192,22237,1,0,0:0:0:0:
64,192,22279,1,0,0:0:0:0:
320,192,22341,1,0,0:0:0:0:
64,192,22376,1,0,0:0:0:0:
192,192,22410,1,0,0:0:0:0:
320,192,22439,1,0,0:0:0:0:
448,192,22473,1,0,0:0:0:0:
320,192,22675,1,0,0:0:0:0:
448,192,22675,1,0,0:0:0:0:
64,192,22758,1,0,0:0:0:0:
192,192,22785,1,0,0:0:0:0:
320,192,22814,1,0,0:0:0:0:
448,192,22841,1,0,0:0:0:0:
64,192,22904,1,0,0:0:0:0:
448,192,22945,1,0,0:0:0:0:
192,192,23008,1,0,0:0:0:0:
448,192,23043,1,0,0:0:0:0:
320,192,23077,1,0,0:0:0:0:
192,192,23105,1,0,0:0:0:0:
64,192,23140,1,0,0:0:0:0:
64,192,23341,1,0,0:0:0:0:
192,192,23341,1,0,0:0:0:0:
448,192,23425,1,0,0:0:0:0:
320,192,23452,1,0,0:0:0:0:
192,192,23480,1,0,0:0:0:0:
64,192,23508,1,0,0:0:0:0:
448,192,23570,1,0,0:0:0:0:
64,192,23612,1,0,0:0:0:0:
320,192,23675,1,0,0:0:0:0:
64,192,23710,1,0,0:0:0:0:
192,192,23744,1,0,0:0:0:0:
320,192,23772,1,0,0:0:0:0:
448,192,23806,1,0,0:0:0:0:
448,192,23904,1,0,0:0:0:0:
64,192,23945,1,0,0:0:0:0:
320,192,24008,1,0,0:0:0:0:
448,192,24008,1,0,0:0:0:0:
64,192,24091,1,0,0:0:0:0:
192,192,24119,1,0,0:0:0:0:
320,192,24147,1,0,0:0:0:0:
448,192,24175,1,0,0:0:0:0:
64,192,24237,1,0,0:0:0:0:
448,192,24279,1,0,0:0:0:0:
192,192,24341,1,0,0:0:0:0:
448,192,24376,1,0,0:0:0:0:
320,192,24410,1,0,0:0:0:0:
192,192,24439,1,0,0:0:0:0:
64,192,24473,1,0,0:0:0:0:
320,192,24508,1,0,0:0:0:0:
448,192,24550,1,0,0:0:0:0:
192,192,24591,1,0,0:0:0:0:
320,192,24619,1,0,0:0:0:0:
448,192,24647,1,0,0:0:0:0:
64,192,24675,1,0,0:0:0:0:
192,192,24675,1,0,0:0:0:0:
448,192,24758,1,0,0:0:0:0:
320,192,24785,1,0,0:0:0:0:
192,192,24814,1,0,0:0:0:0:
64,192,24841,1,0,0:0:0:0:
448,192,24904,1,0,0:0:0:0:
64,192,24945,1,0,0:0:0:0:
320,192,25008,1,0,0:0:0:0:
64,192,25043,1,0,0:0:0:0:
192,192,25077,1,0,0:0:0:0:
320,192,25105,1,0,0:0:0:0:
448,192,25140,1,0,0:0:0:0:
320,192,25341,1,0,0:0:0:0:
448,192,25341,1,0,0:0:0:0:
64,192,25425,1,0,0:0:0:0:
192,192,25452,1,0,0:0:0:0:
320,192,25480,1,0,0:0:0:0:
448,192,25508,1,0,0:0:0:0:
64,192,25570,1,0,0:0:0:0:
448,192,25612,1,0,0:0:0:0:
192,192,25675,1,0,0:0:0:0:
448,192,25710,1,0,0:0:0:0:
320,192,25744,1,0,0:0:0:0:
192,192,25772,1,0,0:0:0:0:
64,192,25806,1,0,0:0:0:0:
320,192,25841,128,0,26008:0:0:0:0:
64,192,26008,1,0,0:0:0:0:
192,192,26008,1,0,0:0:0:0:
448,192,26085,1,0,0:0:0:0:
192,192,26140,1,0,0:0:0:0:
320,192,26210,1,0,0:0:0:0:
64,192,26285,1,0,0:0:0:0:
448,192,26341,1,0,0:0:0:0:
320,192,26369,1,0,0:0:0:0:
448,192,26397,1,0,0:0:0:0:
64,192,26425,1,0,0:0:0:0:
192,192,26494,1,0,0:0:0:0:
320,192,26494,1,0,0:0:0:0:
64,192,26591,1,0,0:0:0:0:
320,192,26591,1,0,0:0:0:0:
192,192,26675,1,0,0:0:0:0:
64,192,26675,1,0,0:0:0:0:
448,192,26675,1,0,0:0:0:0:
192,192,26925,1,0,0:0:0:0:
448,192,26952,1,0,0:0:0:0:
320,192,26980,1,0,0:0:0:0:
192,192,27008,1,0,0:0:0:0:
64,192,27091,1,0,0:0:0:0:
320,192,27112,1,0,0:0:0:0:
448,192,27133,1,0,0:0:0:0:
64,192,27202,1,0,0:0:0:0:
192,192,27223,1,0,0:0:0:0:
448,192,27244,1,0,0:0:0:0:
64,192,27341,1,0,0:0:0:0:
192,192,27341,1,0,0:0:0:0:
448,192,27383,1,0,0:0:0:0:
320,192,27425,1,0,0:0:0:0:
448,192,27535,1,0,0:0:0:0:
64,192,27577,1,0,0:0:0:0:
192,192,27619,1,0,0:0:0:0:
64,192,27675,1,0,0:0:0:0:
320,192,27758,1,0,0:0:0:0:
448,192,27793,1,0,0:0:0:0:
192,192,27820,1,0,0:0:0:0:
320,192,27848,1,0,0:0:0:0:
64,192,27883,1,0,0:0:0:0:
192,192,27910,1,0,0:0:0:0:
320,192,28008,1,0,0:0:0:0:
448,192,28008,1,0,0:0:0:0:
64,192,28050,1,0,0:0:0:0:
192,192,28091,1,0,0:0:0:0:
64,192,28202,1,0,0:0:0:0:
448,192,28244,1,0,0:0:0:0:
320,192,28285,1,0,0:0:0:0:
448,192,28341,1,0,0:0:0:0:
192,192,28425,1,0,0:0:0:0:
64,192,28460,1,0,0:0:0:0:
320,192,28487,1,0,0:0:0:0:
192,192,28515,1,0,0:0:0:0:
448,192,28550,1,0,0:0:0:0:
320,192,28577,1,0,0:0:0:0:
64,192,28675,1,0,0:0:0:0:
192,192,28675,1,0,0:0:0:0:
448,192,28716,1,0,0:0:0:0:
320,192,28758,1,0,0:0:0:0:
448,192,28869,1,0,0:0:0:0:
64,192,28910,1,0,0:0:0:0:
192,192,28952,1,0,0:0:0:0:
64,192,29008,1,0,0:0:0:0:
320,192,29091,1,0,0:0:0:0:
448,192,29126,1,0,0:0:0:0:
192,192,29154,1,0,0:0:0:0:
320,192,29181,1,0,0:0:0:0:
64,192,29216,1,0,0:0:0:0:
192,192,29244,1,0,0:0:0:0:
448,192,29272,1,0,0:0:0:0:
320,192,29314,1,0,0:0:0:0:
192,192,29341,1,0,0:0:0:0:
64,192,29341,1,0,0:0:0:0:
448,192,29341,1,0,0:0:0:0:
192,192,29591,1,0,0:0:0:0:
448,192,29619,1,0,0:0:0:0:
320,192,29647,1,0,0:0:0:0:
192,192,29675,1,0,0:0:0:0:
64,192,29758,1,0,0:0:0:0:
320,192,29779,1,0,0:0:0:0:
448,192,29800,1,0,0:0:0:0:
64,192,29869,1,0,0:0:0:0:
192,192,29890,1,0,0:0:0:0:
448,192,29910,1,0,0:0:0:0:
64,192,30008,1,0,0:0:0:0:
192,192,30008,1,0,0:0:0:0:
448,192,30064,1,0,0:0:0:0:
320,192,30091,1,0,0:0:0:0:
192,192,30119,1,0,0:0:0:0:
64,192,30147,1,0,0:0:0:0:
320,192,30258,1,0,0:0:0:0:
192,192,30300,1,0,0:0:0:0:
448,192,30341,1,0,0:0:0:0:
192,192,30487,1,0,0:0:0:0:
320,192,30529,1,0,0:0:0:0:
64,192,30570,1,0,0:0:0:0:
448,192,30675,1,0,0:0:0:0:
320,192,30702,1,0,0:0:0:0:
192,192,30730,1,0,0:0:0:0:
64,192,30758,1,0,0:0:0:0:
448,192,30785,1,0,0:0:0:0:
320,192,30814,1,0,0:0:0:0:
192,192,30841,1,0,0:0:0:0:
64,192,30925,1,0,0:0:0:0:
320,192,31035,1,0,0:0:0:0:
448,192,31155,1,0,0:0:0:0:
192,192,31175,1,0,0:0:0:0:
64,192,31216,1,0,0:0:0:0:
320,192,31258,1,0,0:0:0:0:
192,192,31300,1,0,0:0:0:0:
448,192,31341,1,0,0:0:0:0:
64,192,31376,1,0,0:0:0:0:
192,192,31410,1,0,0:0:0:0:
320,192,31439,1,0,0:0:0:0:
448,192,31473,1,0,0:0:0:0:
64,192,31508,1,0,0:0:0:0:
320,192,31550,1,0,0:0:0:0:
64,192,31591,1,0,0:0:0:0:
320,192,31633,1,0,0:0:0:0:
64,192,31675,1,0,0:0:0:0:
320,192,31716,1,0,0:0:0:0:
64,192,31758,1,0,0:0:0:0:
448,192,31785,1,0,0:0:0:0:
192,192,31897,1,0,0:0:0:0:
320,192,32008,1,0,0:0:0:0:
448,192,32008,1,0,0:0:0:0:
64,192,32008,1,0,0:0:0:0:
320,192,32258,1,0,0:0:0:0:
64,192,32285,1,0,0:0:0:0:
192,192,32314,1,0,0:0:0:0:
320,192,32341,1,0,0:0:0:0:
448,192,32425,1,0,0:0:0:0:
192,192,32445,1,0,0:0:0:0:
64,192,32466,1,0,0:0:0:0:
448,192,32535,1,0,0:0:0:0:
320,192,32556,1,0,0:0:0:0:
64,192,32577,1,0,0:0:0:0:
320,192,32675,1,0,0:0:0:0:
448,192,32675,1,0,0:0:0:0:
64,192,32758,1,0,0:0:0:0:
192,192,32785,1,0,0:0:0:0:
320,192,32814,1,0,0:0:0:0:
448,192,32841,1,0,0:0:0:0:
64,192,32904,1,0,0:0:0:0:
448,192,32945,1,0,0:0:0:0:
192,192,33008,1,0,0:0:0:0:
320,192,33043,1,0,0:0:0:0:
64,192,33077,1,0,0:0:0:0:
192,192,33105,1,0,0:0:0:0:
448,192,33119,1,0,0:0:0:0:
320,192,33140,1,0,0:0:0:0:
64,192,33230,1,0,0:0:0:0:
64,192,33341,1,0,0:0:0:0:
192,192,33341,1,0,0:0:0:0:
448,192,33425,1,0,0:0:0:0:
320,192,33452,1,0,0:0:0:0:
192,192,33480,1,0,0:0:0:0:
64,192,33508,1,0,0:0:0:0:
448,192,33570,1,0,0:0:0:0:
64,192,33612,1,0,0:0:0:0:
320,192,33675,1,0,0:0:0:0:
192,192,33710,1,0,0:0:0:0:
448,192,33744,1,0,0:0:0:0:
320,192,33772,1,0,0:0:0:0:
64,192,33785,1,0,0:0:0:0:
192,192,33806,1,0,0:0:0:0:
320,192,33883,1,0,0:0:0:0:
192,192,33925,1,0,0:0:0:0:
64,192,33966,1,0,0:0:0:0:
320,192,34008,1,0,0:0:0:0:
448,192,34008,1,0,0:0:0:0:
64,192,34091,1,0,0:0:0:0:
192,192,34119,1,0,0:0:0:0:
320,192,34147,1,0,0:0:0:0:
448,192,34175,1,0,0:0:0:0:
64,192,34237,1,0,0:0:0:0:
448,192,34279,1,0,0:0:0:0:
192,192,34341,1,0,0:0:0:0:
320,192,34376,1,0,0:0:0:0:
64,192,34410,1,0,0:0:0:0:
192,192,34439,1,0,0:0:0:0:
448,192,34452,1,0,0:0:0:0:
320,192,34473,1,0,0:0:0:0:
64,192,34570,1,0,0:0:0:0:
448,192,34612,1,0,0:0:0:0:
64,192,34675,1,0,0:0:0:0:
192,192,34675,1,0,0:0:0:0:
448,192,34758,1,0,0:0:0:0:
320,192,34785,1,0,0:0:0:0:
192,192,34814,1,0,0:0:0:0:
64,192,34841,1,0,0:0:0:0:
448,192,34904,1,0,0:0:0:0:
64,192,34945,1,0,0:0:0:0:
320,192,35008,1,0,0:0:0:0:
192,192,35043,1,0,0:0:0:0:
448,192,35077,1,0,0:0:0:0:
320,192,35105,1,0,0:0:0:0:
64,192,35140,1,0,0:0:0:0:
448,192,35175,1,0,0:0:0:0:
192,192,35223,1,0,0:0:0:0:
320,192,35251,1,0,0:0:0:0:
64,192,35279,1,0,0:0:0:0:
192,192,35306,1,0,0:0:0:0:
320,192,35341,1,0,0:0:0:0:
448,192,35341,1,0,0:0:0:0:
64,192,35425,1,0,0:0:0:0:
192,192,35452,1,0,0:0:0:0:
320,192,35480,1,0,0:0:0:0:
448,192,35508,1,0,0:0:0:0:
64,192,35570,1,0,0:0:0:0:
448,192,35612,1,0,0:0:0:0:
192,192,35675,1,0,0:0:0:0:
320,192,35710,1,0,0:0:0:0:
64,192,35744,1,0,0:0:0:0:
192,192,35772,1,0,0:0:0:0:
448,192,35785,1,0,0:0:0:0:
320,192,35806,1,0,0:0:0:0:
64,192,35897,1,0,0:0:0:0:
64,192,36008,1,0,0:0:0:0:
192,192,36008,1,0,0:0:0:0:
448,192,36091,1,0,0:0:0:0:
320,192,36119,1,0,0:0:0:0:
192,192,36147,1,0,0:0:0:0:
64,192,36175,1,0,0:0:0:0:
448,192,36237,1,0,0:0:0:0:
64,192,36279,1,0,0:0:0:0:
320,192,36341,1,0,0:0:0:0:
192,192,36376,1,0,0:0:0:0:
448,192,36410,1,0,0:0:0:0:
320,192,36439,1,0,0:0:0:0:
64,192,36452,1,0,0:0:0:0:
192,192,36473,1,0,0:0:0:0:
448,192,36564,1,0,0:0:0:0:
320,192,36675,1,0,0:0:0:0:
448,192,36675,1,0,0:0:0:0:
64,192,36751,1,0,0:0:0:0:
320,192,36806,1,0,0:0:0:0:
192,192,36876,1,0,0:0:0:0:
448,192,36952,1,0,0:0:0:0:
64,192,37008,1,0,0:0:0:0:
192,192,37035,1,0,0:0:0:0:
64,192,37064,1,0,0:0:0:0:
448,192,37091,1,0,0:0:0:0:
192,192,37160,1,0,0:0:0:0:
320,192,37160,1,0,0:0:0:0:
192,192,37258,1,0,0:0:0:0:
448,192,37258,1,0,0:0:0:0:
320,192,37341,1,0,0:0:0:0:
448,192,37341,1,0,0:0:0:0:
64,192,37341,1,0,0:0:0:0:
320,192,37591,1,0,0:0:0:0:
64,192,37619,1,0,0:0:0:0:
192,192,37647,1,0,0:0:0:0:
320,192,37675,1,0,0:0:0:0:
448,192,37758,1,0,0:0:0:0:
192,192,37779,1,0,0:0:0:0:
64,192,37800,1,0,0:0:0:0:
448,192,37869,1,0,0:0:0:0:
320,192,37890,1,0,0:0:0:0:
64,192,37910,1,0,0:0:0:0:
320,192,38008,1,0,0:0:0:0:
448,192,38008,1,0,0:0:0:0:
64,192,38050,1,0,0:0:0:0:
192,192,38091,1,0,0:0:0:0:
448,192,38119,1,0,0:0:0:0:
64,192,38230,1,0,0:0:0:0:
320,192,38272,1,0,0:0:0:0:
192,192,38314,1,0,0:0:0:0:
448,192,38341,1,0,0:0:0:0:
192,192,38425,1,0,0:0:0:0:
64,192,38460,1,0,0:0:0:0:
320,192,38487,1,0,0:0:0:0:
192,192,38515,1,0,0:0:0:0:
448,192,38550,1,0,0:0:0:0:
320,192,38577,1,0,0:0:0:0:
64,192,38675,1,0,0:0:0:0:
192,192,38675,1,0,0:0:0:0:
448,192,38716,1,0,0:0:0:0:
320,192,38758,1,0,0:0:0:0:
64,192,38785,1,0,0:0:0:0:
448,192,38897,1,0,0:0:0:0:
192,192,38939,1,0,0:0:0:0:
320,192,38980,1,0,0:0:0:0:
64,192,39008,1,0,0:0:0:0:
320,192,39091,1,0,0:0:0:0:
448,192,39126,1,0,0:0:0:0:
192,192,39154,1,0,0:0:0:0:
320,192,39181,1,0,0:0:0:0:
64,192,39216,1,0,0:0:0:0:
192,192,39244,1,0,0:0:0:0:
320,192,39341,1,0,0:0:0:0:
448,192,39341,1,0,0:0:0:0:
64,192,39383,1,0,0:0:0:0:
192,192,39425,1,0,0:0:0:0:
448,192,39452,1,0,0:0:0:0:
64,192,39564,1,0,0:0:0:0:
320,192,39605,1,0,0:0:0:0:
192,192,39647,1,0,0:0:0:0:
448,192,39675,1,0,0:0:0:0:
192,192,39758,1,0,0:0:0:0:
64,192,39793,1,0,0:0:0:0:
320,192,39820,1,0,0:0:0:0:
192,192,39848,1,0,0:0:0:0:
448,192,39883,1,0,0:0:0:0:
320,192,39910,1,0,0:0:0:0:
64,192,39939,1,0,0:0:0:0:
192,192,39980,1,0,0:0:0:0:
64,192,40008,1,0,0:0:0:0:
448,192,40008,1,0,0:0:0:0:
320,192,40008,1,0,0:0:0:0:
320,192,40258,1,0,0:0:0:0:
64,192,40285,1,0,0:0:0:0:
192,192,40314,1,0,0:0:0:0:
320,192,40341,1,0,0:0:0:0:
448,192,40425,1,0,0:0:0:0:
192,192,40445,1,0,0:0:0:0:
64,192,40466,1,0,0:0:0:0:
448,192,40535,1,0,0:0:0:0:
320,192,40556,1,0,0:0:0:0:
64,192,40577,1,0,0:0:0:0:
320,192,40675,1,0,0:0:0:0:
448,192,40675,1,0,0:0:0:0:
64,192,40730,1,0,0:0:0:0:
192,192,40758,1,0,0:0:0:0:
320,192,40785,1,0,0:0:0:0:
448,192,40814,1,0,0:0:0:0:
192,192,40925,1,0,0:0:0:0:
320,192,40966,1,0,0:0:0:0:
64,192,41008,1,0,0:0:0:0:
320,192,41154,1,0,0:0:0:0:
192,192,41195,1,0,0:0:0:0:
448,192,41237,1,0,0:0:0:0:
64,192,41341,1,0,0:0:0:0:
192,192,41369,1,0,0:0:0:0:
320,192,41397,1,0,0:0:0:0:
448,192,41425,1,0,0:0:0:0:
64,192,41452,1,0,0:0:0:0:
192,192,41480,1,0,0:0:0:0:
320,192,41508,1,0,0:0:0:0:
192,192,41633,1,0,0:0:0:0:
64,192,41633,1,0,0:0:0:0:
448,192,41841,1,0,0:0:0:0:
192,192,41883,1,0,0:0:0:0:
320,192,41925,1,0,0:0:0:0:
64,192,41966,1,0,0:0:0:0:
448,192,41966,1,0,0:0:0:0:
192,192,42063,1,0,0:0:0:0:
64,192,42063,1,0,0:0:0:0:
320,192,42146,1,0,0:0:0:0:
448,192,42146,1,0,0:0:0:0:
192,192,42320,1,0,0:0:0:0:
448,192,42466,1,0,0:0:0:0:
64,192,42466,1,0,0:0:0:0:
192,192,42508,1,0,0:0:0:0:
64,192,42550,1,0,0:0:0:0:
320,192,42591,1,0,0:0:0:0:
192,192,42633,1,0,0:0:0:0:
448,192,42675,128,0,42800:0:0:0:0:
320,192,42675,128,0,42800:0:0:0:0:
64,192,42675,1,0,0:0:0:0:
192,192,42800,1,0,0:0:0:0:
192,192,43008,1,0,0:0:0:0:
448,192,43008,1,0,0:0:0:0:
192,192,43119,1,0,0:0:0:0:
448,192,43119,1,0,0:0:0:0:
448,192,43230,1,0,0:0:0:0:
192,192,43258,1,0,0:0:0:0:
64,192,43285,1,0,0:0:0:0:
320,192,43341,1,0,0:0:0:0:
448,192,43369,1,0,0:0:0:0:
192,192,43397,1,0,0:0:0:0:
320,192,43425,1,0,0:0:0:0:
64,192,43452,1,0,0:0:0:0:
192,192,43480,1,0,0:0:0:0:
448,192,43508,1,0,0:0:0:0:
320,192,43550,1,0,0:0:0:0:
64,192,43675,1,0,0:0:0:0:
320,192,43675,1,0,0:0:0:0:
64,192,43785,1,0,0:0:0:0:
320,192,43785,1,0,0:0:0:0:
64,192,43897,1,0,0:0:0:0:
448,192,43925,1,0,0:0:0:0:
192,192,43952,1,0,0:0:0:0:
320,192,44008,128,0,44133:0:0:0:0:
448,192,44008,128,0,44133:0:0:0:0:
192,192,44133,1,0,0:0:0:0:
192,192,44341,1,0,0:0:0:0:
448,192,44341,1,0,0:0:0:0:
192,192,44452,1,0,0:0:0:0:
448,192,44452,1,0,0:0:0:0:
448,192,44564,1,0,0:0:0:0:
192,192,44591,1,0,0:0:0:0:
64,192,44619,1,0,0:0:0:0:
320,192,44675,1,0,0:0:0:0:
448,192,44702,1,0,0:0:0:0:
192,192,44730,1,0,0:0:0:0:
320,192,44758,1,0,0:0:0:0:
64,192,44785,1,0,0:0:0:0:
192,192,44814,1,0,0:0:0:0:
448,192,44841,1,0,0:0:0:0:
320,192,44883,1,0,0:0:0:0:
320,192,45008,1,0,0:0:0:0:
192,192,45008,1,0,0:0:0:0:
64,192,45008,1,0,0:0:0:0:
192,192,45119,1,0,0:0:0:0:
320,192,45119,1,0,0:0:0:0:
448,192,45119,1,0,0:0:0:0:
448,192,45341,1,0,0:0:0:0:
192,192,45341,128,0,45466:0:0:0:0:
64,192,45341,128,0,45466:0:0:0:0:
320,192,45466,1,0,0:0:0:0:
64,192,45675,1,0,0:0:0:0:
320,192,45675,1,0,0:0:0:0:
448,192,45675,1,0,0:0:0:0:
64,192,45785,1,0,0:0:0:0:
448,192,45785,1,0,0:0:0:0:
64,192,45897,1,0,0:0:0:0:
448,192,45897,1,0,0:0:0:0:
64,192,46008,1,0,0:0:0:0:
192,192,46008,1,0,0:0:0:0:
320,192,46008,1,0,0:0:0:0:
448,192,46008,1,0,0:0:0:0:
64,192,46119,1,0,0:0:0:0:
448,192,46119,1,0,0:0:0:0:
64,192,46230,1,0,0:0:0:0:
448,192,46230,1,0,0:0:0:0:
64,192,46341,1,0,0:0:0:0:
448,192,46341,1,0,0:0:0:0:
192,192,46397,1,0,0:0:0:0:
320,192,46397,1,0,0:0:0:0:
64,192,46452,1,0,0:0:0:0:
448,192,46452,1,0,0:0:0:0:
448,192,46563,1,0,0:0:0:0:
64,192,46563,1,0,0:0:0:0:
64,192,46675,1,0,0:0:0:0:
448,192,46675,1,0,0:0:0:0:
192,192,46675,1,0,0:0:0:0:
64,192,46785,1,0,0:0:0:0:
448,192,46785,1,0,0:0:0:0:
64,192,46897,1,0,0:0:0:0:
448,192,46897,1,0,0:0:0:0:
64,192,47008,1,0,0:0:0:0:
448,192,47008,1,0,0:0:0:0:
320,192,47008,1,0,0:0:0:0:
64,192,47119,1,0,0:0:0:0:
448,192,47119,1,0,0:0:0:0:
64,192,47230,1,0,0:0:0:0:
448,192,47230,1,0,0:0:0:0:
64,192,47341,1,0,0:0:0:0:
448,192,47341,1,0,0:0:0:0:
192,192,47341,1,0,0:0:0:0:
320,192,47397,1,0,0:0:0:0:
448,192,47425,1,0,0:0:0:0:
192,192,47452,1,0,0:0:0:0:
320,192,47480,1,0,0:0:0:0:
64,192,47508,1,0,0:0:0:0:
192,192,47550,1,0,0:0:0:0:
320,192,47675,1,0,0:0:0:0:
192,192,47702,1,0,0:0:0:0:
64,192,47730,1,0,0:0:0:0:
448,192,47758,1,0,0:0:0:0:
320,192,47785,1,0,0:0:0:0:
192,192,47814,1,0,0:0:0:0:
64,192,47897,1,0,0:0:0:0:
448,192,47925,1,0,0:0:0:0:
192,192,47952,1,0,0:0:0:0:
64,192,48008,1,0,0:0:0:0:
320,192,48008,128,0,48133:0:0:0:0:
448,192,48008,128,0,48133:0:0:0:0:
192,192,48133,1,0,0:0:0:0:
192,192,48341,1,0,0:0:0:0:
320,192,48341,1,0,0:0:0:0:
448,192,48341,1,0,0:0:0:0:
320,192,48452,1,0,0:0:0:0:
448,192,48452,1,0,0:0:0:0:
320,192,48564,1,0,0:0:0:0:
448,192,48564,1,0,0:0:0:0:
64,192,48675,1,0,0:0:0:0:
448,192,48675,1,0,0:0:0:0:
192,192,48730,1,0,0:0:0:0:
64,192,48758,1,0,0:0:0:0:
320,192,48785,1,0,0:0:0:0:
192,192,48814,1,0,0:0:0:0:
448,192,48841,1,0,0:0:0:0:
320,192,48883,1,0,0:0:0:0:
64,192,49008,1,0,0:0:0:0:
192,192,49008,1,0,0:0:0:0:
448,192,49008,1,0,0:0:0:0:
64,192,49119,1,0,0:0:0:0:
192,192,49119,1,0,0:0:0:0:
64,192,49230,1,0,0:0:0:0:
192,192,49230,1,0,0:0:0:0:
64,192,49341,1,0,0:0:0:0:
320,192,49341,128,0,49466:0:0:0:0:
448,192,49341,128,0,49466:0:0:0:0:
192,192,49466,1,0,0:0:0:0:
192,192,49675,1,0,0:0:0:0:
320,192,49675,1,0,0:0:0:0:
448,192,49675,1,0,0:0:0:0:
320,192,49785,1,0,0:0:0:0:
448,192,49785,1,0,0:0:0:0:
320,192,49897,1,0,0:0:0:0:
448,192,49897,1,0,0:0:0:0:
64,192,50008,1,0,0:0:0:0:
448,192,50008,1,0,0:0:0:0:
192,192,50064,1,0,0:0:0:0:
64,192,50091,1,0,0:0:0:0:
320,192,50119,1,0,0:0:0:0:
192,192,50147,1,0,0:0:0:0:
448,192,50175,1,0,0:0:0:0:
320,192,50216,1,0,0:0:0:0:
64,192,50341,128,0,50452:0:0:0:0:
448,192,50341,128,0,50452:0:0:0:0:
192,192,50564,1,0,0:0:0:0:
320,192,50564,1,0,0:0:0:0:
448,192,50675,1,0,0:0:0:0:
192,192,50675,128,0,50800:0:0:0:0:
64,192,50675,128,0,50800:0:0:0:0:
320,192,50800,1,0,0:0:0:0:
64,192,51008,1,0,0:0:0:0:
192,192,51008,1,0,0:0:0:0:
320,192,51008,1,0,0:0:0:0:
192,192,51119,1,0,0:0:0:0:
320,192,51119,1,0,0:0:0:0:
192,192,51230,1,0,0:0:0:0:
320,192,51230,1,0,0:0:0:0:
64,192,51341,1,0,0:0:0:0:
192,192,51341,1,0,0:0:0:0:
320,192,51341,1,0,0:0:0:0:
448,192,51341,1,0,0:0:0:0:
192,192,51452,1,0,0:0:0:0:
320,192,51452,1,0,0:0:0:0:
192,192,51564,1,0,0:0:0:0:
320,192,51564,1,0,0:0:0:0:
448,192,51675,1,0,0:0:0:0:
64,192,51716,1,0,0:0:0:0:
320,192,51758,1,0,0:0:0:0:
192,192,51800,1,0,0:0:0:0:
448,192,51841,1,0,0:0:0:0:
320,192,51883,1,0,0:0:0:0:
64,192,51925,1,0,0:0:0:0:
192,192,51966,1,0,0:0:0:0:
448,192,52008,1,0,0:0:0:0:
320,192,52035,1,0,0:0:0:0:
192,192,52064,1,0,0:0:0:0:
64,192,52091,1,0,0:0:0:0:
448,192,52119,1,0,0:0:0:0:
320,192,52147,1,0,0:0:0:0:
192,192,52175,1,0,0:0:0:0:
64,192,52258,1,0,0:0:0:0:
320,192,52369,1,0,0:0:0:0:
448,192,52489,1,0,0:0:0:0:
192,192,52508,1,0,0:0:0:0:
64,192,52550,1,0,0:0:0:0:
320,192,52591,1,0,0:0:0:0:
192,192,52633,1,0,0:0:0:0:
448,192,52675,1,0,0:0:0:0:
64,192,52710,1,0,0:0:0:0:
192,192,52744,1,0,0:0:0:0:
320,192,52772,1,0,0:0:0:0:
448,192,52806,1,0,0:0:0:0:
64,192,52841,1,0,0:0:0:0:
320,192,52883,1,0,0:0:0:0:
64,192,52925,1,0,0:0:0:0:
320,192,52966,1,0,0:0:0:0:
64,192,53008,1,0,0:0:0:0:
320,192,53050,1,0,0:0:0:0:
64,192,53091,1,0,0:0:0:0:
448,192,53119,1,0,0:0:0:0:
192,192,53230,1,0,0:0:0:0:
64,192,53341,1,0,0:0:0:0:
320,192,53341,128,0,53466:0:0:0:0:
448,192,53341,128,0,53466:0:0:0:0:
192,192,53466,1,0,0:0:0:0:
448,192,53564,1,0,0:0:0:0:
192,192,53675,1,0,0:0:0:0:
320,192,53675,1,0,0:0:0:0:
192,192,53785,1,0,0:0:0:0:
192,192,53897,1,0,0:0:0:0:
64,192,54008,1,0,0:0:0:0:
192,192,54008,1,0,0:0:0:0:
448,192,54008,1,0,0:0:0:0:
192,192,54119,1,0,0:0:0:0:
192,192,54230,1,0,0:0:0:0:
192,192,54341,1,0,0:0:0:0:
320,192,54341,1,0,0:0:0:0:
192,192,54452,1,0,0:0:0:0:
192,192,54564,1,0,0:0:0:0:
64,192,54675,1,0,0:0:0:0:
192,192,54675,1,0,0:0:0:0:
192,192,54785,1,0,0:0:0:0:
192,192,54897,1,0,0:0:0:0:
192,192,55008,1,0,0:0:0:0:
320,192,55008,1,0,0:0:0:0:
192,192,55119,1,0,0:0:0:0:
320,192,55195,1,0,0:0:0:0:
192,192,55230,1,0,0:0:0:0:
448,192,55272,1,0,0:0:0:0:
320,192,55314,1,0,0:0:0:0:
64,192,55341,1,0,0:0:0:0:
192,192,55341,1,0,0:0:0:0:
448,192,55341,1,0,0:0:0:0:
320,192,55452,1,0,0:0:0:0:
64,192,55564,1,0,0:0:0:0:
192,192,55675,1,0,0:0:0:0:
320,192,55675,1,0,0:0:0:0:
448,192,55785,1,0,0:0:0:0:
192,192,55897,1,0,0:0:0:0:
64,192,56008,1,0,0:0:0:0:
448,192,56008,1,0,0:0:0:0:
320,192,56064,1,0,0:0:0:0:
448,192,56091,1,0,0:0:0:0:
192,192,56119,1,0,0:0:0:0:
320,192,56147,1,0,0:0:0:0:
64,192,56175,1,0,0:0:0:0:
192,192,56216,1,0,0:0:0:0:
192,192,56341,1,0,0:0:0:0:
320,192,56341,1,0,0:0:0:0:
320,192,56452,1,0,0:0:0:0:
320,192,56564,1,0,0:0:0:0:
64,192,56675,1,0,0:0:0:0:
320,192,56675,1,0,0:0:0:0:
448,192,56675,1,0,0:0:0:0:
320,192,56785,1,0,0:0:0:0:
320,192,56897,1,0,0:0:0:0:
192,192,57008,1,0,0:0:0:0:
320,192,57008,1,0,0:0:0:0:
320,192,57119,1,0,0:0:0:0:
320,192,57230,1,0,0:0:0:0:
320,192,57341,1,0,0:0:0:0:
448,192,57341,1,0,0:0:0:0:
320,192,57452,1,0,0:0:0:0:
320,192,57564,1,0,0:0:0:0:
192,192,57675,1,0,0:0:0:0:
320,192,57675,1,0,0:0:0:0:
320,192,57785,1,0,0:0:0:0:
192,192,57862,1,0,0:0:0:0:
320,192,57897,1,0,0:0:0:0:
64,192,57939,1,0,0:0:0:0:
192,192,57980,1,0,0:0:0:0:
64,192,58008,1,0,0:0:0:0:
320,192,58008,1,0,0:0:0:0:
448,192,58008,1,0,0:0:0:0:
192,192,58119,1,0,0:0:0:0:
448,192,58230,1,0,0:0:0:0:
192,192,58341,1,0,0:0:0:0:
320,192,58341,1,0,0:0:0:0:
448,192,58452,1,0,0:0:0:0:
192,192,58564,1,0,0:0:0:0:
64,192,58675,1,0,0:0:0:0:
320,192,58675,128,0,58800:0:0:0:0:
448,192,58675,128,0,58800:0:0:0:0:
192,192,58800,1,0,0:0:0:0:
448,192,58897,1,0,0:0:0:0:
64,192,59008,1,0,0:0:0:0:
320,192,59008,1,0,0:0:0:0:
64,192,59119,1,0,0:0:0:0:
64,192,59230,1,0,0:0:0:0:
64,192,59341,1,0,0:0:0:0:
192,192,59341,1,0,0:0:0:0:
448,192,59341,1,0,0:0:0:0:
64,192,59452,1,0,0:0:0:0:
64,192,59564,1,0,0:0:0:0:
64,192,59675,1,0,0:0:0:0:
320,192,59675,1,0,0:0:0:0:
64,192,59785,1,0,0:0:0:0:
64,192,59897,1,0,0:0:0:0:
64,192,60008,1,0,0:0:0:0:
192,192,60008,1,0,0:0:0:0:
64,192,60119,1,0,0:0:0:0:
64,192,60230,1,0,0:0:0:0:
64,192,60341,1,0,0:0:0:0:
320,192,60341,1,0,0:0:0:0:
64,192,60452,1,0,0:0:0:0:
320,192,60529,1,0,0:0:0:0:
64,192,60564,1,0,0:0:0:0:
448,192,60605,1,0,0:0:0:0:
320,192,60647,1,0,0:0:0:0:
64,192,60675,1,0,0:0:0:0:
192,192,60675,1,0,0:0:0:0:
448,192,60675,1,0,0:0:0:0:
320,192,60785,1,0,0:0:0:0:
192,192,60897,1,0,0:0:0:0:
64,192,61008,1,0,0:0:0:0:
320,192,61008,1,0,0:0:0:0:
448,192,61119,1,0,0:0:0:0:
192,192,61230,1,0,0:0:0:0:
64,192,61341,1,0,0:0:0:0:
448,192,61341,1,0,0:0:0:0:
320,192,61397,1,0,0:0:0:0:
448,192,61425,1,0,0:0:0:0:
192,192,61452,1,0,0:0:0:0:
320,192,61480,1,0,0:0:0:0:
64,192,61508,1,0,0:0:0:0:
192,192,61550,1,0,0:0:0:0:
192,192,61675,1,0,0:0:0:0:
448,192,61675,1,0,0:0:0:0:
448,192,61785,1,0,0:0:0:0:
448,192,61897,1,0,0:0:0:0:
64,192,62008,1,0,0:0:0:0:
320,192,62008,1,0,0:0:0:0:
448,192,62008,1,0,0:0:0:0:
448,192,62119,1,0,0:0:0:0:
448,192,62230,1,0,0:0:0:0:
192,192,62341,1,0,0:0:0:0:
448,192,62341,1,0,0:0:0:0:
448,192,62452,1,0,0:0:0:0:
448,192,62564,1,0,0:0:0:0:
64,192,62675,1,0,0:0:0:0:
448,192,62675,1,0,0:0:0:0:
192,192,62730,1,0,0:0:0:0:
320,192,62758,1,0,0:0:0:0:
64,192,62785,1,0,0:0:0:0:
192,192,62814,1,0,0:0:0:0:
448,192,62841,1,0,0:0:0:0:
320,192,62883,1,0,0:0:0:0:
64,192,62925,1,0,0:0:0:0:
448,192,62966,1,0,0:0:0:0:
192,192,63008,1,0,0:0:0:0:
320,192,63119,1,0,0:0:0:0:
64,192,63230,1,0,0:0:0:0:
192,192,63341,1,0,0:0:0:0:
320,192,63341,1,0,0:0:0:0:
448,192,63341,1,0,0:0:0:0:
192,192,63508,1,0,0:0:0:0:
64,192,63508,1,0,0:0:0:0:
448,192,63564,1,0,0:0:0:0:
320,192,63619,1,0,0:0:0:0:
192,192,63675,1,0,0:0:0:0:
448,192,63785,1,0,0:0:0:0:
64,192,63897,1,0,0:0:0:0:
64,192,64008,1,0,0:0:0:0:
192,192,64008,1,0,0:0:0:0:
320,192,64008,1,0,0:0:0:0:
448,192,64008,1,0,0:0:0:0:
192,192,66341,128,0,66564:0:0:0:0:
448,192,66564,128,0,66675:0:0:0:0:
320,192,66675,128,0,68952:0:0:0:0:
192,192,67008,1,0,0:0:0:0:
192,192,68341,1,0,0:0:0:0:
448,192,68952,128,0,69064:0:0:0:0:
320,192,69064,128,0,69341:0:0:0:0:
64,192,69341,128,0,71897:0:0:0:0:
448,192,69341,1,0,0:0:0:0:
192,192,69675,1,0,0:0:0:0:
320,192,69675,1,0,0:0:0:0:
192,192,69896,1,0,0:0:0:0:
448,192,70008,1,0,0:0:0:0:
320,192,70008,1,0,0:0:0:0:
320,192,70230,1,0,0:0:0:0:
192,192,70341,1,0,0:0:0:0:
448,192,70341,1,0,0:0:0:0:
448,192,70675,1,0,0:0:0:0:
192,192,71008,1,0,0:0:0:0:
320,192,71008,1,0,0:0:0:0:
192,192,71230,1,0,0:0:0:0:
448,192,71341,1,0,0:0:0:0:
320,192,71341,1,0,0:0:0:0:
448,192,71563,1,0,0:0:0:0:
192,192,71675,128,0,71897:0:0:0:0:
320,192,71675,1,0,0:0:0:0:
448,192,71897,128,0,72008:0:0:0:0:
192,192,72008,1,0,0:0:0:0:
320,192,72008,128,0,74008:0:0:0:0:
448,192,72341,1,0,0:0:0:0:
64,192,72341,1,0,0:0:0:0:
64,192,72563,1,0,0:0:0:0:
192,192,72675,1,0,0:0:0:0:
448,192,72675,1,0,0:0:0:0:
448,192,72896,1,0,0:0:0:0:
64,192,73008,1,0,0:0:0:0:
192,192,73008,1,0,0:0:0:0:
192,192,73341,1,0,0:0:0:0:
64,192,73675,1,0,0:0:0:0:
448,192,73675,1,0,0:0:0:0:
64,192,73896,1,0,0:0:0:0:
192,192,74008,1,0,0:0:0:0:
448,192,74008,128,0,74119:0:0:0:0:
320,192,74119,128,0,74675:0:0:0:0:
448,192,74230,1,0,0:0:0:0:
64,192,74341,1,0,0:0:0:0:
192,192,74341,1,0,0:0:0:0:
64,192,74675,1,0,0:0:0:0:
192,192,74675,1,0,0:0:0:0:
448,192,74675,1,0,0:0:0:0:
320,192,74897,1,0,0:0:0:0:
192,192,75008,1,0,0:0:0:0:
320,192,75119,1,0,0:0:0:0:
320,192,75230,1,0,0:0:0:0:
64,192,75341,1,0,0:0:0:0:
320,192,75341,1,0,0:0:0:0:
448,192,75341,1,0,0:0:0:0:
448,192,75564,1,0,0:0:0:0:
64,192,75675,1,0,0:0:0:0:
192,192,75675,1,0,0:0:0:0:
320,192,75897,1,0,0:0:0:0:
192,192,76008,1,0,0:0:0:0:
192,192,76230,1,0,0:0:0:0:
320,192,76341,1,0,0:0:0:0:
192,192,76452,1,0,0:0:0:0:
192,192,76564,1,0,0:0:0:0:
64,192,76675,1,0,0:0:0:0:
192,192,76675,1,0,0:0:0:0:
448,192,76675,1,0,0:0:0:0:
64,192,76897,1,0,0:0:0:0:
320,192,77008,1,0,0:0:0:0:
448,192,77008,1,0,0:0:0:0:
192,192,77230,1,0,0:0:0:0:
64,192,77341,1,0,0:0:0:0:
448,192,77341,1,0,0:0:0:0:
448,192,77564,1,0,0:0:0:0:
192,192,77675,1,0,0:0:0:0:
320,192,77675,1,0,0:0:0:0:
448,192,77785,1,0,0:0:0:0:
448,192,77897,1,0,0:0:0:0:
64,192,78008,1,0,0:0:0:0:
320,192,78008,1,0,0:0:0:0:
448,192,78008,1,0,0:0:0:0:
448,192,78230,1,0,0:0:0:0:
64,192,78341,1,0,0:0:0:0:
192,192,78341,1,0,0:0:0:0:
320,192,78564,1,0,0:0:0:0:
64,192,78675,1,0,0:0:0:0:
64,192,78897,1,0,0:0:0:0:
192,192,79008,1,0,0:0:0:0:
320,192,79008,1,0,0:0:0:0:
64,192,79119,1,0,0:0:0:0:
64,192,79230,1,0,0:0:0:0:
64,192,79341,1,0,0:0:0:0:
192,192,79341,1,0,0:0:0:0:
448,192,79341,1,0,0:0:0:0:
64,192,79564,1,0,0:0:0:0:
320,192,79675,1,0,0:0:0:0:
448,192,79675,1,0,0:0:0:0:
192,192,79897,1,0,0:0:0:0:
64,192,80008,1,0,0:0:0:0:
448,192,80008,1,0,0:0:0:0:
192,192,80341,1,0,0:0:0:0:
320,192,80341,1,0,0:0:0:0:
64,192,80675,1,0,0:0:0:0:
320,192,80675,1,0,0:0:0:0:
448,192,80675,1,0,0:0:0:0:
192,192,81008,1,0,0:0:0:0:
320,192,81008,1,0,0:0:0:0:
64,192,81341,1,0,0:0:0:0:
192,192,81341,1,0,0:0:0:0:
64,192,81675,1,0,0:0:0:0:
192,192,81675,1,0,0:0:0:0:
320,192,81675,1,0,0:0:0:0:
64,192,82008,1,0,0:0:0:0:
320,192,82008,1,0,0:0:0:0:
448,192,82008,1,0,0:0:0:0:
64,192,82119,1,0,0:0:0:0:
64,192,82230,1,0,0:0:0:0:
64,192,82341,1,0,0:0:0:0:
192,192,82341,1,0,0:0:0:0:
448,192,82341,1,0,0:0:0:0:
64,192,82452,1,0,0:0:0:0:
64,192,82564,1,0,0:0:0:0:
192,192,82619,1,0,0:0:0:0:
64,192,82675,1,0,0:0:0:0:
448,192,82785,1,0,0:0:0:0:
320,192,82869,1,0,0:0:0:0:
448,192,83008,1,0,0:0:0:0:
64,192,83119,128,0,83341:0:0:0:0:
448,192,83633,1,0,0:0:0:0:
64,192,83675,1,0,0:0:0:0:
192,192,83716,1,0,0:0:0:0:
320,192,83758,128,0,83925:0:0:0:0:
192,192,83925,1,0,0:0:0:0:
448,192,84008,1,0,0:0:0:0:
64,192,84063,1,0,0:0:0:0:
192,192,84265,1,0,0:0:0:0:
320,192,84265,1,0,0:0:0:0:
448,192,84265,1,0,0:0:0:0:
64,192,84369,1,0,0:0:0:0:
192,192,84369,1,0,0:0:0:0:
320,192,84369,1,0,0:0:0:0:
320,192,84675,1,0,0:0:0:0:
448,192,84675,1,0,0:0:0:0:
64,192,84710,1,0,0:0:0:0:
192,192,84744,1,0,0:0:0:0:
320,192,84772,1,0,0:0:0:0:
448,192,84806,1,0,0:0:0:0:
64,192,84841,1,0,0:0:0:0:
320,192,84883,1,0,0:0:0:0:
64,192,84925,1,0,0:0:0:0:
320,192,84966,1,0,0:0:0:0:
64,192,85008,1,0,0:0:0:0:
320,192,85050,1,0,0:0:0:0:
64,192,85091,1,0,0:0:0:0:
448,192,85154,1,0,0:0:0:0:
192,192,85195,1,0,0:0:0:0:
320,192,85237,1,0,0:0:0:0:
192,192,85341,1,0,0:0:0:0:
64,192,85341,1,0,0:0:0:0:
448,192,85341,1,0,0:0:0:0:
192,192,85591,1,0,0:0:0:0:
448,192,85619,1,0,0:0:0:0:
320,192,85647,1,0,0:0:0:0:
192,192,85675,1,0,0:0:0:0:
64,192,85758,1,0,0:0:0:0:
320,192,85779,1,0,0:0:0:0:
448,192,85800,1,0,0:0:0:0:
64,192,85869,1,0,0:0:0:0:
192,192,85890,1,0,0:0:0:0:
448,192,85910,1,0,0:0:0:0:
64,192,86008,1,0,0:0:0:0:
192,192,86008,1,0,0:0:0:0:
320,192,86091,1,0,0:0:0:0:
192,192,86119,1,0,0:0:0:0:
448,192,86147,1,0,0:0:0:0:
320,192,86175,1,0,0:0:0:0:
192,192,86202,1,0,0:0:0:0:
64,192,86230,1,0,0:0:0:0:
448,192,86341,1,0,0:0:0:0:
64,192,86425,1,0,0:0:0:0:
320,192,86452,1,0,0:0:0:0:
448,192,86480,1,0,0:0:0:0:
192,192,86508,1,0,0:0:0:0:
320,192,86535,1,0,0:0:0:0:
192,192,86619,1,0,0:0:0:0:
64,192,86647,1,0,0:0:0:0:
320,192,86675,1,0,0:0:0:0:
448,192,86675,1,0,0:0:0:0:
64,192,86758,1,0,0:0:0:0:
192,192,86779,1,0,0:0:0:0:
320,192,86800,1,0,0:0:0:0:
448,192,86820,1,0,0:0:0:0:
64,192,86841,1,0,0:0:0:0:
64,192,87008,1,0,0:0:0:0:
448,192,87091,1,0,0:0:0:0:
192,192,87119,1,0,0:0:0:0:
64,192,87147,1,0,0:0:0:0:
320,192,87175,1,0,0:0:0:0:
192,192,87202,1,0,0:0:0:0:
320,192,87285,1,0,0:0:0:0:
448,192,87314,1,0,0:0:0:0:
64,192,87341,1,0,0:0:0:0:
192,192,87341,1,0,0:0:0:0:
448,192,87425,1,0,0:0:0:0:
320,192,87445,1,0,0:0:0:0:
192,192,87466,1,0,0:0:0:0:
64,192,87487,1,0,0:0:0:0:
448,192,87508,1,0,0:0:0:0:
448,192,87675,1,0,0:0:0:0:
64,192,87758,1,0,0:0:0:0:
320,192,87785,1,0,0:0:0:0:
448,192,87814,1,0,0:0:0:0:
192,192,87841,1,0,0:0:0:0:
320,192,87869,1,0,0:0:0:0:
192,192,87952,1,0,0:0:0:0:
64,192,87980,1,0,0:0:0:0:
320,192,88008,1,0,0:0:0:0:
448,192,88008,1,0,0:0:0:0:
64,192,88050,1,0,0:0:0:0:
192,192,88091,1,0,0:0:0:0:
320,192,88133,1,0,0:0:0:0:
64,192,88175,1,0,0:0:0:0:
192,192,88230,1,0,0:0:0:0:
448,192,88230,1,0,0:0:0:0:
320,192,88341,1,0,0:0:0:0:
64,192,88341,1,0,0:0:0:0:
192,192,88452,1,0,0:0:0:0:
320,192,88508,1,0,0:0:0:0:
64,192,88564,1,0,0:0:0:0:
448,192,88619,1,0,0:0:0:0:
64,192,88675,1,0,0:0:0:0:
192,192,88675,1,0,0:0:0:0:
448,192,88758,1,0,0:0:0:0:
320,192,88779,1,0,0:0:0:0:
192,192,88800,1,0,0:0:0:0:
64,192,88820,1,0,0:0:0:0:
448,192,88841,1,0,0:0:0:0:
448,192,89008,1,0,0:0:0:0:
64,192,89091,1,0,0:0:0:0:
320,192,89119,1,0,0:0:0:0:
448,192,89147,1,0,0:0:0:0:
192,192,89175,1,0,0:0:0:0:
320,192,89202,1,0,0:0:0:0:
192,192,89285,1,0,0:0:0:0:
64,192,89314,1,0,0:0:0:0:
320,192,89341,1,0,0:0:0:0:
448,192,89341,1,0,0:0:0:0:
192,192,89383,1,0,0:0:0:0:
320,192,89425,1,0,0:0:0:0:
448,192,89466,1,0,0:0:0:0:
192,192,89508,1,0,0:0:0:0:
448,192,89564,1,0,0:0:0:0:
320,192,89591,1,0,0:0:0:0:
64,192,89619,1,0,0:0:0:0:
192,192,89675,1,0,0:0:0:0:
320,192,89716,1,0,0:0:0:0:
192,192,89758,1,0,0:0:0:0:
64,192,89800,1,0,0:0:0:0:
320,192,89841,1,0,0:0:0:0:
64,192,89897,1,0,0:0:0:0:
192,192,89925,1,0,0:0:0:0:
448,192,89952,1,0,0:0:0:0:
64,192,90008,1,0,0:0:0:0:
320,192,90008,1,0,0:0:0:0:
448,192,90085,1,0,0:0:0:0:
192,192,90140,1,0,0:0:0:0:
320,192,90210,1,0,0:0:0:0:
64,192,90285,1,0,0:0:0:0:
448,192,90341,1,0,0:0:0:0:
320,192,90369,1,0,0:0:0:0:
448,192,90397,1,0,0:0:0:0:
64,192,90425,1,0,0:0:0:0:
192,192,90494,1,0,0:0:0:0:
320,192,90494,1,0,0:0:0:0:
64,192,90591,1,0,0:0:0:0:
320,192,90591,1,0,0:0:0:0:
64,192,90675,1,0,0:0:0:0:
192,192,90675,1,0,0:0:0:0:
448,192,90675,1,0,0:0:0:0:
192,192,90925,1,0,0:0:0:0:
448,192,90952,1,0,0:0:0:0:
320,192,90980,1,0,0:0:0:0:
192,192,91008,1,0,0:0:0:0:
64,192,91091,1,0,0:0:0:0:
320,192,91112,1,0,0:0:0:0:
448,192,91133,1,0,0:0:0:0:
64,192,91202,1,0,0:0:0:0:
192,192,91223,1,0,0:0:0:0:
448,192,91244,1,0,0:0:0:0:
64,192,91341,1,0,0:0:0:0:
192,192,91341,1,0,0:0:0:0:
320,192,91376,1,0,0:0:0:0:
448,192,91410,1,0,0:0:0:0:
320,192,91445,1,0,0:0:0:0:
64,192,91522,1,0,0:0:0:0:
192,192,91556,1,0,0:0:0:0:
320,192,91591,1,0,0:0:0:0:
192,192,91626,1,0,0:0:0:0:
448,192,91675,1,0,0:0:0:0:
64,192,91758,1,0,0:0:0:0:
320,192,91785,1,0,0:0:0:0:
448,192,91814,1,0,0:0:0:0:
192,192,91841,1,0,0:0:0:0:
320,192,91869,1,0,0:0:0:0:
192,192,91952,1,0,0:0:0:0:
64,192,91980,1,0,0:0:0:0:
320,192,92008,1,0,0:0:0:0:
448,192,92008,1,0,0:0:0:0:
64,192,92091,1,0,0:0:0:0:
192,192,92112,1,0,0:0:0:0:
320,192,92133,1,0,0:0:0:0:
448,192,92154,1,0,0:0:0:0:
64,192,92175,1,0,0:0:0:0:
64,192,92341,1,0,0:0:0:0:
448,192,92425,1,0,0:0:0:0:
192,192,92452,1,0,0:0:0:0:
64,192,92480,1,0,0:0:0:0:
320,192,92508,1,0,0:0:0:0:
192,192,92535,1,0,0:0:0:0:
320,192,92619,1,0,0:0:0:0:
448,192,92647,1,0,0:0:0:0:
64,192,92675,1,0,0:0:0:0:
192,192,92675,1,0,0:0:0:0:
320,192,92758,1,0,0:0:0:0:
192,192,92785,1,0,0:0:0:0:
448,192,92814,1,0,0:0:0:0:
320,192,92841,1,0,0:0:0:0:
192,192,92869,1,0,0:0:0:0:
64,192,92897,1,0,0:0:0:0:
448,192,93008,1,0,0:0:0:0:
64,192,93091,1,0,0:0:0:0:
320,192,93119,1,0,0:0:0:0:
448,192,93147,1,0,0:0:0:0:
192,192,93175,1,0,0:0:0:0:
320,192,93202,1,0,0:0:0:0:
64,192,93272,1,0,0:0:0:0:
192,192,93314,1,0,0:0:0:0:
320,192,93341,1,0,0:0:0:0:
448,192,93341,1,0,0:0:0:0:
64,192,93341,1,0,0:0:0:0:
192,192,93591,1,0,0:0:0:0:
448,192,93619,1,0,0:0:0:0:
320,192,93647,1,0,0:0:0:0:
192,192,93675,1,0,0:0:0:0:
64,192,93758,1,0,0:0:0:0:
320,192,93779,1,0,0:0:0:0:
448,192,93800,1,0,0:0:0:0:
64,192,93869,1,0,0:0:0:0:
192,192,93890,1,0,0:0:0:0:
448,192,93910,1,0,0:0:0:0:
64,192,94008,1,0,0:0:0:0:
192,192,94008,1,0,0:0:0:0:
448,192,94064,1,0,0:0:0:0:
320,192,94091,1,0,0:0:0:0:
192,192,94119,1,0,0:0:0:0:
64,192,94147,1,0,0:0:0:0:
320,192,94258,1,0,0:0:0:0:
192,192,94300,1,0,0:0:0:0:
448,192,94341,1,0,0:0:0:0:
192,192,94487,1,0,0:0:0:0:
320,192,94529,1,0,0:0:0:0:
64,192,94570,1,0,0:0:0:0:
448,192,94675,1,0,0:0:0:0:
320,192,94702,1,0,0:0:0:0:
192,192,94730,1,0,0:0:0:0:
64,192,94758,1,0,0:0:0:0:
448,192,94785,1,0,0:0:0:0:
320,192,94814,1,0,0:0:0:0:
192,192,94841,1,0,0:0:0:0:
64,192,94925,1,0,0:0:0:0:
320,192,95035,1,0,0:0:0:0:
448,192,95155,1,0,0:0:0:0:
192,192,95175,1,0,0:0:0:0:
64,192,95216,1,0,0:0:0:0:
320,192,95258,1,0,0:0:0:0:
192,192,95300,1,0,0:0:0:0:
448,192,95341,1,0,0:0:0:0:
64,192,95376,1,0,0:0:0:0:
192,192,95410,1,0,0:0:0:0:
320,192,95439,1,0,0:0:0:0:
448,192,95473,1,0,0:0:0:0:
64,192,95508,1,0,0:0:0:0:
320,192,95550,1,0,0:0:0:0:
64,192,95591,1,0,0:0:0:0:
320,192,95633,1,0,0:0:0:0:
64,192,95675,1,0,0:0:0:0:
320,192,95716,1,0,0:0:0:0:
64,192,95758,1,0,0:0:0:0:
448,192,95785,1,0,0:0:0:0:
192,192,95897,1,0,0:0:0:0:
320,192,96008,1,0,0:0:0:0:
448,192,96008,1,0,0:0:0:0:
64,192,96008,1,0,0:0:0:0:
192,192,96258,1,0,0:0:0:0:
448,192,96285,1,0,0:0:0:0:
320,192,96314,1,0,0:0:0:0:
192,192,96341,1,0,0:0:0:0:
64,192,96425,1,0,0:0:0:0:
320,192,96445,1,0,0:0:0:0:
448,192,96466,1,0,0:0:0:0:
64,192,96535,1,0,0:0:0:0:
192,192,96556,1,0,0:0:0:0:
448,192,96577,1,0,0:0:0:0:
64,192,96675,1,0,0:0:0:0:
192,192,96675,1,0,0:0:0:0:
448,192,96710,1,0,0:0:0:0:
320,192,96744,1,0,0:0:0:0:
448,192,96779,1,0,0:0:0:0:
192,192,96855,1,0,0:0:0:0:
64,192,96890,1,0,0:0:0:0:
192,192,96925,1,0,0:0:0:0:
320,192,96960,1,0,0:0:0:0:
64,192,97008,1,0,0:0:0:0:
448,192,97064,1,0,0:0:0:0:
320,192,97091,1,0,0:0:0:0:
192,192,97119,1,0,0:0:0:0:
64,192,97147,1,0,0:0:0:0:
448,192,97175,1,0,0:0:0:0:
192,192,97230,1,0,0:0:0:0:
320,192,97258,1,0,0:0:0:0:
64,192,97300,1,0,0:0:0:0:
320,192,97341,1,0,0:0:0:0:
448,192,97341,1,0,0:0:0:0:
64,192,97425,1,0,0:0:0:0:
192,192,97445,1,0,0:0:0:0:
320,192,97466,1,0,0:0:0:0:
448,192,97487,1,0,0:0:0:0:
64,192,97508,1,0,0:0:0:0:
320,192,97564,1,0,0:0:0:0:
448,192,97675,1,0,0:0:0:0:
64,192,97730,1,0,0:0:0:0:
192,192,97758,1,0,0:0:0:0:
320,192,97785,1,0,0:0:0:0:
448,192,97814,1,0,0:0:0:0:
64,192,97841,1,0,0:0:0:0:
320,192,97896,1,0,0:0:0:0:
192,192,97925,1,0,0:0:0:0:
448,192,97952,1,0,0:0:0:0:
320,192,97980,1,0,0:0:0:0:
64,192,98008,1,0,0:0:0:0:
192,192,98008,1,0,0:0:0:0:
448,192,98091,1,0,0:0:0:0:
320,192,98112,1,0,0:0:0:0:
192,192,98133,1,0,0:0:0:0:
64,192,98154,1,0,0:0:0:0:
448,192,98175,1,0,0:0:0:0:
192,192,98230,1,0,0:0:0:0:
64,192,98341,1,0,0:0:0:0:
448,192,98397,1,0,0:0:0:0:
320,192,98425,1,0,0:0:0:0:
192,192,98452,1,0,0:0:0:0:
64,192,98480,1,0,0:0:0:0:
448,192,98508,1,0,0:0:0:0:
192,192,98563,1,0,0:0:0:0:
320,192,98591,1,0,0:0:0:0:
64,192,98633,1,0,0:0:0:0:
320,192,98675,1,0,0:0:0:0:
448,192,98675,1,0,0:0:0:0:
64,192,98716,1,0,0:0:0:0:
192,192,98758,1,0,0:0:0:0:
320,192,98800,1,0,0:0:0:0:
64,192,98841,1,0,0:0:0:0:
192,192,98896,1,0,0:0:0:0:
448,192,98896,1,0,0:0:0:0:
320,192,99008,1,0,0:0:0:0:
64,192,99008,1,0,0:0:0:0:
192,192,99119,1,0,0:0:0:0:
320,192,99175,1,0,0:0:0:0:
64,192,99230,1,0,0:0:0:0:
448,192,99285,1,0,0:0:0:0:
64,192,99341,1,0,0:0:0:0:
192,192,99341,1,0,0:0:0:0:
448,192,99376,1,0,0:0:0:0:
320,192,99410,1,0,0:0:0:0:
448,192,99445,1,0,0:0:0:0:
192,192,99522,1,0,0:0:0:0:
64,192,99556,1,0,0:0:0:0:
192,192,99591,1,0,0:0:0:0:
320,192,99626,1,0,0:0:0:0:
64,192,99675,1,0,0:0:0:0:
448,192,99730,1,0,0:0:0:0:
320,192,99758,1,0,0:0:0:0:
192,192,99785,1,0,0:0:0:0:
64,192,99814,1,0,0:0:0:0:
448,192,99841,1,0,0:0:0:0:
192,192,99896,1,0,0:0:0:0:
320,192,99925,1,0,0:0:0:0:
448,192,99966,1,0,0:0:0:0:
64,192,100008,1,0,0:0:0:0:
192,192,100008,1,0,0:0:0:0:
320,192,100050,1,0,0:0:0:0:
192,192,100091,1,0,0:0:0:0:
64,192,100133,1,0,0:0:0:0:
320,192,100175,1,0,0:0:0:0:
64,192,100230,1,0,0:0:0:0:
192,192,100258,1,0,0:0:0:0:
448,192,100285,1,0,0:0:0:0:
320,192,100341,1,0,0:0:0:0:
192,192,100383,1,0,0:0:0:0:
320,192,100425,1,0,0:0:0:0:
448,192,100466,1,0,0:0:0:0:
192,192,100508,1,0,0:0:0:0:
448,192,100564,1,0,0:0:0:0:
320,192,100591,1,0,0:0:0:0:
64,192,100619,1,0,0:0:0:0:
192,192,100675,1,0,0:0:0:0:
448,192,100675,1,0,0:0:0:0:
64,192,100751,1,0,0:0:0:0:
320,192,100807,1,0,0:0:0:0:
192,192,100876,1,0,0:0:0:0:
448,192,100952,1,0,0:0:0:0:
64,192,101008,1,0,0:0:0:0:
192,192,101035,1,0,0:0:0:0:
64,192,101063,1,0,0:0:0:0:
448,192,101091,1,0,0:0:0:0:
320,192,101160,1,0,0:0:0:0:
192,192,101160,1,0,0:0:0:0:
448,192,101258,1,0,0:0:0:0:
192,192,101258,1,0,0:0:0:0:
320,192,101341,1,0,0:0:0:0:
448,192,101341,1,0,0:0:0:0:
64,192,101341,1,0,0:0:0:0:
192,192,101591,1,0,0:0:0:0:
448,192,101619,1,0,0:0:0:0:
320,192,101647,1,0,0:0:0:0:
192,192,101675,1,0,0:0:0:0:
64,192,101758,1,0,0:0:0:0:
320,192,101779,1,0,0:0:0:0:
448,192,101800,1,0,0:0:0:0:
64,192,101869,1,0,0:0:0:0:
192,192,101890,1,0,0:0:0:0:
448,192,101910,1,0,0:0:0:0:
64,192,102008,1,0,0:0:0:0:
192,192,102008,1,0,0:0:0:0:
448,192,102043,1,0,0:0:0:0:
320,192,102077,1,0,0:0:0:0:
448,192,102112,1,0,0:0:0:0:
192,192,102189,1,0,0:0:0:0:
64,192,102223,1,0,0:0:0:0:
192,192,102258,1,0,0:0:0:0:
320,192,102293,1,0,0:0:0:0:
64,192,102341,1,0,0:0:0:0:
448,192,102397,1,0,0:0:0:0:
320,192,102425,1,0,0:0:0:0:
192,192,102452,1,0,0:0:0:0:
64,192,102480,1,0,0:0:0:0:
448,192,102508,1,0,0:0:0:0:
192,192,102563,1,0,0:0:0:0:
320,192,102591,1,0,0:0:0:0:
64,192,102633,1,0,0:0:0:0:
320,192,102675,1,0,0:0:0:0:
448,192,102675,1,0,0:0:0:0:
64,192,102758,1,0,0:0:0:0:
448,192,102779,1,0,0:0:0:0:
320,192,102800,1,0,0:0:0:0:
192,192,102820,1,0,0:0:0:0:
64,192,102841,1,0,0:0:0:0:
320,192,102897,1,0,0:0:0:0:
448,192,103008,1,0,0:0:0:0:
192,192,103064,1,0,0:0:0:0:
64,192,103091,1,0,0:0:0:0:
320,192,103119,1,0,0:0:0:0:
192,192,103147,1,0,0:0:0:0:
448,192,103175,1,0,0:0:0:0:
64,192,103230,1,0,0:0:0:0:
320,192,103258,1,0,0:0:0:0:
448,192,103300,1,0,0:0:0:0:
64,192,103341,1,0,0:0:0:0:
192,192,103341,1,0,0:0:0:0:
448,192,103425,1,0,0:0:0:0:
64,192,103445,1,0,0:0:0:0:
192,192,103466,1,0,0:0:0:0:
320,192,103487,1,0,0:0:0:0:
448,192,103508,1,0,0:0:0:0:
192,192,103564,1,0,0:0:0:0:
64,192,103675,1,0,0:0:0:0:
320,192,103730,1,0,0:0:0:0:
448,192,103758,1,0,0:0:0:0:
192,192,103785,1,0,0:0:0:0:
320,192,103814,1,0,0:0:0:0:
64,192,103841,1,0,0:0:0:0:
192,192,103883,1,0,0:0:0:0:
448,192,103925,1,0,0:0:0:0:
320,192,103966,1,0,0:0:0:0:
192,192,104008,1,0,0:0:0:0:
64,192,104008,1,0,0:0:0:0:
448,192,104008,1,0,0:0:0:0:
320,192,104258,1,0,0:0:0:0:
64,192,104285,1,0,0:0:0:0:
192,192,104314,1,0,0:0:0:0:
320,192,104341,1,0,0:0:0:0:
448,192,104425,1,0,0:0:0:0:
192,192,104445,1,0,0:0:0:0:
64,192,104466,1,0,0:0:0:0:
448,192,104535,1,0,0:0:0:0:
320,192,104556,1,0,0:0:0:0:
64,192,104577,1,0,0:0:0:0:
320,192,104675,1,0,0:0:0:0:
448,192,104675,1,0,0:0:0:0:
64,192,104730,1,0,0:0:0:0:
192,192,104758,1,0,0:0:0:0:
320,192,104785,1,0,0:0:0:0:
448,192,104814,1,0,0:0:0:0:
192,192,104925,1,0,0:0:0:0:
320,192,104966,1,0,0:0:0:0:
64,192,105008,1,0,0:0:0:0:
320,192,105154,1,0,0:0:0:0:
192,192,105195,1,0,0:0:0:0:
448,192,105237,1,0,0:0:0:0:
64,192,105341,1,0,0:0:0:0:
192,192,105369,1,0,0:0:0:0:
320,192,105397,1,0,0:0:0:0:
448,192,105425,1,0,0:0:0:0:
64,192,105452,1,0,0:0:0:0:
192,192,105480,1,0,0:0:0:0:
320,192,105508,1,0,0:0:0:0:
192,192,105633,1,0,0:0:0:0:
64,192,105633,1,0,0:0:0:0:
448,192,105841,1,0,0:0:0:0:
192,192,105883,1,0,0:0:0:0:
320,192,105925,1,0,0:0:0:0:
64,192,105966,1,0,0:0:0:0:
448,192,105966,1,0,0:0:0:0:
192,192,106063,1,0,0:0:0:0:
64,192,106063,1,0,0:0:0:0:
320,192,106146,1,0,0:0:0:0:
448,192,106146,1,0,0:0:0:0:
192,192,106320,1,0,0:0:0:0:
448,192,106466,1,0,0:0:0:0:
64,192,106466,1,0,0:0:0:0:
192,192,106508,1,0,0:0:0:0:
64,192,106550,1,0,0:0:0:0:
320,192,106591,1,0,0:0:0:0:
192,192,106633,1,0,0:0:0:0:
64,192,106675,1,0,0:0:0:0:
448,192,106675,128,0,106800:0:0:0:0:
320,192,106675,128,0,106800:0:0:0:0:
192,192,106800,1,0,0:0:0:0:
192,192,107008,1,0,0:0:0:0:
448,192,107008,1,0,0:0:0:0:
192,192,107119,1,0,0:0:0:0:
448,192,107119,1,0,0:0:0:0:
448,192,107230,1,0,0:0:0:0:
192,192,107258,1,0,0:0:0:0:
64,192,107285,1,0,0:0:0:0:
320,192,107341,1,0,0:0:0:0:
448,192,107369,1,0,0:0:0:0:
192,192,107397,1,0,0:0:0:0:
320,192,107425,1,0,0:0:0:0:
64,192,107452,1,0,0:0:0:0:
192,192,107480,1,0,0:0:0:0:
448,192,107508,1,0,0:0:0:0:
320,192,107550,1,0,0:0:0:0:
64,192,107675,1,0,0:0:0:0:
320,192,107675,1,0,0:0:0:0:
64,192,107785,1,0,0:0:0:0:
320,192,107785,1,0,0:0:0:0:
64,192,107897,1,0,0:0:0:0:
448,192,107925,1,0,0:0:0:0:
192,192,107952,1,0,0:0:0:0:
320,192,108008,128,0,108133:0:0:0:0:
448,192,108008,128,0,108133:0:0:0:0:
192,192,108133,1,0,0:0:0:0:
192,192,108341,1,0,0:0:0:0:
448,192,108341,1,0,0:0:0:0:
192,192,108452,1,0,0:0:0:0:
448,192,108452,1,0,0:0:0:0:
448,192,108564,1,0,0:0:0:0:
192,192,108591,1,0,0:0:0:0:
64,192,108619,1,0,0:0:0:0:
320,192,108675,1,0,0:0:0:0:
448,192,108702,1,0,0:0:0:0:
192,192,108730,1,0,0:0:0:0:
320,192,108758,1,0,0:0:0:0:
64,192,108785,1,0,0:0:0:0:
192,192,108814,1,0,0:0:0:0:
448,192,108841,1,0,0:0:0:0:
320,192,108883,1,0,0:0:0:0:
320,192,109008,1,0,0:0:0:0:
192,192,109008,1,0,0:0:0:0:
64,192,109008,1,0,0:0:0:0:
192,192,109119,1,0,0:0:0:0:
320,192,109119,1,0,0:0:0:0:
448,192,109119,1,0,0:0:0:0:
448,192,109341,1,0,0:0:0:0:
192,192,109341,128,0,109466:0:0:0:0:
64,192,109341,128,0,109466:0:0:0:0:
320,192,109466,1,0,0:0:0:0:
64,192,109675,1,0,0:0:0:0:
320,192,109675,1,0,0:0:0:0:
448,192,109675,1,0,0:0:0:0:
64,192,109785,1,0,0:0:0:0:
448,192,109785,1,0,0:0:0:0:
64,192,109897,1,0,0:0:0:0:
448,192,109897,1,0,0:0:0:0:
64,192,110008,1,0,0:0:0:0:
192,192,110008,1,0,0:0:0:0:
320,192,110008,1,0,0:0:0:0:
448,192,110008,1,0,0:0:0:0:
64,192,110119,1,0,0:0:0:0:
448,192,110119,1,0,0:0:0:0:
64,192,110230,1,0,0:0:0:0:
448,192,110230,1,0,0:0:0:0:
64,192,110341,1,0,0:0:0:0:
448,192,110341,1,0,0:0:0:0:
192,192,110397,1,0,0:0:0:0:
320,192,110397,1,0,0:0:0:0:
64,192,110452,1,0,0:0:0:0:
448,192,110452,1,0,0:0:0:0:
64,192,110564,1,0,0:0:0:0:
448,192,110564,1,0,0:0:0:0:
64,192,110675,1,0,0:0:0:0:
192,192,110675,1,0,0:0:0:0:
448,192,110675,1,0,0:0:0:0:
64,192,110785,1,0,0:0:0:0:
448,192,110785,1,0,0:0:0:0:
64,192,110897,1,0,0:0:0:0:
448,192,110897,1,0,0:0:0:0:
320,192,111008,1,0,0:0:0:0:
64,192,111008,1,0,0:0:0:0:
448,192,111008,1,0,0:0:0:0:
64,192,111119,1,0,0:0:0:0:
448,192,111119,1,0,0:0:0:0:
64,192,111230,1,0,0:0:0:0:
448,192,111230,1,0,0:0:0:0:
192,192,111341,1,0,0:0:0:0:
64,192,111341,1,0,0:0:0:0:
448,192,111341,1,0,0:0:0:0:
320,192,111397,1,0,0:0:0:0:
448,192,111425,1,0,0:0:0:0:
192,192,111452,1,0,0:0:0:0:
320,192,111480,1,0,0:0:0:0:
64,192,111508,1,0,0:0:0:0:
192,192,111550,1,0,0:0:0:0:
320,192,111675,1,0,0:0:0:0:
192,192,111702,1,0,0:0:0:0:
64,192,111730,1,0,0:0:0:0:
448,192,111758,1,0,0:0:0:0:
320,192,111785,1,0,0:0:0:0:
192,192,111814,1,0,0:0:0:0:
64,192,111897,1,0,0:0:0:0:
448,192,111925,1,0,0:0:0:0:
192,192,111952,1,0,0:0:0:0:
320,192,112008,128,0,112133:0:0:0:0:
448,192,112008,128,0,112133:0:0:0:0:
64,192,112008,1,0,0:0:0:0:
192,192,112133,1,0,0:0:0:0:
192,192,112341,1,0,0:0:0:0:
320,192,112341,1,0,0:0:0:0:
448,192,112341,1,0,0:0:0:0:
320,192,112452,1,0,0:0:0:0:
448,192,112452,1,0,0:0:0:0:
320,192,112564,1,0,0:0:0:0:
448,192,112564,1,0,0:0:0:0:
64,192,112675,1,0,0:0:0:0:
448,192,112675,1,0,0:0:0:0:
192,192,112730,1,0,0:0:0:0:
64,192,112758,1,0,0:0:0:0:
320,192,112785,1,0,0:0:0:0:
192,192,112814,1,0,0:0:0:0:
448,192,112841,1,0,0:0:0:0:
320,192,112883,1,0,0:0:0:0:
64,192,113008,1,0,0:0:0:0:
192,192,113008,1,0,0:0:0:0:
448,192,113008,1,0,0:0:0:0:
64,192,113119,1,0,0:0:0:0:
192,192,113119,1,0,0:0:0:0:
64,192,113230,1,0,0:0:0:0:
192,192,113230,1,0,0:0:0:0:
64,192,113341,1,0,0:0:0:0:
320,192,113341,128,0,113466:0:0:0:0:
448,192,113341,128,0,113466:0:0:0:0:
192,192,113466,1,0,0:0:0:0:
192,192,113675,1,0,0:0:0:0:
320,192,113675,1,0,0:0:0:0:
448,192,113675,1,0,0:0:0:0:
320,192,113785,1,0,0:0:0:0:
448,192,113785,1,0,0:0:0:0:
320,192,113897,1,0,0:0:0:0:
448,192,113897,1,0,0:0:0:0:
64,192,114008,1,0,0:0:0:0:
448,192,114008,1,0,0:0:0:0:
192,192,114064,1,0,0:0:0:0:
64,192,114091,1,0,0:0:0:0:
320,192,114119,1,0,0:0:0:0:
192,192,114147,1,0,0:0:0:0:
448,192,114175,1,0,0:0:0:0:
320,192,114216,1,0,0:0:0:0:
64,192,114341,128,0,114452:0:0:0:0:
448,192,114341,128,0,114452:0:0:0:0:
192,192,114564,1,0,0:0:0:0:
320,192,114564,1,0,0:0:0:0:
448,192,114675,1,0,0:0:0:0:
192,192,114675,128,0,114800:0:0:0:0:
64,192,114675,128,0,114800:0:0:0:0:
320,192,114800,1,0,0:0:0:0:
64,192,115008,1,0,0:0:0:0:
192,192,115008,1,0,0:0:0:0:
320,192,115008,1,0,0:0:0:0:
192,192,115119,1,0,0:0:0:0:
320,192,115119,1,0,0:0:0:0:
192,192,115230,1,0,0:0:0:0:
320,192,115230,1,0,0:0:0:0:
64,192,115341,1,0,0:0:0:0:
192,192,115341,1,0,0:0:0:0:
320,192,115341,1,0,0:0:0:0:
448,192,115341,1,0,0:0:0:0:
192,192,115452,1,0,0:0:0:0:
320,192,115452,1,0,0:0:0:0:
192,192,115564,1,0,0:0:0:0:
320,192,115564,1,0,0:0:0:0:
448,192,115675,1,0,0:0:0:0:
64,192,115716,1,0,0:0:0:0:
320,192,115758,1,0,0:0:0:0:
192,192,115800,1,0,0:0:0:0:
448,192,115841,1,0,0:0:0:0:
320,192,115883,1,0,0:0:0:0:
64,192,115925,1,0,0:0:0:0:
192,192,115966,1,0,0:0:0:0:
448,192,116008,1,0,0:0:0:0:
320,192,116035,1,0,0:0:0:0:
192,192,116064,1,0,0:0:0:0:
64,192,116091,1,0,0:0:0:0:
448,192,116119,1,0,0:0:0:0:
320,192,116147,1,0,0:0:0:0:
192,192,116175,1,0,0:0:0:0:
64,192,116258,1,0,0:0:0:0:
320,192,116369,1,0,0:0:0:0:
448,192,116489,1,0,0:0:0:0:
192,192,116508,1,0,0:0:0:0:
64,192,116550,1,0,0:0:0:0:
320,192,116591,1,0,0:0:0:0:
192,192,116633,1,0,0:0:0:0:
448,192,116675,1,0,0:0:0:0:
64,192,116710,1,0,0:0:0:0:
192,192,116744,1,0,0:0:0:0:
320,192,116772,1,0,0:0:0:0:
448,192,116806,1,0,0:0:0:0:
64,192,116841,1,0,0:0:0:0:
320,192,116883,1,0,0:0:0:0:
64,192,116925,1,0,0:0:0:0:
320,192,116966,1,0,0:0:0:0:
64,192,117008,1,0,0:0:0:0:
320,192,117050,1,0,0:0:0:0:
64,192,117091,1,0,0:0:0:0:
448,192,117119,1,0,0:0:0:0:
192,192,117230,1,0,0:0:0:0:
320,192,117341,128,0,117466:0:0:0:0:
448,192,117341,128,0,117466:0:0:0:0:
64,192,117341,1,0,0:0:0:0:
192,192,117466,1,0,0:0:0:0:
448,192,117564,1,0,0:0:0:0:
192,192,117675,1,0,0:0:0:0:
320,192,117675,1,0,0:0:0:0:
192,192,117785,1,0,0:0:0:0:
192,192,117897,1,0,0:0:0:0:
64,192,118008,1,0,0:0:0:0:
192,192,118008,1,0,0:0:0:0:
448,192,118008,1,0,0:0:0:0:
192,192,118119,1,0,0:0:0:0:
192,192,118230,1,0,0:0:0:0:
192,192,118341,1,0,0:0:0:0:
320,192,118341,1,0,0:0:0:0:
192,192,118452,1,0,0:0:0:0:
192,192,118564,1,0,0:0:0:0:
64,192,118675,1,0,0:0:0:0:
192,192,118675,1,0,0:0:0:0:
192,192,118785,1,0,0:0:0:0:
192,192,118897,1,0,0:0:0:0:
192,192,119008,1,0,0:0:0:0:
320,192,119008,1,0,0:0:0:0:
192,192,119119,1,0,0:0:0:0:
320,192,119195,1,0,0:0:0:0:
192,192,119230,1,0,0:0:0:0:
448,192,119272,1,0,0:0:0:0:
320,192,119314,1,0,0:0:0:0:
64,192,119341,1,0,0:0:0:0:
192,192,119341,1,0,0:0:0:0:
448,192,119341,1,0,0:0:0:0:
320,192,119452,1,0,0:0:0:0:
64,192,119564,1,0,0:0:0:0:
192,192,119675,1,0,0:0:0:0:
320,192,119675,1,0,0:0:0:0:
448,192,119785,1,0,0:0:0:0:
192,192,119897,1,0,0:0:0:0:
64,192,120008,1,0,0:0:0:0:
448,192,120008,1,0,0:0:0:0:
320,192,120064,1,0,0:0:0:0:
448,192,120091,1,0,0:0:0:0:
192,192,120119,1,0,0:0:0:0:
320,192,120147,1,0,0:0:0:0:
64,192,120175,1,0,0:0:0:0:
192,192,120216,1,0,0:0:0:0:
192,192,120341,1,0,0:0:0:0:
320,192,120341,1,0,0:0:0:0:
320,192,120452,1,0,0:0:0:0:
320,192,120564,1,0,0:0:0:0:
64,192,120675,1,0,0:0:0:0:
320,192,120675,1,0,0:0:0:0:
448,192,120675,1,0,0:0:0:0:
320,192,120785,1,0,0:0:0:0:
320,192,120897,1,0,0:0:0:0:
192,192,121008,1,0,0:0:0:0:
320,192,121008,1,0,0:0:0:0:
320,192,121119,1,0,0:0:0:0:
320,192,121230,1,0,0:0:0:0:
320,192,121341,1,0,0:0:0:0:
448,192,121341,1,0,0:0:0:0:
320,192,121452,1,0,0:0:0:0:
320,192,121564,1,0,0:0:0:0:
192,192,121675,1,0,0:0:0:0:
320,192,121675,1,0,0:0:0:0:
320,192,121785,1,0,0:0:0:0:
192,192,121862,1,0,0:0:0:0:
320,192,121897,1,0,0:0:0:0:
64,192,121939,1,0,0:0:0:0:
192,192,121980,1,0,0:0:0:0:
64,192,122008,1,0,0:0:0:0:
320,192,122008,1,0,0:0:0:0:
448,192,122008,1,0,0:0:0:0:
192,192,122119,1,0,0:0:0:0:
448,192,122230,1,0,0:0:0:0:
192,192,122341,1,0,0:0:0:0:
320,192,122341,1,0,0:0:0:0:
448,192,122452,1,0,0:0:0:0:
192,192,122564,1,0,0:0:0:0:
64,192,122675,1,0,0:0:0:0:
320,192,122675,128,0,122800:0:0:0:0:
448,192,122675,128,0,122800:0:0:0:0:
192,192,122800,1,0,0:0:0:0:
448,192,122897,1,0,0:0:0:0:
64,192,123008,1,0,0:0:0:0:
320,192,123008,1,0,0:0:0:0:
64,192,123119,1,0,0:0:0:0:
64,192,123230,1,0,0:0:0:0:
64,192,123341,1,0,0:0:0:0:
192,192,123341,1,0,0:0:0:0:
448,192,123341,1,0,0:0:0:0:
64,192,123452,1,0,0:0:0:0:
64,192,123564,1,0,0:0:0:0:
64,192,123675,1,0,0:0:0:0:
320,192,123675,1,0,0:0:0:0:
64,192,123785,1,0,0:0:0:0:
64,192,123897,1,0,0:0:0:0:
64,192,124008,1,0,0:0:0:0:
192,192,124008,1,0,0:0:0:0:
64,192,124119,1,0,0:0:0:0:
64,192,124230,1,0,0:0:0:0:
64,192,124341,1,0,0:0:0:0:
320,192,124341,1,0,0:0:0:0:
64,192,124452,1,0,0:0:0:0:
320,192,124529,1,0,0:0:0:0:
64,192,124564,1,0,0:0:0:0:
448,192,124605,1,0,0:0:0:0:
320,192,124647,1,0,0:0:0:0:
64,192,124675,1,0,0:0:0:0:
192,192,124675,1,0,0:0:0:0:
448,192,124675,1,0,0:0:0:0:
320,192,124785,1,0,0:0:0:0:
192,192,124897,1,0,0:0:0:0:
64,192,125008,1,0,0:0:0:0:
320,192,125008,1,0,0:0:0:0:
448,192,125119,1,0,0:0:0:0:
192,192,125230,1,0,0:0:0:0:
64,192,125341,1,0,0:0:0:0:
448,192,125341,1,0,0:0:0:0:
320,192,125397,1,0,0:0:0:0:
448,192,125425,1,0,0:0:0:0:
192,192,125452,1,0,0:0:0:0:
320,192,125480,1,0,0:0:0:0:
64,192,125508,1,0,0:0:0:0:
192,192,125550,1,0,0:0:0:0:
192,192,125675,1,0,0:0:0:0:
448,192,125675,1,0,0:0:0:0:
448,192,125785,1,0,0:0:0:0:
448,192,125897,1,0,0:0:0:0:
64,192,126008,1,0,0:0:0:0:
320,192,126008,1,0,0:0:0:0:
448,192,126008,1,0,0:0:0:0:
448,192,126119,1,0,0:0:0:0:
448,192,126230,1,0,0:0:0:0:
192,192,126341,1,0,0:0:0:0:
448,192,126341,1,0,0:0:0:0:
448,192,126452,1,0,0:0:0:0:
448,192,126564,1,0,0:0:0:0:
64,192,126675,1,0,0:0:0:0:
448,192,126675,1,0,0:0:0:0:
192,192,126730,1,0,0:0:0:0:
320,192,126758,1,0,0:0:0:0:
64,192,126785,1,0,0:0:0:0:
192,192,126814,1,0,0:0:0:0:
448,192,126841,1,0,0:0:0:0:
320,192,126883,1,0,0:0:0:0:
64,192,126925,1,0,0:0:0:0:
448,192,126966,1,0,0:0:0:0:
192,192,127008,1,0,0:0:0:0:
320,192,127119,1,0,0:0:0:0:
64,192,127230,1,0,0:0:0:0:
192,192,127341,1,0,0:0:0:0:
320,192,127341,1,0,0:0:0:0:
448,192,127341,1,0,0:0:0:0:
192,192,127508,1,0,0:0:0:0:
64,192,127508,1,0,0:0:0:0:
448,192,127564,1,0,0:0:0:0:
320,192,127619,1,0,0:0:0:0:
192,192,127675,1,0,0:0:0:0:
448,192,127785,1,0,0:0:0:0:
64,192,127897,1,0,0:0:0:0:
64,192,128008,1,0,0:0:0:0:
192,192,128008,1,0,0:0:0:0:
320,192,128008,1,0,0:0:0:0:
448,192,128008,1,0,0:0:0:0:
