osu file format v14

[General]
AudioFilename: audio.mp3
AudioLeadIn: 0
PreviewTime: 137931
Countdown: 0
SampleSet: Soft
StackLeniency: 0.3
Mode: 0
LetterboxInBreaks: 0
WidescreenStoryboard: 0

[Editor]
Bookmarks: 20689,182068
DistanceSpacing: 1.2
BeatDivisor: 4
GridSize: 16
TimelineZoom: 1.6

[Metadata]
Title:Rampage
TitleUnicode:Rampage
Artist:Virtual Riot
ArtistUnicode:Virtual Riot
Creator:Theaceae
Version:Advanced
Source:
Tags:dnb dubstep drumstep wubs
BeatmapID:1260180
BeatmapSetID:594363

[Difficulty]
HPDrainRate:2
CircleSize:3.6
OverallDifficulty:4.8
ApproachRate:6.2
SliderMultiplier:1.3
SliderTickRate:1

[Events]
//Background and Video events
0,0,"XXI3y4g.jpg",0,0
//Break Periods
2,44337,54152
2,88475,98290
//Storyboard Layer 0 (Background)
//Storyboard Layer 1 (Fail)
//Storyboard Layer 2 (Pass)
//Storyboard Layer 3 (Foreground)
//Storyboard Sound Samples

[TimingPoints]
0,344.827586206897,4,2,1,60,1,0
20689,-100,4,2,1,50,0,0
22068,-100,4,2,1,60,0,0
55172,-100,4,2,1,40,0,0
66206,-100,4,2,1,50,0,0
99310,-100,4,2,1,35,0,0
110344,-100,4,2,1,40,0,0
137931,-100,4,2,1,70,0,1
157241,-100,4,2,1,60,0,0

[Colours]
Combo1 : 0,255,159
Combo2 : 255,0,255
Combo3 : 97,63,254
Combo4 : 255,255,0
SliderTrackOverride : 50,40,80
SliderBorder : 255,13,255

[HitObjects]
85,39,20689,6,0,B|106:120|106:120|76:193|76:193|109:301,1,260,0|2,0:0|0:0,0:0:0:0:
170,327,21551,1,0,0:0:0:0:
235,283,21724,2,0,P|294:265|347:274,1,65,8|0,0:0|1:0,0:0:0:0:
325,192,22068,6,0,P|279:149|261:99,1,65,4|0,1:0|0:0,0:0:0:0:
284,69,22413,2,0,L|388:76,1,65,8|0,0:1|0:0,0:0:0:0:
426,80,22758,1,0,0:0:0:0:
464,148,22931,1,0,1:0:0:0:
412,206,23103,2,0,L|399:298,1,65,8|0,0:1|0:0,0:0:0:0:
337,313,23448,6,0,L|234:305,1,65,0|0,0:0|1:0,0:0:0:0:
228,242,23793,2,0,B|183:257|183:257|150:247|150:247|53:268,1,130,8|0,0:1|0:0,0:0:0:0:
33,221,24310,1,0,1:0:0:0:
12,296,24482,2,0,L|38:391,1,65,8|0,0:1|0:0,0:0:0:0:
105,340,24827,6,0,P|157:337|205:367,1,65,0|0,1:0|0:0,0:0:0:0:
239,373,25172,2,0,L|256:310,1,65,8|0,0:1|0:0,0:0:0:0:
303,247,25517,1,0,0:0:0:0:
338,177,25689,2,0,B|306:167|306:167|229:183,1,65,0|8,1:0|0:1,0:0:0:0:
223,114,26034,6,0,B|271:136|271:136|397:106,1,130,0|0,1:0|1:0,0:0:0:0:
423,130,26551,2,0,L|413:227,1,65,8|0,0:1|0:0,0:0:0:0:
375,261,26896,1,0,0:0:0:0:
415,327,27068,2,0,P|467:335|511:310,2,65,0|8|0,1:0|0:1|1:0,0:0:0:0:
338,343,27586,6,0,B|258:336|258:336|206:300|206:300|73:289,1,260,2|0,1:0|0:0,0:0:0:0:
13,275,28448,1,0,1:0:0:0:
0,198,28620,1,8,0:1:0:0:
118,96,28965,6,0,B|148:145|148:145|105:254,2,130,2|8|0,0:0|0:1|0:0,0:0:0:0:
61,41,29827,1,0,1:0:0:0:
5,95,30000,1,8,0:1:0:0:
158,67,30344,6,0,P|227:49|273:202,1,260,2|0,1:0|0:0,0:0:0:0:
206,217,31206,1,0,1:0:0:0:
200,295,31379,1,8,0:1:0:0:
353,320,31724,6,0,B|402:326|402:326|433:347|433:347|508:354,2,130,2|8|0,0:0|0:1|0:0,0:0:0:0:
293,268,32586,1,0,1:0:0:0:
353,219,32758,2,0,B|358:184|358:184|346:125,1,65,8|0,0:1|1:0,0:0:0:0:
282,120,33103,6,0,L|202:115,1,65,4|0,1:0|0:0,0:0:0:0:
138,117,33448,2,0,L|58:122,1,65,8|0,0:1|0:0,0:0:0:0:
18,176,33793,1,0,0:0:0:0:
56,244,33966,1,0,1:0:0:0:
119,199,34138,2,0,B|150:197|150:197|211:212,1,65,8|0,0:1|0:0,0:0:0:0:
195,282,34483,6,0,L|298:290,1,65,0|0,0:0|1:0,0:0:0:0:
331,254,34828,2,0,B|316:209|316:209|326:176|326:176|305:79,1,130,8|0,0:1|0:0,0:0:0:0:
293,54,35345,1,0,1:0:0:0:
370,60,35517,2,0,P|397:90|396:155,1,65,8|0,0:1|1:0,0:0:0:0:
421,189,35862,6,0,P|414:220|420:252,1,65,0|0,1:0|0:0,0:0:0:0:
406,329,36207,2,0,L|343:312,1,65,8|0,0:1|0:0,0:0:0:0:
290,254,36552,1,0,0:0:0:0:
217,282,36724,2,0,B|210:251|210:251|220:219,1,65,0|8,1:0|0:1,0:0:0:0:
275,163,37068,6,0,P|200:185|146:118,1,130,0|0,1:0|1:0,0:0:0:0:
153,80,37586,2,0,L|56:70,1,65,8|0,0:1|0:0,0:0:0:0:
31,127,37931,1,0,0:0:0:0:
52,201,38103,2,0,L|23:303,2,65,0|8|0,1:0|0:1|1:0,0:0:0:0:
128,216,38620,6,0,B|211:223|211:223|271:278|271:278|375:288,1,260,2|0,1:0|0:0,0:0:0:0:
445,152,39655,1,8,0:1:0:0:
307,78,40000,6,0,B|280:125|280:125|311:222,2,130,0|8|0,0:0|0:1|0:0,0:0:0:0:
362,23,40862,1,0,1:0:0:0:
418,76,41034,2,0,L|407:189,1,65,8|0,0:1|0:0,0:0:0:0:
453,206,41379,6,0,P|365:186|394:319,1,260,2|0,1:0|0:0,0:0:0:0:
418,76,42758,1,2,0:0:0:0:
256,192,42931,12,4,44137,1:0:0:0:
44,96,55172,6,0,P|116:71|141:77,1,65,2|0,1:2|0:0,0:0:0:0:
164,118,55517,2,0,B|156:167|156:167|166:203|166:203|153:296,1,130,8|0,0:0|0:0,0:0:0:0:
201,311,56034,1,0,1:0:0:0:
263,264,56206,2,0,B|255:215|255:215|265:179|265:179|259:136,1,130,8|0,0:0|0:0,0:0:0:0:
300,71,56723,5,0,1:0:0:0:
361,118,56896,2,0,B|353:167|353:167|363:203|363:203|350:296,1,130,8|0,0:0|0:0,0:0:0:0:
398,311,57413,1,0,1:0:0:0:
445,248,57586,2,0,L|455:167,1,65,8|0,0:0|0:0,0:0:0:0:
472,107,57931,6,0,P|452:61|401:39,1,65,2|0,1:2|0:0,0:0:0:0:
366,72,58275,2,0,P|284:94|223:50,1,130,8|0,0:0|0:0,0:0:0:0:
184,28,58793,1,0,1:0:0:0:
169,104,58965,2,0,P|191:186|147:247,1,130,8|0,0:0|0:0,0:0:0:0:
125,286,59483,5,0,1:0:0:0:
202,296,59655,2,0,P|284:274|345:318,1,130,8|0,0:0|0:0,0:0:0:0:
384,340,60173,1,0,1:0:0:0:
437,284,60344,2,0,L|446:188,1,65,8|0,0:0|0:0,0:0:0:0:
452,141,60689,1,2,1:2:0:0:
256,192,60862,12,0,64827,1:0:0:0:
91,110,65517,5,8,0:0:0:0:
203,218,65862,1,2,0:0:0:0:
211,62,66206,6,0,B|191:103|191:103|162:131|162:131|140:184,1,130,4|0,1:0|0:0,0:0:0:0:
120,246,66724,1,0,1:0:0:0:
87,316,66896,2,0,B|149:337|186:290|186:290|210:376|317:356,2,260,8|0|8,0:1|0:0|0:1,0:0:0:0:
298,86,68965,6,0,P|333:151|302:221,1,130,0|2,1:0|0:0,0:0:0:0:
278,268,69482,1,0,1:0:0:0:
212,225,69655,2,0,B|130:161|130:161|106:351,2,260,8|0|8,0:1|0:0|0:1,0:0:0:0:
343,309,71379,1,8,0:1:0:0:
425,176,71724,6,0,B|374:170|374:170|358:158|358:158|285:149,1,130,2|2,1:0|0:2,0:0:0:0:
222,141,72241,1,2,0:2:0:0:
212,63,72413,2,0,L|124:69,1,65,8|2,0:1|0:2,0:0:0:0:
71,86,72758,2,0,L|159:92,1,65,2|2,0:2|0:2,0:0:0:0:
141,168,73103,6,0,L|148:232,1,65,2|2,0:2|0:2,0:0:0:0:
156,310,73448,2,0,L|163:245,1,65,2|2,1:2|0:2,0:0:0:0:
221,192,73793,2,0,B|285:196|309:249|309:249|340:201|394:219,1,195,8|0,0:1|0:0,0:0:0:0:
434,270,74482,6,0,P|457:204|403:150,1,130,0|2,1:0|0:2,0:0:0:0:
355,122,75000,1,2,0:0:0:0:
283,92,75172,2,0,L|185:101,1,65,8|0,0:1|0:0,0:0:0:0:
176,164,75517,2,0,L|78:155,1,65,0|0,0:0|0:0,0:0:0:0:
33,152,75862,5,0,0:0:0:0:
69,220,76034,2,0,P|86:253|78:311,1,65,2|0,0:0|1:0,0:0:0:0:
83,358,76379,1,0,0:0:0:0:
151,322,76551,2,0,P|184:305|288:335,1,130,8|0,0:1|1:0,0:0:0:0:
332,370,77068,1,0,1:0:0:0:
346,293,77241,6,0,B|351:247|351:247|374:221|374:221|390:122,1,130,0|2,1:0|0:0,0:0:0:0:
390,94,77758,1,2,0:0:0:0:
403,16,77931,2,0,B|477:40|477:40|449:229,2,260,8|0|8,0:1|0:0|0:1,0:0:0:0:
99,87,80000,6,0,B|139:119|139:119|249:90,1,130,0|2,1:0|0:2,0:0:0:0:
290,77,80517,1,0,0:0:0:0:
342,134,80689,2,0,B|317:298|317:298|415:251,2,260,8|0|8,0:1|0:0|0:1,0:0:0:0:
227,27,82413,1,8,0:1:0:0:
121,142,82758,6,0,B|140:225|140:225|126:266|126:266|146:338,1,195,2|0,1:0|0:0,0:0:0:0:
218,306,83448,2,0,P|274:288|327:302,1,65,8|2,0:1|0:0,0:0:0:0:
347,326,83793,2,0,P|403:344|456:330,1,65,2|2,0:0|0:0,0:0:0:0:
467,293,84137,6,0,L|471:192,1,65,2|2,0:0|0:0,0:0:0:0:
461,150,84482,1,0,1:0:0:0:
398,103,84655,1,2,0:0:0:0:
325,130,84827,2,0,B|269:116|269:116|250:98|250:98|164:77,1,130,8|2,0:1|0:0,0:0:0:0:
129,67,85344,1,2,0:0:0:0:
54,44,85517,5,0,1:0:0:0:
90,195,85862,2,0,L|83:296,2,65,2|2|0,0:0|0:0|1:0,0:0:0:0:
204,87,86551,2,0,L|199:22,2,65,2|2|8,0:0|0:0|0:0,0:0:0:0:
256,192,87068,12,0,88275,0:0:0:0:
82,115,99310,6,0,P|146:67|205:214,1,260,0|0,0:0|0:0,0:0:0:0:
181,245,100172,1,0,0:0:0:0:
224,309,100344,2,0,L|312:315,1,65,2|0,0:0|0:0,0:0:0:0:
362,287,100689,2,0,B|385:226|385:226|369:111,2,130,0|2|0,0:0|0:0|0:0,0:0:0:0:
209,323,101724,1,2,0:0:0:0:
148,179,102068,6,0,B|172:19|172:19|222:133,1,260,0|0,0:0|0:0,0:0:0:0:
230,185,102931,1,0,0:0:0:0:
256,258,103103,2,0,L|247:346,1,65,2|0,0:0|0:0,0:0:0:0:
171,316,103448,2,0,P|95:322|53:383,2,130,0|2|0,0:0|0:0|0:0,0:0:0:0:
482,342,104827,6,0,B|473:263|473:263|444:222|444:222|429:74,1,260,0|0,0:0|0:0,0:0:0:0:
362,54,105689,1,0,0:0:0:0:
315,117,105862,2,0,L|326:224,1,65,2|0,0:0|0:0,0:0:0:0:
284,249,106206,2,0,B|320:291|320:291|428:298,2,130,0|2|0,0:0|0:0|0:0,0:0:0:0:
201,116,107241,1,2,0:0:0:0:
85,220,107586,6,0,P|24:196|134:120,1,260,0|0,0:0|0:0,0:0:0:0:
144,172,108448,1,0,0:0:0:0:
201,116,108620,2,0,L|210:51,1,65,2|0,0:0|0:0,0:0:0:0:
285,29,108965,2,0,P|362:32|396:72,2,130,0|2|0,0:0|0:0|0:0,0:0:0:0:
440,299,110344,6,0,L|359:314,1,65,0|0,1:0|0:0,0:0:0:0:
301,335,110689,2,0,P|289:258|355:202,1,130,8|0,0:0|0:0,0:0:0:0:
395,214,111206,2,0,L|448:202,2,32.5,0|0|8,1:0|1:0|0:0,0:0:0:0:
359,87,111724,6,0,L|271:98,1,65,0|0,1:0|0:0,0:0:0:0:
216,101,112068,2,0,B|131:106|131:106|177:175,1,130,8|0,0:0|0:0,0:0:0:0:
197,217,112586,1,0,1:0:0:0:
197,217,112672,1,0,1:0:0:0:
197,217,112758,1,8,0:0:0:0:
34,190,113103,6,0,P|21:153|36:91,1,65,0|0,1:0|0:0,0:0:0:0:
31,50,113448,2,0,L|185:41,1,130,8|0,0:0|0:0,0:0:0:0:
232,13,113965,2,0,L|291:19,2,32.5,0|0|8,1:0|1:0|0:0,0:0:0:0:
445,118,114482,6,0,L|348:130,1,65,0|0,1:0|0:0,0:0:0:0:
302,135,114827,2,0,B|283:184|283:184|327:285,1,130,8|0,0:0|0:0,0:0:0:0:
396,268,115344,1,0,1:0:0:0:
396,268,115431,1,0,1:0:0:0:
396,268,115517,1,8,0:0:0:0:
285,348,115862,6,0,L|191:338,2,65,0|0|8,1:0|0:0|0:0,0:0:0:0:
197,218,116551,2,0,L|88:235,1,65,0|0,0:0|1:0,0:0:0:0:
55,238,116896,1,8,0:0:0:0:
78,83,117241,6,0,P|59:32|62:-3,2,65,0|0|8,1:0|0:0|0:0,0:0:0:0:
232,58,117931,2,0,L|220:151,1,65,0|0,0:0|1:0,0:0:0:0:
223,122,118189,1,0,1:0:0:0:
223,122,118275,1,8,0:0:0:0:
368,188,118620,6,0,L|458:198,2,65,0|0|8,1:0|0:0|0:0,0:0:0:0:
312,334,119310,2,0,P|347:346|382:342,1,65,0|0,0:0|1:0,0:0:0:0:
442,305,119655,1,8,0:0:0:0:
499,159,120000,6,0,L|510:79,2,65,0|0|0,1:0|0:0|0:0,0:0:0:0:
347,121,120689,2,0,L|336:41,1,65,0|0,0:0|1:0,0:0:0:0:
338,56,120948,1,0,1:0:0:0:
338,56,121034,1,0,0:0:0:0:
183,31,121379,1,0,1:0:0:0:
282,278,122413,5,8,0:0:0:0:
211,138,122758,2,0,P|160:131|128:142,1,65,0|0,1:0|0:0,0:0:0:0:
88,185,123103,2,0,L|105:324,1,130,8|0,0:0|0:0,0:0:0:0:
179,332,123620,2,0,L|168:379,2,32.5,0|0|8,1:0|1:0|0:0,0:0:0:0:
372,256,124137,6,0,L|277:249,1,65,0|0,1:0|0:0,0:0:0:0:
234,222,124482,2,0,P|240:145|327:124,1,130,8|0,0:0|0:0,0:0:0:0:
357,153,125000,1,0,1:0:0:0:
357,153,125086,1,0,1:0:0:0:
357,153,125172,1,8,0:0:0:0:
316,23,125517,6,0,L|238:10,1,65,0|0,1:0|0:0,0:0:0:0:
173,18,125862,1,8,0:0:0:0:
54,118,126206,2,0,B|49:275|49:275|60:248|96:212,1,195,0|0,0:0|0:0,0:0:0:0:
141,214,126896,6,0,L|225:223,2,65,0|0|8,1:0|0:0|0:0,0:0:0:0:
202,358,127586,2,0,L|286:349,1,65,0|0,0:0|1:0,0:0:0:0:
343,338,127931,1,8,0:0:0:0:
383,187,128275,6,0,P|344:173|302:180,2,65,0|0|8,1:0|0:0|0:0,0:0:0:0:
459,323,128965,2,0,L|471:219,1,65,0|0,0:0|1:0,0:0:0:0:
466,258,129224,1,0,0:0:0:0:
466,258,129310,1,8,0:0:0:0:
355,87,129655,6,0,L|366:8,2,65,0|0|8,1:0|0:0|0:0,0:0:0:0:
212,150,130344,2,0,P|176:153|138:142,1,65,0|0,0:0|1:0,0:0:0:0:
87,96,130689,1,8,0:0:0:0:
44,246,131034,6,0,L|25:341,2,65,0|0|8,1:0|0:0|0:0,0:0:0:0:
199,259,131724,2,0,L|210:346,1,65,0|0,0:0|1:0,0:0:0:0:
207,323,131982,1,0,1:0:0:0:
207,323,132068,1,8,0:0:0:0:
328,225,132413,1,2,0:0:0:0:
256,192,132586,12,8,137241,0:0:0:0:
29,113,137931,6,0,P|77:98|127:108,1,65,4|0,1:0|0:0,0:0:0:0:
132,164,138275,2,0,L|128:254,1,65,8|0,0:1|0:0,0:0:0:0:
125,307,138620,1,0,0:0:0:0:
188,353,138793,1,0,1:0:0:0:
255,313,138965,2,0,P|310:302|351:314,1,65,8|0,0:1|0:0,0:0:0:0:
388,337,139310,6,0,L|407:242,1,65,0|0,0:0|1:0,0:0:0:0:
380,197,139655,2,0,B|376:147|376:147|389:114|389:114|380:51,1,130,8|0,0:1|0:0,0:0:0:0:
323,19,140172,1,0,1:0:0:0:
323,19,140258,1,0,0:0:0:0:
323,19,140344,2,0,P|278:33|223:18,1,65,8|0,0:1|0:0,0:0:0:0:
182,23,140689,6,0,L|87:31,1,65,0|0,1:0|0:0,0:0:0:0:
113,106,141034,2,0,L|177:111,1,65,8|0,0:1|0:0,0:0:0:0:
255,115,141379,1,0,0:0:0:0:
256,192,141551,1,0,1:0:0:0:
246,269,141724,2,0,L|197:317,1,65,8|0,0:1|1:0,0:0:0:0:
122,342,142068,6,0,L|111:249,1,65,0|0,0:0|1:0,0:0:0:0:
60,214,142413,2,0,B|103:192|103:192|214:217,1,130,8|0,0:1|0:0,0:0:0:0:
246,269,142931,1,0,1:0:0:0:
246,269,143017,1,0,0:0:0:0:
246,269,143103,2,0,L|334:259,1,65,8|0,0:1|0:0,0:0:0:0:
386,242,143448,6,0,P|378:139|323:118,1,130,2|8,1:0|0:1,0:0:0:0:
309,73,143965,1,0,0:0:0:0:
289,148,144137,2,0,P|297:251|352:272,1,130,2|8,0:1|0:1,0:0:0:0:
368,313,144654,1,0,0:0:0:0:
443,333,144827,6,0,B|380:369|380:369|298:355,1,130,2|8,0:1|0:1,0:0:0:0:
252,326,145344,1,0,0:0:0:0:
188,279,145517,2,0,B|125:243|125:243|43:257,1,130,2|8,0:1|0:1,0:0:0:0:
28,101,146206,6,0,L|23:36,2,65,0|0|8,1:0|0:0|0:1,0:0:0:0:
24,179,146724,1,0,0:0:0:0:
92,141,146896,2,0,P|147:126|192:146,2,65,0|0|8,0:0|1:0|0:1,0:0:0:0:
138,204,147413,1,0,0:0:0:0:
176,272,147586,6,0,B|219:295|219:295|352:262,2,130,0|8|0,1:0|0:1|0:0,0:0:0:0:
138,204,148448,1,0,1:1:0:0:
138,204,148534,1,0,1:0:0:0:
138,204,148620,1,8,0:0:0:0:
199,41,148965,6,0,L|296:47,1,65,0|0,1:0|0:0,0:0:0:0:
325,93,149310,2,0,L|422:87,1,65,8|0,0:1|0:0,0:0:0:0:
468,88,149655,1,0,0:0:0:0:
472,165,149827,1,0,1:0:0:0:
478,242,149999,2,0,P|423:253|382:241,1,65,8|0,0:1|0:0,0:0:0:0:
340,228,150344,6,0,L|276:215,1,65,0|0,0:0|1:0,0:0:0:0:
204,183,150689,2,0,P|110:192|106:272,1,130,8|0,0:1|0:0,0:0:0:0:
145,298,151206,1,0,1:0:0:0:
145,298,151293,1,0,0:0:0:0:
145,298,151378,2,0,P|100:312|45:297,1,65,8|0,0:1|0:0,0:0:0:0:
17,233,151723,6,0,L|9:138,1,65,0|0,1:0|0:0,0:0:0:0:
66,112,152068,2,0,L|71:48,1,65,8|0,0:1|0:0,0:0:0:0:
144,20,152413,1,0,0:0:0:0:
221,27,152585,1,0,1:0:0:0:
254,97,152758,2,0,P|300:116|343:110,1,65,8|0,0:1|1:0,0:0:0:0:
391,103,153102,6,0,L|402:196,1,65,0|0,0:0|1:0,0:0:0:0:
399,246,153448,2,0,B|356:268|356:268|262:242,1,130,8|0,0:1|0:0,0:0:0:0:
202,224,153965,1,0,1:0:0:0:
202,224,154051,1,0,0:0:0:0:
202,224,154137,2,0,L|212:312,1,65,8|0,0:1|0:0,0:0:0:0:
110,240,154482,6,0,L|143:86,1,130,2|8,1:0|0:1,0:0:0:0:
213,93,155000,1,0,0:0:0:0:
178,23,155172,2,0,L|332:56,1,130,2|8,0:1|0:1,0:0:0:0:
381,70,155690,1,0,0:0:0:0:
458,68,155862,6,0,P|434:129|331:134,1,130,2|8,0:1|0:1,0:0:0:0:
299,160,156379,1,0,0:0:0:0:
260,227,156551,2,0,B|258:283|258:283|243:316|243:316|240:400,2,130,2|8|0,0:1|0:1|0:0,0:0:0:0:
256,192,157413,12,8,159310,0:0:0:0:
33,157,160000,6,0,P|82:115|142:120,2,97.5,4|0|0,1:0|0:0|0:0,0:0:0:0:
50,232,160689,2,0,B|106:243|106:243|160:230|160:230|249:253,1,195,8|0,0:1|0:0,0:0:0:0:
275,320,161379,2,0,L|422:304,1,130,0|0,1:0|1:0,0:0:0:0:
447,155,162068,1,8,0:1:0:0:
291,170,162413,1,0,0:0:0:0:
188,52,162758,6,0,P|219:30|286:31,2,97.5,4|0|0,1:0|0:0|0:0,0:0:0:0:
250,99,163448,2,0,B|270:165|270:165|226:291,1,195,8|0,0:1|0:0,0:0:0:0:
157,253,164137,2,0,P|104:237|40:303,1,130,0|0,1:0|1:0,0:0:0:0:
175,366,164827,2,0,L|325:354,1,130,8|0,0:1|0:0,0:0:0:0:
365,211,165517,6,0,P|418:203|469:229,2,97.5,4|0|0,1:0|0:0|0:0,0:0:0:0:
313,269,166206,2,0,L|330:112,1,130,8|0,0:1|0:0,0:0:0:0:
210,35,166896,2,0,L|219:187,1,130,0|0,1:0|1:0,0:0:0:0:
244,319,167586,1,8,0:1:0:0:
89,342,167931,1,0,0:0:0:0:
156,201,168275,6,0,B|200:180|200:180|276:194,2,97.5,4|0|0,1:0|0:0|0:0,0:0:0:0:
110,265,168965,2,0,P|75:203|111:139,1,130,8|0,0:1|0:0,0:0:0:0:
197,34,169655,2,0,L|280:41,1,65,0|0,1:0|0:0,0:0:0:0:
322,89,170000,2,0,L|405:82,1,65,0|0,1:0|0:0,0:0:0:0:
454,45,170344,2,0,B|476:89|476:89|457:194,1,130,8|0,0:1|1:0,0:0:0:0:
328,222,171034,6,0,P|254:227|226:249,2,97.5,4|0|0,1:0|0:0|0:0,0:0:0:0:
299,302,171724,2,0,B|227:338|227:338|104:318,1,195,8|0,0:1|0:0,0:0:0:0:
64,268,172413,2,0,L|74:115,1,130,0|0,1:0|1:0,0:0:0:0:
4,11,173103,1,8,0:1:0:0:
146,19,173448,1,0,0:0:0:0:
288,31,173793,6,0,B|305:74|305:74|291:140,2,97.5,4|0|0,1:0|0:0|0:0,0:0:0:0:
221,90,174482,2,0,L|183:295,1,195,8|0,0:1|0:0,0:0:0:0:
185,353,175172,2,0,P|268:304|298:335,1,130,0|0,1:0|1:0,0:0:0:0:
412,373,175862,2,0,B|432:333|432:333|411:238,1,130,8|0,0:1|0:0,0:0:0:0:
343,124,176551,6,0,P|336:21|342:14,2,97.5,4|0|0,1:0|0:0|0:0,0:0:0:0:
411,165,177241,2,0,L|259:188,1,130,8|0,0:1|0:0,0:0:0:0:
140,202,177931,1,0,1:0:0:0:
199,325,178275,1,0,1:0:0:0:
56,320,178620,2,0,L|204:292,1,130,8|0,0:1|0:0,0:0:0:0:
233,109,179310,6,0,P|191:77|119:82,2,97.5,4|0|0,1:0|0:0|0:0,0:0:0:0:
270,177,180000,2,0,B|320:198|320:198|419:184,1,130,8|0,0:1|0:0,0:0:0:0:
472,179,180517,1,0,0:0:0:0:
511,246,180689,2,0,B|482:264|442:252|442:252|445:294|445:294|404:273|359:292,2,195,0|0|0,1:0|1:0|1:0,0:0:0:0:
468,95,182068,1,4,1:0:0:0:
