osu file format v14

[General]
AudioFilename: audio.mp3
AudioLeadIn: 0
PreviewTime: 137897
Countdown: 0
SampleSet: Soft
StackLeniency: 0.6
Mode: 0
LetterboxInBreaks: 0
WidescreenStoryboard: 1

[Editor]
Bookmarks: 22078,27552,33112,38630,44147,55181,60699,66216,71733,77250,82768,88285,99319,110354,121388,132423,137940,143457,148975,154492,160009,171043,182078
DistanceSpacing: 0.8
BeatDivisor: 4
GridSize: 32
TimelineZoom: 2.3

[Metadata]
Title:Rampage
TitleUnicode:Rampage
Artist:Virtual Riot
ArtistUnicode:Virtual Riot
Creator:C00L
Version:Nao's Hard
Source:
Tags:dnb dubstep drumstep electronic wubs neurofunk cool smoothie world Theaceae -Visceral- KKipalt kkip ZinedineZidane zizou reform Kujinn nao tomori Instrumental The Classics
BeatmapID:2325819
BeatmapSetID:810556

[Difficulty]
HPDrainRate:5
CircleSize:3.5
OverallDifficulty:6.5
ApproachRate:8
SliderMultiplier:1.4
SliderTickRate:1

[Events]
//Background and Video events
0,0,"good_old_times.jpg",0,0
//Break Periods
2,44347,54432
2,88485,98570
//Storyboard Layer 0 (Background)
//Storyboard Layer 1 (Fail)
//Storyboard Layer 2 (Pass)
//Storyboard Layer 3 (Foreground)
//Storyboard Layer 4 (Overlay)
//Storyboard Sound Samples

[TimingPoints]
10,344.827586206897,4,2,1,100,1,0
16561,-100,4,2,1,15,0,0
17251,-100,4,2,1,25,0,0
17941,-100,4,2,1,30,0,0
18630,-100,4,2,1,35,0,0
19320,-100,4,2,1,40,0,0
20010,-100,4,2,1,45,0,0
20699,-100,4,2,1,60,0,0
21216,-100,4,2,1,40,0,0
22078,-100,4,2,1,70,0,0
28889,-100,4,2,1,5,0,0
28975,-100,4,2,1,70,0,0
30268,-100,4,2,1,5,0,0
30354,-100,4,2,1,70,0,0
31647,-100,4,2,1,5,0,0
31734,-100,4,2,1,70,0,0
39837,-100,4,2,1,5,0,0
39923,-100,4,2,1,70,0,0
42768,-100,4,2,1,60,0,0
43457,-100,4,2,1,50,0,0
43458,-100,4,2,1,40,0,0
44147,-100,4,2,1,70,0,0
55182,-100,4,2,1,50,0,0
62078,-100,4,2,1,60,0,0
63458,-100,4,2,1,50,0,0
64837,-133.333333333333,4,2,1,60,0,0
65527,-133.333333333333,4,2,1,70,0,0
65872,-100,4,2,1,70,0,0
66216,-100,4,2,1,60,0,0
66906,-133.333333333333,4,2,1,60,0,0
67941,-100,4,2,1,60,0,0
69665,-133.333333333333,4,2,1,60,0,0
71734,-100,4,2,1,60,0,0
72165,-100,4,2,1,5,0,0
72251,-100,4,2,1,60,0,0
72337,-100,4,2,1,5,0,0
72423,-100,4,2,1,60,0,0
72682,-100,4,2,1,5,0,0
72768,-100,4,2,1,60,0,0
72854,-100,4,2,1,5,0,0
72941,-100,4,2,1,60,0,0
73027,-100,4,2,1,5,0,0
73113,-100,4,2,1,60,0,0
73199,-100,4,2,1,5,0,0
73285,-100,4,2,1,60,0,0
73372,-100,4,2,1,5,0,0
73458,-100,4,2,1,60,0,0
73716,-100,4,2,1,5,0,0
73803,-133.333333333333,4,2,1,60,0,0
74492,-100,4,2,1,60,0,0
74923,-100,4,2,1,5,0,0
75010,-100,4,2,1,60,0,0
75096,-100,4,2,1,5,0,0
75182,-100,4,2,1,60,0,0
77941,-133.333333333333,4,2,1,60,0,0
78975,-100,4,2,1,60,0,0
80699,-133.333333333333,4,2,1,60,0,0
81734,-100,4,2,1,60,0,0
82768,-133.333333333333,4,2,1,60,0,0
83458,-100,4,2,1,60,0,0
83544,-100,4,2,1,5,0,0
83630,-100,4,2,1,60,0,0
83716,-100,4,2,1,5,0,0
83803,-100,4,2,1,60,0,0
83889,-100,4,2,1,5,0,0
83975,-100,4,2,1,60,0,0
84061,-100,4,2,1,5,0,0
84147,-100,4,2,1,60,0,0
84234,-100,4,2,1,5,0,0
84320,-100,4,2,1,60,0,0
84406,-100,4,2,1,5,0,0
84492,-100,4,2,1,60,0,0
84751,-100,4,2,1,5,0,0
84837,-100,4,2,1,60,0,0
85268,-100,4,2,1,5,0,0
85354,-100,4,2,1,60,0,0
85441,-100,4,2,1,5,0,0
85527,-100,4,2,1,60,0,0
85871,-100,4,2,1,5,0,0
85872,-100,4,2,1,60,0,0
86906,-133.333333333333,4,2,1,60,0,0
87078,-133.333333333333,4,2,1,10,0,0
87164,-133.333333333333,4,2,1,60,0,0
87337,-133.333333333333,4,2,1,10,0,0
87423,-133.333333333333,4,2,1,60,0,0
87595,-133.333333333333,4,2,1,10,0,0
87682,416.666666666667,4,2,1,60,1,0
87682,-133.333333333333,4,2,1,60,0,0
87890,431.654676258993,4,2,1,60,1,0
87890,-133.333333333333,4,2,1,10,0,0
87997,-133.333333333333,4,2,1,60,0,0
88105,361.44578313253,4,2,1,60,1,0
88105,-133.333333333333,4,2,1,10,0,0
88195,-133.333333333333,4,2,1,60,0,0
88286,344.827586206897,4,2,1,20,1,0
88286,-133.333333333333,4,2,1,20,0,0
99320,-133.333333333333,4,2,1,40,0,0
104837,-125,4,2,1,40,0,0
110354,-125,4,2,1,50,0,0
132423,-125,4,2,1,30,0,0
133803,-125,4,2,1,40,0,0
135182,-125,4,2,1,50,0,0
136561,-125,4,2,1,60,0,0
137251,-90.9090909090909,4,2,1,60,0,0
137941,-90.9090909090909,4,2,1,70,0,0
143458,-133.333333333333,4,2,1,70,0,0
145872,-76.9230769230769,4,2,1,70,0,0
146216,-90.9090909090909,4,2,1,70,0,0
157251,-90.9090909090909,4,2,1,60,0,0
160010,-100,4,2,1,60,0,1
165441,-100,4,2,1,5,0,1
165527,-100,4,2,1,60,0,1
169665,-90.9090909090909,4,2,1,60,0,1
171044,-100,4,2,1,60,0,1
175527,-76.9230769230769,4,2,1,60,0,1
176216,-133.333333333333,4,2,1,60,0,1
176475,-133.333333333333,4,2,1,5,0,1
176561,-100,4,2,1,60,0,1
182079,-100,4,2,1,60,0,0

[Colours]
Combo1 : 238,162,236
Combo2 : 190,250,227
Combo3 : 242,140,140
Combo4 : 145,145,255

[HitObjects]
256,192,11044,12,0,16561,0:0:0:0:
256,192,16647,12,0,20699,0:0:0:0:
300,79,21389,6,0,P|268:91|230:90,1,70
138,47,21734,2,0,L|136:13,3,35,0|0|0|0,1:0|1:0|1:0|1:0,0:0:0:0:
110,67,22078,6,0,P|87:115|117:184,1,105,4|0,1:0|0:0,0:0:0:0:
116,188,22423,2,0,P|162:186|200:184,1,70,8|0,0:1|0:0,0:0:0:0:
275,227,22768,2,0,P|309:225|344:223,1,70,0|0,0:0|1:0,0:0:0:0:
437,277,23113,2,0,B|460:323|460:323|440:382,2,105,8|0|0,0:1|0:0|1:0,0:0:0:0:
495,190,23803,2,0,P|480:148|486:106,1,70,8|0,0:1|0:0,0:0:0:0:
511,32,24147,1,0,0:0:0:0:
511,32,24320,1,0,1:0:0:0:
415,7,24492,2,0,L|331:13,1,70,8|0,0:1|0:0,0:0:0:0:
281,90,24837,6,0,P|240:108|177:69,1,105,0|0,1:0|0:1,0:0:0:0:
164,61,25182,2,0,L|157:141,1,70,8|0,0:1|0:0,0:0:0:0:
98,221,25527,2,0,P|55:237|14:228,1,70,0|0,2:0|1:0,2:0:0:0:
80,335,25872,1,8,0:1:0:0:
80,335,26044,2,0,B|155:321|141:376|228:358,1,140,0|0,1:0|0:0,0:0:0:0:
302,304,26561,2,0,P|317:267|290:162,1,140,8|0,0:1|0:0,0:0:0:0:
216,117,27078,1,0,1:0:0:0:
135,161,27251,2,0,P|89:165|45:155,1,70,8|0,0:1|1:0,0:0:0:0:
0,59,27596,6,0,B|53:41|53:41|125:75|125:75,1,105,2|0,1:0|0:0,0:0:0:0:
138,46,27941,2,0,B|191:64|191:64|263:30|263:30,2,105,8|0|0,0:1|1:0|1:0,0:0:0:0:
112,150,28630,2,0,B|90:222|152:209|119:309,1,140,8|2,0:1|0:0,0:0:0:0:
56,371,29147,5,0,1:0:0:0:
138,321,29320,2,0,L|225:327,1,70,8|0,0:1|0:0,0:0:0:0:
231,344,29578,2,0,P|261:312|262:246,1,105,0|0,1:0|1:0,0:0:0:0:
354,230,30010,2,0,P|344:166|333:134,1,70,8|0,0:1|0:0,0:0:0:0:
246,105,30354,6,0,P|258:49|284:16,1,70,2|0,1:0|0:0,0:0:0:0:
362,1,30699,2,0,P|418:13|451:39,1,70,8|0,0:1|0:0,0:0:0:0:
456,32,30958,2,0,P|444:78|466:159,1,105,0|0,1:1|1:0,0:0:0:0:
393,212,31389,2,0,P|411:256|413:300,1,70,8|0,0:1|0:0,0:0:0:0:
355,367,31734,5,2,0:0:0:0:
258,346,31906,1,0,1:0:0:0:
258,346,32078,2,0,L|144:357,2,105,8|0|0,0:1|1:0|1:0,0:0:0:0:
291,250,32768,2,0,L|213:244,1,70,8|0,0:1|1:0,0:0:0:0:
221,244,33027,1,0,1:0:0:0:
221,244,33113,6,0,P|183:219|86:246,1,140,4|8,1:0|0:1,0:0:0:0:
19,174,33630,1,0,0:0:0:0:
84,97,33803,2,0,L|94:19,1,70,0|0,0:0|1:0,0:0:0:0:
190,55,34147,2,0,L|198:124,1,70,8|0,0:1|0:0,0:0:0:0:
298,78,34492,2,0,B|367:60|344:122|428:107,1,140,0|8,0:0|0:1,0:0:0:0:
497,42,35010,2,0,P|471:91|502:183,1,140,0|0,0:0|1:0,0:0:0:0:
429,245,35527,2,0,P|438:288|435:335,1,70,8|0,0:1|1:0,0:0:0:0:
360,380,35872,6,0,B|311:362|311:362|210:380,1,140,0|8,1:0|0:1,0:0:0:0:
135,332,36389,1,0,0:0:0:0:
135,332,36475,1,0,0:0:0:0:
135,332,36561,2,0,L|54:320,1,70,0|0,0:0|1:0,0:0:0:0:
40,216,36906,1,8,0:1:0:0:
40,216,37078,2,0,L|121:228,2,70,0|0|0,1:0|0:0|0:0,0:0:0:0:
3,118,37596,2,0,L|163:98,1,140,8|0,0:1|0:0,0:0:0:0:
224,36,38113,1,0,1:0:0:0:
281,114,38285,1,8,0:1:0:0:
502,15,38630,6,0,B|484:61|484:61|509:126,1,105,2|0,1:0|0:0,0:0:0:0:
500,148,38975,2,0,L|380:169,2,105,8|0|0,0:1|1:0|1:0,0:0:0:0:
481,254,39665,2,0,L|387:272,1,70,8|0,0:1|0:0,0:0:0:0:
396,296,39923,2,0,P|333:327|287:302,1,105,0|0,1:0|1:0,0:0:0:0:
211,342,40354,2,0,P|199:298|203:267,1,70,8|0,0:1|0:0,0:0:0:0:
223,244,40613,2,0,P|233:193|213:120,1,105,0|0,1:0|1:0,0:0:0:0:
292,53,41044,2,0,L|362:46,1,70,8|0,0:1|0:0,0:0:0:0:
198,13,41389,6,0,P|146:21|99:1,1,105,2|0,1:0|0:0,0:0:0:0:
67,13,41734,2,0,P|50:52|61:135,2,105,8|0|0,0:1|1:0|1:0,0:0:0:0:
148,72,42423,1,8,0:1:0:0:
76,226,42768,6,0,L|19:218,2,46.6666666666667,2|0|0,0:0|0:0|0:0,0:0:0:0:
167,273,43113,2,0,L|231:281,2,46.6666666666667,2|0|0,0:0|0:0|0:0,0:0:0:0:
98,335,43458,2,0,B|46:330|46:330|-19:352,2,105,2|2|2,0:0|0:0|0:0,0:0:0:0:
182,377,44147,1,0,0:0:0:0:
473,56,55182,6,0,P|502:95|488:190,1,140,2|8,1:2|0:0,0:0:0:0:
424,257,55699,1,0,0:0:0:0:
424,257,55785,1,0,0:0:0:0:
424,257,55872,2,0,P|370:255|324:259,1,70,0|0,0:0|1:0,0:0:0:0:
292,330,56216,2,0,P|238:332|192:328,1,70,8|0,0:0|0:0,0:0:0:0:
143,272,56561,2,0,B|83:252|83:252|1:273,2,140,0|8|0,0:0|0:0|0:0,0:0:0:0:
219,210,57423,1,0,1:0:0:0:
151,140,57596,2,0,L|66:146,1,70,8|0,0:0|0:0,0:0:0:0:
81,144,57854,1,0,0:0:0:0:
81,144,57941,6,0,P|43:100|92:27,1,140,2|8,1:2|0:0,0:0:0:0:
276,5,58630,2,0,L|358:14,1,70,0|0,0:0|1:0,0:0:0:0:
381,106,58975,2,0,L|299:97,1,70,8|0,0:0|0:0,0:0:0:0:
238,154,59320,1,0,0:0:0:0:
238,154,59492,1,0,1:0:0:0:
313,219,59665,2,0,P|358:236|444:182,1,140,8|0,0:0|0:0,0:0:0:0:
510,256,60182,1,0,1:0:0:0:
448,329,60354,2,0,L|365:321,1,70,8|0,0:0|0:0,0:0:0:0:
378,322,60613,1,0,0:0:0:0:
378,322,60699,6,0,P|328:335|290:326,1,70,2|0,1:2|1:0,0:0:0:0:
218,366,61044,2,0,P|181:328|170:291,1,70,0|0,1:0|1:0,0:0:0:0:
99,249,61389,2,0,P|113:199|139:170,1,70,2|0,1:2|1:0,0:0:0:0:
140,87,61734,2,0,P|190:74|228:83,1,70,0|0,1:0|1:0,0:0:0:0:
292,132,62078,5,2,1:2:0:0:
292,132,62251,1,0,1:0:0:0:
370,80,62423,1,0,1:0:0:0:
370,80,62596,1,0,1:0:0:0:
441,152,62768,2,0,L|454:242,1,70,2|0,1:2|1:0,0:0:0:0:
367,282,63113,2,0,L|357:213,1,70,0|0,1:0|1:0,0:0:0:0:
276,156,63458,6,0,L|226:148,3,35,2|0|0|0,1:2|1:0|1:0|1:0,0:0:0:0:
213,175,63803,2,0,L|163:183,3,35,2|0|0|0,1:2|1:0|1:0|1:0,0:0:0:0:
150,156,64147,2,0,L|100:148,3,35,2|0|0|0,1:2|1:0|1:0|1:0,0:0:0:0:
35,185,64492,1,2,1:2:0:0:
35,185,64578,1,0,1:0:0:0:
35,185,64665,1,0,1:0:0:0:
35,185,64751,1,0,1:0:0:0:
35,185,64837,6,0,P|12:244|128:308,1,210.000008010865,0|8,1:0|0:0,0:0:0:0:
198,355,65699,1,2,0:0:0:0:
198,355,65785,1,0,0:0:0:0:
198,355,65872,2,0,L|253:361,1,35,2|0,0:0|0:0,0:0:0:0:
311,317,66044,2,0,L|366:323,1,35,2|0,0:0|0:0,0:0:0:0:
427,365,66216,6,0,P|451:315|419:222,1,140,4|0,1:0|0:0,0:0:0:0:
355,170,66734,1,0,1:0:0:0:
285,237,66906,2,0,B|222:227|222:227|170:267|170:267|9:241,1,288.750011014939,8|0,0:1|0:0,0:0:0:0:
3,216,67941,6,0,P|-6:176|0:142,1,70,0|0,1:0|0:0,0:0:0:0:
68,77,68285,2,0,B|171:42|157:133|279:95,1,210,8|0,0:1|0:0,0:0:0:0:
366,39,68975,6,0,B|419:22|419:22|474:48,1,105,0|0,1:0|0:0,0:0:0:0:
484,58,69320,1,2,0:0:0:0:
144,216,69665,2,0,P|200:179|357:324,1,315.000012016297,0|0,0:0|1:0,0:0:0:0:
284,368,70872,1,0,0:0:0:0:
284,368,70958,1,0,0:0:0:0:
284,368,71044,2,0,L|169:353,1,105.000004005432,8|8,0:1|0:1,0:0:0:0:
57,176,71734,6,0,P|106:196|169:159,1,105,2|0,1:0|0:0,0:0:0:0:
172,160,72078,1,2,0:2:0:0:
249,211,72251,1,2,0:2:0:0:
337,165,72423,2,0,L|327:92,2,70,8|2|2,0:1|0:2|0:2,0:0:0:0:
427,201,72941,1,2,0:2:0:0:
427,201,73113,2,0,P|445:250|440:296,1,70,2|2,0:2|0:2,0:0:0:0:
375,348,73458,2,0,B|341:356|341:356|296:351,1,70,2|2,0:2|0:2,0:0:0:0:
230,287,73803,2,0,B|183:278|183:278|146:302|146:302|72:288,1,157.500006008148,8|0,0:1|0:0,0:0:0:0:
19,219,74492,6,0,P|11:172|65:94,1,140,0|2,1:0|0:2,0:0:0:0:
163,96,75010,1,2,0:0:0:0:
175,198,75182,2,0,L|92:178,1,70,8|0,0:1|0:0,0:0:0:0:
230,287,75527,2,0,L|220:371,1,70,0|0,0:0|0:0,0:0:0:0:
332,368,75872,1,0,0:0:0:0:
324,274,76044,2,0,L|311:134,1,140,2|0,0:0|0:0,0:0:0:0:
398,91,76561,2,0,P|440:65|497:92,1,105,8|0,0:1|0:0,0:0:0:0:
489,82,76906,2,0,L|486:161,1,70,0|0,1:0|1:0,0:0:0:0:
489,268,77251,6,0,P|432:272|333:292,1,140,0|2,1:0|0:0,0:0:0:0:
268,336,77768,1,2,0:0:0:0:
176,303,77941,2,0,B|135:148|250:196|199:14,1,288.750011014939,8|0,0:1|0:0,0:0:0:0:
187,14,78975,2,0,P|176:54|270:114,2,140,0|8|0,1:0|0:1|0:0,0:0:0:0:
31,97,80010,6,0,L|39:190,1,70,0|0,1:0|0:0,0:0:0:0:
5,254,80354,1,0,0:0:0:0:
5,254,80527,1,0,0:0:0:0:
87,316,80699,2,0,B|260:316|162:209|365:231,1,288.750011014939,8|0,1:0|0:0,0:0:0:0:
374,235,81734,2,0,P|390:283|383:334,1,70,0|0,1:0|0:0,0:0:0:0:
441,366,82078,2,0,P|427:300|454:235,1,140,8|8,0:1|0:1,0:0:0:0:
494,36,82768,6,0,P|450:84|334:62,1,183.750007009506,2|0,1:0|0:0,0:0:0:0:
328,47,83458,2,0,L|226:53,1,70,8|2,0:1|0:0,0:0:0:0:
207,124,83803,2,0,L|105:130,1,70,2|2,0:0|0:0,0:0:0:0:
59,77,84147,2,0,P|45:136|52:166,1,70,2|2,0:0|0:0,0:0:0:0:
0,223,84492,6,0,P|44:264|73:273,1,70,0|2,1:0|0:0,0:0:0:0:
112,345,84837,1,8,0:1:0:0:
112,345,85010,2,0,P|170:327|192:306,1,70,0|2,0:0|0:0,0:0:0:0:
232,243,85354,1,2,0:0:0:0:
309,303,85527,6,0,B|357:298|357:298|380:317|380:317|454:312,1,140,0|2,1:0|0:0,0:0:0:0:
498,238,86044,1,2,0:0:0:0:
498,238,86216,2,0,P|473:199|492:97,1,140,0|2,1:0|0:0,0:0:0:0:
428,36,86734,1,2,0:0:0:0:
351,100,86906,6,0,B|306:121|247:107|247:107|158:59|243:4|288:50|251:108|251:108|209:140|188:190|226:234,1,420.000016021729,8|0,0:0|0:0,0:0:0:0:
42,63,99320,6,0,P|31:96|44:169,2,105.000004005432,0|2|0,0:0|0:0|0:0,0:0:0:0:
155,4,100354,1,2,0:0:0:0:
246,71,100699,2,0,P|289:81|360:68,1,105.000004005432,0|2,0:0|0:0,0:0:0:0:
468,184,101389,2,0,P|425:174|354:187,1,105.000004005432,0|2,0:0|0:0,0:0:0:0:
248,278,102078,6,0,B|199:294|199:294|140:281,1,105.000004005432,0|2,0:0|0:0,0:0:0:0:
53,160,102768,2,0,L|46:94,2,52.5000020027161,2|0|2,0:0|0:0|0:0,0:0:0:0:
134,189,103285,2,0,P|142:134|146:67,1,105.000004005432,2|2,0:0|0:0,0:0:0:0:
114,7,103803,1,2,0:0:0:0:
235,133,104147,2,0,P|282:128|360:119,1,105.000004005432,2|2,0:0|0:0,0:0:0:0:
486,196,104837,6,0,P|497:233|495:276,1,56,0|0,0:0|0:0,0:0:0:0:
452,339,105182,2,8,P|415:350|372:348,1,56,2|0,0:0|0:0,0:0:0:0:
323,300,105527,2,0,P|273:288|190:294,1,112,0|2,0:0|0:0,0:0:0:0:
51,337,106216,1,0,0:0:0:0:
51,337,106389,1,0,0:0:0:0:
4,265,106561,2,0,P|-6:228|16:150,1,112,2|0,0:0|0:0,0:0:0:0:
85,102,107078,1,0,0:0:0:0:
162,153,107251,2,0,L|240:147,1,56,2|0,0:0|0:0,0:0:0:0:
286,84,107596,6,0,L|416:95,2,112,0|2|2,0:0|0:0|0:0,0:0:0:0:
208,19,108458,1,0,0:0:0:0:
208,19,108630,2,0,P|165:33|143:34,1,56,2|2,0:0|0:0,0:0:0:0:
131,121,108975,2,0,P|164:151|176:169,1,56,0|2,0:0|0:0,0:0:0:0:
160,261,109320,2,0,L|95:297,1,56,2|0,0:0|0:0,0:0:0:0:
234,317,109665,2,0,B|290:305|278:353|354:330,1,112,2|2,0:0|0:0,0:0:0:0:
493,194,110354,6,0,P|503:147|459:79,1,112,0|8,1:0|0:0,0:0:0:0:
284,17,111044,2,0,P|274:64|318:132,1,112,0|8,0:0|0:0,0:0:0:0:
203,232,111734,2,0,L|77:224,2,112,0|8|0,1:0|0:0|0:0,0:0:0:0:
333,311,112682,1,0,1:0:0:0:
333,311,112768,2,0,L|407:302,1,56,8|0,0:0|0:0,0:0:0:0:
422,217,113113,6,0,L|288:210,1,112,0|8,1:0|0:0,0:0:0:0:
182,304,113803,2,0,P|114:334|84:328,1,84,2|0,0:0|1:0,0:0:0:0:
75,325,114147,2,0,L|56:265,1,56,8|2,0:0|0:0,0:0:0:0:
7,191,114492,2,0,P|20:139|23:67,1,112,0|8,1:0|0:0,0:0:0:0:
155,15,115182,2,0,P|158:70|169:120,1,84,2|0,0:0|1:0,0:0:0:0:
176,121,115527,2,0,P|215:136|243:138,1,56,8|2,0:0|0:0,0:0:0:0:
324,104,115872,6,0,P|364:96|392:94,2,56,0|0|8,1:0|0:0|0:0,0:0:0:0:
214,238,116561,2,0,P|178:234|114:227,1,84,0|0,0:0|0:0,0:0:0:0:
103,245,116906,2,0,P|88:281|90:317,1,56,8|0,0:0|0:0,0:0:0:0:
172,363,117251,2,0,B|247:345|247:345|261:361|264:382,1,112,0|8,1:0|0:0,0:0:0:0:
393,312,117941,2,0,L|397:252,1,56,0|0,0:0|1:0,0:0:0:0:
396,256,118199,1,0,1:0:0:0:
396,256,118285,2,0,L|387:181,1,56,8|0,0:0|0:0,0:0:0:0:
459,123,118630,6,0,P|482:92|456:19,2,112,0|8|2,1:0|0:0|0:0,0:0:0:0:
381,68,119492,1,0,1:0:0:0:
381,68,119578,1,0,1:0:0:0:
381,68,119665,2,0,L|309:75,1,56,8|2,0:0|0:0,0:0:0:0:
259,144,120010,2,0,P|227:159|144:130,1,112,0|8,1:0|0:0,0:0:0:0:
75,99,120527,2,0,P|114:143|101:210,1,112,0|0,0:0|1:0,0:0:0:0:
111,193,120958,1,0,1:0:0:0:
111,193,121044,2,0,L|38:219,1,56,8|2,0:0|0:0,0:0:0:0:
10,293,121389,5,0,1:0:0:0:
7,298,122423,2,0,P|40:308|105:287,1,84,8|0,0:0|0:0,0:0:0:0:
110,279,122768,6,0,P|146:269|188:275,1,56,0|0,1:0|0:0,0:0:0:0:
254,216,123113,2,0,P|284:223|319:225,1,56,8|0,0:0|0:0,0:0:0:0:
392,293,123458,2,0,P|405:245|418:212,1,84,0|0,0:0|1:0,0:0:0:0:
400,184,123803,2,0,L|398:126,1,56,8|0,0:0|0:0,0:0:0:0:
324,59,124147,6,0,P|281:48|216:92,1,112,0|8,1:0|0:0,0:0:0:0:
72,126,124837,2,0,L|78:193,1,56,2|0,0:0|1:0,0:0:0:0:
76,181,125096,1,0,1:0:0:0:
76,181,125182,2,0,L|64:310,2,112,8|0|8,0:0|1:0|0:0,0:0:0:0:
161,134,126044,1,0,0:0:0:0:
244,185,126216,2,0,P|286:192|326:161,1,84,2|0,0:0|1:0,0:0:0:0:
328,149,126561,2,0,L|406:154,1,56,8|2,0:0|0:0,0:0:0:0:
467,220,126906,6,0,P|482:261|478:292,1,56,0|0,1:0|0:0,0:0:0:0:
417,355,127251,2,0,L|299:345,1,112,8|0,0:0|0:0,0:0:0:0:
225,293,127768,1,0,1:0:0:0:
225,293,127854,1,0,1:0:0:0:
225,293,127941,2,0,L|153:305,1,56,8|0,0:0|0:0,0:0:0:0:
87,357,128285,6,0,P|58:325|56:251,1,112,0|8,1:0|0:0,0:0:0:0:
111,183,128803,1,0,0:0:0:0:
29,141,128975,2,0,L|15:64,1,56,0|0,0:0|1:0,0:0:0:0:
18,85,129234,1,0,1:0:0:0:
18,85,129320,2,0,P|55:70|73:71,1,56,8|0,0:0|0:0,0:0:0:0:
156,25,129665,6,0,P|188:48|262:33,2,112,0|8|2,1:0|0:0|0:0,0:0:0:0:
90,91,130527,1,0,1:0:0:0:
90,91,130613,1,0,1:0:0:0:
90,91,130699,2,0,L|100:170,1,56,8|2,0:0|0:0,0:0:0:0:
36,225,131044,6,0,P|29:261|38:303,1,56,0|2,1:0|0:0,0:0:0:0:
94,348,131389,2,0,P|138:326|215:345,1,112,8|2,0:0|0:0,0:0:0:0:
329,287,131992,1,0,1:0:0:0:
329,287,132078,2,0,L|401:297,1,56,8|2,0:0|0:0,0:0:0:0:
476,249,132423,5,4,0:1:0:0:
256,192,132510,12,0,136906,0:0:0:0:
469,63,137251,6,0,L|385:73,1,77.0000023498536,8|8,0:0|0:0,0:0:0:0:
339,138,137596,1,0,1:0:0:0:
339,138,137682,1,0,1:0:0:0:
339,138,137768,1,8,0:0:0:0:
339,138,137854,1,0,0:0:0:0:
339,138,137941,6,0,B|326:186|326:186|345:215|345:215|324:294,1,154.000004699707,4|8,1:0|0:1,0:0:0:0:
242,342,138458,1,0,0:0:0:0:
159,293,138630,2,0,P|99:289|81:293,1,77.0000023498536,0|0,0:0|1:0,0:0:0:0:
9,353,138975,2,0,P|30:312|17:235,1,115.50000352478,8|0,0:1|0:0,0:0:0:0:
7,216,139320,6,0,P|-9:173|1:127,1,77.0000023498536,0|0,0:0|1:0,0:0:0:0:
47,69,139665,1,8,0:1:0:0:
139,113,139837,1,0,0:0:0:0:
139,113,139923,1,0,0:0:0:0:
139,113,140010,2,0,L|221:103,1,77.0000023498536,0|0,0:0|1:0,0:0:0:0:
312,121,140354,2,0,L|394:111,1,77.0000023498536,8|0,0:1|0:0,0:0:0:0:
472,163,140699,6,0,P|495:212|439:298,1,154.000004699707,0|8,1:0|0:1,0:0:0:0:
364,261,141216,1,0,0:0:0:0:
289,317,141389,2,0,L|203:313,1,77.0000023498536,0|0,0:0|1:0,0:0:0:0:
212,313,141647,1,0,0:0:0:0:
212,313,141734,1,8,1:0:0:0:
134,268,141906,6,0,P|126:223|105:96,1,154.000004699707,0|0,1:0|1:0,0:0:0:0:
24,102,142423,2,0,P|14:155|6:185,1,77.0000023498536,8|0,0:1|0:0,0:0:0:0:
40,267,142768,1,0,0:0:0:0:
40,267,142941,1,0,1:0:0:0:
3,358,143113,2,0,P|49:352|111:383,1,115.50000352478,8|0,0:1|0:0,0:0:0:0:
137,361,143458,6,0,L|253:344,1,105.000004005432,2|8,1:0|0:1,0:0:0:0:
341,361,143975,1,0,0:0:0:0:
341,361,144147,1,2,0:1:0:0:
428,299,144320,2,0,P|435:256|427:234,1,52.5000020027161,0|8,1:0|0:1,0:0:0:0:
365,183,144665,1,0,0:0:0:0:
365,183,144837,1,2,0:1:0:0:
420,105,145010,2,0,L|482:97,2,52.5000020027161,0|8|0,1:0|0:1|0:0,0:0:0:0:
342,42,145527,2,0,L|273:37,1,52.5000020027161,2|0,0:1|1:0,0:0:0:0:
289,38,145785,1,0,0:0:0:0:
289,38,145872,6,0,B|242:52|242:52|227:96|227:96|153:117,1,136.499993751526,8|0,0:1|0:0,0:0:0:0:
155,98,146216,6,0,B|112:89|112:89|54:126|93:206,1,154.000004699707,0|8,1:0|0:1,0:0:0:0:
44,276,146734,1,0,0:0:0:0:
125,325,146906,1,0,0:0:0:0:
196,268,147078,2,0,L|277:262,1,77.0000023498536,0|8,1:0|0:1,0:0:0:0:
360,307,147423,5,0,0:0:0:0:
360,307,147510,1,0,0:0:0:0:
360,307,147596,1,0,1:0:0:0:
442,252,147768,2,0,P|426:201|422:155,1,77.0000023498536,0|8,0:0|0:1,0:0:0:0:
468,96,148113,1,0,0:0:0:0:
395,39,148285,2,0,L|300:47,2,77.0000023498536,0|0|8,0:0|1:0|0:1,0:0:0:0:
227,178,148975,6,8,P|172:198|81:129,1,154.000004699707,0|8,1:0|0:1,0:0:0:0:
129,66,149492,1,0,0:0:0:0:
129,66,149665,2,0,L|213:70,1,77.0000023498536,0|0,0:0|1:0,0:0:0:0:
294,26,150010,2,0,L|425:16,2,115.50000352478,8|0|0,0:1|0:0|1:0,0:0:0:0:
231,100,150699,2,0,P|273:121|327:111,1,77.0000023498536,8|0,0:1|0:0,0:0:0:0:
382,177,151044,1,0,0:0:0:0:
467,128,151216,1,0,1:0:0:0:
467,128,151303,1,0,0:0:0:0:
467,128,151389,2,0,L|480:219,1,77.0000023498536,8|0,0:1|0:0,0:0:0:0:
503,308,151734,6,0,B|451:303|451:303|418:326|418:326|354:321,1,154.000004699707,0|8,1:0|0:1,0:0:0:0:
284,264,152251,1,0,0:0:0:0:
211,316,152423,2,0,P|164:324|117:321,1,77.0000023498536,0|0,0:0|1:0,0:0:0:0:
58,262,152768,1,8,0:1:0:0:
122,181,152941,2,0,L|118:26,1,154.000004699707,0|0,1:0|1:0,0:0:0:0:
211,46,153458,2,0,L|214:199,1,154.000004699707,8|0,0:1|0:0,0:0:0:0:
300,250,153975,1,0,1:0:0:0:
372,193,154147,2,0,B|426:176|426:176|496:195,1,115.50000352478,8|0,0:1|0:0,0:0:0:0:
499,168,154492,6,0,P|513:110|498:73,1,77.0000023498536,2|0,1:0|0:0,0:0:0:0:
501,90,154751,1,0,0:0:0:0:
493,88,154837,1,8,0:1:0:0:
432,28,155010,2,0,L|354:34,1,77.0000023498536,0|2,0:1|0:1,0:0:0:0:
288,101,155354,1,0,0:0:0:0:
288,101,155441,1,0,0:0:0:0:
288,101,155527,2,0,P|243:122|177:91,1,115.50000352478,8|0,0:1|0:0,0:0:0:0:
161,83,155872,6,0,L|75:91,1,77.0000023498536,2|0,0:1|1:0,0:0:0:0:
55,200,156216,2,0,L|141:192,1,77.0000023498536,8|0,0:1|0:0,0:0:0:0:
216,246,156561,1,2,0:1:0:0:
169,336,156734,1,0,1:0:0:0:
169,336,156820,1,0,0:0:0:0:
169,336,156906,2,0,L|36:319,1,115.50000352478,8|0,0:1|0:0,0:0:0:0:
28,339,157251,5,0,0:0:0:0:
256,192,157337,12,0,158975,0:0:0:0:
441,87,159320,6,0,P|451:144|440:191,1,77.0000023498536,8|0,0:0|1:0,0:0:0:0:
392,240,159665,1,0,1:0:0:0:
392,240,159751,1,0,1:0:0:0:
392,240,159837,1,0,1:0:0:0:
392,240,159923,1,0,1:0:0:0:
392,240,160010,6,0,P|336:219|270:227,2,105,4|0|0,1:0|0:0|0:0,0:0:0:0:
378,342,160699,2,0,B|258:368|296:262|155:308,1,210,8|0,0:1|0:0,0:0:0:0:
81,262,161389,6,0,L|71:159,1,70,0|0,1:0|0:0,0:0:0:0:
65,175,161647,1,0,0:0:0:0:
65,175,161734,2,0,L|55:72,1,70,0|0,1:0|0:0,0:0:0:0:
115,24,162078,2,0,B|165:19|165:19|196:38|196:38|274:29,1,140,8|0,0:1|0:0,0:0:0:0:
301,205,162768,6,0,L|181:196,2,105,4|0|0,1:0|0:0|0:0,0:0:0:0:
382,267,163458,2,0,B|413:247|450:249|450:249|497:164|412:102,1,210,8|0,0:1|0:0,0:0:0:0:
379,42,164147,6,0,P|328:54|299:48,1,70,0|0,1:0|0:0,0:0:0:0:
235,108,164492,2,0,L|101:121,1,105,0|0,1:0|0:0,0:0:0:0:
97,101,164837,2,0,P|89:153|100:191,1,70,8|0,0:1|0:0,0:0:0:0:
142,250,165182,2,0,P|176:253|210:244,1,70,0|0,0:0|0:0,0:0:0:0:
305,298,165527,6,0,P|355:281|429:300,2,105,4|0|0,1:0|0:0|0:0,0:0:0:0:
232,365,166216,1,8,0:1:0:0:
148,319,166389,1,0,0:0:0:0:
148,319,166561,2,0,L|27:330,1,105,0|0,0:0|0:0,0:0:0:0:
12,305,166906,6,0,P|0:262|16:220,1,70,0|0,1:0|0:0,0:0:0:0:
21,217,167165,1,0,0:0:0:0:
21,217,167251,2,0,P|33:176|25:119,1,70,0|0,1:0|0:0,0:0:0:0:
1,51,167596,5,8,0:1:0:0:
97,3,167768,1,0,0:0:0:0:
97,3,167854,1,0,0:0:0:0:
97,3,167941,1,0,0:0:0:0:
167,72,168113,1,0,0:0:0:0:
252,28,168285,6,0,B|304:14|304:14|370:38,2,105,4|0|0,1:0|0:0|0:0,0:0:0:0:
186,96,168975,1,8,0:1:0:0:
255,162,169147,1,0,0:0:0:0:
255,162,169320,2,0,L|265:254,1,70,0|0,0:0|0:0,0:0:0:0:
217,314,169665,6,0,P|274:346|348:323,1,115.50000352478,0|0,1:0|0:0,0:0:0:0:
351,353,170010,2,0,P|399:308|400:231,1,115.50000352478,0|0,1:0|0:0,0:0:0:0:
429,237,170354,2,0,P|401:177|328:152,1,115.50000352478,8|0,0:1|0:0,0:0:0:0:
343,127,170699,2,0,P|278:134|231:196,1,115.50000352478,0|0,1:0|0:0,0:0:0:0:
220,187,171044,6,0,B|195:207|162:208|162:208|144:186|113:185,2,105,4|0|0,1:0|0:0|0:0,0:0:0:0:
174,291,171734,2,0,B|185:246|136:210|136:210|100:146|158:90,1,210,8|0,0:1|0:0,0:0:0:0:
213,29,172423,6,0,L|310:38,1,70,0|0,1:0|0:0,0:0:0:0:
309,51,172682,1,0,0:0:0:0:
309,51,172768,2,0,P|368:81|430:41,2,140,0|8|0,1:0|0:1|0:0,0:0:0:0:
144,172,173803,6,0,P|134:224|159:287,2,105,4|0|0,1:0|0:0|0:0,0:0:0:0:
230,214,174492,2,0,B|289:217|289:217|324:246|324:246|360:236|435:257,1,210,8|0,0:1|0:0,0:0:0:0:
507,181,175182,2,0,P|515:143|484:79,1,105,0|0,1:0|0:0,0:0:0:0:
461,82,175527,2,0,B|411:92|411:92|396:124|396:124|315:142,1,136.499993751526,0|0,1:0|0:0,0:0:0:0:
310,123,175872,2,0,L|160:103,1,136.499993751526,8|0,0:1|0:0,0:0:0:0:
145,120,176216,2,0,P|134:164|140:191,1,52.5000020027161,0|0,0:0|0:0,0:0:0:0:
62,230,176561,6,0,P|75:289|86:356,2,105,4|0|0,1:0|0:0|0:0,0:0:0:0:
2,144,177251,1,8,0:1:0:0:
57,59,177423,1,0,0:0:0:0:
155,69,177596,2,0,P|219:62|277:61,1,105,0|0,0:0|0:0,0:0:0:0:
288,86,177941,6,0,P|306:123|296:198,1,105,0|0,1:0|0:0,0:0:0:0:
284,207,178285,1,0,1:0:0:0:
343,288,178458,1,0,0:0:0:0:
435,264,178630,2,0,P|441:225|451:168,1,70,8|0,0:1|0:0,0:0:0:0:
462,174,178889,1,0,0:0:0:0:
462,174,178975,2,0,L|438:80,1,70,0|0,0:0|0:0,0:0:0:0:
376,33,179320,6,0,P|319:28|296:40,1,70,4|0,1:0|0:0,0:0:0:0:
289,49,179578,1,0,0:0:0:0:
289,49,179665,2,0,P|250:66|215:59,1,70,0|0,0:0|0:0,0:0:0:0:
137,21,180010,1,8,0:1:0:0:
53,77,180182,1,0,0:0:0:0:
81,176,180354,2,0,L|76:267,1,70,0|0,0:0|0:0,0:0:0:0:
9,311,180699,6,0,P|64:289|137:345,1,140,0|8,1:0|0:1,0:0:0:0:
216,271,181216,2,0,P|254:293|343:254,1,140,0|8,1:0|0:1,0:0:0:0:
423,320,181734,2,0,L|430:169,1,140,0|4,1:0|1:0,0:0:0:0:
