osu file format v14

[General]
AudioFilename: audio.mp3
AudioLeadIn: 0
PreviewTime: 137897
Countdown: 0
SampleSet: Soft
StackLeniency: 0.3
Mode: 0
LetterboxInBreaks: 0
WidescreenStoryboard: 1

[Editor]
Bookmarks: 22078,27552,33112,38630,44147,55181,60699,66216,71733,77250,82768,88285,99319,110354,121388,132423,137940,143457,148975,154492,159492,160009,171043,182078
DistanceSpacing: 1.7
BeatDivisor: 8
GridSize: 32
TimelineZoom: 2.5

[Metadata]
Title:Rampage
TitleUnicode:Rampage
Artist:Virtual Riot
ArtistUnicode:Virtual Riot
Creator:C00L
Version:KKip's Insane
Source:
Tags:dnb dubstep drumstep electronic wubs neurofunk cool smoothie world Theaceae -Visceral- KKipalt kkip ZinedineZidane zizou reform Kujinn nao tomori Instrumental The Classics
BeatmapID:2301159
BeatmapSetID:810556

[Difficulty]
HPDrainRate:5.1
CircleSize:4.4
OverallDifficulty:7.8
ApproachRate:9.2
SliderMultiplier:1.5
SliderTickRate:1

[Events]
//Background and Video events
0,0,"good_old_times.jpg",0,0
//Break Periods
2,44347,54582
2,99520,108975
//Storyboard Layer 0 (Background)
//Storyboard Layer 1 (Fail)
//Storyboard Layer 2 (Pass)
//Storyboard Layer 3 (Foreground)
//Storyboard Layer 4 (Overlay)
//Storyboard Sound Samples

[TimingPoints]
10,344.827586206897,4,2,1,100,1,0
16561,-100,4,2,1,15,0,0
17251,-100,4,2,1,25,0,0
17941,-100,4,2,1,30,0,0
18630,-100,4,2,1,35,0,0
19320,-100,4,2,1,40,0,0
20010,-100,4,2,1,45,0,0
20699,-100,4,2,1,60,0,0
21216,-100,4,2,1,40,0,0
21389,-100,4,2,1,40,0,0
22078,-100,4,2,1,70,0,0
22595,-100,4,2,1,70,0,0
24837,-83.3333333333333,4,2,1,70,0,0
25182,-100,4,2,1,70,0,0
25526,-100,4,2,1,70,0,0
26216,-100,4,2,1,70,0,0
26561,-100,4,2,1,70,0,0
27595,-66.6666666666667,4,2,1,70,0,0
27940,-66.6666666666667,4,2,1,70,0,0
28199,-66.6666666666667,4,2,1,70,0,0
28457,-66.6666666666667,4,2,1,70,0,0
28630,-100,4,2,1,70,0,0
28889,-100,4,2,1,5,0,0
28975,-100,4,2,1,70,0,0
29147,-66.6666666666667,4,2,1,70,0,0
29319,-66.6666666666667,4,2,1,70,0,0
29578,-66.6666666666667,4,2,1,70,0,0
29837,-66.6666666666667,4,2,1,70,0,0
30009,-50,4,2,1,70,0,0
30268,-50,4,2,1,5,0,0
30354,-66.6666666666667,4,2,1,70,0,0
30699,-66.6666666666667,4,2,1,70,0,0
30957,-66.6666666666667,4,2,1,70,0,0
31216,-66.6666666666667,4,2,1,70,0,0
31388,-100,4,2,1,70,0,0
31647,-66.6666666666667,4,2,1,5,0,0
31733,-66.6666666666667,4,2,1,5,0,0
31734,-100,4,2,1,70,0,0
31906,-66.6666666666667,4,2,1,70,0,0
32078,-66.6666666666667,4,2,1,70,0,0
32337,-66.6666666666667,4,2,1,70,0,0
32595,-66.6666666666667,4,2,1,70,0,0
33112,-100,4,2,1,70,0,0
33630,-100,4,2,1,70,0,0
35871,-83.3333333333333,4,2,1,70,0,0
36216,-100,4,2,1,70,0,0
36388,-100,4,2,1,70,0,0
37250,-100,4,2,1,70,0,0
38630,-66.6666666666667,4,2,1,70,0,0
38975,-66.6666666666667,4,2,1,70,0,0
39233,-66.6666666666667,4,2,1,70,0,0
39492,-66.6666666666667,4,2,1,70,0,0
39664,-100,4,2,1,70,0,0
39837,-66.6666666666667,4,2,1,5,0,0
39923,-66.6666666666667,4,2,1,70,0,0
40181,-66.6666666666667,4,2,1,70,0,0
40354,-66.6666666666667,4,2,1,70,0,0
40612,-66.6666666666667,4,2,1,70,0,0
40871,-66.6666666666667,4,2,1,70,0,0
41043,-50,4,2,1,70,0,0
41388,-66.6666666666667,4,2,1,70,0,0
41733,-66.6666666666667,4,2,1,70,0,0
41992,-66.6666666666667,4,2,1,70,0,0
42250,-66.6666666666667,4,2,1,70,0,0
42423,-100,4,2,1,70,0,0
42768,-66.6666666666667,4,2,1,60,0,0
43112,-66.6666666666667,4,2,1,60,0,0
43457,-100,4,2,1,50,0,0
43458,-100,4,2,1,40,0,0
43716,-100,4,2,1,40,0,0
43975,-100,4,2,1,40,0,0
44147,-100,4,2,1,70,0,0
55181,-100,4,2,1,70,0,0
55182,-100,4,2,1,50,0,0
60699,-100,4,2,1,50,0,0
62078,-100,4,2,1,60,0,0
63458,-100,4,2,1,50,0,0
64837,-100,4,2,1,60,0,0
65527,-100,4,2,1,70,0,0
66216,-66.6666666666667,4,2,1,60,0,0
66561,-133.333333333333,4,2,1,60,0,0
66906,-100,4,2,1,60,0,1
68285,-100,4,2,1,60,0,1
68975,-66.6666666666667,4,2,1,60,0,0
69319,-100,4,2,1,60,0,0
69665,-100,4,2,1,60,0,1
71043,-100,4,2,1,60,0,1
71734,-66.6666666666667,4,2,1,60,0,0
72078,-100,4,2,1,60,0,0
72165,-100,4,2,1,5,0,0
72251,-100,4,2,1,60,0,0
72337,-100,4,2,1,5,0,0
72423,-100,4,2,1,60,0,0
72595,-76.9230769230769,4,2,1,60,0,0
72682,-76.9230769230769,4,2,1,5,0,0
72768,-76.9230769230769,4,2,1,60,0,0
72854,-76.9230769230769,4,2,1,5,0,0
72940,-76.9230769230769,4,2,1,5,0,0
72941,-76.9230769230769,4,2,1,60,0,0
73027,-62.5,4,2,1,5,0,0
73112,-62.5,4,2,1,5,0,0
73113,-62.5,4,2,1,60,0,0
73199,-62.5,4,2,1,5,0,0
73285,-62.5,4,2,1,60,0,0
73372,-62.5,4,2,1,5,0,0
73458,-62.5,4,2,1,60,0,0
73630,-62.5,4,2,1,60,0,0
73716,-62.5,4,2,1,5,0,0
73803,-62.5,4,2,1,60,0,0
74492,-62.5,4,2,1,60,0,0
74837,-100,4,2,1,60,0,0
74923,-100,4,2,1,5,0,0
75010,-100,4,2,1,60,0,0
75096,-100,4,2,1,5,0,0
75182,-100,4,2,1,60,0,0
75871,-100,4,2,1,60,0,0
76043,-100,4,2,1,60,0,0
76216,-100,4,2,1,60,0,0
77250,-100,4,2,1,60,0,0
77595,-100,4,2,1,60,0,0
77941,-100,4,2,1,60,0,1
79319,-100,4,2,1,60,0,1
80010,-66.6666666666667,4,2,1,60,0,0
80354,-100,4,2,1,60,0,0
80699,-100,4,2,1,60,0,1
82078,-100,4,2,1,60,0,1
82768,-133.333333333333,4,2,1,60,0,0
83457,-100,4,2,1,60,0,0
83544,-100,4,2,1,5,0,0
83630,-100,4,2,1,60,0,0
83716,-100,4,2,1,5,0,0
83803,-100,4,2,1,60,0,0
83889,-100,4,2,1,5,0,0
83975,-100,4,2,1,60,0,0
84061,-100,4,2,1,5,0,0
84147,-100,4,2,1,60,0,0
84234,-100,4,2,1,5,0,0
84320,-100,4,2,1,60,0,0
84406,-100,4,2,1,5,0,0
84492,-100,4,2,1,60,0,0
84664,-100,4,2,1,60,0,0
84837,-100,4,2,1,60,0,0
85009,-100,4,2,1,60,0,0
85181,-100,4,2,1,60,0,0
85268,-100,4,2,1,5,0,0
85354,-100,4,2,1,60,0,0
85441,-100,4,2,1,5,0,0
85526,-100,4,2,1,5,0,0
85527,-66.6666666666667,4,2,1,60,0,0
85871,-66.6666666666667,4,2,1,5,0,0
85872,-66.6666666666667,4,2,1,60,0,0
86216,-66.6666666666667,4,2,1,60,0,0
86561,-66.6666666666667,4,2,1,60,0,0
86906,-100,4,2,1,60,0,0
87078,-100,4,2,1,10,0,0
87164,-100,4,2,1,60,0,0
87337,-100,4,2,1,10,0,0
87423,-100,4,2,1,60,0,0
87596,-100,4,2,1,10,0,0
87682,416.666666666667,4,2,1,60,1,0
87682,-100,4,2,1,60,0,0
87890,431.654676258993,4,2,1,60,1,0
87890,-100,4,2,1,60,0,0
87997,-100,4,2,1,10,0,0
88105,361.44578313253,4,2,1,60,1,0
88105,-100,4,2,1,60,0,0
88286,344.827586206897,4,2,1,20,1,0
88286,-100,4,2,1,20,0,0
88372,-100,4,2,1,5,0,0
92596,-100,4,2,1,5,0,0
92768,-100,4,2,1,25,0,0
93846,-100,4,2,1,5,0,0
98458,-100,4,2,1,5,0,0
98630,-100,4,2,1,25,0,0
99320,-100,4,2,1,40,0,0
110354,-100,4,2,1,50,0,0
117250,-100,4,2,1,50,0,0
118630,-100,4,2,1,50,0,0
121388,-250,4,2,1,50,0,0
122768,-100,4,2,1,50,0,0
132423,-100,4,2,1,30,0,0
133803,-100,4,2,1,40,0,0
135182,-100,4,2,1,50,0,0
136561,-100,4,2,1,60,0,0
137940,-100,4,2,1,60,0,0
137941,-100,4,2,1,70,0,1
141561,-100,4,2,1,70,0,1
142078,-100,4,2,1,70,0,1
143458,-100,4,2,1,70,0,0
143802,-76.9230769230769,4,2,1,70,0,0
144147,-76.9230769230769,4,2,1,70,0,0
144492,-76.9230769230769,4,2,1,70,0,0
144837,-76.9230769230769,4,2,1,70,0,0
145181,-76.9230769230769,4,2,1,70,0,0
145526,-76.9230769230769,4,2,1,70,0,0
145871,-76.9230769230769,4,2,1,70,0,0
146216,-76.9230769230769,4,2,1,70,0,0
146388,-76.9230769230769,4,2,1,70,0,0
146733,-76.9230769230769,4,2,1,70,0,0
147078,-76.9230769230769,4,2,1,70,0,0
147423,-76.9230769230769,4,2,1,70,0,0
147595,-100,4,2,1,70,0,0
148630,-66.6666666666667,4,2,1,70,0,0
148975,-100,4,2,1,70,0,1
152595,-100,4,2,1,70,0,1
153112,-100,4,2,1,70,0,1
154147,-100,4,2,1,70,0,1
154492,-100,4,2,1,70,0,0
154837,-76.9230769230769,4,2,1,70,0,0
155009,-76.9230769230769,4,2,1,70,0,0
155181,-76.9230769230769,4,2,1,70,0,0
155526,-76.9230769230769,4,2,1,70,0,0
155699,-76.9230769230769,4,2,1,70,0,0
155871,-76.9230769230769,4,2,1,70,0,0
156216,-76.9230769230769,4,2,1,70,0,0
156388,-76.9230769230769,4,2,1,70,0,0
156561,-76.9230769230769,4,2,1,70,0,0
156906,-76.9230769230769,4,2,1,70,0,0
157251,-76.9230769230769,4,2,1,60,0,0
160009,-76.9230769230769,4,2,1,60,0,0
160010,-62.5,4,2,1,60,0,0
160699,-62.5,4,2,1,60,0,0
160871,-100,4,2,1,60,0,0
161388,-62.5,4,2,1,60,0,0
162078,-62.5,4,2,1,60,0,0
162423,-50,4,2,1,60,0,0
162768,-62.5,4,2,1,60,0,0
163457,-62.5,4,2,1,60,0,0
163630,-100,4,2,1,60,0,0
164147,-62.5,4,2,1,60,0,0
164492,-62.5,4,2,1,60,0,0
164837,-62.5,4,2,1,60,0,0
165441,-62.5,4,2,1,5,0,0
165526,-62.5,4,2,1,5,0,0
165527,-62.5,4,2,1,60,0,0
166216,-62.5,4,2,1,60,0,0
166388,-62.5,4,2,1,60,0,0
166561,-100,4,2,1,60,0,0
166906,-62.5,4,2,1,60,0,0
167595,-62.5,4,2,1,60,0,0
168285,-62.5,4,2,1,60,0,0
168975,-62.5,4,2,1,60,0,0
169147,-62.5,4,2,1,60,0,0
169664,-62.5,4,2,1,60,0,0
171733,-62.5,4,2,1,60,0,0
171906,-100,4,2,1,60,0,0
172423,-62.5,4,2,1,60,0,0
173112,-62.5,4,2,1,60,0,0
173457,-62.5,4,2,1,60,0,0
173802,-62.5,4,2,1,60,0,0
174492,-62.5,4,2,1,60,0,0
174664,-100,4,2,1,60,0,0
175181,-62.5,4,2,1,60,0,0
175526,-62.5,4,2,1,60,0,0
175871,-62.5,4,2,1,60,0,0
176475,-62.5,4,2,1,5,0,0
176561,-62.5,4,2,1,60,0,0
177250,-62.5,4,2,1,60,0,0
177423,-62.5,4,2,1,60,0,0
177595,-100,4,2,1,60,0,0
177940,-62.5,4,2,1,60,0,0
178630,-62.5,4,2,1,60,0,0
178802,-62.5,4,2,1,60,0,0
179319,-62.5,4,2,1,60,0,0
180009,-62.5,4,2,1,60,0,0
180181,-62.5,4,2,1,60,0,0
180699,-62.5,4,2,1,60,0,0
181733,-83.3333333333333,4,2,1,60,0,0
182078,-100,4,2,1,60,0,0

[Colours]
Combo1 : 202,0,0
Combo2 : 131,105,236
Combo3 : 3,211,211
Combo4 : 0,0,219

[HitObjects]
256,192,16561,12,0,21389,0:0:0:0:
3,150,21906,5,0,0:0:0:0:
3,150,21992,1,0,0:0:0:0:
3,150,22078,2,0,B|41:121|41:121|139:136,1,112.5,4|0,1:0|0:0,0:0:0:0:
118,121,22423,1,8,0:1:0:0:
184,212,22596,2,0,L|173:157,1,37.5,0|0,0:0|0:0,0:0:0:0:
201,73,22768,6,0,L|191:173,1,75,0|0,0:0|1:0,0:0:0:0:
253,243,23027,1,0,0:0:0:0:
253,243,23113,2,0,P|306:255|354:227,1,112.5,8|0,0:1|0:0,0:0:0:0:
349,207,23458,6,0,L|396:210,1,37.5,0|0,0:0|0:0,0:0:0:0:
475,261,23630,1,0,1:0:0:0:
444,41,23803,2,0,B|429:77|429:77|458:200,1,150,8|0,0:1|0:0,0:0:0:0:
454,185,24234,1,0,0:0:0:0:
454,185,24320,5,0,1:0:0:0:
313,339,24492,2,0,B|347:314|347:314|424:325,1,112.5,8|0,0:1|0:0,0:0:0:0:
333,343,24837,6,0,P|245:357|223:317,1,134.999995880127,0|0,1:0|0:0,0:0:0:0:
193,263,25182,2,0,P|105:249|82:302,1,150,8|0,0:1|0:0,0:0:0:0:
11,288,25699,5,0,1:0:0:0:
125,351,25872,1,8,0:1:0:0:
186,252,26044,2,0,L|174:205,2,37.5,0|0|0,1:0|0:0|0:0,0:0:0:0:
252,213,26389,5,0,0:0:0:0:
64,129,26561,2,0,P|148:139|215:142,1,150,8|0,0:1|0:0,0:0:0:0:
270,94,27079,5,0,1:0:0:0:
325,239,27251,2,0,P|409:229|438:223,1,112.5,8|0,0:1|0:0,0:0:0:0:
511,181,27596,6,0,P|442:145|436:223,1,168.750006437302,2|0,1:0|0:0,0:0:0:0:
490,273,27941,2,0,P|487:341|440:349,1,112.500004291535,8|0,0:1|0:0,0:0:0:0:
459,367,28199,2,0,P|405:347|281:348,1,168.750006437302,0|0,1:0|1:0,0:0:0:0:
136,330,28630,2,0,L|142:353,6,18.75,8|0|0|0|0|0|0,0:1|0:0|0:0|0:0|0:0|0:0|0:0,0:0:0:0:
66,313,28975,6,0,L|72:290,2,18.75,2|0|0,0:0|0:0|0:0,0:0:0:0:
205,303,29147,2,0,L|188:242,1,56.25,0|0,1:0|0:0,0:0:0:0:
234,195,29320,2,0,B|187:229|187:229|115:208,1,112.500004291535,8|0,0:1|0:0,0:0:0:0:
61,216,29578,2,0,P|42:154|110:115,1,140.625005364418,0|0,1:0|0:0,0:0:0:0:
104,104,29837,2,0,L|148:113,2,28.1250010728836,0|0|0,1:0|0:0|0:0,0:0:0:0:
0,10,30010,6,0,B|35:28|35:28|82:13|82:13|123:35|123:35|174:22|174:22|207:42,1,225,8|0,0:1|0:0,0:0:0:0:
298,20,30354,6,0,B|233:33|233:33|229:83|267:136,1,168.750006437302,2|0,1:0|0:0,0:0:0:0:
322,170,30699,2,0,P|319:238|272:246,1,112.500004291535,8|0,0:1|0:0,0:0:0:0:
219,288,30957,2,0,P|293:287|386:335,1,168.750006437302,0|0,1:1|1:0,0:0:0:0:
512,283,31388,2,0,L|489:289,6,18.75,8|0|0|0|0|0|0,0:1|0:0|0:0|0:0|0:0|0:0|0:0,0:0:0:0:
445,340,31734,6,0,L|440:358,2,18.75,2|0|0,0:0|0:0|0:0,0:0:0:0:
426,271,31906,2,0,L|443:210,1,56.25,0|0,1:0|0:0,0:0:0:0:
494,163,32078,2,0,B|528:116|528:116|507:44,1,112.500004291535,8|0,0:1|0:0,0:0:0:0:
419,5,32337,2,0,P|400:67|459:97,1,112.500004291535,0|0,1:0|0:0,0:0:0:0:
440,99,32595,1,0,1:0:0:0:
450,102,32682,6,0,L|394:108,1,56.2500021457673,0|8,1:0|0:1,0:0:0:0:
326,81,32854,2,0,L|260:88,2,56.2500021457673,0|0|0,0:0|1:0|1:0,0:0:0:0:
228,26,33113,6,0,L|215:138,1,112.5,4|0,1:0|0:0,0:0:0:0:
225,148,33458,1,8,0:1:0:0:
100,62,33630,2,0,L|155:51,1,37.5,0|0,0:0|0:0,0:0:0:0:
152,41,33802,6,0,L|142:141,1,75,0|0,0:0|1:0,0:0:0:0:
183,211,34061,1,0,0:0:0:0:
183,211,34147,2,0,P|236:223|284:195,1,112.5,8|0,0:1|0:0,0:0:0:0:
298,197,34492,6,0,L|301:160,1,37.5,0|0,0:0|0:0,0:0:0:0:
226,148,34664,1,0,0:0:0:0:
447,285,34837,2,0,B|411:300|411:300|288:271,1,150,8|0,0:1|0:0,0:0:0:0:
303,275,35268,1,0,0:0:0:0:
303,275,35354,5,0,1:0:0:0:
122,312,35526,2,0,B|163:278|163:278|214:308,1,112.5,8|0,0:1|0:0,0:0:0:0:
136,323,35871,6,0,P|48:337|28:272,1,134.999995880127,0|0,1:0|0:0,0:0:0:0:
0,234,36216,2,0,P|16:174|25:81,1,150,8|0,0:1|0:0,0:0:0:0:
0,16,36733,5,0,1:0:0:0:
146,134,36906,1,8,0:1:0:0:
281,44,37078,2,0,L|269:-3,2,37.5,0|0|0,1:0|0:0|0:0,0:0:0:0:
203,47,37423,5,0,0:0:0:0:
362,0,37596,2,0,P|352:84|349:151,1,150,8|0,0:1|0:0,0:0:0:0:
203,47,38113,5,0,1:0:0:0:
431,26,38285,2,0,P|425:82|424:139,1,112.5,8|0,0:1|0:0,0:0:0:0:
507,181,38630,6,0,P|438:145|399:216,1,168.750006437302,2|0,1:0|0:0,0:0:0:0:
434,327,38975,2,0,P|480:300|471:248,1,112.500004291535,8|0,0:1|0:0,0:0:0:0:
388,224,39233,2,0,P|334:244|210:243,1,168.750006437302,0|0,1:0|1:0,0:0:0:0:
63,281,39665,2,0,B|75:277|75:277|84:280,4,18.75,8|0|0|0|0,0:1|0:0|0:0|0:0|0:0,0:0:0:0:
150,321,39923,6,0,L|158:190,1,112.500004291535,0|0,1:0|0:0,0:0:0:0:
24,169,40181,6,0,L|16:105,1,56.2500021457673,0|0,1:0|0:0,0:0:0:0:
59,53,40354,2,0,B|111:37|111:37|158:71,1,112.500004291535,8|0,0:1|0:0,0:0:0:0:
223,138,40612,2,0,P|204:76|272:37,1,140.625005364418,0|0,1:0|0:0,0:0:0:0:
266,19,40871,2,0,L|222:10,2,28.1250010728836,0|0|0,1:0|0:0|0:0,0:0:0:0:
372,157,41044,6,0,B|337:175|337:175|290:160|290:160|249:182|249:182|198:169|198:169|165:189,1,225,8|0,0:1|0:0,0:0:0:0:
99,284,41388,6,0,B|115:256|112:219|112:219|162:215|215:253,1,168.75,2|0,1:0|0:0,0:0:0:0:
313,277,41733,2,0,P|286:323|234:314,1,112.500004291535,8|0,0:1|0:0,0:0:0:0:
221,329,41992,2,0,P|292:337|391:380,1,168.750006437302,0|0,1:0|1:0,0:0:0:0:
459,268,42423,2,0,L|478:264,6,18.75,8|0|0|0|0|0|0,0:1|0:0|0:0|0:0|0:0|0:0|0:0,0:0:0:0:
293,80,42768,5,0,0:0:0:0:
288,98,42883,1,0,0:0:0:0:
298,115,42998,1,2,0:0:0:0:
364,140,43113,5,2,0:0:0:0:
374,157,43228,1,0,0:0:0:0:
369,175,43343,1,0,0:0:0:0:
318,232,43458,6,0,P|258:238|197:249,2,112.5,2|2|2,0:0|0:0|0:0,0:0:0:0:
390,250,44147,5,0,0:0:0:0:
257,109,55182,6,0,P|265:129|166:187,1,150,2|8,1:2|0:0,0:0:0:0:
86,63,55699,1,0,0:0:0:0:
86,63,55785,1,0,0:0:0:0:
86,63,55872,2,0,L|90:17,2,37.5,0|0|0,0:0|0:0|1:0,0:0:0:0:
5,140,56216,2,0,P|70:132|111:182,1,112.5,8|0,0:0|0:0,0:0:0:0:
123,159,56561,6,0,L|111:202,1,37.5,0|0,0:0|0:0,0:0:0:0:
56,247,56734,1,0,1:0:0:0:
56,247,56820,1,0,0:0:0:0:
56,247,56906,2,0,L|71:333,1,75,8|0,0:0|0:0,0:0:0:0:
57,333,57165,1,0,0:0:0:0:
45,346,57251,2,0,L|108:341,1,37.5,0|0,0:0|0:0,0:0:0:0:
140,300,57423,2,0,L|203:305,1,37.5,0|0,1:0|0:0,0:0:0:0:
301,360,57596,1,8,0:0:0:0:
245,265,57768,5,0,0:0:0:0:
245,265,57854,1,0,0:0:0:0:
245,265,57941,2,0,P|382:296|412:298,1,150,2|8,1:2|0:0,0:0:0:0:
338,103,58458,1,0,0:0:0:0:
338,103,58544,1,0,0:0:0:0:
338,103,58631,2,0,L|342:149,1,37.5,0|0,0:0|0:0,0:0:0:0:
287,194,58803,1,0,1:0:0:0:
512,71,58975,2,0,P|447:79|406:29,1,112.5,8|0,0:0|0:0,0:0:0:0:
408,28,59320,6,0,L|349:40,1,37.5,0|0,0:0|0:0,0:0:0:0:
259,0,59493,1,0,1:0:0:0:
259,0,59579,1,0,0:0:0:0:
259,0,59665,2,0,L|269:84,1,75,8|0,0:0|0:0,0:0:0:0:
213,119,59924,1,0,0:0:0:0:
220,129,60010,5,0,0:0:0:0:
199,147,60096,1,0,0:0:0:0:
172,153,60182,1,0,1:0:0:0:
146,144,60268,1,0,0:0:0:0:
128,123,60354,2,0,L|136:81,2,37.5,8|0|0,0:0|0:0|0:0,0:0:0:0:
68,171,60699,5,2,1:2:0:0:
36,100,60872,1,0,1:0:0:0:
49,250,61044,5,0,1:0:0:0:
81,179,61217,1,0,1:0:0:0:
83,329,61389,5,2,1:2:0:0:
34,255,61562,1,0,1:0:0:0:
180,322,61734,5,0,1:0:0:0:
76,342,61907,1,0,1:0:0:0:
295,359,62078,5,2,1:2:0:0:
176,309,62251,1,0,1:0:0:0:
228,192,62423,1,0,1:0:0:0:
347,242,62596,1,0,1:0:0:0:
298,371,62768,5,2,1:2:0:0:
163,313,62941,1,0,1:0:0:0:
222,182,63113,1,0,1:0:0:0:
356,238,63286,1,0,1:0:0:0:
216,170,63458,5,2,1:2:0:0:
193,141,63544,1,0,1:0:0:0:
196,105,63630,1,0,1:0:0:0:
224,81,63716,1,0,1:0:0:0:
260,83,63803,2,0,L|269:142,3,37.5,2|0|0|0,1:2|1:0|1:0|1:0,0:0:0:0:
363,17,64147,5,2,1:2:0:0:
335,51,64233,1,0,1:0:0:0:
338,94,64319,1,0,1:0:0:0:
371,122,64405,1,0,0:0:0:0:
415,120,64492,2,0,L|425:49,1,37.5,2|0,1:2|1:0,0:0:0:0:
490,91,64665,2,0,L|485:129,1,37.5,0|0,1:0|1:0,0:0:0:0:
401,222,64837,6,0,L|409:253,14,18.75,0|0|0|0|0|0|0|0|0|0|0|0|0|0|0,1:0|1:0|1:0|1:0|1:0|1:0|1:0|0:0|1:0|0:0|1:0|1:0|1:0|1:0|1:0,0:0:0:0:
334,240,65527,5,8,0:0:0:0:
483,214,65699,1,2,0:0:0:0:
483,214,65785,1,0,0:0:0:0:
483,214,65872,2,0,L|476:272,3,37.5,2|0|2|0,0:0|0:0|0:0|0:0,0:0:0:0:
512,323,66216,6,0,P|468:290|382:360,1,168.750006437302,4|0,1:0|0:0,0:0:0:0:
313,320,66561,6,0,P|287:348|265:349,1,56.2500021457673,0|0,0:0|1:0,0:0:0:0:
256,348,66820,1,0,1:0:0:0:
245,338,66906,2,0,B|238:290|261:225|261:225|288:144|210:27|38:122|108:238|164:240,1,450,8|0,0:1|1:0,0:0:0:0:
0,8,68285,6,0,P|57:29|231:27,1,225,8|0,0:1|0:0,0:0:0:0:
219,30,68975,6,0,P|316:29|335:86,1,168.750006437302,0|0,1:0|0:0,0:0:0:0:
348,86,69320,1,2,0:0:0:0:
505,17,69492,5,0,1:0:0:0:
505,17,69579,1,0,1:0:0:0:
505,17,69665,2,0,B|417:134|609:200|488:278|359:318|318:84|479:128,1,450,0|0,0:0|1:0,0:0:0:0:
302,308,71044,6,0,B|319:285|319:285|382:274,1,75,8|0,0:1|0:0,0:0:0:0:
478,303,71389,2,0,B|461:326|461:326|398:337,1,75,8|0,0:1|0:0,0:0:0:0:
201,263,71734,6,0,B|257:266|257:266|280:319|235:383,1,168.750006437302,2|0,1:0|0:0,0:0:0:0:
170,356,72078,6,0,L|117:362,1,37.5,2|0,0:2|0:0,0:0:0:0:
62,340,72251,2,0,L|25:345,1,37.5,2|0,0:2|0:0,0:0:0:0:
9,340,72423,1,8,0:1:0:0:
191,272,72596,6,0,P|146:245|141:237,1,48.7499977684022,2|0,0:2|0:0,0:0:0:0:
82,232,72768,2,0,P|73:180|76:171,1,48.7499977684022,2|0,0:2|0:0,0:0:0:0:
42,122,72941,2,0,P|76:82|85:78,1,48.7499977684022,2|0,0:2|0:0,0:0:0:0:
281,149,73113,6,0,L|221:157,1,60,2|0,0:2|0:0,0:0:0:0:
154,129,73285,2,0,L|214:137,1,60,2|0,0:2|0:0,0:0:0:0:
404,93,73458,6,0,L|344:101,1,60,2|0,0:2|0:0,0:0:0:0:
276,73,73630,2,0,L|336:81,1,60,2|0,0:2|0:0,0:0:0:0:
509,23,73803,6,0,B|482:57|416:49|416:49|438:84|504:79|504:79|480:109|447:110|447:110|461:130|481:134|481:134|469:151|469:151|478:165|471:179|476:185|474:196,1,360,8|0,0:1|0:0,0:0:0:0:
380,288,74492,6,0,P|444:248|476:332,1,180,0|0,1:0|0:0,0:0:0:0:
430,370,74837,2,0,P|386:361|379:362,1,37.5,2|0,0:2|0:0,0:0:0:0:
324,337,75010,2,0,P|280:346|273:345,1,37.5,2|0,0:0|0:0,0:0:0:0:
214,384,75182,6,0,L|222:240,1,112.5,8|0,0:1|0:0,0:0:0:0:
140,378,75527,2,0,L|148:234,1,112.5,0|0,0:0|0:0,0:0:0:0:
132,247,75872,5,0,0:0:0:0:
277,195,76044,2,0,L|224:184,1,37.5,2|0,0:0|0:0,0:0:0:0:
188,137,76216,2,0,B|157:160|157:160|101:151,1,75,0|0,1:0|0:0,0:0:0:0:
19,37,76561,6,0,P|80:23|132:90,1,150,8|0,0:1|1:0,0:0:0:0:
299,121,77078,5,0,0:0:0:0:
299,121,77165,1,0,1:0:0:0:
299,121,77251,2,0,L|284:47,1,75,0|0,1:0|0:0,0:0:0:0:
363,160,77596,2,0,L|375:114,1,37.5,2|0,0:0|0:0,0:0:0:0:
358,55,77768,1,2,0:0:0:0:
512,228,77941,6,0,B|468:146|374:139|324:212|378:246|296:277|228:263|259:213|210:158|134:191|130:270|192:275|208:241,1,450,8|0,0:1|1:0,0:0:0:0:
0,363,79320,6,0,P|57:342|231:344,1,225,8|0,0:1|0:0,0:0:0:0:
0,209,80010,6,0,P|97:210|116:153,1,168.750006437302,0|0,1:0|0:0,0:0:0:0:
97,141,80355,1,0,0:0:0:0:
313,37,80527,1,0,0:0:0:0:
114,73,80699,6,0,B|132:49|170:17|236:76|247:100|243:112|152:187|208:147|208:180|229:204|295:212|325:191|354:145|322:88|304:84|256:44|192:113|216:157|232:163,1,450,8|0,1:0|1:0,0:0:0:0:
423,351,82079,6,0,B|446:334|446:334|457:271,1,75,8|0,0:1|0:0,0:0:0:0:
279,251,82424,2,0,B|287:297|287:297|310:314,1,75,8|0,0:1|0:0,0:0:0:0:
512,237,82768,6,0,B|476:221|473:165|473:165|459:215|412:219,1,168.750006437302,2|0,1:0|0:0,0:0:0:0:
345,186,83458,5,8,0:1:0:0:
374,66,83630,1,2,0:0:0:0:
333,194,83803,1,2,0:0:0:0:
384,59,83975,1,2,0:0:0:0:
319,117,84147,1,2,0:0:0:0:
319,117,84319,1,0,0:0:0:0:
164,84,84492,6,0,P|224:88|251:91,1,75,0|2,1:0|0:0,0:0:0:0:
250,83,84751,1,0,0:0:0:0:
261,76,84837,2,0,B|271:37|271:37|251:-4,1,75,8|0,0:1|0:0,0:0:0:0:
97,111,85182,1,2,0:0:0:0:
35,71,85354,1,2,0:0:0:0:
218,205,85527,6,0,P|105:201|88:237,1,168.75,0|0,1:0|0:0,0:0:0:0:
70,310,85872,2,0,L|130:299,1,56.2500021457673,2|0,0:0|0:0,0:0:0:0:
186,341,86044,1,2,0:0:0:0:
370,313,86216,6,0,P|257:317|240:281,1,168.75,0|0,1:0|0:0,0:0:0:0:
218,205,86561,2,0,L|278:216,1,56.2500021457673,2|0,0:0|0:0,0:0:0:0:
334,174,86733,1,2,0:0:0:0:
412,30,86906,6,0,B|376:75|376:75|393:133,1,112.5,8|0,0:0|0:0,0:0:0:0:
491,366,87423,6,0,B|527:321|527:321|510:263,1,112.5,0|0,0:0|0:0,0:0:0:0:
334,174,87890,6,0,L|248:185,1,75
154,168,88285,5,0,0:0:0:0:
256,192,88372,12,0,92768,0:0:0:0:
256,192,93803,12,0,99320,0:0:0:0:
123,135,110354,5,0,1:0:0:0:
183,98,110527,1,0,0:0:0:0:
248,126,110699,1,8,0:0:0:0:
308,89,110872,1,0,0:0:0:0:
373,117,111044,1,0,0:0:0:0:
512,36,111303,5,0,1:0:0:0:
512,36,111389,1,8,0:0:0:0:
389,234,111734,5,0,1:0:0:0:
329,197,111907,1,0,0:0:0:0:
264,225,112079,1,8,0:0:0:0:
204,188,112252,1,0,0:0:0:0:
139,216,112424,1,0,0:0:0:0:
0,135,112683,5,0,1:0:0:0:
0,135,112769,1,8,0:0:0:0:
25,324,113113,5,0,1:0:0:0:
85,287,113286,1,0,0:0:0:0:
149,318,113458,1,8,0:0:0:0:
89,356,113631,1,0,0:0:0:0:
15,325,113803,1,2,0:0:0:0:
255,295,114062,5,0,1:0:0:0:
255,295,114148,1,8,0:0:0:0:
487,324,114492,5,0,1:0:0:0:
427,287,114665,1,2,0:0:0:0:
363,318,114837,1,8,0:0:0:0:
423,356,115010,1,0,0:0:0:0:
497,325,115182,1,2,0:0:0:0:
255,295,115441,5,0,1:0:0:0:
255,295,115527,1,8,0:0:0:0:
210,125,115872,5,0,1:0:0:0:
139,116,116044,1,0,0:0:0:0:
130,187,116217,1,8,0:0:0:0:
201,196,116389,1,0,0:0:0:0:
216,116,116561,1,0,0:0:0:0:
0,5,116820,5,0,0:0:0:0:
0,5,116906,1,8,0:0:0:0:
302,125,117251,5,0,1:0:0:0:
373,116,117423,1,0,0:0:0:0:
382,187,117596,1,8,0:0:0:0:
311,196,117768,1,0,0:0:0:0:
296,116,117940,1,0,0:0:0:0:
512,5,118199,5,0,1:0:0:0:
512,5,118285,1,8,0:0:0:0:
227,308,118630,5,0,1:0:0:0:
211,237,118803,1,0,0:0:0:0:
279,255,118975,1,8,0:0:0:0:
294,183,119147,1,0,0:0:0:0:
361,307,119320,2,0,P|448:289|458:285,1,75,2|0,0:0|1:0,0:0:0:0:
445,284,119578,1,0,1:0:0:0:
489,295,119665,1,8,0:0:0:0:
223,318,120010,5,0,1:0:0:0:
205,236,120183,1,2,0:0:0:0:
284,257,120355,1,8,0:0:0:0:
301,173,120527,1,0,0:0:0:0:
141,291,120700,2,0,P|54:273|44:269,1,75,2|0,0:0|1:0,0:0:0:0:
57,268,120958,1,0,1:0:0:0:
13,279,121045,1,8,0:0:0:0:
268,0,121389,6,0,L|250:185,1,180,0|8,1:0|0:0,0:0:0:0:
259,9,122768,5,0,1:0:0:0:
203,52,122941,1,0,0:0:0:0:
138,20,123113,1,8,0:0:0:0:
203,52,123285,1,0,0:0:0:0:
209,119,123458,2,0,L|194:198,1,75,0|0,0:0|1:0,0:0:0:0:
178,207,123716,1,0,1:0:0:0:
190,254,123803,1,8,0:0:0:0:
414,349,124147,5,0,1:0:0:0:
445,284,124319,1,0,0:0:0:0:
393,235,124491,1,0,0:0:0:0:
331,269,124664,1,0,0:0:0:0:
343,337,124837,2,0,L|330:387,2,37.5,2|0|0,0:0|0:0|1:0,0:0:0:0:
332,326,125095,1,0,1:0:0:0:
331,269,125182,1,8,0:0:0:0:
98,349,125527,5,0,1:0:0:0:
67,284,125699,1,2,0:0:0:0:
119,235,125872,1,8,0:0:0:0:
181,269,126044,1,0,0:0:0:0:
169,337,126216,2,0,L|182:387,2,37.5,2|0|0,0:0|0:0|1:0,0:0:0:0:
180,326,126475,1,0,1:0:0:0:
181,269,126561,1,8,0:0:0:0:
0,119,126906,5,0,1:0:0:0:
108,158,127078,1,0,0:0:0:0:
185,106,127251,1,8,0:0:0:0:
247,142,127423,1,0,0:0:0:0:
287,102,127596,2,0,L|277:60,2,37.5,0|0|0,0:0|0:0|1:0,0:0:0:0:
297,111,127854,1,0,1:0:0:0:
348,124,127941,1,8,0:0:0:0:
508,270,128285,5,0,1:0:0:0:
400,309,128457,1,0,0:0:0:0:
323,257,128630,1,8,0:0:0:0:
261,293,128802,1,0,0:0:0:0:
221,253,128975,2,0,L|231:211,2,37.5,0|0|0,0:0|0:0|1:0,0:0:0:0:
211,262,129233,1,0,1:0:0:0:
160,275,129320,1,8,0:0:0:0:
492,71,129665,5,0,1:0:0:0:
492,71,129837,1,0,0:0:0:0:
484,144,130010,1,8,0:0:0:0:
484,144,130182,1,0,0:0:0:0:
421,184,130354,2,0,L|330:176,1,75,2|0,0:0|1:0,0:0:0:0:
345,160,130613,1,0,1:0:0:0:
295,174,130699,1,8,0:0:0:0:
256,357,131044,5,0,1:0:0:0:
256,357,131216,1,2,0:0:0:0:
248,284,131389,1,8,0:0:0:0:
248,284,131561,1,0,0:0:0:0:
185,244,131733,2,0,L|94:252,1,75,2|0,0:0|1:0,0:0:0:0:
109,268,131992,1,0,1:0:0:0:
59,254,132078,1,8,0:0:0:0:
59,254,132423,5,4,0:1:0:0:
256,192,132510,12,0,136561,0:0:0:0:
142,111,137251,5,8,0:0:0:0:
213,129,137423,1,8,0:0:0:0:
272,86,137596,2,0,L|263:42,3,37.5,0|0|8|0,1:0|1:0|0:0|0:0,0:0:0:0:
405,129,137941,5,4,1:0:0:0:
405,129,138027,2,0,L|413:81,2,37.5,0|0|0,0:0|0:0|0:0,0:0:0:0:
376,249,138285,1,8,0:1:0:0:
368,239,138371,5,0,0:0:0:0:
388,204,138458,1,0,0:0:0:0:
430,196,138544,1,0,0:0:0:0:
464,227,138630,1,0,0:0:0:0:
458,271,138716,2,0,L|465:322,1,37.5,0|0,0:0|1:0,0:0:0:0:
376,373,138889,2,0,L|383:322,1,37.5,0|8,0:0|0:1,0:0:0:0:
238,305,139061,6,0,L|190:313,2,37.5,0|0|0,0:0|0:0|0:0,0:0:0:0:
242,291,139320,1,0,0:0:0:0:
293,295,139406,2,0,L|301:244,1,37.5,0|0,0:0|1:0,0:0:0:0:
234,216,139578,2,0,L|229:179,1,37.5,0|8,0:0|0:1,0:0:0:0:
160,152,139751,5,0,0:0:0:0:
140,187,139838,1,0,0:0:0:0:
98,195,139924,1,0,0:0:0:0:
64,164,140010,1,0,0:0:0:0:
70,120,140096,2,0,L|63:69,1,37.5,0|0,0:0|1:0,0:0:0:0:
9,3,140268,2,0,L|2:54,1,37.5,0|8,0:0|0:1,0:0:0:0:
137,57,140441,2,0,L|142:15,2,37.5,0|0|0,0:0|0:0|0:0,0:0:0:0:
215,46,140699,5,0,1:0:0:0:
215,46,140785,2,0,L|220:88,2,37.5,0|0|0,0:0|0:0|0:0,0:0:0:0:
301,52,141044,1,8,0:1:0:0:
290,57,141130,5,0,0:0:0:0:
312,18,141217,1,0,0:0:0:0:
358,9,141303,1,0,0:0:0:0:
396,43,141389,1,0,0:0:0:0:
386,91,141475,2,0,L|393:147,1,37.5,0|0,0:0|1:0,0:0:0:0:
458,81,141648,2,0,L|465:132,1,37.5,0|8,0:0|1:0,0:0:0:0:
374,240,141820,6,0,L|326:232,2,37.5,0|0|0,0:0|1:0|0:0,0:0:0:0:
378,254,142079,1,0,0:0:0:0:
429,250,142165,2,0,L|437:301,1,37.5,0|0,0:0|1:0,0:0:0:0:
365,370,142337,2,0,L|370:333,1,37.5,0|8,0:0|0:1,0:0:0:0:
268,266,142510,5,0,0:0:0:0:
268,266,142597,1,0,0:0:0:0:
268,266,142683,1,0,0:0:0:0:
268,266,142768,2,0,L|261:215,1,37.5,0|0,0:0|0:0,0:0:0:0:
198,172,142941,2,0,L|191:223,1,37.5,0|0,1:0|0:0,0:0:0:0:
80,259,143113,2,0,P|139:281|179:199,1,150,8|2,0:1|1:0,0:0:0:0:
1,133,143630,5,0,0:0:0:0:
1,133,143716,1,0,0:0:0:0:
1,133,143803,2,0,L|11:193,1,48.7499977684022,8|0,0:1|0:0,0:0:0:0:
71,250,143975,2,0,L|81:190,1,48.7499977684022,0|0,0:0|0:0,0:0:0:0:
42,73,144147,2,0,P|116:99|148:111,1,97.4999955368044,2|0,0:1|1:0,0:0:0:0:
197,70,144406,1,0,0:0:0:0:
197,70,144492,6,0,L|258:60,1,48.7499977684022,8|0,0:1|0:0,0:0:0:0:
297,112,144665,2,0,L|358:122,1,48.7499977684022,0|0,0:0|0:0,0:0:0:0:
479,13,144837,2,0,P|405:39|373:51,1,97.4999955368044,2|0,0:1|1:0,0:0:0:0:
318,43,145096,1,0,0:0:0:0:
318,44,145182,6,0,L|387:59,1,48.7499977684022,8|0,0:1|0:0,0:0:0:0:
455,173,145354,2,0,L|465:125,1,48.7499977684022,0|0,0:0|0:0,0:0:0:0:
452,111,145527,5,2,0:1:0:0:
389,237,145699,1,0,1:0:0:0:
512,320,145872,2,0,P|467:290|404:372,1,146.249993305207,8|0,0:1|0:0,0:0:0:0:
386,346,146216,5,8,0:1:0:0:
258,278,146389,2,0,P|292:307|332:284,1,97.4999955368044,0|0,1:0|0:0,0:0:0:0:
178,363,146734,6,0,L|195:298,1,48.7499977684022
125,281,146906,2,0,L|108:216,1,48.7499977684022,2|0,0:0|0:0,0:0:0:0:
119,162,147078,2,0,P|184:157|197:189,2,97.4999955368044
238,43,147596,6,0,P|242:81|248:116,1,75
407,206,147941,2,0,P|403:170|396:132,1,75,2|0,0:0|0:0,0:0:0:0:
325,92,148285,6,0,L|315:34,3,37.5,0|0|0|0,0:0|0:0|1:0|0:0,0:0:0:0:
497,112,148630,2,0,P|510:31|419:52,1,168.750006437302,8|0,0:1|0:0,0:0:0:0:
397,132,148975,5,0,1:0:0:0:
397,132,149061,2,0,L|405:84,2,37.5,0|0|0,0:0|0:0|0:0,0:0:0:0:
504,243,149319,1,8,0:1:0:0:
512,233,149405,5,0,0:0:0:0:
477,211,149492,1,0,0:0:0:0:
435,231,149578,1,0,0:0:0:0:
435,279,149664,1,0,0:0:0:0:
401,313,149751,1,0,0:0:0:0:
390,306,149837,1,0,1:0:0:0:
341,311,149923,2,0,L|350:253,1,37.5,0|8,0:0|0:1,0:0:0:0:
239,371,150095,6,0,L|231:323,2,37.5,0|0|0,0:0|0:0|0:0,0:0:0:0:
226,369,150354,1,0,0:0:0:0:
177,377,150441,1,0,0:0:0:0:
166,376,150527,1,0,1:0:0:0:
155,373,150612,2,0,L|160:336,1,37.5,0|8,0:0|0:1,0:0:0:0:
43,220,150785,5,0,0:0:0:0:
15,248,150872,1,0,0:0:0:0:
18,291,150958,1,0,0:0:0:0:
57,315,151044,1,0,0:0:0:0:
98,298,151130,2,0,L|102:258,1,37.5,0|0,0:0|1:0,0:0:0:0:
134,197,151303,2,0,L|138:157,1,37.5,0|8,0:0|0:1,0:0:0:0:
81,111,151475,6,0,L|39:106,2,37.5,0|0|0,0:0|0:0|0:0,0:0:0:0:
217,127,151733,1,0,1:0:0:0:
206,133,151819,2,0,L|201:91,2,37.5,0|0|0,0:0|0:0|0:0,0:0:0:0:
240,24,152078,1,8,0:1:0:0:
251,34,152164,5,0,0:0:0:0:
289,9,152251,1,0,0:0:0:0:
335,31,152337,1,0,0:0:0:0:
335,84,152423,1,0,0:0:0:0:
373,121,152510,1,0,0:0:0:0:
385,114,152596,1,0,1:0:0:0:
439,119,152682,2,0,L|430:55,1,37.5,0|8,0:0|0:1,0:0:0:0:
475,221,152854,6,0,L|480:157,2,37.5,0|0|0,0:0|1:0|0:0,0:0:0:0:
477,234,153113,1,0,0:0:0:0:
469,283,153200,1,0,0:0:0:0:
470,294,153286,1,0,1:0:0:0:
473,305,153371,2,0,L|510:300,1,37.5,0|8,0:0|0:1,0:0:0:0:
406,362,153544,5,0,0:0:0:0:
406,362,153631,1,0,0:0:0:0:
406,362,153717,1,0,0:0:0:0:
406,362,153802,2,0,L|355:355,1,37.5,0|0,0:0|0:0,0:0:0:0:
295,298,153975,2,0,L|346:291,1,37.5,0|0,1:0|0:0,0:0:0:0:
167,384,154147,2,0,P|227:346|207:279,1,150,8|2,0:1|1:0,0:0:0:0:
0,376,154665,5,0,0:0:0:0:
0,376,154751,1,0,0:0:0:0:
0,376,154837,1,8,0:1:0:0:
21,231,155010,2,0,L|30:279,1,48.7499977684022,0|0,0:1|0:0,0:0:0:0:
80,361,155182,2,0,P|106:287|119:255,1,97.4999955368044,2|0,0:1|0:0,0:0:0:0:
113,269,155441,1,0,0:0:0:0:
113,269,155527,5,8,0:1:0:0:
241,143,155700,2,0,L|180:153,1,48.7499977684022,0|0,0:1|0:0,0:0:0:0:
106,42,155872,2,0,P|180:68|212:80,1,97.4999955368044,2|0,0:1|1:0,0:0:0:0:
198,74,156131,1,0,0:0:0:0:
198,74,156216,5,8,0:1:0:0:
316,222,156389,2,0,L|306:174,1,48.7499977684022
475,46,156561,2,0,B|448:114|448:114|432:159,1,97.4999955368044,2|0,0:1|1:0,0:0:0:0:
383,182,156820,1,0,0:0:0:0:
383,182,156907,6,0,P|428:152|493:272,1,194.999991073609,8|0,0:1|0:0,0:0:0:0:
256,192,157337,12,0,159147,0:0:0:0:
65,315,159320,6,0,L|156:325,1,48.7499977684022,8|0,0:0|0:0,0:0:0:0:
175,273,159492,2,0,L|233:266,1,48.7499977684022,0|0,1:0|1:0,0:0:0:0:
295,332,159665,1,0,1:0:0:0:
295,332,159751,1,0,1:0:0:0:
295,332,159837,1,0,1:0:0:0:
295,332,159923,1,0,1:0:0:0:
295,332,160010,6,0,P|367:352|403:245,2,180,4|0|0,1:0|0:0|0:0,0:0:0:0:
86,83,160699,5,8,0:1:0:0:
156,70,160872,2,0,P|166:147|100:138,1,150,0|0,0:0|0:0,0:0:0:0:
0,12,161389,6,0,P|75:59|204:42,1,180,0|0,1:0|0:0,0:0:0:0:
239,58,161734,2,0,P|314:11|443:28,1,180,0|0,1:0|0:0,0:0:0:0:
460,55,162078,6,0,L|446:144,1,60,8|0,0:1|0:0,0:0:0:0:
307,171,162251,2,0,L|293:82,1,60,0|0,0:0|0:0,0:0:0:0:
485,208,162423,2,0,B|450:173|357:171|324:232|324:232|354:223|390:248,1,225,0|0,0:0|0:0,0:0:0:0:
341,304,162768,6,0,P|249:309|225:273,1,120,4|0,1:0|0:0,0:0:0:0:
163,300,163027,2,0,B|204:282|204:282|198:181,1,120,0|0,0:0|0:0,0:0:0:0:
145,163,163285,1,0,0:0:0:0:
0,361,163458,6,0,L|17:301,1,60,8|0,0:1|0:0,0:0:0:0:
12,197,163630,2,0,P|36:276|119:275,1,150,0|0,0:0|0:0,0:0:0:0:
94,286,164061,1,0,0:0:0:0:
94,286,164147,1,0,1:0:0:0:
221,52,164492,6,0,B|280:9|280:9|262:158,1,180,0|0,1:0|0:0,0:0:0:0:
374,186,164837,2,0,P|299:187|285:210,1,90,8|0,0:1|0:0,0:0:0:0:
287,204,165010,2,0,P|212:203|198:180,1,90,0|0,0:0|0:0,0:0:0:0:
202,187,165182,2,0,L|207:151,6,30,0|0|0|0|0|0|0,0:0|0:0|0:0|0:0|0:0|0:0|0:0,0:0:0:0:
166,255,165527,5,4,1:0:0:0:
317,339,165786,1,0,0:0:0:0:
482,267,166044,1,0,0:0:0:0:
446,331,166216,5,8,0:1:0:0:
155,251,166389,2,0,P|152:307|149:330,1,60,0|0,0:0|0:0,0:0:0:0:
240,384,166561,2,0,B|243:352|243:352|225:261,1,112.5,0|0,0:0|0:0,0:0:0:0:
205,199,166906,6,0,P|129:226|66:148,1,180,0|0,1:0|0:0,0:0:0:0:
88,88,167251,2,0,P|164:61|227:139,1,180,0|0,1:0|0:0,0:0:0:0:
218,200,167596,1,8,0:1:0:0:
369,78,167768,5,0,0:0:0:0:
365,57,167854,1,0,0:0:0:0:
361,36,167941,1,0,0:0:0:0:
437,46,168113,1,0,0:0:0:0:
512,295,168285,6,0,P|420:300|397:215,1,180,4|0,1:0|0:0,0:0:0:0:
408,219,168802,1,0,0:0:0:0:
140,279,168975,5,8,0:1:0:0:
250,327,169147,2,0,P|221:331|182:341,1,60,0|0,0:0|0:0,0:0:0:0:
136,384,169320,2,0,P|119:360|90:332,1,60,0|0,0:0|0:0,0:0:0:0:
30,313,169492,2,0,P|42:285|52:247,1,60,0|0,0:0|0:0,0:0:0:0:
170,211,169665,5,0,1:0:0:0:
168,196,169751,1,0,0:0:0:0:
166,181,169837,1,0,0:0:0:0:
163,166,169923,1,0,0:0:0:0:
161,151,170010,6,0,L|170:93,1,60,0|0,1:0|0:0,0:0:0:0:
99,77,170182,2,0,L|90:135,1,60,0|0,0:0|0:0,0:0:0:0:
237,178,170354,5,8,0:1:0:0:
263,201,170440,1,0,0:0:0:0:
303,196,170526,1,0,0:0:0:0:
320,166,170612,1,0,0:0:0:0:
338,165,170699,5,0,1:0:0:0:
365,128,170785,1,0,0:0:0:0:
410,120,170871,1,0,0:0:0:0:
443,151,170957,1,0,0:0:0:0:
441,194,171044,6,0,B|436:110|436:110|429:98|429:98|425:9,2,180,4|0|0,1:0|0:0|0:0,0:0:0:0:
395,371,171734,5,8,0:1:0:0:
430,304,171907,2,0,P|495:320|473:384,1,150
395,371,172337,1,0,0:0:0:0:
395,371,172424,6,0,P|307:370|231:323,1,180,0|0,1:0|0:0,0:0:0:0:
124,259,172769,2,0,P|183:269|176:372,1,180,0|0,1:0|0:0,0:0:0:0:
11,384,173113,6,0,L|2:324,1,60,8|0,0:1|0:0,0:0:0:0:
84,373,173286,2,0,L|70:284,1,60,0|0,0:0|0:0,0:0:0:0:
129,146,173458,2,0,B|151:203|101:245|101:245|59:230|21:258,1,180,0|0,0:0|0:0,0:0:0:0:
0,184,173803,6,0,P|-5:91|31:68,1,120,4|0,1:0|0:0,0:0:0:0:
124,71,174061,2,0,B|68:87|68:87|12:63,1,120,0|0,0:0|0:0,0:0:0:0:
75,7,174320,1,0,0:0:0:0:
181,199,174493,6,0,L|239:182,1,60,8|0,0:1|0:0,0:0:0:0:
377,141,174665,2,0,P|308:161|294:232,1,150,0|0,0:0|0:0,0:0:0:0:
293,230,175096,1,0,0:0:0:0:
293,230,175182,1,0,1:0:0:0:
413,384,175527,6,0,B|472:341|472:341|445:214,1,180,0|0,1:0|0:0,0:0:0:0:
477,85,175872,2,0,P|498:123|484:164,1,90,8|0,0:1|0:0,0:0:0:0:
470,167,176045,2,0,P|450:128|464:87,1,90,0|0,0:0|0:0,0:0:0:0:
477,85,176217,2,0,L|513:80,6,30,0|0|0|0|0|0|0,0:0|0:0|0:0|0:0|0:0|0:0|0:0,0:0:0:0:
471,11,176562,5,4,1:0:0:0:
294,45,176821,1,0,0:0:0:0:
117,79,177078,1,0,0:0:0:0:
181,115,177251,5,8,0:1:0:0:
48,347,177424,2,0,P|51:317|52:287,1,60,0|0,0:0|0:0,0:0:0:0:
34,212,177596,2,0,B|66:209|66:209|105:235|157:227,1,112.5,0|0,0:0|0:0,0:0:0:0:
181,292,177941,6,0,P|257:319|320:241,1,180,0|0,1:0|0:0,0:0:0:0:
353,191,178286,2,0,P|429:164|492:242,1,180,0|0,1:0|0:0,0:0:0:0:
493,300,178631,1,8,0:1:0:0:
318,22,178803,5,0,0:0:0:0:
314,43,178889,1,0,0:0:0:0:
310,64,178976,1,0,0:0:0:0:
384,56,179148,1,0,0:0:0:0:
54,26,179320,6,0,P|200:20|250:20,1,180,4|0,1:0|0:0,0:0:0:0:
242,32,179837,1,0,0:0:0:0:
133,303,180010,5,8,0:1:0:0:
240,248,180182,2,0,P|211:243|182:236,1,60,0|0,0:0|0:0,0:0:0:0:
126,192,180355,2,0,P|109:216|88:237,1,60,0|0,0:0|0:0,0:0:0:0:
21,263,180527,2,0,P|33:290|42:319,1,60,0|0,0:0|0:0,0:0:0:0:
337,384,180699,6,0,L|310:199,1,180,0|0,1:0|0:0,0:0:0:0:
300,198,181044,2,0,L|364:207,1,60,8|0,0:1|0:0,0:0:0:0:
408,377,181216,6,0,L|381:192,1,180,0|0,1:0|0:0,0:0:0:0:
371,191,181561,2,0,L|435:200,1,60,8|0,0:1|0:0,0:0:0:0:
481,370,181734,6,0,B|468:282|468:282|465:277|465:277|451:185,1,179.999994506836,0|4,1:0|1:0,0:0:0:0:
