osu file format v14

[General]
AudioFilename: audio.mp3
AudioLeadIn: 0
PreviewTime: -1
Countdown: 1
SampleSet: Soft
StackLeniency: 0.7
Mode: 0
LetterboxInBreaks: 0
WidescreenStoryboard: 0

[Editor]
DistanceSpacing: 1
BeatDivisor: 4
GridSize: 4
TimelineZoom: 1

[Metadata]
Title:Paper Planes
TitleUnicode:Paper Planes
Artist:Virtual Riot
ArtistUnicode:Virtual Riot
Creator:galvenize
Version:
Source:
Tags:
BeatmapID:1049516
BeatmapSetID:492669

[Difficulty]
HPDrainRate:8
CircleSize:4
OverallDifficulty:8
ApproachRate:9.5
SliderMultiplier:1.8
SliderTickRate:1

[Events]
//Background and Video events
0,0,"plane.jpg",0,0
//Break Periods
//Storyboard Layer 0 (Background)
//Storyboard Layer 1 (Fail)
//Storyboard Layer 2 (Pass)
//Storyboard Layer 3 (Foreground)
//Storyboard Sound Samples

[TimingPoints]
0,342.857142857143,4,1,0,100,1,0
21857,-100,4,2,0,100,0,0
66600,-200,4,2,0,100,0,0
68142,-100,4,2,0,100,0,0
68485,-100,4,2,0,100,0,0

[Colours]
Combo1 : 242,74,79
Combo2 : 70,107,193
Combo3 : 0,66,147
Combo4 : 183,11,36

[HitObjects]
424,44,21942,5,0,0:0:0:0:
376,116,22106,1,0,0:0:0:0:
416,200,22285,1,0,0:0:0:0:
464,276,22457,1,0,0:0:0:0:
456,300,22542,1,0,0:0:0:0:
448,328,22628,1,0,0:0:0:0:
360,348,22800,1,0,0:0:0:0:
280,304,22971,1,0,0:0:0:0:
200,344,23142,6,0,P|116:352|28:316,1,180
32,224,23657,1,0,0:0:0:0:
120,224,23828,1,0,0:0:0:0:
108,180,23914,1,0,0:0:0:0:
96,136,24000,1,0,0:0:0:0:
28,80,24171,2,0,P|84:52|140:64,1,90
96,136,24514,6,0,P|164:148|272:104,1,180
328,44,25028,1,0,0:0:0:0:
384,112,25200,1,0,0:0:0:0:
376,156,25285,1,0,0:0:0:0:
368,200,25371,1,0,0:0:0:0:
288,240,25542,1,0,0:0:0:0:
340,316,25714,1,0,0:0:0:0:
420,276,25885,6,0,P|408:208|432:92,1,180
340,84,26400,2,0,B|236:68|248:72,1,90
168,108,26742,2,0,P|136:152|132:200,1,90
130,186,27000,1,0,0:0:0:0:
130,186,27085,1,0,0:0:0:0:
264,216,27257,6,0,P|252:152|208:40,1,180
120,60,27771,1,0,0:0:0:0:
68,132,27942,1,0,0:0:0:0:
88,172,28028,1,0,0:0:0:0:
130,186,28114,1,0,0:0:0:0:
208,140,28285,1,0,0:0:0:0:
248,220,28457,1,0,0:0:0:0:
172,268,28628,6,0,P|144:316|144:356,1,90
232,340,28971,1,0,0:0:0:0:
304,288,29142,1,0,0:0:0:0:
232,340,29314,1,0,0:0:0:0:
188,336,29400,1,0,0:0:0:0:
160,304,29485,1,0,0:0:0:0:
172,216,29657,2,0,P|224:224|288:224,1,90
352,212,30000,6,0,P|436:160|476:92,1,180
404,36,30514,1,0,0:0:0:0:
320,68,30685,1,0,0:0:0:0:
280,88,30771,1,0,0:0:0:0:
236,88,30857,1,0,0:0:0:0:
152,60,31028,2,0,P|92:52|48:64,1,90
176,112,31371,2,0,P|276:100|368:104,1,180
355,102,31885,2,0,P|356:152|388:188,1,90
248,200,32228,2,0,P|200:192|136:212,1,90
48,356,32571,2,0,P|104:340|128:304,1,90
48,268,32914,5,0,0:0:0:0:
84,184,33085,1,0,0:0:0:0:
360,236,33257,1,0,0:0:0:0:
216,216,33428,1,0,0:0:0:0:
216,216,33514,1,0,0:0:0:0:
216,216,33600,1,0,0:0:0:0:
288,152,33771,2,0,L|284:48,1,90
400,136,34114,6,0,P|384:188|424:312,1,180
324,324,34628,1,0,0:0:0:0:
200,268,34800,1,0,0:0:0:0:
200,268,34885,1,0,0:0:0:0:
200,268,34971,1,0,0:0:0:0:
268,208,35142,2,0,P|256:160|264:120,1,90
100,216,35485,6,0,L|112:324,1,90
8,216,35828,1,0,0:0:0:0:
40,132,36000,1,0,0:0:0:0:
128,112,36171,1,0,0:0:0:0:
172,112,36257,1,0,0:0:0:0:
212,92,36342,1,0,0:0:0:0:
160,20,36514,1,0,0:0:0:0:
172,112,36685,1,0,0:0:0:0:
244,168,36857,6,0,P|296:168|400:84,1,180
308,72,37371,1,0,0:0:0:0:
396,92,37542,1,0,0:0:0:0:
340,160,37714,1,0,0:0:0:0:
360,72,37885,2,0,L|456:40,1,90
388,232,38228,6,0,P|324:248|236:160,1,180
172,120,38742,2,0,L|80:160,1,90
92,248,39085,1,0,0:0:0:0:
32,316,39257,1,0,0:0:0:0:
32,316,39342,1,0,0:0:0:0:
32,316,39428,1,0,0:0:0:0:
116,352,39600,2,0,P|156:324|288:324,1,180
368,356,40114,2,0,L|384:240,1,90
320,200,40457,2,0,P|312:152|332:88,2,90
404,164,40971,6,0,P|360:200|220:212,1,180
152,200,41485,2,0,L|168:88,1,90
76,120,41828,2,0,L|56:20,1,90
148,28,42171,1,0,0:0:0:0:
24,188,42342,6,0,P|4:240|80:332,1,180
184,240,42857,2,0,L|92:248,1,90
284,160,43200,2,0,L|188:156,1,90
56,76,43542,2,0,L|152:80,1,90
152,80,43885,5,0,0:0:0:0:
152,80,44057,5,0,0:0:0:0:
368,88,44228,5,0,0:0:0:0:
360,304,44400,5,0,0:0:0:0:
272,108,44571,2,0,P|272:48|284:-4,1,90
256,192,44914,1,0,0:0:0:0:
68,152,45085,5,0,0:0:0:0:
256,192,45257,1,0,0:0:0:0:
444,232,45428,1,0,0:0:0:0:
256,192,45600,2,0,P|236:240|224:284,1,90
225,276,45942,1,0,0:0:0:0:
196,108,46114,5,0,0:0:0:0:
344,272,46285,1,0,0:0:0:0:
112,140,46457,2,0,P|108:80|144:40,1,90
204,20,46800,1,0,0:0:0:0:
196,108,46971,1,0,0:0:0:0:
24,88,47142,1,0,0:0:0:0:
328,40,47314,2,0,P|376:32|424:32,1,90
392,204,47657,1,0,0:0:0:0:
356,320,47828,5,0,0:0:0:0:
312,244,48000,1,0,0:0:0:0:
476,108,48171,1,0,0:0:0:0:
460,276,48342,2,0,P|400:272|344:280,1,90
280,284,48685,1,0,0:0:0:0:
72,204,48857,2,0,P|128:212|184:204,1,90
440,180,49200,2,0,P|384:172|328:180,1,90
264,192,49542,1,0,0:0:0:0:
104,112,49714,1,0,0:0:0:0:
124,292,49885,1,0,0:0:0:0:
204,132,50057,1,0,0:0:0:0:
232,308,50228,2,0,P|284:320|328:304,1,90
468,208,50571,5,0,0:0:0:0:
292,236,50742,1,0,0:0:0:0:
436,124,50914,1,0,0:0:0:0:
216,280,51085,2,0,P|168:292|92:288,2,90
192,152,51600,5,0,0:0:0:0:
324,236,51771,1,0,0:0:0:0:
56,216,51942,1,0,0:0:0:0:
300,96,52114,1,0,0:0:0:0:
324,236,52285,1,0,0:0:0:0:
344,88,52457,1,0,0:0:0:0:
324,236,52628,1,0,0:0:0:0:
188,56,52800,5,0,0:0:0:0:
324,236,52971,1,0,0:0:0:0:
372,16,53142,1,0,0:0:0:0:
324,264,53314,1,0,0:0:0:0:
276,136,53485,5,0,0:0:0:0:
396,124,53657,1,0,0:0:0:0:
144,256,53828,1,0,0:0:0:0:
32,236,54000,1,0,0:0:0:0:
484,240,54171,5,0,0:0:0:0:
440,264,54257,1,0,0:0:0:0:
392,280,54342,1,0,0:0:0:0:
344,268,54428,1,0,0:0:0:0:
312,228,54514,1,0,0:0:0:0:
272,200,54600,1,0,0:0:0:0:
236,168,54685,1,0,0:0:0:0:
188,168,54771,1,0,0:0:0:0:
144,188,54857,1,0,0:0:0:0:
208,260,55028,5,0,0:0:0:0:
236,168,55200,1,0,0:0:0:0:
24,168,55371,1,0,0:0:0:0:
60,352,55542,2,0,L|156:340,1,90
236,324,55885,1,0,0:0:0:0:
236,324,56057,1,0,0:0:0:0:
120,188,56228,1,0,0:0:0:0:
292,132,56400,1,0,0:0:0:0:
408,272,56571,2,0,P|400:344|396:380,1,90
372,184,56914,1,0,0:0:0:0:
60,332,57085,2,0,L|79:244,1,90
216,48,57428,2,0,L|196:135,1,90
332,252,57771,5,0,0:0:0:0:
344,80,57942,1,0,0:0:0:0:
176,328,58114,1,0,0:0:0:0:
132,240,58285,2,0,P|120:184|120:148,1,90
208,52,58628,1,0,0:0:0:0:
208,152,58800,1,0,0:0:0:0:
48,304,58971,5,0,0:0:0:0:
272,184,59142,1,0,0:0:0:0:
464,288,59314,2,0,P|412:316|348:316,1,90
381,320,59657,1,0,0:0:0:0:
336,40,59828,2,0,L|344:136,1,90
176,344,60171,2,0,L|168:248,2,90
264,280,60685,1,0,0:0:0:0:
360,264,60857,1,0,0:0:0:0:
76,236,61028,1,0,0:0:0:0:
76,236,61200,2,0,P|76:180|104:136,1,90
172,92,61542,1,0,0:0:0:0:
8,168,61714,1,0,0:0:0:0:
312,200,61885,1,0,0:0:0:0:
212,184,62057,1,0,0:1:0:0:
224,320,62228,1,0,0:0:0:0:
416,128,62400,2,0,P|432:76|444:32,2,90
416,128,62914,1,0,0:0:0:0:
176,96,63085,5,0,0:0:0:0:
64,292,63257,1,0,0:0:0:0:
372,204,63428,1,0,0:0:0:0:
244,16,63600,1,0,0:0:0:0:
208,236,63771,1,0,0:0:0:0:
388,104,63942,1,0,0:0:0:0:
164,132,64114,1,0,0:0:0:0:
384,120,64285,1,0,0:0:0:0:
240,208,64457,1,0,0:0:0:0:
208,104,64628,1,0,0:0:0:0:
376,120,64800,1,0,0:0:0:0:
308,336,64971,1,0,0:0:0:0:
100,252,65142,5,0,0:0:0:0:
76,204,65228,1,0,0:0:0:0:
88,152,65314,1,0,0:0:0:0:
132,124,65400,1,0,0:0:0:0:
184,128,65485,1,0,0:0:0:0:
212,176,65571,1,0,0:0:0:0:
188,224,65657,1,0,0:0:0:0:
172,276,65742,1,0,0:0:0:0:
148,324,65828,1,0,0:0:0:0:
148,324,66171,1,0,0:0:0:0:
148,324,66685,2,0,P|96:312|48:324,2,90
148,324,67542,2,0,P|188:332|240:316,1,90
234,319,68057,1,0,0:0:0:0:
234,319,68228,6,0,P|214:271|206:227,1,90
206,233,68485,1,0,0:0:0:0:
206,233,68571,5,0,0:0:0:0:
264,164,68742,1,0,0:0:0:0:
336,220,68914,1,0,0:0:0:0:
168,152,69085,1,0,0:0:0:0:
124,168,69171,1,0,0:0:0:0:
80,184,69257,1,0,0:0:0:0:
236,64,69428,2,0,P|292:72|336:52,1,90
448,156,69771,6,0,P|392:148|348:168,1,90
288,212,70114,1,0,0:0:0:0:
212,160,70285,1,0,0:0:0:0:
412,228,70457,1,0,0:0:0:0:
400,272,70542,1,0,0:0:0:0:
392,316,70628,1,0,0:0:0:0:
206,249,70800,2,0,P|248:233|288:211,1,90
128,280,71142,6,0,P|85:295|46:317,1,90
46,317,71485,1,0,0:0:0:0:
136,364,71657,1,0,0:0:0:0:
76,196,71828,1,0,0:0:0:0:
76,196,71914,1,0,0:0:0:0:
76,196,72000,1,0,0:0:0:0:
228,56,72171,2,0,P|256:100|248:152,1,90
0,216,72514,6,0,P|3:163|40:126,1,90
256,136,72857,1,0,0:0:0:0:
166,196,73028,2,0,L|62:196,1,90
172,112,73371,1,0,0:0:0:0:
300,236,73542,1,0,0:0:0:0:
300,236,73714,1,0,0:0:0:0:
272,108,73885,2,0,P|264:52|284:16,1,90
376,176,74228,1,0,0:0:0:0:
196,204,74400,2,0,L|184:304,1,90
185,293,74742,1,0,0:0:0:0:
300,208,74914,2,0,P|292:160|320:112,1,90
392,312,75257,2,0,P|340:336|276:320,1,90
140,272,75600,1,0,0:0:0:0:
308,124,75771,1,0,0:0:0:0:
232,168,75942,1,0,0:0:0:0:
164,108,76114,1,0,0:0:0:0:
240,64,76285,5,0,0:0:0:0:
28,112,76457,1,0,0:0:0:0:
204,252,76628,1,0,0:0:0:0:
408,180,76800,2,0,P|428:124|416:68,1,90
104,204,77142,2,0,P|84:260|96:316,1,90
184,264,77485,1,0,0:0:0:0:
148,52,77657,2,0,L|56:64,1,90
272,144,78000,6,0,P|320:124|364:128,1,90
444,156,78342,1,0,0:0:0:0:
176,132,78514,1,0,0:0:0:0:
256,48,78685,1,0,0:0:0:0:
256,48,78771,1,0,0:0:0:0:
256,48,78857,1,0,0:0:0:0:
268,248,79028,2,0,P|248:296|256:340,1,90
384,176,79371,2,0,L|372:80,1,90
288,56,79714,1,0,0:0:0:0:
468,140,79885,1,0,0:0:0:0:
248,168,80057,1,0,0:0:0:0:
208,188,80142,1,0,0:0:0:0:
208,232,80228,1,0,0:0:0:0:
344,292,80400,2,0,P|400:276|444:288,1,90
232,332,80742,2,0,L|120:328,1,90
256,128,81085,1,0,0:0:0:0:
316,196,81257,2,0,P|360:176|416:168,1,90
400,168,81514,1,0,0:0:0:0:
400,168,81600,1,0,0:0:0:0:
480,212,81771,5,0,0:0:0:0:
272,128,81942,1,0,0:0:0:0:
60,208,82114,1,0,0:0:0:0:
480,212,82285,2,0,L|472:112,1,90
32,172,82628,2,0,L|40:272,1,90
124,292,82971,1,0,0:0:0:0:
180,72,83142,2,0,P|236:40|280:40,1,90
331,312,83485,6,0,P|295:337|251:346,1,90
344,116,83828,1,0,0:0:0:0:
344,116,84000,2,0,L|356:208,1,90
355,205,84257,1,0,0:0:0:0:
355,205,84342,1,0,0:0:0:0:
224,124,84514,2,0,P|168:104|104:104,1,90
440,44,84857,1,0,0:0:0:0:
440,44,85028,2,0,P|464:88|476:136,1,90
328,292,85371,2,0,P|344:236|376:200,1,90
444,292,85714,1,0,0:0:0:0:
200,132,85885,6,0,L|104:120,1,90
112,216,86228,2,0,L|8:224,2,90
196,180,86742,6,0,P|256:188|312:160,1,90
283,179,87000,1,0,0:0:0:0:
283,179,87085,1,0,0:0:0:0:
364,140,87257,1,0,0:0:0:0:
412,216,87428,1,0,0:0:0:0:
412,216,87514,1,0,0:0:0:0:
412,216,87600,1,0,0:0:0:0:
412,216,87685,1,0,0:0:0:0:
412,216,87771,1,0,0:0:0:0:
