osu file format v14

[General]
AudioFilename: audio.mp3
AudioLeadIn: 0
PreviewTime: 43809
Countdown: 0
SampleSet: Soft
StackLeniency: 0.4
Mode: 0
LetterboxInBreaks: 0
WidescreenStoryboard: 1

[Editor]
Bookmarks: 43899,87785
DistanceSpacing: 1
BeatDivisor: 4
GridSize: 4
TimelineZoom: 3.2

[Metadata]
Title:Paper Planes (Cut Ver.)
TitleUnicode:Paper Planes (Cut Ver.)
Artist:Virtual Riot
ArtistUnicode:Virtual Riot
Creator:Fursum
Version:Insane
Source:
Tags:electronic instrumental liquid dnb drum and bass garvanturr cyberia950
BeatmapID:3493603
BeatmapSetID:1187781

[Difficulty]
HPDrainRate:5
CircleSize:3.5
OverallDifficulty:7.5
ApproachRate:9
SliderMultiplier:1.5
SliderTickRate:1

[Events]
//Background and Video events
0,0,"paper (1).jpg",0,0
//Break Periods
2,87974,98146
//Storyboard Layer 0 (Background)
//Storyboard Layer 1 (Fail)
//Storyboard Layer 2 (Pass)
//Storyboard Layer 3 (Foreground)
//Storyboard Layer 4 (Overlay)
//Storyboard Sound Samples

[TimingPoints]
4,342.857142857143,4,2,1,50,1,0
21946,-133.333333333333,4,2,1,50,0,0
32918,-111.111111111111,4,2,1,60,0,0
42861,-83.3333333333333,4,2,1,70,0,0
43204,-125,4,2,1,50,0,0
43546,-250,4,2,1,35,0,0
43889,-76.9230769230769,4,2,2,75,0,0
44061,-66.6666666666667,4,2,2,75,0,0
60518,-76.9230769230769,4,2,2,75,0,0
65832,-80,4,2,2,50,0,0
68061,-80,4,2,2,65,0,0
68575,-66.6666666666667,4,2,2,75,0,0
86404,-80,4,2,2,75,0,0
86746,-100,4,2,2,50,0,0
86918,-100,4,2,2,40,0,0
87432,-50,4,2,2,75,0,0
87946,-200,4,2,2,40,0,0
98746,-133.333333333333,4,2,2,40,0,0
99432,-100,4,2,2,40,0,0
100804,-133.333333333333,4,2,2,40,0,0
102861,-100,4,2,2,40,0,0
103546,-133.333333333333,4,2,2,40,0,0
103889,-100,4,2,2,40,0,0
104575,-133.333333333333,4,2,2,40,0,0
104918,-100,4,2,2,40,0,0
106289,-133.333333333333,4,2,2,40,0,0
107661,-100,4,2,2,40,0,0
109375,-400,4,2,2,75,0,0
109632,-400,4,2,2,5,0,0
109718,-66.6666666666667,4,2,2,65,0,0
112118,-100,4,2,2,65,0,0
112289,-133.333333333333,4,2,2,65,0,0
112461,-66.6666666666667,4,2,2,65,0,0
114861,-50,4,2,2,65,0,0
115204,-66.6666666666667,4,2,2,65,0,0
117604,-100,4,2,2,65,0,0
117775,-133.333333333333,4,2,2,65,0,0
117946,-66.6666666666667,4,2,2,65,0,0
119146,-100,4,2,2,65,0,0
119318,-80,4,2,2,65,0,0
119661,-50,4,2,2,65,0,0
120004,-50,4,2,3,65,0,0
120346,-133.333333333333,4,2,3,55,0,0
120518,-133.333333333333,4,2,3,50,0,0
120604,-133.333333333333,4,2,3,45,0,0
120861,-66.6666666666667,4,2,2,65,0,0
123089,-57.1428571428571,4,2,2,65,0,0
123432,-66.6666666666667,4,2,2,65,0,0
124632,-100,4,2,2,65,0,0
125489,-66.6666666666667,4,2,2,65,0,0
127375,-100,4,2,2,65,0,0
127546,-66.6666666666667,4,2,2,65,0,0
131489,-40,4,2,2,65,0,0
131661,-80,4,2,2,65,0,0
136632,-80,4,2,2,65,0,0
136804,-100,4,2,2,65,0,0
136975,-66.6666666666667,4,2,2,65,0,0
139718,-66.6666666666667,4,2,2,65,0,0
141946,-66.6666666666667,4,2,3,65,0,0
142289,-83.3333333333333,4,2,3,55,0,0
142461,-83.3333333333333,4,2,3,50,0,0
142546,-83.3333333333333,4,2,3,45,0,0
142804,-62.5,4,2,2,65,0,0
147946,-60.6060606060606,4,2,2,65,0,0
152061,-58.8235294117647,4,2,2,65,0,0

[Colours]
Combo1 : 223,107,239
Combo2 : 216,216,216
Combo3 : 154,154,154
Combo4 : 231,235,71

[HitObjects]
85,251,21946,6,0,P|118:258|152:271,1,56.2500021457673,0|2,3:0|0:3,0:0:0:0:
257,287,22289,2,0,P|235:337|184:331,1,112.500004291535,8|0,0:0|0:0,0:0:0:0:
207,212,22804,1,2,0:3:0:0:
207,212,22975,1,8,0:0:0:0:
207,212,23146,6,0,P|226:163|279:167,1,112.500004291535,2|2,0:3|0:3,0:0:0:0:
373,145,23661,2,0,P|374:191|363:217,1,56.2500021457673,8|2,0:0|0:3,0:0:0:0:
314,272,24004,1,0,0:0:0:0:
405,329,24175,2,0,L|463:317,1,56.2500021457673,2|8,0:3|0:0,0:0:0:0:
314,272,24518,38,0,L|188:256,1,112.500004291535,2|2,0:3|0:3,0:0:0:0:
124,341,25032,2,0,L|108:274,1,56.2500021457673,8|2,0:0|0:3,0:0:0:0:
40,218,25375,1,0,0:0:0:0:
126,184,25546,1,2,0:3:0:0:
126,184,25718,1,8,0:0:0:0:
126,184,25889,6,0,L|249:171,1,112.500004291535,2|2,0:3|0:3,0:0:0:0:
280,83,26404,2,0,P|309:105|314:129,1,56.2500021457673,8|2,0:0|0:3,0:0:0:0:
344,204,26746,1,0,0:0:0:0:
431,144,26918,2,0,P|444:104|432:79,1,56.2500021457673,2|8,0:3|0:0,0:0:0:0:
509,226,27261,38,0,P|446:235|395:284,1,112.500004291535,2|2,0:3|0:3,0:0:0:0:
335,319,27775,2,0,P|362:350|387:354,1,56.2500021457673,8|2,0:0|0:3,0:0:0:0:
470,331,28118,1,0,0:0:0:0:
407,266,28289,1,2,0:3:0:0:
407,266,28461,1,8,0:0:0:0:
407,266,28632,6,0,P|361:222|292:198,1,112.500004291535,2|2,0:3|0:3,0:0:0:0:
205,145,29146,2,0,L|225:214,1,56.2500021457673,8|2,0:0|0:3,0:0:0:0:
175,279,29489,1,0,0:0:0:0:
301,252,29661,38,0,B|318:233|318:233|315:190,1,56.2500021457673,2|8,0:3|0:0,0:0:0:0:
175,279,30004,2,0,B|208:283|208:283|250:378,1,112.500004291535,2|2,0:3|0:3,0:0:0:0:
108,351,30518,2,0,L|53:337,1,56.2500021457673,8|2,0:0|0:3,0:0:0:0:
0,262,30861,1,0,0:0:0:0:
46,182,31032,1,2,0:3:0:0:
46,182,31204,1,8,0:0:0:0:
46,182,31375,6,0,L|33:54,1,112.500004291535,2|2,0:3|0:3,0:0:0:0:
104,11,31889,2,0,P|123:44|121:65,1,56.2500021457673,8|2,0:0|0:3,0:0:0:0:
212,102,32232,2,0,P|188:126|161:132,1,56.2500021457673,2|2,0:3|0:3,0:0:0:0:
187,228,32575,2,0,P|150:217|127:205,1,56.2500021457673,8|0,0:0|0:0,0:0:0:0:
285,185,32918,38,0,L|406:169,1,101.249996910095,0|0,3:0|0:0,0:0:0:0:
385,171,33261,1,8,0:0:0:0:
456,261,33432,2,0,P|468:288|468:313,2,33.7499989700318
481,129,33775,1,2,3:3:0:0:
481,129,33946,1,8,0:0:0:0:
481,129,34118,6,0,P|471:206|450:280,1,134.999995880127,2|2,0:3|0:3,0:0:0:0:
371,299,34632,2,0,L|284:295,1,67.4999979400635,8|0,0:0|0:0,0:0:0:0:
303,295,34889,2,0,P|300:326|303:356,1,33.7499989700318,2|2,0:3|3:3,0:0:0:0:
257,139,35146,38,0,L|270:204,1,67.4999979400635,2|8,3:3|0:0,0:0:0:0:
398,99,35489,2,0,P|354:97|318:9,1,134.999995880127,2|2,0:3|0:3,0:0:0:0:
215,28,36004,2,0,P|168:40|155:64,1,67.4999979400635,8|2,0:0|3:3,0:0:0:0:
159,55,36261,1,2,0:3:0:0:
167,65,36346,2,0,L|153:147,1,67.4999979400635,0|2,3:0|0:3,0:0:0:0:
142,219,36689,1,8,0:0:0:0:
276,280,36861,6,0,B|194:267|233:327|119:312,1,134.999995880127,2|2,0:3|0:3,0:0:0:0:
60,270,37375,1,8,0:0:0:0:
142,219,37546,2,0,L|188:187,2,33.7499989700318,0|2|2,0:0|0:3|3:3,0:0:0:0:
68,105,37889,38,0,L|64:182,1,67.4999979400635,2|8,3:3|0:0,0:0:0:0:
160,334,38232,2,0,L|171:175,1,134.999995880127,2|2,0:3|0:3,0:0:0:0:
185,66,38746,2,0,P|230:67|264:115,1,101.249996910095,8|2,0:0|0:3,0:0:0:0:
261,125,39089,1,2,3:3:0:0:
347,229,39261,1,2,3:3:0:0:
452,183,39432,1,8,0:0:0:0:
467,200,39604,6,0,L|320:222,1,134.999995880127,2|2,0:3|0:3,0:0:0:0:
283,309,40118,2,0,B|309:327|309:327|373:312,1,67.4999979400635,8|0,0:0|0:0,0:0:0:0:
343,318,40375,1,2,0:3:0:0:
343,318,40461,1,2,3:3:0:0:
460,220,40632,38,0,P|441:265|430:312,1,67.4999979400635,2|8,3:3|0:0,0:0:0:0:
283,309,40975,2,0,P|275:204|262:146,1,134.999995880127,2|2,0:3|0:3,0:0:0:0:
357,80,41489,2,0,P|400:101|443:98,1,67.4999979400635,8|0,0:0|0:0,0:0:0:0:
242,65,41832,1,2,3:3:0:0:
242,65,42004,1,2,3:3:0:0:
242,65,42175,1,8,0:0:0:0:
129,108,42346,6,0,P|84:164|121:231,1,134.999995880127,2|2,0:3|0:3,0:0:0:0:
95,316,42861,38,0,L|164:289,3,44.999998626709,8|0|0|0,0:0|0:0|0:0|0:0,0:0:0:0:
217,242,43204,6,0,L|211:278,3,30
208,362,43546,38,0,L|189:347,3,15
332,319,43889,21,4,1:1:0:0:
304,125,44061,2,0,B|287:157|287:157|315:273,2,112.500004291535,2|10|2,0:1|0:3|0:3,0:0:0:0:
452,275,44575,2,0,L|369:253,1,56.2500021457673,2|0,0:1|0:0,0:0:0:0:
277,333,44746,2,0,L|360:311,1,56.2500021457673,0|0,1:1|0:0,0:0:0:0:
408,364,44918,1,8,0:3:0:0:
194,362,45089,6,0,P|201:286|242:257,1,112.500004291535,2|2,0:1|1:3,0:0:0:0:
277,333,45432,1,2,0:3:0:0:
163,176,45604,2,0,P|260:181|310:249,1,168.750006437302,10|0,0:1|0:0,0:0:0:0:
304,231,45946,1,0,3:0:0:0:
419,108,46118,38,0,B|430:167|430:167|386:214,1,112.500004291535,2|8,1:0|0:3,0:0:0:0:
298,146,46461,2,0,L|313:65,1,56.2500021457673,2|0,0:1|0:0,0:0:0:0:
325,13,46632,5,0,1:1:0:0:
122,101,46804,2,0,B|156:110|156:110|241:59,2,112.500004291535,2|10|2,0:1|0:3|0:3,0:0:0:0:
276,228,47318,2,0,L|197:206,1,56.2500021457673,2|0,0:1|0:0,0:0:0:0:
122,101,47489,2,0,L|128:176,1,56.2500021457673,0|0,1:1|0:0,0:0:0:0:
135,251,47661,1,8,0:3:0:0:
329,303,47832,38,0,P|388:290|446:291,1,112.500004291535,2|2,0:1|1:3,0:0:0:0:
476,203,48175,1,2,0:3:0:0:
392,375,48346,2,0,P|313:351|174:348,1,168.750006437302,10|0,0:1|0:0,0:0:0:0:
227,343,48689,1,0,3:0:0:0:
135,251,48861,6,0,P|127:336|166:357,1,112.500004291535,2|8,1:0|0:3,0:0:0:0:
310,302,49204,2,0,P|316:248|309:237,1,56.2500021457673,2|0,0:1|0:0,0:0:0:0:
226,209,49375,1,0,1:1:0:0:
105,130,49546,38,0,B|93:78|93:78|96:64|96:64|80:-7,2,112.500004291535,2|8|2,0:0|0:3|0:0,0:0:0:0:
197,38,50061,2,0,L|255:22,1,56.2500021457673,2|0,0:0|0:0,0:0:0:0:
261,110,50232,2,0,L|319:126,1,56.2500021457673,2|0,1:2|0:0,0:0:0:0:
394,58,50404,1,8,0:3:0:0:
394,58,50575,6,0,P|437:93|438:123,1,56.2500021457673,2|0,0:2|0:0,0:0:0:0:
385,226,50746,2,0,P|422:168|417:156,1,56.2500021457673,2|0,1:2|0:0,0:0:0:0:
512,83,50918,2,0,P|503:137|477:153,1,56.2500021457673,2|0,0:2|0:0,0:0:0:0:
467,270,51089,38,0,P|312:222|258:213,1,168.750006437302,8|0,0:3|0:0,0:0:0:0:
305,220,51432,1,2,3:2:0:0:
163,271,51604,2,0,P|148:348|188:365,1,112.500004291535,2|10,1:3|0:3,0:0:0:0:
284,312,51946,1,2,3:2:0:0:
141,185,52118,6,0,P|115:127|113:101,1,56.2500021457673,2|0,1:3|0:0,0:0:0:0:
214,133,52289,2,0,P|203:70|208:44,1,56.2500021457673,2|0,3:2|0:0,0:0:0:0:
296,109,52461,1,10,0:3:0:0:
462,230,52632,2,0,P|477:153|437:136,1,112.500004291535,2|0,3:2|3:0,0:0:0:0:
323,243,52975,1,2,1:2:0:0:
388,87,53146,2,0,P|314:83|292:124,1,112.500004291535,10|2,0:3|3:2,0:0:0:0:
315,241,53489,38,0,L|338:328,1,56.2500021457673,2|0,1:3|0:0,0:0:0:0:
223,228,53661,1,2,3:2:0:0:
340,301,53832,2,0,L|333:378,1,56.2500021457673,10|0,0:3|0:0,0:0:0:0:
213,219,54004,1,2,3:2:0:0:
264,379,54175,5,2,0:0:0:0:
227,363,54260,1,2,0:0:0:0:
191,351,54346,1,2,1:2:0:0:
155,342,54432,1,2,0:3:0:0:
118,336,54518,2,0,P|70:366|70:385,3,56.2500021457673,10|0|0|0,0:3|0:0|0:0|0:0,0:0:0:0:
23,279,54861,37,4,1:1:0:0:
57,67,55032,2,0,B|83:93|83:93|63:206,2,112.500004291535,2|10|2,0:1|0:3|0:3,0:0:0:0:
157,201,55546,2,0,L|138:257,1,56.2500021457673,2|0,0:1|0:0,0:0:0:0:
16,286,55718,2,0,L|-3:206,1,56.2500021457673,0|0,1:1|0:0,0:0:0:0:
70,167,55889,1,8,0:3:0:0:
228,310,56061,6,0,P|252:222|285:164,1,112.500004291535,2|2,0:1|1:3,0:0:0:0:
147,332,56404,1,2,0:3:0:0:
201,130,56575,2,0,P|299:118|353:222,1,225.000008583069,10|0,0:1|3:0,0:0:0:0:
425,342,57089,2,0,P|313:309|276:319,1,112.500004291535,2|8,1:0|0:3,0:0:0:0:
353,216,57432,2,0,P|285:227|267:244,1,56.2500021457673,2|0,0:1|0:0,0:0:0:0:
229,289,57604,1,0,1:1:0:0:
52,208,57775,38,0,B|101:214|101:214|109:219|109:219|162:227,2,112.500004291535,2|10|2,0:1|0:3|0:3,0:0:0:0:
154,51,58289,2,0,B|160:73|160:73|165:77|165:77|176:118,1,56.2500021457673,2|0,0:1|0:0,0:0:0:0:
323,94,58461,2,0,P|287:86|237:108,1,56.2500021457673,0|0,1:1|0:0,0:0:0:0:
230,170,58632,1,8,0:3:0:0:
184,360,58804,6,0,P|124:325|133:271,1,112.500004291535,2|2,0:1|1:3,0:0:0:0:
287,298,59146,1,2,0:3:0:0:
52,208,59318,2,0,P|116:256|224:281,1,168.750006437302,10|0,0:1|0:0,0:0:0:0:
200,280,59661,1,0,3:0:0:0:
328,384,59832,38,0,B|360:378|360:378|383:343,1,56.2500021457673,2|0,1:0|0:0,0:0:0:0:
350,232,60004,1,8,0:3:0:0:
440,305,60175,2,0,B|450:274|450:274|431:236,1,56.2500021457673,2|0,0:1|0:0,0:0:0:0:
345,220,60346,1,0,1:1:0:0:
251,121,60518,6,0,B|238:45|238:45|249:28,1,97.4999955368044,2|8,0:0|0:3,0:0:0:0:
233,241,60861,1,2,0:0:0:0:
141,89,61032,2,0,B|159:100|159:100|173:154,1,48.7499977684022,2|0,0:0|0:0,0:0:0:0:
238,229,61204,2,0,B|199:225|199:225|192:216|192:216|112:205,1,97.4999955368044,2|8,1:2|0:3,0:0:0:0:
63,164,61546,2,0,L|10:170,1,48.7499977684022,2|0,0:2|0:0,0:0:0:0:
134,350,61718,38,0,P|178:315|177:295,1,48.7499977684022,2|0,1:2|0:0,0:0:0:0:
243,218,61889,2,0,P|285:247|287:258,1,48.7499977684022,2|0,0:2|0:0,0:0:0:0:
316,316,62061,2,0,P|326:223|338:152,1,146.249993305207,8|0,0:3|0:0,0:0:0:0:
344,161,62404,5,2,3:2:0:0:
220,36,62575,2,0,P|245:92|307:75,1,97.4999955368044,2|10,1:3|0:3,0:0:0:0:
403,222,62918,2,0,P|446:188|478:191,1,48.7499977684022,2|0,3:2|0:0,0:0:0:0:
487,259,63089,38,0,P|444:293|412:290,1,48.7499977684022,2|0,1:3|0:0,0:0:0:0:
396,373,63261,2,0,P|355:324|287:344,1,97.4999955368044,2|10,3:2|0:3,0:0:0:0:
170,301,63604,2,0,P|132:321|125:321,1,48.7499977684022,2|0,3:2|0:0,0:0:0:0:
83,240,63775,6,0,P|131:228|139:148,1,97.4999955368044,0|2,3:0|1:2,0:0:0:0:
89,31,64118,2,0,P|111:76|111:83,1,48.7499977684022,10|0,0:3|0:0,0:0:0:0:
77,153,64289,1,2,3:2:0:0:
252,203,64461,38,0,L|323:185,1,48.7499977684022,2|0,0:3|0:0,0:0:0:0:
409,144,64632,2,0,L|338:126,1,48.7499977684022,2|0,1:2|0:0,0:0:0:0:
267,286,64804,6,0,L|338:268,1,48.7499977684022,10|0,0:3|0:0,0:0:0:0:
422,229,64975,2,0,L|351:211,1,48.7499977684022,2|0,3:2|0:0,0:0:0:0:
327,358,65146,37,2,0:0:0:0:
336,353,65231,1,2,0:0:0:0:
346,350,65317,1,2,1:2:0:0:
357,348,65403,1,2,0:3:0:0:
375,349,65489,5,10,0:3:0:0:
397,377,65574,1,0,0:0:0:0:
432,378,65660,1,0,0:3:0:0:
456,351,65746,1,2,0:3:0:0:
451,316,65831,1,4,1:3:0:0:
449,305,68061,37,0,1:0:0:0:
297,327,68232,1,8,0:3:0:0:
438,297,68404,1,0,3:0:0:0:
365,143,68575,6,0,B|318:120|318:120|346:235,1,168.750006437302,0|0,1:0|0:0,0:0:0:0:
350,246,68918,1,8,0:3:0:0:
240,188,69089,2,0,B|236:217|236:217|256:239,2,56.2500021457673,0|0|0,3:3|0:0|3:0,0:0:0:0:
299,93,69432,38,0,L|308:22,1,56.2500021457673,0|0,1:0|0:0,0:0:0:0:
233,5,69604,1,8,0:3:0:0:
377,136,69775,2,0,L|386:65,1,56.2500021457673,0|0,3:0|0:0,0:0:0:0:
180,125,69946,6,0,P|268:98|336:90,1,112.500004291535,0|0,1:0|3:0,0:0:0:0:
470,246,70289,2,0,P|387:222|332:217,1,112.500004291535,8|0,0:3|3:0,0:0:0:0:
347,224,70546,1,0,0:0:0:0:
336,233,70632,1,0,3:0:0:0:
235,354,70804,37,0,1:0:0:0:
139,338,70975,1,8,0:3:0:0:
106,243,71146,1,0,3:0:0:0:
277,141,71318,6,0,B|250:162|250:162|128:108,1,112.500004291535,0|0,1:0|3:0,0:0:0:0:
32,30,71661,2,0,P|71:128|107:247,1,225.000008583069,8|0,0:3|3:0,0:0:0:0:
322,289,72175,38,0,P|237:282|230:292,1,56.2500021457673,0|0,1:0|0:0,0:0:0:0:
191,241,72346,1,8,0:3:0:0:
323,184,72518,2,0,P|248:196|241:206,1,56.2500021457673,0|0,3:0|0:0,0:0:0:0:
261,345,72689,6,0,P|172:346|112:354,1,112.500004291535,0|0,1:0|3:0,0:0:0:0:
14,235,73032,2,0,P|5:300|80:324,1,112.500004291535,8|0,0:3|3:0,0:0:0:0:
49,325,73289,1,0,0:0:0:0:
62,320,73375,1,0,3:0:0:0:
175,180,73546,37,0,1:0:0:0:
51,151,73718,1,8,0:3:0:0:
163,176,73889,1,0,3:0:0:0:
256,338,74061,6,0,B|299:351|299:351|425:304,1,168.750006437302,0|0,1:0|0:0,0:0:0:0:
428,303,74404,1,8,0:3:0:0:
317,225,74575,2,0,B|292:234|292:234|294:287,2,56.2500021457673,0|0|0,3:0|0:0|3:0,0:0:0:0:
450,104,74918,38,0,P|480:163|478:179,1,56.2500021457673,0|0,1:0|0:0,0:0:0:0:
469,229,75089,1,8,0:3:0:0:
330,141,75261,2,0,P|387:167|398:188,1,56.2500021457673,0|0,3:0|0:0,0:0:0:0:
392,274,75432,6,0,P|377:334|374:385,1,112.500004291535,0|0,1:0|3:0,0:0:0:0:
186,348,75775,2,0,P|205:283|213:220,1,112.500004291535,8|0,0:3|3:0,0:0:0:0:
206,226,76032,1,0,0:0:0:0:
198,217,76118,1,0,3:0:0:0:
327,132,76289,37,0,1:0:0:0:
309,226,76461,1,8,0:3:0:0:
291,315,76632,1,0,3:0:0:0:
486,260,76804,6,0,P|451:213|387:268,1,112.500004291535,0|0,1:0|3:0,0:0:0:0:
218,132,77146,2,0,P|383:112|461:102,1,225.000008583069,8|0,0:3|3:0,0:0:0:0:
299,22,77661,38,0,P|322:106|324:120,1,56.2500021457673,0|0,1:0|0:0,0:0:0:0:
335,156,77832,1,8,0:3:0:0:
227,76,78004,2,0,P|223:103|217:131,1,56.2500021457673,0|0,3:0|0:0,0:0:0:0:
232,263,78175,6,0,B|176:281|176:281|132:219,1,112.500004291535,0|0,1:0|3:0,0:0:0:0:
348,357,78518,2,0,P|374:269|390:222,1,112.500004291535,8|0,0:3|3:0,0:0:0:0:
390,242,78775,1,0,0:0:0:0:
399,235,78861,1,0,3:0:0:0:
251,354,79032,37,0,1:0:0:0:
227,257,79204,1,8,0:3:0:0:
257,364,79375,1,0,3:0:0:0:
306,174,79546,6,0,B|293:128|294:40|423:67|368:125,1,168.750006437302,0|0,1:0|0:0,0:0:0:0:
375,112,79889,1,8,0:3:0:0:
213,162,80061,2,0,P|150:144|124:146,2,56.2500021457673,0|0|0,3:0|0:0|3:0,0:0:0:0:
445,48,80404,38,0,P|450:115|444:120,1,56.2500021457673,0|0,1:0|0:0,0:0:0:0:
431,186,80575,1,8,0:3:0:0:
333,77,80746,2,0,P|384:131|386:140,1,56.2500021457673,0|0,3:0|0:0,0:0:0:0:
436,273,80918,6,0,P|427:341|423:399,1,112.500004291535,0|0,1:0|3:0,0:0:0:0:
227,274,81261,2,0,B|262:231|262:231|343:257,1,112.500004291535,8|0,0:3|3:0,0:0:0:0:
322,256,81518,1,0,0:0:0:0:
327,265,81604,1,0,3:0:0:0:
150,376,81775,37,0,1:0:0:0:
134,290,81946,1,8,0:3:0:0:
111,209,82118,1,0,3:0:0:0:
178,59,82289,6,0,P|250:59|257:113,1,112.500004291535,0|0,1:0|3:0,0:0:0:0:
13,214,82632,2,0,P|188:173|272:161,1,225.000008583069,8|0,0:3|3:0,0:0:0:0:
424,255,83146,38,0,P|343:237|337:237,1,56.2500021457673,0|0,1:0|0:0,0:0:0:0:
329,165,83318,1,8,0:3:0:0:
468,121,83489,2,0,P|402:129|387:129,1,56.2500021457673,0|0,3:0|0:0,0:0:0:0:
233,167,83661,6,0,B|207:192|207:192|243:276,1,112.500004291535,0|0,1:0|3:0,0:0:0:0:
424,255,84004,2,0,P|400:344|391:384,1,112.500004291535,8|0,0:3|3:0,0:0:0:0:
400,374,84261,1,0,0:0:0:0:
404,383,84346,1,0,3:0:0:0:
215,354,84518,37,0,1:0:0:0:
99,374,84689,1,8,0:3:0:0:
222,344,84861,1,0,3:0:0:0:
52,222,85032,6,0,B|53:208|41:190|41:190|128:176|136:268,1,168.750006437302,0|0,1:0|0:0,0:0:0:0:
131,272,85375,1,8,0:3:0:0:
286,283,85546,2,0,P|295:233|291:216,2,56.2500021457673,0|0|0,3:0|0:0|3:0,0:0:0:0:
169,105,85889,38,0,P|224:160|237:161,1,56.2500021457673,0|0,1:0|0:0,0:0:0:0:
285,141,86061,1,8,0:3:0:0:
398,70,86232,2,0,P|334:99|326:110,1,56.2500021457673,0|0,3:0|0:0,0:0:0:0:
299,231,86404,6,0,P|340:226|433:220,1,93.75,0|0,1:0|3:0,0:0:0:0:
220,335,86746,2,0,P|123:321|116:321,1,75,0|0,3:3|0:0,0:0:0:0:
134,314,87004,1,0,3:0:0:0:
124,304,87089,2,0,L|111:253,2,37.5,0|0|0,0:0|3:0|0:0,0:0:0:0:
341,347,87432,38,2,B|392:342|403:268|361:288|390:220|390:220|346:277|342:229|285:280|303:323,1,300,0|4,3:0|1:3,0:0:0:0:
260,192,98746,22,0,P|270:255|271:266,2,56.2500021457673,2|0|0,3:2|0:0|3:0,0:0:0:0:
191,136,99261,1,0,0:0:0:0:
361,121,99432,2,0,P|342:185|334:221,1,75,2|0,3:2|0:0,0:0:0:0:
345,199,99689,1,0,0:0:0:0:
350,206,99775,2,0,P|399:215|416:178,1,75,0|0,3:0|0:0,0:0:0:0:
264,252,100118,6,0,P|105:281|83:287,1,150,2|0,3:2|3:0,0:0:0:0:
48,340,100632,1,0,0:0:0:0:
110,272,100804,2,0,P|118:234|111:201,2,56.2500021457673,2|0|0,3:2|0:0|3:0,0:0:0:0:
390,360,101489,37,2,3:2:0:0:
404,276,101661,1,0,0:0:0:0:
416,195,101832,1,0,3:0:0:0:
400,359,102175,5,2,3:2:0:0:
405,194,102518,2,0,P|395:152|388:121,1,56.2500021457673,0|0,3:0|0:0,0:0:0:0:
259,307,102861,2,0,P|363:278|437:273,1,150,2|0,3:2|3:0,0:0:0:0:
485,314,103375,1,0,0:0:0:0:
408,267,103546,2,0,P|414:226|423:196,1,56.2500021457673,2|0,3:2|0:0,0:0:0:0:
267,311,103889,2,0,P|244:208|233:172,1,112.5,0|0,3:0|0:0,0:0:0:0:
232,196,104232,38,0,P|188:196|166:231,1,75,2|0,3:2|0:0,0:0:0:0:
120,299,104575,2,0,P|81:297|59:269,1,56.2500021457673,0|0,3:0|0:0,0:0:0:0:
0,107,104918,2,0,P|84:85|97:84,1,75,2|0,3:2|0:0,0:0:0:0:
81,90,105175,1,0,0:0:0:0:
90,95,105261,2,0,P|117:142|104:168,1,75,0|0,3:0|0:0,0:0:0:0:
251,275,105604,6,0,P|308:257|309:172,1,150,2|0,3:2|3:0,0:0:0:0:
238,122,106118,1,0,0:0:0:0:
163,232,106289,2,0,P|167:256|171:293,2,56.2500021457673,2|0|0,3:2|0:0|3:0,0:0:0:0:
355,41,106975,37,2,3:2:0:0:
440,58,107146,1,0,0:0:0:0:
271,26,107318,1,0,3:0:0:0:
354,48,107489,1,0,0:0:0:0:
418,214,107661,2,0,P|400:153|395:135,1,75,2|0,3:2|0:0,0:0:0:0:
389,135,107918,1,0,0:0:0:0:
380,131,108004,2,0,P|333:138|323:166,1,75,0|0,3:0|0:0,0:0:0:0:
420,307,108346,5,2,3:2:0:0:
354,264,108518,1,0,0:0:0:0:
263,259,108689,1,0,3:0:0:0:
174,324,108861,1,0,0:0:0:0:
72,343,109032,2,0,P|44:310|46:252,1,75,2|0,3:2|0:0,0:0:0:0:
255,128,109375,38,0,L|250:155,1,28.125,0|0,3:0|0:0,0:0:0:0:
249,155,109718,22,0,B|172:139|217:189|132:170,1,112.500004291535,2|0,1:2|0:0,0:0:0:0:
48,69,110061,2,0,P|40:22|33:-4,2,56.2500021457673,8|0|0,0:0|0:0|0:0,0:0:0:0:
119,249,110404,1,0,0:0:0:0:
158,33,110575,2,0,P|151:91|142:108,1,56.2500021457673,2|0,0:2|0:0,0:0:0:0:
139,168,110746,1,8,0:0:0:0:
275,76,110918,2,0,P|253:130|240:144,1,56.2500021457673,2|0,0:0|0:0,0:0:0:0:
139,168,111089,6,0,P|232:212|266:330,1,225.000008583069,0|8,1:2|0:0,0:0:0:0:
193,368,111604,1,0,0:0:0:0:
349,290,111775,1,0,0:0:0:0:
193,368,111946,2,0,P|154:335|158:299,1,56.2500021457673,2|0,0:0|1:2,0:0:0:0:
72,330,112118,2,0,P|79:291|104:281,1,37.5,10|0,0:0|0:0,0:0:0:0:
34,228,112289,2,0,P|62:218|78:230,1,28.1250010728836,2|0,0:0|0:0,0:0:0:0:
252,215,112461,38,0,B|182:216|216:252|133:255,1,112.500004291535,2|0,1:2|0:0,0:0:0:0:
70,93,112804,1,8,0:0:0:0:
135,173,112975,1,0,3:0:0:0:
137,159,113060,1,0,3:0:0:0:
140,145,113146,1,0,0:0:0:0:
257,220,113318,6,0,P|341:208|359:204,1,56.2500021457673,2|0,0:2|0:0,0:0:0:0:
380,138,113489,1,8,0:0:0:0:
227,129,113661,2,0,P|312:131|330:131,1,56.2500021457673,2|0,0:0|0:0,0:0:0:0:
427,212,113832,38,0,P|407:323|401:383,1,168.750006437302,0|0,1:2|0:0,0:0:0:0:
410,381,114175,2,0,P|468:354|446:308,1,112.500004291535,8|0,0:0|0:0,0:0:0:0:
282,371,114518,1,0,3:0:0:0:
261,334,114603,1,0,3:0:0:0:
226,312,114689,1,0,3:0:0:0:
184,310,114775,1,0,1:2:0:0:
143,338,114861,6,2,B|179:286|143:229|119:253|69:201|127:132,1,225,8|0,0:0|0:0,0:0:0:0:
131,142,115204,38,0,P|60:166|2:192,1,112.500004291535,2|0,1:2|0:0,0:0:0:0:
19,34,115546,2,0,P|35:96|35:107,2,56.2500021457673,8|0|0,0:0|0:0|0:0,0:0:0:0:
213,190,115889,1,0,0:0:0:0:
147,4,116061,2,0,P|138:80|133:100,1,56.2500021457673,2|0,0:2|0:0,0:0:0:0:
131,142,116232,1,8,0:0:0:0:
271,59,116404,2,0,P|236:124|227:137,1,56.2500021457673,2|0,0:0|0:0,0:0:0:0:
131,142,116575,6,0,P|139:232|143:324,1,168.750006437302,0|0,1:2|0:0,0:0:0:0:
136,316,116918,1,8,0:0:0:0:
63,270,117089,1,0,0:0:0:0:
210,360,117261,1,0,0:0:0:0:
378,334,117432,38,0,P|399:286|420:256,1,56.2500021457673,2|0,0:0|1:2,0:0:0:0:
495,222,117604,2,0,P|457:226|431:223,1,37.5,10|0,0:0|0:0,0:0:0:0:
362,183,117775,2,0,P|379:206|388:225,1,28.1250010728836,2|0,0:0|0:0,0:0:0:0:
383,341,117946,6,0,B|317:352|345:304|269:312,1,112.500004291535,2|0,1:2|0:0,0:0:0:0:
179,194,118289,1,8,0:0:0:0:
182,209,118375,1,0,3:0:0:0:
198,212,118461,1,0,3:0:0:0:
243,136,118632,1,0,0:0:0:0:
195,298,118804,38,0,P|113:320|95:315,1,56.2500021457673,2|0,0:2|0:0,0:0:0:0:
28,255,118975,1,8,0:0:0:0:
79,370,119146,2,0,P|47:341|43:323,1,37.5,2|0,0:0|0:0,0:0:0:0:
35,255,119318,6,0,P|45:127|47:97,1,140.625,0|0,1:2|0:0,0:0:0:0:
47,107,119661,2,0,B|38:92|21:82|21:82|49:83|50:110,1,75,8|0,0:0|0:0,0:0:0:0:
128,182,119832,2,0,B|136:167|136:147|136:147|149:172|126:186,1,75,2|0,0:3|0:0,0:0:0:0:
188,279,120004,37,2,0:1:0:0:
216,312,120089,1,2,0:1:0:0:
257,325,120175,1,2,0:1:0:0:
299,323,120261,1,0,1:2:0:0:
329,302,120346,1,10,0:1:0:0:
346,278,120432,1,2,0:1:0:0:
351,259,120518,1,2,0:1:0:0:
351,243,120604,1,2,0:1:0:0:
258,214,120861,6,0,P|237:129|229:109,1,56.2500021457673,2|0,0:0|0:0,0:0:0:0:
191,84,121032,1,8,0:0:0:0:
191,84,121118,1,0,3:0:0:0:
191,84,121204,1,0,3:0:0:0:
342,157,121375,1,0,0:0:0:0:
172,227,121546,2,0,P|167:199|159:169,1,56.2500021457673,2|0,0:2|0:0,0:0:0:0:
175,0,121718,1,8,0:0:0:0:
258,214,121889,2,0,P|237:129|229:109,1,56.2500021457673,2|0,0:0|0:0,0:0:0:0:
191,84,122061,38,0,P|114:82|66:210,1,225.000008583069,0|8,1:2|0:0,0:0:0:0:
97,279,122575,1,0,0:0:0:0:
26,132,122746,1,0,0:0:0:0:
67,205,122918,2,0,P|122:184|136:183,1,56.2500021457673,2|0,0:0|1:2,0:0:0:0:
225,311,123089,6,0,P|230:348|233:368,2,32.8125003129244,10|2|0,0:3|0:3|0:3,0:0:0:0:
211,230,123261,2,0,P|206:193|203:173,2,32.8125003129244,2|2|0,0:3|0:3|0:3,0:0:0:0:
311,346,123432,38,0,B|382:359|343:313|435:329,1,112.500004291535,2|0,1:2|0:0,0:0:0:0:
509,183,123775,1,8,0:0:0:0:
417,333,123946,2,0,P|386:302|393:280,1,56.2500021457673
490,274,124118,1,0,0:0:0:0:
468,96,124289,2,0,P|430:122|431:153,1,56.2500021457673,2|0,0:2|0:0,0:0:0:0:
494,281,124461,1,8,0:0:0:0:
337,157,124632,2,0,P|356:190|368:196,1,37.5,2|0,0:0|0:0,0:0:0:0:
434,213,124804,5,0,1:2:0:0:
256,288,124975,1,0,0:0:0:0:
248,275,125146,1,8,0:0:0:0:
262,275,125318,1,0,0:0:0:0:
401,384,125489,37,0,1:0:0:0:
365,277,125661,1,0,1:0:0:0:
364,292,125746,1,0,1:2:0:0:
352,285,125832,1,10,0:1:0:0:
303,365,126175,6,0,P|160:322|95:308,1,168.750006437302,2|0,1:2|0:0,0:0:0:0:
129,322,126518,2,0,P|124:375|160:389,2,56.2500021457673,8|0|0,0:0|0:0|0:0,0:0:0:0:
313,201,126861,37,0,0:0:0:0:
228,259,127032,1,2,0:2:0:0:
217,249,127117,1,0,0:0:0:0:
208,238,127203,1,8,0:0:0:0:
241,112,127375,2,0,P|232:148|228:179,1,37.5,2|0,0:0|0:0,0:0:0:0:
313,305,127546,6,0,P|411:253|397:144,1,225.000008583069,0|8,1:2|0:0,0:0:0:0:
349,81,128061,1,0,0:0:0:0:
458,235,128232,38,0,P|492:166|508:143,1,56.2500021457673,2|0,0:3|0:0,0:0:0:0:
341,73,128489,6,0,P|319:1|313:-9,1,56.2500021457673,2|10,1:3|0:0,0:0:0:0:
449,59,128746,37,2,0:0:0:0:
449,59,128918,2,0,B|379:25|347:86|356:96|316:149|232:106,1,225.000008583069,2|8,1:2|0:0,0:0:0:0:
243,106,129346,1,0,3:0:0:0:
238,96,129432,1,0,3:0:0:0:
281,208,129604,5,0,0:0:0:0:
235,207,129689,1,2,0:3:0:0:
210,244,129775,1,2,0:2:0:0:
209,200,129861,1,2,0:3:0:0:
169,174,129946,1,8,0:0:0:0:
79,221,130118,1,2,0:0:0:0:
284,301,130289,38,0,P|385:280|435:277,1,112.500004291535,0|0,1:2|0:0,0:0:0:0:
131,351,130632,2,0,P|55:316|72:279,1,112.500004291535,8|2,0:0|0:3,0:0:0:0:
43,298,130889,2,0,P|42:224|97:209,1,112.500004291535,8|2,0:3|0:3,0:0:0:0:
79,221,131146,2,0,P|118:249|144:259,1,56.2500021457673,8|2,0:3|1:3,0:0:0:0:
197,293,131318,5,8,0:0:0:0:
204,131,131489,2,0,B|205:115|220:101|220:101|181:105|187:155,1,93.75,2|0,0:0|0:0,0:0:0:0:
236,215,131661,38,0,P|284:196|361:176,1,93.75,0|2,1:2|0:3,0:0:0:0:
297,30,132004,2,0,P|337:74|321:116,1,93.75,8|0,0:0|3:0,0:0:0:0:
398,280,132346,2,0,B|385:231|440:236|413:167,1,93.75,2|0,0:3|3:0,0:0:0:0:
414,182,132604,1,0,3:0:0:0:
405,177,132689,2,0,P|407:218|415:227,1,46.875,10|0,0:3|0:0,0:0:0:0:
490,272,132861,1,2,0:0:0:0:
372,364,133032,6,0,P|256:339|162:326,1,187.5,0|10,1:2|0:3,0:0:0:0:
96,356,133546,1,0,3:0:0:0:
14,299,133718,1,0,3:0:0:0:
10,276,133803,1,0,3:0:0:0:
8,254,133889,1,2,0:0:0:0:
29,252,133975,1,0,1:2:0:0:
53,251,134060,1,8,0:0:0:0:
187,328,134232,38,0,B|218:335|233:308|218:306|233:274|272:282,2,93.75,2|0|2,0:0|1:2|0:3,0:0:0:0:
190,147,134746,6,0,P|210:190|202:218,1,46.875,8|0,0:0|0:0,0:0:0:0:
143,246,134918,1,0,3:0:0:0:
248,374,135089,2,0,P|258:283|267:249,1,93.75,2|0,0:3|3:0,0:0:0:0:
268,274,135346,1,0,3:0:0:0:
280,270,135432,2,0,P|311:289|340:306,1,46.875,10|0,0:3|0:0,0:0:0:0:
388,341,135604,1,2,0:0:0:0:
338,166,135775,37,0,1:2:0:0:
439,155,135946,1,2,0:3:0:0:
471,82,136118,1,10,0:3:0:0:
453,57,136289,1,0,3:0:0:0:
338,166,136461,5,0,3:0:0:0:
439,155,136632,1,2,0:0:0:0:
439,155,136718,1,0,1:2:0:0:
439,155,136804,1,10,0:1:0:0:
453,57,136975,38,0,P|417:68|341:80,2,112.500004291535,2|0|2,0:0|1:2|0:3,0:0:0:0:
509,200,137489,2,0,P|487:264|476:270,1,56.2500021457673,8|0,0:3|0:0,0:0:0:0:
422,276,137661,1,0,3:0:0:0:
439,155,137832,2,0,P|360:192|355:235,1,112.500004291535,2|0,0:3|3:0,0:0:0:0:
341,215,138089,1,0,3:0:0:0:
330,223,138175,2,0,P|340:285|343:298,1,56.2500021457673,10|0,0:3|0:0,0:0:0:0:
374,358,138346,1,2,0:0:0:0:
200,242,138518,6,0,P|339:270|434:276,1,225.000008583069,0|10,1:2|0:3,0:0:0:0:
498,252,139032,1,0,3:0:0:0:
469,139,139204,1,0,3:0:0:0:
449,134,139289,1,0,3:0:0:0:
430,130,139375,1,2,0:0:0:0:
419,147,139460,1,0,1:2:0:0:
411,165,139546,1,8,0:0:0:0:
272,76,139718,38,0,B|222:103|222:103|254:171,2,112.500004291535,2|0|2,0:0|1:2|0:3,0:0:0:0:
327,140,140232,2,0,L|333:214,1,56.2500021457673,8|0,0:0|0:0,0:0:0:0:
341,276,140404,1,0,3:0:0:0:
185,352,140575,2,0,P|118:305|145:266,1,112.500004291535,2|0,0:3|3:0,0:0:0:0:
118,280,140832,1,0,3:0:0:0:
116,267,140918,2,0,P|168:251|193:270,1,56.2500021457673,10|0,0:3|0:0,0:0:0:0:
253,265,141089,1,2,0:0:0:0:
82,355,141261,6,0,P|98:179|94:152,1,168.750006437302,0|0,1:2|0:0,0:0:0:0:
92,178,141604,2,2,P|76:177|90:180,1,56.2500021457673,10|0,0:3|0:0,0:0:0:0:
178,123,141775,2,2,P|167:111|175:123,1,56.2500021457673,2|0,3:0|0:0,0:0:0:0:
225,31,141946,37,2,0:1:0:0:
265,51,142031,1,2,0:1:0:0:
287,75,142117,1,2,0:1:0:0:
299,104,142203,1,0,1:2:0:0:
296,130,142288,1,10,0:1:0:0:
285,147,142375,1,2,0:1:0:0:
275,151,142461,1,2,0:1:0:0:
266,152,142546,1,2,0:1:0:0:
158,241,142804,6,0,P|175:151|178:111,2,120,2|8|0,0:2|0:0|3:0,0:0:0:0:
60,361,143318,2,0,P|35:256|19:208,1,120,2|0,0:3|3:0,0:0:0:0:
21,240,143575,1,0,3:0:0:0:
11,237,143661,2,0,P|41:307|60:306,1,60,10|0,0:3|0:0,0:0:0:0:
141,331,143832,1,2,0:0:0:0:
91,178,144004,38,0,B|148:152|188:201|163:224|193:276|257:260,1,180,0|0,1:2|0:0,0:0:0:0:
242,257,144346,1,10,0:3:0:0:
271,170,144518,1,0,3:0:0:0:
301,322,144689,1,0,3:0:0:0:
321,300,144774,1,0,3:0:0:0:
346,283,144860,1,2,0:0:0:0:
374,273,144946,1,0,1:2:0:0:
404,268,145032,6,0,P|447:295|448:297,2,30,10|0|0,0:3|0:0|0:0,0:0:0:0:
453,169,145204,2,0,P|451:219|449:221,2,30,2|0|0,0:3|0:0|0:0,0:0:0:0:
512,264,145375,38,0,P|465:315|451:367,1,120,0|2,1:2|0:3,0:0:0:0:
297,246,145718,2,0,P|320:293|321:304,1,60,8|0,0:0|0:0,0:0:0:0:
367,372,145889,1,0,3:0:0:0:
414,205,146061,2,0,P|443:97|451:67,1,120,2|0,0:3|3:0,0:0:0:0:
451,77,146318,1,0,3:0:0:0:
457,66,146404,2,0,L|391:82,1,60,10|0,0:3|0:0,0:0:0:0:
330,151,146575,6,0,B|261:155|304:112|215:117,2,120,2|0|2,0:0|1:2|0:3,0:0:0:0:
360,12,147089,1,10,0:3:0:0:
296,76,147261,1,0,3:0:0:0:
330,151,147432,37,0,3:0:0:0:
360,12,147604,1,2,0:0:0:0:
360,12,147689,1,0,1:2:0:0:
360,12,147775,1,10,0:1:0:0:
220,116,147946,6,0,P|167:93|178:24,2,123.750001180172,2|0|2,0:0|1:2|0:3,0:0:0:0:
265,220,148461,2,0,P|303:250|294:281,1,61.875000590086,8|0,0:0|0:0,0:0:0:0:
227,296,148632,1,0,3:0:0:0:
330,151,148804,2,0,P|389:189|379:261,1,123.750001180172,2|0,0:3|3:0,0:0:0:0:
395,250,149061,1,0,3:0:0:0:
399,261,149146,2,0,L|383:334,1,61.875000590086,10|0,0:3|0:0,0:0:0:0:
322,370,149318,1,2,0:0:0:0:
146,326,149489,38,0,B|121:260|177:201|198:240|261:183|225:113,1,247.500002360344,0|10,1:2|0:3,0:0:0:0:
176,45,150004,1,0,3:0:0:0:
67,126,150175,1,0,3:0:0:0:
80,145,150260,1,0,3:0:0:0:
95,163,150346,1,2,0:0:0:0:
118,156,150431,1,0,1:2:0:0:
139,145,150517,1,8,0:0:0:0:
238,287,150689,6,0,P|318:259|374:247,2,123.750001180172,2|0|2,0:0|1:2|0:3,0:0:0:0:
90,378,151204,2,0,P|42:347|45:322,1,61.875000590086,8|0,0:0|0:0,0:0:0:0:
29,263,151375,1,0,3:0:0:0:
178,362,151546,2,0,P|291:381|317:389,1,123.750001180172,2|0,0:3|3:0,0:0:0:0:
311,374,151804,1,0,3:0:0:0:
322,365,151889,2,0,P|374:347|397:333,1,61.875000590086,10|0,0:3|0:0,0:0:0:0:
434,278,152061,1,2,0:0:0:0:
322,114,152232,38,0,P|284:168|356:250,1,191.250003647804,0|0,1:2|0:0,0:0:0:0:
361,238,152575,2,2,B|365:219|381:211|381:212|357:207|358:243,1,63.7500012159348,10|0,0:3|0:0,0:0:0:0:
434,278,152746,2,2,B|465:294|449:313|450:313|451:295|436:283,1,63.7500012159348,0|0,3:0|0:0,0:0:0:0:
459,163,152918,5,2,0:3:0:0:
487,130,153004,1,2,0:3:0:0:
467,108,153089,1,2,0:3:0:0:
481,95,153175,1,0,1:3:0:0:
475,78,153261,1,10,0:3:0:0:
485,69,153346,1,2,0:3:0:0:
482,62,153432,1,2,0:3:0:0:
487,54,153518,1,2,0:3:0:0:
489,45,153604,5,0,0:0:0:0:
