osu file format v14

[General]
AudioFilename: audio.mp3
AudioLeadIn: 0
PreviewTime: 43809
Countdown: 0
SampleSet: Soft
StackLeniency: 0.4
Mode: 0
LetterboxInBreaks: 0
WidescreenStoryboard: 0

[Editor]
Bookmarks: 43899,87785
DistanceSpacing: 1
BeatDivisor: 4
GridSize: 4
TimelineZoom: 7.199996

[Metadata]
Title:Paper Planes (Cut Ver.)
TitleUnicode:Paper Planes (Cut Ver.)
Artist:Virtual Riot
ArtistUnicode:Virtual Riot
Creator:Fursum
Version:Flight
Source:
Tags:electronic instrumental liquid dnb drum and bass garvanturr cyberia950
BeatmapID:2475310
BeatmapSetID:1187781

[Difficulty]
HPDrainRate:6
CircleSize:4
OverallDifficulty:8
ApproachRate:9
SliderMultiplier:2
SliderTickRate:1

[Events]
//Background and Video events
0,0,"paper (1).jpg",0,0
//Break Periods
//Storyboard Layer 0 (Background)
//Storyboard Layer 1 (Fail)
//Storyboard Layer 2 (Pass)
//Storyboard Layer 3 (Foreground)
//Storyboard Layer 4 (Overlay)
//Storyboard Sound Samples

[TimingPoints]
4,342.857142857143,4,2,1,50,1,0
21946,-133.333333333333,4,2,1,50,0,0
27261,-117.647058823529,4,2,1,50,0,0
28632,-100,4,2,1,50,0,0
29146,-111.111111111111,4,2,1,50,0,0
32918,-125,4,2,1,60,0,0
36861,-117.647058823529,4,2,1,60,0,0
38232,-105.263157894737,4,2,1,60,0,0
40975,-100,4,2,1,60,0,0
42346,-90.9090909090909,4,2,1,60,0,0
42861,-83.3333333333333,4,2,1,70,0,0
43204,-125,4,2,1,50,0,0
43546,-250,4,2,1,35,0,0
43889,-133.333333333333,4,2,2,75,0,0
44061,-50,4,2,2,75,0,0
44746,-133.333333333333,4,2,2,75,0,0
45089,-50,4,2,2,75,0,0
45261,-100,4,2,2,75,0,0
45604,-57.1428571428571,4,2,2,75,0,0
46118,-66.6666666666667,4,2,2,75,0,0
46461,-100,4,2,2,75,0,0
46804,-50,4,2,2,75,0,0
47489,-133.333333333333,4,2,2,75,0,0
47832,-50,4,2,2,75,0,0
48004,-100,4,2,2,75,0,0
48346,-57.1428571428571,4,2,2,75,0,0
48861,-66.6666666666667,4,2,2,75,0,0
49204,-100,4,2,2,75,0,0
49546,-66.6666666666667,4,2,2,75,0,0
50232,-55.5555555555556,4,2,2,75,0,0
50746,-44.4444444444445,4,2,2,75,0,0
51089,-100,4,2,2,75,0,0
51946,-66.6666666666667,4,2,2,75,0,0
52461,-100,4,2,2,75,0,0
52804,-66.6666666666667,4,2,2,75,0,0
53146,-100,4,2,2,75,0,0
53489,-133.333333333333,4,2,2,75,0,0
53661,-80,4,2,2,75,0,0
53832,-62.5,4,2,2,75,0,0
54004,-50,4,2,2,75,0,0
54861,-133.333333333333,4,2,2,75,0,0
55032,-50,4,2,2,75,0,0
55718,-133.333333333333,4,2,2,75,0,0
56061,-50,4,2,2,75,0,0
56232,-100,4,2,2,75,0,0
56575,-57.1428571428571,4,2,2,75,0,0
57089,-66.6666666666667,4,2,2,75,0,0
57432,-100,4,2,2,75,0,0
57775,-50,4,2,2,75,0,0
58461,-133.333333333333,4,2,2,75,0,0
58804,-50,4,2,2,75,0,0
58975,-100,4,2,2,75,0,0
59318,-57.1428571428571,4,2,2,75,0,0
59832,-66.6666666666667,4,2,2,75,0,0
60175,-100,4,2,2,75,0,0
60518,-66.6666666666667,4,2,2,75,0,0
61204,-55.5555555555556,4,2,2,75,0,0
61718,-44.4444444444445,4,2,2,75,0,0
62061,-100,4,2,2,75,0,0
62918,-66.6666666666667,4,2,2,75,0,0
63432,-100,4,2,2,75,0,0
63775,-66.6666666666667,4,2,2,75,0,0
64118,-100,4,2,2,75,0,0
64461,-133.333333333333,4,2,2,75,0,0
64632,-80,4,2,2,75,0,0
64804,-62.5,4,2,2,75,0,0
64975,-80,4,2,2,75,0,0
65832,-80,4,2,2,50,0,0
68061,-80,4,2,2,65,0,0
68575,-66.6666666666667,4,2,2,75,0,0
69432,-100,4,2,2,75,0,0
70289,-66.6666666666667,4,2,2,75,0,0
72175,-100,4,2,2,75,0,0
73032,-66.6666666666667,4,2,2,75,0,0
75775,-55.5555555555556,4,2,2,75,0,0
76804,-80,4,2,2,75,0,0
77661,-100,4,2,2,75,0,0
78518,-66.6666666666667,4,2,2,75,0,0
80404,-100,4,2,2,75,0,0
81261,-66.6666666666667,4,2,2,75,0,0
83146,-80,4,2,2,75,0,0
84004,-62.5,4,2,2,75,0,0
86746,-62.5,4,2,2,50,0,0
86918,-62.5,4,2,2,40,0,0
87432,-50,4,2,2,75,0,0
87775,-200,4,2,2,75,0,0
87946,-200,4,2,2,40,0,0
109375,-400,4,2,2,75,0,0
109632,-400,4,2,2,5,0,0
109718,-66.6666666666667,4,2,2,65,0,0
110061,-133.333333333333,4,2,2,65,0,0
110575,-66.6666666666667,4,2,2,65,0,0
111946,-50,4,2,2,65,0,0
112118,-80,4,2,2,65,0,0
112289,-200,4,2,2,65,0,0
112461,-80,4,2,2,65,0,0
113318,-66.6666666666667,4,2,2,65,0,0
114861,-50,4,2,2,65,0,0
115118,-50,4,2,2,5,0,0
115204,-66.6666666666667,4,2,2,65,0,0
115546,-100,4,2,2,65,0,0
116061,-66.6666666666667,4,2,2,65,0,0
117432,-50,4,2,2,65,0,0
117604,-80,4,2,2,65,0,0
117775,-200,4,2,2,65,0,0
117946,-80,4,2,2,65,0,0
118289,-100,4,2,2,65,0,0
118804,-66.6666666666667,4,2,2,65,0,0
119661,-133.333333333333,4,2,2,65,0,0
120004,-133.333333333333,4,2,3,65,0,0
120346,-133.333333333333,4,2,3,55,0,0
120518,-133.333333333333,4,2,3,50,0,0
120604,-133.333333333333,4,2,3,45,0,0
120861,-66.6666666666667,4,2,2,65,0,0
121032,-100,4,2,2,65,0,0
121546,-66.6666666666667,4,2,2,65,0,0
123089,-100,4,2,2,65,0,0
123432,-66.6666666666667,4,2,2,65,0,0
125489,-40,4,2,2,65,0,0
125661,-66.6666666666667,4,2,2,65,0,0
125832,-250,4,2,2,65,0,0
126089,-250,4,2,2,5,0,0
126175,-66.6666666666667,4,2,2,65,0,0
126518,-100,4,2,2,65,0,0
127032,-66.6666666666667,4,2,2,65,0,0
128232,-100,4,2,2,65,0,0
128746,-66.6666666666667,4,2,2,65,0,0
129261,-100,4,2,2,65,0,0
129775,-66.6666666666667,4,2,2,65,0,0
130289,-100,4,2,2,65,0,0
131489,-50,4,2,2,65,0,0
131832,-100,4,2,2,65,0,0
136461,-40,4,2,2,65,0,0
136632,-66.6666666666667,4,2,2,65,0,0
136804,-133.333333333333,4,2,2,65,0,0
136975,-83.3333333333333,4,2,2,65,0,0
141946,-83.3333333333333,4,2,3,65,0,0
142288,-83.3333333333333,4,2,3,55,0,0
142460,-83.3333333333333,4,2,3,50,0,0
142546,-83.3333333333333,4,2,3,45,0,0
142804,-71.4285714285714,4,2,2,65,0,0
147432,-33.3333333333333,4,2,2,65,0,0
147604,-50,4,2,2,65,0,0
147775,-100,4,2,2,65,0,0
147946,-62.5,4,2,2,65,0,0

[Colours]
Combo1 : 223,107,239
Combo2 : 216,216,216
Combo3 : 154,154,154
Combo4 : 231,235,71

[HitObjects]
121,298,21946,6,0,L|158:293,1,37.5000014305115,0|0,3:0|2:0,2:0:0:0:
169,302,22118,1,2,2:3:0:0:
107,221,22289,2,0,P|95:302|78:384,1,150.000005722046,8|0,2:0|2:0,2:0:0:0:
81,368,22804,1,2,2:3:0:0:
252,318,22975,1,8,2:0:0:0:
261,325,23146,6,0,B|245:249|292:265|268:162,1,150.000005722046,2|2,2:3|2:3,2:0:0:0:
204,108,23661,2,0,P|175:145|184:176,1,75.0000028610231,8|2,2:0|2:3,2:0:0:0:
179,180,23918,2,0,P|194:214|188:231,1,37.5000014305115,2|0,2:3|2:0,2:0:0:0:
339,292,24175,2,0,L|421:281,1,75.0000028610231,2|8,2:3|2:0,2:0:0:0:
255,334,24518,38,0,B|184:326|184:326|176:316|176:316|83:304,1,150.000005722046,2|2,2:3|2:3,2:0:0:0:
31,292,25032,1,8,2:0:0:0:
31,292,25204,2,0,L|34:331,2,37.5000014305115,2|2|0,2:3|2:3|2:0,2:0:0:0:
23,201,25546,1,2,2:3:0:0:
178,346,25718,1,8,2:0:0:0:
183,356,25889,6,0,P|199:291|172:197,1,150.000005722046,2|2,2:3|2:3,2:0:0:0:
106,169,26404,2,0,P|106:131|117:96,1,75.0000028610231,8|2,2:0|2:3,2:0:0:0:
125,87,26661,2,0,P|158:115|153:123,1,37.5000014305115,2|0,2:3|2:0,2:0:0:0:
318,41,26918,2,0,P|306:94|288:109,1,75.0000028610231,2|8,2:3|2:0,2:0:0:0:
234,39,27261,38,0,P|312:62|435:44,1,170.000003242493,2|2,2:3|2:3,2:0:0:0:
484,114,27775,2,0,P|499:57|514:6,1,85.0000016212464,8|2,2:0|2:3,2:0:0:0:
506,31,28032,1,2,2:3:0:0:
506,31,28118,1,0,2:0:0:0:
405,60,28289,1,2,2:3:0:0:
487,205,28461,1,8,2:0:0:0:
482,212,28632,6,0,B|415:224|377:152|377:152|399:214|368:253,1,200,2|2,2:3|2:3,2:0:0:0:
284,156,29146,2,0,P|276:214|294:241,1,89.9999972534181,8|2,2:0|2:3,2:0:0:0:
291,238,29404,1,2,2:3:0:0:
291,238,29489,1,0,2:0:0:0:
450,316,29661,2,0,L|355:304,1,89.9999972534181,2|8,2:3|2:0,2:0:0:0:
254,324,30004,38,0,L|64:344,1,179.999994506836,2|2,2:3|2:3,2:0:0:0:
74,342,30518,1,8,2:0:0:0:
14,300,30689,1,2,2:3:0:0:
16,288,30775,1,2,2:3:0:0:
19,275,30861,2,0,P|16:186|14:163,1,89.9999972534181,0|2,2:0|2:3,2:0:0:0:
159,307,31204,1,8,2:0:0:0:
168,299,31375,6,0,P|183:221|94:241,1,179.999994506836,2|2,2:3|2:3,2:0:0:0:
103,122,31889,2,0,P|52:85|67:47,1,89.9999972534181,8|2,2:0|2:3,2:0:0:0:
199,100,32232,1,2,2:3:0:0:
193,109,32318,1,0,2:0:0:0:
188,120,32404,1,2,2:3:0:0:
259,179,32575,1,8,2:0:0:0:
261,187,32918,38,0,L|323:174,1,40,0|0,3:0|2:0,2:0:0:0:
373,163,33089,1,2,2:3:0:0:
410,56,33261,2,0,P|390:136|385:195,1,120,8|2,2:0|2:3,2:0:0:0:
391,257,33604,1,0,3:0:0:0:
378,252,33689,1,0,2:0:0:0:
365,248,33775,1,2,3:0:0:0:
308,59,33946,2,0,P|294:92|305:126,1,40,8|0,2:0|2:0,2:0:0:0:
302,96,34118,6,0,B|201:104|258:59|132:73,1,160,2|2,2:3|2:3,2:0:0:0:
30,77,34632,2,0,P|53:157|94:153,1,120,8|2,2:0|2:3,2:0:0:0:
161,191,34975,1,2,3:0:0:0:
165,171,35061,1,0,2:0:0:0:
170,149,35146,2,0,L|181:206,1,40,2|0,3:0|2:0,2:0:0:0:
199,269,35318,1,8,2:0:0:0:
68,153,35489,38,0,L|49:315,1,160,2|2,2:3|2:3,2:0:0:0:
135,340,36004,2,0,B|161:370|161:370|220:363,1,80,8|2,2:0|3:0,2:0:0:0:
216,362,36261,1,2,2:3:0:0:
230,358,36346,1,0,3:0:0:0:
321,384,36518,1,2,2:3:0:0:
275,231,36689,2,0,P|292:254|292:287,1,40,8|0,2:0|2:0,2:0:0:0:
294,276,36861,6,0,L|283:101,1,170.000003242493,2|2,2:3|2:3,2:0:0:0:
454,93,37375,2,0,P|427:149|367:111,1,127.50000243187,8|2,2:0|2:3,2:0:0:0:
352,55,37718,1,2,3:0:0:0:
354,41,37804,1,0,2:0:0:0:
357,26,37889,2,0,L|417:16,1,42.5000008106232,2|0,3:0|2:0,2:0:0:0:
480,10,38061,1,8,2:0:0:0:
279,114,38232,38,0,B|234:130|194:94|194:94|147:135|166:207,1,189.999994926453,2|2,2:3|2:3,2:0:0:0:
34,79,38746,2,0,P|63:160|77:228,1,142.49999619484,8|2,2:0|2:3,2:0:0:0:
157,268,39089,1,2,3:0:0:0:
151,291,39175,1,0,2:0:0:0:
146,314,39261,1,2,3:0:0:0:
298,233,39432,2,0,P|281:238|251:219,1,47.4999987316132,8|0,2:0|2:0,2:0:0:0:
253,215,39604,6,0,P|362:204|428:281,1,189.999994926453,2|2,2:3|2:3,2:0:0:0:
483,341,40118,2,0,L|513:201,1,142.49999619484,8|2,2:0|2:3,2:0:0:0:
466,104,40461,1,2,3:0:0:0:
448,119,40546,1,0,2:0:0:0:
437,137,40632,2,0,L|421:71,1,47.4999987316132,2|0,3:0|2:0,2:0:0:0:
403,16,40804,1,8,2:0:0:0:
244,101,40975,38,0,B|332:121|332:121|338:115|338:115|448:139,1,200,2|2,2:3|2:3,2:0:0:0:
252,215,41489,2,0,L|90:229,1,150,8|2,2:0|2:3,2:0:0:0:
17,205,41832,1,2,3:0:0:0:
8,228,41918,1,0,2:0:0:0:
13,252,42004,1,2,3:0:0:0:
177,336,42175,2,0,P|239:333|252:346,1,50,8|0,2:0|2:0,2:0:0:0:
234,321,42346,6,0,P|335:319|336:208,1,220.000006713867,2|2,2:3|2:3,2:0:0:0:
338,97,42861,38,0,P|311:136|299:164,3,59.9999981689454,8|0|0|0,2:0|2:0|2:0|2:0,2:0:0:0:
410,148,43204,6,0,P|426:198|434:209,3,40,0|0|0|0,2:0|2:0|2:0|2:0,2:0:0:0:
491,134,43546,38,0,P|505:151|508:155,3,20,0|0|0|0,2:0|2:0|2:0|2:0,2:0:0:0:
433,28,43889,22,0,L|424:71,1,37.5000014305115,4|0,1:0|2:0,2:0:0:0:
425,64,44061,2,0,L|201:96,2,200,2|10|2,2:1|2:3|2:3,2:0:0:0:
177,187,44575,2,0,P|139:100|166:83,1,100,2|0,2:1|2:0,2:0:0:0:
168,0,44746,2,0,L|154:61,1,37.5000014305115,0|0,1:0|2:0,2:0:0:0:
70,45,44918,1,8,2:3:0:0:
193,282,45089,6,0,P|263:237|262:196,1,100,2|0,2:1|2:0,2:0:0:0:
326,99,45261,2,0,L|333:163,1,50,2|0,1:3|2:0,2:0:0:0:
336,95,45432,2,0,L|343:159,1,50,2|0,2:3|2:0,2:0:0:0:
50,149,45604,2,0,P|176:137|264:227,1,262.500002503395,10|0,2:1|2:0,2:0:0:0:
377,257,45946,1,0,3:0:0:0:
377,257,46032,1,0,2:0:0:0:
377,257,46118,38,0,P|441:219|463:170,1,75.0000028610231,2|0,1:0|2:0,2:0:0:0:
466,126,46289,1,8,2:3:0:0:
301,320,46461,2,0,P|328:349|360:357,1,50,2|0,2:1|2:0,2:0:0:0:
215,315,46632,6,0,L|144:301,1,50,0|0,1:0|2:0,2:0:0:0:
165,305,46804,2,0,L|193:71,2,200,2|10|2,2:1|2:3|2:3,2:0:0:0:
191,2,47318,2,0,P|121:21|109:77,1,100,2|0,2:1|2:0,2:0:0:0:
64,154,47489,2,0,L|51:83,1,37.5000014305115,0|0,1:0|2:0,2:0:0:0:
0,51,47661,1,8,2:3:0:0:
279,54,47832,38,0,P|304:95|292:145,1,100,2|0,2:1|2:0,2:0:0:0:
157,213,48004,2,0,L|206:215,1,50,2|0,1:3|2:0,2:0:0:0:
162,224,48175,2,0,L|211:226,1,50,2|0,2:3|2:0,2:0:0:0:
509,72,48346,2,0,P|355:67|284:188,1,262.500002503395,10|0,2:1|2:0,2:0:0:0:
185,134,48689,1,0,3:0:0:0:
185,134,48775,1,0,2:0:0:0:
185,134,48861,6,0,P|199:207|197:236,1,75.0000028610231,2|0,1:0|2:0,2:0:0:0:
179,321,49032,1,8,2:3:0:0:
46,251,49204,2,0,P|71:267|101:304,1,50,2|0,2:1|2:0,2:0:0:0:
184,332,49375,38,0,L|246:317,1,50,0|0,1:0|2:0,2:0:0:0:
416,291,49546,2,0,P|348:212|354:200,1,75.0000028610231,2|0,2:0|2:0,2:0:0:0:
385,184,49718,2,0,P|453:263|447:275,1,75.0000028610231,8|0,2:3|2:0,2:0:0:0:
415,300,49889,2,0,P|347:221|353:209,1,75.0000028610231,2|0,2:0|2:0,2:0:0:0:
289,62,50061,6,0,L|304:197,1,75.0000028610231,2|0,2:0|2:0,2:0:0:0:
164,54,50232,2,0,L|203:200,1,89.9999972534181,2|0,1:2|2:0,2:0:0:0:
63,123,50404,1,8,2:3:0:0:
56,133,50575,2,0,L|114:228,1,89.9999972534181,2|0,2:0|2:0,2:0:0:0:
345,280,50746,38,0,P|234:257|178:377,1,225.000008583069,2|2,1:2|2:0,2:0:0:0:
174,336,51089,2,0,P|121:365|77:339,1,100,8|0,2:3|2:0,2:0:0:0:
0,322,51346,1,0,2:0:0:0:
0,322,51432,6,0,L|5:260,1,50,2|0,3:2|2:0,2:0:0:0:
102,209,51604,2,0,L|96:258,1,50,2|0,1:3|2:0,2:0:0:0:
7,327,51775,2,0,L|12:265,1,50,10|0,2:3|2:0,2:0:0:0:
43,117,51946,38,0,B|114:92|114:92|218:160,2,150.000005722046,2|2|2,3:2|1:3|3:2,2:0:0:0:
82,200,52461,2,0,B|102:216|102:216|149:188,1,50,10|0,2:3|2:0,2:0:0:0:
176,132,52632,2,0,B|196:119|196:119|216:135,1,50,2|0,3:2|2:0,2:0:0:0:
253,58,52804,6,0,L|270:248,1,150.000005722046,0|2,3:0|1:2,2:0:0:0:
217,305,53146,2,0,L|189:251,1,50,10|0,2:3|2:0,2:0:0:0:
351,245,53318,2,0,L|336:292,1,50,2|0,3:2|2:0,2:0:0:0:
448,147,53489,38,0,P|431:179|411:188,1,37.5000014305115,2|0,1:3|2:0,2:0:0:0:
448,262,53661,2,0,P|518:225|525:203,1,62.5,2|0,3:2|2:0,2:0:0:0:
342,47,53832,2,0,P|373:118|368:158,1,80,10|0,2:3|2:0,2:0:0:0:
414,340,54004,2,0,P|451:371|500:377,1,100,2|0,3:2|2:0,2:0:0:0:
274,213,54175,5,2,2:0:0:0:
214,188,54261,1,2,2:0:0:0:
161,202,54346,1,2,1:2:0:0:
125,240,54432,1,2,2:3:0:0:
114,289,54518,1,10,2:3:0:0:
103,319,54604,1,0,2:0:0:0:
88,339,54689,1,0,2:3:0:0:
70,348,54775,1,2,2:3:0:0:
56,348,54861,38,0,L|65:299,1,37.5000014305115,4|0,1:0|2:0,2:0:0:0:
62,311,55032,2,0,L|325:335,2,200,2|10|2,2:1|2:3|2:3,2:0:0:0:
347,376,55546,2,0,P|362:349|332:280,1,100,2|0,2:1|2:0,2:0:0:0:
206,243,55718,2,0,L|270:239,1,37.5000014305115,0|0,1:0|2:0,2:0:0:0:
331,183,55889,1,8,2:3:0:0:
99,224,56061,6,0,P|95:125|115:113,1,100,2|0,2:1|2:0,2:0:0:0:
246,77,56232,2,0,L|184:71,1,50,2|0,1:3|2:0,2:0:0:0:
248,86,56404,2,0,L|186:80,1,50,2|0,2:3|2:0,2:0:0:0:
19,340,56575,2,0,P|114:251|85:133,1,262.500002503395,10|0,2:1|2:0,2:0:0:0:
3,73,56918,1,0,3:0:0:0:
3,73,57004,1,0,2:0:0:0:
3,73,57089,38,0,P|43:10|64:7,1,75.0000028610231,2|0,1:0|2:0,2:0:0:0:
140,3,57261,1,8,2:3:0:0:
34,204,57432,2,0,P|8:176|11:143,1,50,2|0,2:1|2:0,2:0:0:0:
85,134,57604,6,0,L|143:129,1,50,0|0,1:0|2:0,2:0:0:0:
134,129,57775,2,0,L|361:156,2,200,2|10|2,2:1|2:3|2:3,2:0:0:0:
396,81,58289,2,0,P|428:178|400:201,1,100,2|0,2:1|2:0,2:0:0:0:
296,251,58461,2,0,L|355:241,1,37.5000014305115,0|0,1:0|2:0,2:0:0:0:
423,255,58632,1,8,2:3:0:0:
314,56,58804,38,0,P|254:84|249:153,1,100,2|0,2:1|2:0,2:0:0:0:
135,213,58975,2,0,L|200:222,1,50,2|0,1:3|2:0,2:0:0:0:
135,220,59146,2,0,L|200:229,1,50,2|0,2:3|2:0,2:0:0:0:
478,91,59318,2,0,P|365:151|243:114,1,262.500002503395,10|0,2:1|2:0,2:0:0:0:
150,71,59661,1,0,3:0:0:0:
150,71,59746,1,0,2:0:0:0:
150,71,59832,6,0,P|63:93|46:121,1,75.0000028610231,2|0,1:0|2:0,2:0:0:0:
17,181,60004,1,8,2:3:0:0:
135,220,60175,2,0,P|118:150|105:140,1,50,2|0,2:1|2:0,2:0:0:0:
17,181,60346,38,0,L|31:261,1,50,0|0,1:0|2:0,2:0:0:0:
203,344,60518,2,0,P|240:247|263:233,1,75.0000028610231,2|0,2:0|2:0,2:0:0:0:
301,294,60689,2,0,P|264:391|241:405,1,75.0000028610231,8|0,2:3|2:0,2:0:0:0:
195,343,60861,2,0,P|232:246|255:232,1,75.0000028610231,2|0,2:0|2:0,2:0:0:0:
393,125,61032,6,0,L|293:141,1,75.0000028610231,2|0,2:0|2:0,2:0:0:0:
479,232,61204,2,0,L|380:221,1,89.9999972534181,2|0,1:2|2:0,2:0:0:0:
500,345,61375,1,8,2:3:0:0:
498,356,61546,2,0,L|401:311,1,89.9999972534181,2|0,2:0|2:0,2:0:0:0:
192,174,61718,38,0,P|281:296|284:376,1,225.000008583069,2|2,1:2|2:0,2:0:0:0:
285,365,62061,2,0,P|201:352|200:311,1,100,8|0,2:3|2:0,2:0:0:0:
119,291,62318,1,0,2:0:0:0:
119,291,62404,6,0,L|41:301,1,50,2|0,3:2|2:0,2:0:0:0:
1,364,62575,2,0,L|79:374,1,50,2|0,1:3|2:0,2:0:0:0:
124,280,62746,2,0,L|46:290,1,50,10|0,2:3|2:0,2:0:0:0:
28,103,62918,38,0,B|-9:153|-9:153|3:265,2,150.000005722046,2|2|2,3:2|1:3|3:2,2:0:0:0:
84,198,63432,2,0,B|82:174|82:174|106:141,1,50,10|0,2:3|2:0,2:0:0:0:
169,101,63604,2,0,B|171:77|171:77|147:44,1,50,2|0,3:2|2:0,2:0:0:0:
89,7,63775,6,0,L|279:33,1,150.000005722046,0|2,3:0|1:2,2:0:0:0:
370,38,64118,2,0,L|301:58,1,50,10|0,2:3|2:0,2:0:0:0:
296,137,64289,2,0,L|247:123,1,50,2|0,3:2|2:0,2:0:0:0:
165,185,64461,38,0,P|202:210|210:229,1,37.5000014305115,2|0,2:3|2:0,2:0:0:0:
327,224,64632,2,0,P|275:253|258:278,1,62.5,2|0,1:2|2:0,2:0:0:0:
71,232,64804,2,0,P|145:280|163:314,1,80,10|0,2:3|2:0,2:0:0:0:
360,303,64975,2,0,P|323:325|303:350,1,62.5,2|0,3:2|2:0,2:0:0:0:
194,378,65146,5,2,2:0:0:0:
198,363,65232,1,2,2:0:0:0:
202,348,65318,1,2,1:2:0:0:
207,333,65404,1,2,2:3:0:0:
211,318,65489,1,10,2:3:0:0:
156,288,65575,1,0,2:0:0:0:
95,291,65661,1,0,2:3:0:0:
44,326,65746,1,2,2:3:0:0:
20,383,65832,5,4,1:3:0:0:
31,378,66175,1,0,2:0:0:0:
58,176,66689,1,0,2:0:0:0:
45,169,67032,1,0,2:0:0:0:
48,252,67204,5,0,2:0:0:0:
48,252,67375,1,0,2:0:0:0:
113,202,67546,1,0,2:0:0:0:
111,102,68061,5,0,1:0:0:0:
125,307,68232,1,8,2:3:0:0:
115,108,68404,1,0,3:0:0:0:
68,207,68575,6,0,L|174:197,1,75.0000028610231,0|0,1:0|2:0,2:0:0:0:
155,199,68746,1,0,3:0:0:0:
357,323,68918,1,8,2:3:0:0:
257,264,69089,1,0,3:0:0:0:
247,286,69175,1,0,2:0:0:0:
237,310,69261,1,0,3:0:0:0:
468,328,69432,38,0,L|456:267,1,50,0|0,1:0|2:0,2:0:0:0:
431,190,69604,1,8,2:3:0:0:
438,194,69775,2,0,L|426:133,1,50,0|0,3:0|2:0,2:0:0:0:
443,16,69946,6,0,P|468:60|456:78,1,50,0|0,1:0|2:0,2:0:0:0:
350,117,70118,2,0,P|356:93|376:79,1,50,0|0,3:0|2:0,2:0:0:0:
429,146,70289,2,0,P|323:167|228:224,1,150.000005722046,8|0,2:3|3:0,2:0:0:0:
285,184,70546,1,0,2:0:0:0:
285,184,70632,1,0,3:0:0:0:
201,45,70804,37,0,1:0:0:0:
194,166,70975,1,8,2:3:0:0:
183,301,71146,1,0,3:0:0:0:
95,156,71318,6,0,L|77:61,1,75.0000028610231,0|0,1:0|2:0,2:0:0:0:
79,70,71489,1,0,3:0:0:0:
200,158,71661,1,8,2:3:0:0:
75,255,71832,1,0,3:0:0:0:
46,245,71918,1,0,2:0:0:0:
16,238,72004,1,0,3:0:0:0:
145,340,72175,38,0,L|223:330,1,50,0|0,1:0|2:0,2:0:0:0:
279,320,72346,1,8,2:3:0:0:
287,325,72518,2,0,L|365:315,1,50,0|0,3:0|2:0,2:0:0:0:
441,343,72689,6,0,P|404:392|380:396,1,50,0|0,1:0|2:0,2:0:0:0:
367,218,72861,2,0,P|385:234|394:257,1,50,0|0,3:0|2:0,2:0:0:0:
283,195,73032,2,0,P|382:174|477:105,1,150.000005722046,8|0,2:3|3:0,2:0:0:0:
424,151,73289,1,0,2:0:0:0:
424,151,73375,1,0,3:0:0:0:
209,140,73546,37,0,1:0:0:0:
486,237,73718,1,8,2:3:0:0:
206,132,73889,1,0,3:0:0:0:
383,0,74061,6,0,L|369:91,1,75.0000028610231,0|0,1:0|2:0,2:0:0:0:
371,89,74232,1,0,3:0:0:0:
183,231,74404,1,8,2:3:0:0:
349,195,74575,1,0,3:0:0:0:
311,197,74661,1,0,2:0:0:0:
274,199,74746,1,0,3:0:0:0:
70,53,74918,38,0,L|81:144,1,75.0000028610231,0|0,1:0|2:0,2:0:0:0:
84,212,75089,1,8,2:3:0:0:
93,218,75261,2,0,L|104:309,1,75.0000028610231,0|0,3:0|2:0,2:0:0:0:
58,374,75432,6,0,P|23:303|35:291,1,75.0000028610231,0|0,1:0|2:0,2:0:0:0:
193,297,75604,2,0,P|192:333|165:357,1,75.0000028610231,0|0,3:0|2:0,2:0:0:0:
102,292,75775,2,0,P|275:340|316:364,1,179.999994506836,8|0,2:3|3:0,2:0:0:0:
274,339,76032,1,0,2:0:0:0:
274,339,76118,1,0,3:0:0:0:
453,239,76289,37,0,1:0:0:0:
317,225,76461,1,8,2:3:0:0:
181,211,76632,1,0,3:0:0:0:
352,115,76804,6,0,L|421:101,1,62.5,0|0,1:0|2:0,2:0:0:0:
427,101,76975,1,0,3:0:0:0:
238,42,77146,1,8,2:3:0:0:
176,160,77318,1,0,3:0:0:0:
179,180,77404,1,0,2:0:0:0:
183,201,77489,1,0,3:0:0:0:
38,312,77661,38,0,L|46:242,1,50,0|0,1:0|2:0,2:0:0:0:
46,175,77832,1,8,2:3:0:0:
53,181,78004,2,0,L|61:111,1,50,0|0,3:0|2:0,2:0:0:0:
19,14,78175,6,0,P|0:59|8:72,1,50,0|0,1:0|2:0,2:0:0:0:
131,89,78346,2,0,P|120:66|97:56,1,50,0|0,3:0|2:0,2:0:0:0:
59,131,78518,2,0,P|159:116|232:131,1,150.000005722046,8|0,2:3|3:0,2:0:0:0:
206,123,78775,1,0,2:0:0:0:
206,123,78861,1,0,3:0:0:0:
274,284,79032,37,0,1:0:0:0:
308,105,79204,1,8,2:3:0:0:
280,294,79375,1,0,3:0:0:0:
113,233,79546,6,0,L|193:226,1,75.0000028610231,0|0,1:0|2:0,2:0:0:0:
201,224,79718,1,0,3:0:0:0:
359,368,79889,1,8,2:3:0:0:
190,364,80061,1,0,3:0:0:0:
192,339,80146,1,0,2:0:0:0:
195,314,80232,1,0,3:0:0:0:
373,268,80404,38,0,L|366:190,1,50,0|0,1:0|2:0,2:0:0:0:
367,135,80575,1,8,2:3:0:0:
361,128,80746,2,0,L|354:50,1,50,0|0,3:0|2:0,2:0:0:0:
252,14,80918,6,0,P|259:38|271:59,1,50,0|0,1:0|2:0,2:0:0:0:
163,123,81089,2,0,P|185:134|209:135,1,50,0|0,3:0|2:0,2:0:0:0:
284,177,81261,2,0,P|172:208|109:259,1,150.000005722046,8|0,2:3|3:0,2:0:0:0:
145,226,81518,1,0,2:0:0:0:
145,226,81604,1,0,3:0:0:0:
35,308,81775,37,0,1:0:0:0:
162,327,81946,1,8,2:3:0:0:
289,346,82118,1,0,3:0:0:0:
392,250,82289,6,0,L|317:257,1,75.0000028610231,0|0,1:0|2:0,2:0:0:0:
303,258,82461,1,0,3:0:0:0:
429,368,82632,1,8,2:3:0:0:
471,213,82804,1,0,3:0:0:0:
477,182,82889,1,0,2:0:0:0:
484,152,82975,1,0,3:0:0:0:
273,23,83146,38,0,L|284:99,1,62.5,0|0,1:0|2:0,2:0:0:0:
300,165,83318,1,8,2:3:0:0:
295,174,83489,2,0,L|306:250,1,62.5,0|0,3:0|2:0,2:0:0:0:
254,340,83661,6,0,P|240:274|243:269,1,62.5,0|0,1:0|2:0,2:0:0:0:
384,291,83832,2,0,P|314:307|305:299,1,62.5,0|0,3:0|2:0,2:0:0:0:
388,215,84004,2,0,P|418:327|462:364,1,160,8|0,2:3|3:0,2:0:0:0:
447,354,84261,1,0,2:0:0:0:
447,354,84346,1,0,3:0:0:0:
214,197,84518,37,0,1:0:0:0:
483,141,84689,1,8,2:3:0:0:
202,193,84861,1,0,3:0:0:0:
370,23,85032,6,0,L|359:106,1,80,0|0,1:0|2:0,2:0:0:0:
359,117,85204,1,0,3:0:0:0:
117,48,85375,1,8,2:3:0:0:
238,113,85546,1,0,3:0:0:0:
235,83,85632,1,0,2:0:0:0:
233,54,85718,1,0,3:0:0:0:
18,225,85889,38,0,L|134:213,1,80,0|0,1:0|2:0,2:0:0:0:
177,200,86061,1,8,2:3:0:0:
185,208,86232,2,0,L|301:196,1,80,0|0,3:0|2:0,2:0:0:0:
358,189,86404,5,0,1:0:0:0:
358,189,86575,1,0,3:0:0:0:
358,189,86746,1,0,3:0:0:0:
323,280,86918,1,0,2:0:0:0:
320,293,87004,1,0,3:0:0:0:
317,307,87089,1,0,2:0:0:0:
315,320,87175,1,0,3:0:0:0:
313,334,87261,1,0,2:0:0:0:
406,351,87432,38,2,B|472:372|523:284|444:230|349:227|298:366,1,300,0|0,3:0|2:0,2:0:0:0:
217,309,87775,22,0,P|227:353|231:380,1,50,4|0,1:3|2:0,2:0:0:0:
150,256,88289,2,0,P|130:296|116:319,1,50,0|0,2:0|2:0,2:0:0:0:
134,173,88804,2,0,P|92:191|66:200,1,50,0|0,2:0|2:0,2:0:0:0:
174,99,89318,1,0,2:0:0:0:
252,68,89661,1,0,2:0:0:0:
332,95,90004,1,0,2:0:0:0:
410,58,90346,1,0,2:0:0:0:
418,58,93261,6,0,L|409:114,1,50,0|0,2:0|2:0,2:0:0:0:
313,110,93775,2,0,L|342:158,1,50,0|0,2:0|2:0,2:0:0:0:
265,217,94289,2,0,L|318:235,1,50,0|0,2:0|2:0,2:0:0:0:
299,334,94804,1,0,2:0:0:0:
205,290,95146,1,0,2:0:0:0:
129,317,95489,1,0,2:0:0:0:
113,342,95832,1,0,2:0:0:0:
118,357,98746,37,2,3:2:0:0:
85,179,98918,1,0,2:0:0:0:
214,226,99089,1,0,3:0:0:0:
127,270,99261,1,0,2:0:0:0:
173,133,99432,6,0,P|163:77|157:45,1,75,2|0,3:2|2:0,2:0:0:0:
168,50,99775,2,0,L|218:62,1,50,0|0,3:0|2:0,2:0:0:0:
271,142,100118,38,0,P|329:129|373:124,1,100,2|0,3:2|3:0,2:0:0:0:
369,124,100632,1,0,2:0:0:0:
467,67,100804,2,0,P|458:95|453:119,2,50,2|0|0,3:2|2:0|3:0,2:0:0:0:
457,122,101489,5,2,3:2:0:0:
366,287,101661,1,0,2:0:0:0:
477,260,101832,1,0,3:0:0:0:
270,251,102175,37,2,3:2:0:0:
376,289,102518,2,0,P|381:332|381:357,1,50,0|0,3:0|2:0,2:0:0:0:
348,109,102861,6,0,P|345:158|346:215,1,100,2|0,3:2|3:0,2:0:0:0:
345,208,103375,1,0,2:0:0:0:
425,49,103546,2,0,P|432:83|434:101,1,50,2|0,3:2|2:0,2:0:0:0:
434,221,103889,2,0,P|466:208|487:168,1,75,0|0,3:0|2:0,2:0:0:0:
492,164,104232,37,2,3:2:0:0:
277,187,104404,1,0,2:0:0:0:
187,94,104575,1,0,3:0:0:0:
289,96,104746,1,0,2:0:0:0:
179,195,104918,6,0,P|175:246|172:281,1,75,2|0,3:2|2:0,2:0:0:0:
168,282,105261,2,0,L|218:274,1,50,0|0,3:0|2:0,2:0:0:0:
85,226,105604,2,0,L|74:111,1,100,2|0,3:2|3:0,2:0:0:0:
75,126,106118,1,0,2:0:0:0:
197,45,106289,2,0,L|184:107,2,50,2|0|0,3:2|2:0|3:0,2:0:0:0:
191,100,106975,37,2,3:2:0:0:
336,206,107146,1,0,2:0:0:0:
357,112,107318,1,0,3:0:0:0:
273,143,107489,1,0,2:0:0:0:
425,167,107661,6,0,L|502:158,1,75,2|0,3:2|2:0,2:0:0:0:
506,149,108004,2,0,L|493:207,1,50,0|0,3:0|2:0,2:0:0:0:
477,286,108346,37,2,3:2:0:0:
396,327,108518,1,0,2:0:0:0:
281,305,108689,1,0,3:0:0:0:
168,238,108861,1,0,2:0:0:0:
18,270,109032,5,2,3:2:0:0:
172,227,109204,1,0,2:0:0:0:
256,63,109375,2,0,L|255:17,1,37.5,0|0,3:0|2:0,2:0:0:0:
260,20,109718,6,0,P|317:73|279:170,1,150.000005722046,2|0,1:2|2:0,2:0:0:0:
220,137,110061,2,0,L|164:129,2,37.5000014305115,8|0|0,2:0|2:0|0:0,2:0:0:0:
358,62,110404,1,0,2:0:0:0:
195,230,110575,6,0,P|277:251|298:225,1,75.0000028610231,2|0,2:0|2:0,2:0:0:0:
345,220,110746,1,8,2:0:0:0:
269,343,110918,2,0,P|330:309|332:285,1,75.0000028610231,2|0,2:0|2:0,2:0:0:0:
345,220,111089,38,0,L|151:233,1,150.000005722046,0|0,1:2|2:0,2:0:0:0:
30,249,111432,1,8,2:0:0:0:
89,311,111604,1,0,3:0:0:0:
86,329,111689,1,0,3:0:0:0:
83,348,111775,1,0,2:0:0:0:
42,163,111946,6,0,B|51:113|51:113|26:61,1,100,2|0,2:0|1:2,2:0:0:0:
122,73,112118,38,0,B|136:102|136:102|131:132,1,62.5,10|0,2:0|2:0,2:0:0:0:
213,104,112289,6,0,B|214:91|214:91|209:79,1,25,2|0,2:0|2:0,2:0:0:0:
291,79,112461,38,0,P|353:81|437:116,1,125,2|0,1:2|2:0,2:0:0:0:
511,126,112804,1,8,2:0:0:0:
485,45,112975,1,0,3:0:0:0:
485,45,113061,1,0,3:0:0:0:
485,45,113146,1,0,2:0:0:0:
374,239,113318,6,0,P|361:209|386:147,1,75.0000028610231,2|0,2:0|2:0,2:0:0:0:
291,79,113489,2,0,L|274:163,1,75.0000028610231,8|0,2:0|2:0,2:0:0:0:
452,196,113661,2,0,P|515:221|523:258,1,75.0000028610231,2|0,2:0|2:0,2:0:0:0:
451,280,113832,38,0,L|248:281,1,150.000005722046,0|0,1:2|2:0,2:0:0:0:
137,301,114175,1,8,2:0:0:0:
137,301,114346,1,0,2:0:0:0:
65,219,114518,1,0,3:0:0:0:
74,194,114604,1,0,3:0:0:0:
109,169,114689,1,0,3:0:0:0:
171,172,114775,1,0,1:2:0:0:
213,238,114861,6,2,B|196:121|196:121|294:82|294:82|266:200,1,300,8|0,2:0|2:0,2:0:0:0:
287,164,115204,38,0,P|396:166|416:119,1,150.000005722046,2|0,1:2|2:0,2:0:0:0:
480,69,115546,2,0,L|473:2,2,50,8|0|0,2:0|2:0|2:0,2:0:0:0:
495,204,115889,1,0,2:0:0:0:
265,76,116061,6,0,P|354:113|360:136,1,75.0000028610231,2|0,2:0|2:0,2:0:0:0:
366,224,116232,1,8,2:0:0:0:
232,209,116404,2,0,P|319:165|349:183,1,75.0000028610231,2|0,2:0|2:0,2:0:0:0:
366,224,116575,38,0,L|340:380,1,150.000005722046,0|0,1:2|2:0,2:0:0:0:
432,361,116918,1,8,2:0:0:0:
262,365,117089,1,0,3:0:0:0:
243,366,117175,1,0,3:0:0:0:
224,367,117261,1,0,2:0:0:0:
457,266,117432,6,0,B|473:218|473:218|444:145,1,100,2|0,2:0|1:2,2:0:0:0:
367,188,117604,38,0,B|378:217|378:217|368:248,1,62.5,10|0,2:0|2:0,2:0:0:0:
283,226,117775,6,0,B|286:214|286:214|282:201,1,25,2|0,2:0|2:0,2:0:0:0:
199,212,117946,38,0,P|117:203|49:237,1,125,2|0,1:2|2:0,2:0:0:0:
17,300,118289,2,0,L|13:358,2,50,8|0|0,2:0|2:0|2:0,2:0:0:0:
29,138,118632,1,0,2:0:0:0:
104,296,118804,6,0,P|163:298|181:252,1,75.0000028610231,2|0,2:0|2:0,2:0:0:0:
208,137,118975,2,0,L|195:242,1,75.0000028610231,8|0,2:0|2:0,2:0:0:0:
310,304,119146,2,0,P|240:277|216:299,1,75.0000028610231,2|0,2:0|2:0,2:0:0:0:
248,363,119318,38,0,L|442:341,1,150.000005722046,0|0,1:2|2:0,2:0:0:0:
491,298,119661,2,0,L|486:346,1,37.5000014305115,8|0,2:0|2:0,2:0:0:0:
405,187,119832,2,0,L|409:224,1,37.5000014305115,2|0,2:3|2:0,2:0:0:0:
501,130,120004,5,2,2:1:0:0:
468,80,120089,1,2,2:1:0:0:
423,48,120175,1,2,2:1:0:0:
372,29,120261,1,0,1:2:0:0:
324,27,120346,1,10,2:1:0:0:
291,42,120432,1,2,2:1:0:0:
279,64,120518,1,2,2:1:0:0:
282,86,120604,1,2,2:1:0:0:
414,153,120861,38,0,P|418:205|388:239,1,75.0000028610231,2|0,2:0|2:0,2:0:0:0:
332,284,121032,2,0,L|339:373,2,50,8|0|0,2:0|2:0|2:0,2:0:0:0:
187,124,121375,1,0,2:0:0:0:
196,334,121546,6,0,P|214:330|243:276,1,75.0000028610231,2|0,2:0|2:0,2:0:0:0:
188,212,121718,1,8,2:0:0:0:
92,253,121889,2,0,P|78:170|62:158,1,75.0000028610231,2|0,2:0|2:0,2:0:0:0:
8,214,122061,38,0,L|38:364,1,150.000005722046,0|0,1:2|2:0,2:0:0:0:
121,332,122404,1,8,2:0:0:0:
210,331,122575,1,0,3:0:0:0:
227,336,122660,1,0,3:0:0:0:
245,343,122746,1,0,2:0:0:0:
388,361,122918,6,0,P|425:302|413:281,1,75.0000028610231,2|0,2:0|1:2,2:0:0:0:
328,243,123089,38,0,L|323:274,2,25,10|2|0,2:3|2:3|2:3,2:0:0:0:
344,136,123261,2,0,L|339:167,2,25,2|2|0,2:3|2:3|2:3,2:0:0:0:
356,44,123432,6,0,P|384:120|451:113,1,150.000005722046,2|0,1:2|2:0,2:0:0:0:
494,41,123775,1,8,2:0:0:0:
256,132,123946,1,2,2:0:0:0:
208,60,124118,1,2,2:3:0:0:
442,118,124289,38,0,P|483:139|481:191,1,75.0000028610231,2|0,2:0|2:0,2:0:0:0:
472,325,124461,2,0,L|483:243,1,75.0000028610231,8|0,2:0|2:0,2:0:0:0:
350,228,124632,2,0,P|416:202|438:216,1,75.0000028610231,2|0,2:0|2:0,2:0:0:0:
376,318,124804,5,0,1:2:0:0:
372,324,124975,1,0,2:0:0:0:
111,362,125146,1,8,2:0:0:0:
108,356,125318,1,0,2:0:0:0:
267,178,125489,38,2,B|237:148|268:125|268:125|305:141|268:178,1,125,0|0,1:0|2:0,2:1:0:0:
195,253,125661,6,2,B|171:248|166:231|166:231|186:228|196:246,1,75.0000028610231,0|0,1:0|1:2,2:1:0:0:
244,341,125832,38,0,B|231:358|216:352|216:352|220:335|239:337,1,60,10|0,2:1|2:0,2:0:0:0:
298,267,126175,6,0,P|361:268|395:344,1,150.000005722046,2|0,1:2|2:0,2:0:0:0:
483,368,126518,2,0,P|496:329|497:310,2,50,8|0|0,2:0|2:0|2:0,2:0:0:0:
311,352,126861,1,0,2:0:0:0:
512,210,127032,38,0,P|450:238|435:227,1,75.0000028610231,2|0,2:0|2:0,2:0:0:0:
364,173,127204,1,8,2:0:0:0:
425,82,127375,2,0,P|448:158|424:192,1,75.0000028610231,2|0,2:0|2:0,2:0:0:0:
364,173,127546,6,0,L|201:153,1,150.000005722046,0|0,1:2|2:0,2:0:0:0:
104,141,127889,1,8,2:0:0:0:
104,141,128061,1,0,2:0:0:0:
104,141,128232,38,0,L|97:203,1,50,2|0,2:3|2:0,2:0:0:0:
100,205,128489,6,0,L|94:254,1,50,2|10,1:3|2:0,2:0:0:0:
100,271,128746,38,0,P|181:246|182:196,1,75.0000028610231,2|0,2:0|2:0,2:0:0:0:
236,334,128918,2,0,P|289:283|361:293,1,150.000005722046,2|0,1:2|2:0,2:0:0:0:
437,338,129261,2,0,L|494:331,2,50,8|0|0,2:0|2:0|2:0,2:0:0:0:
471,201,129604,6,0,L|435:245,1,50,0|2,2:0|2:3,2:0:0:0:
440,240,129775,2,0,P|376:193|339:216,1,75.0000028610231,2|2,2:0|2:3,2:0:0:0:
405,35,129946,2,0,L|384:106,1,75.0000028610231,8|0,2:0|2:0,2:0:0:0:
311,156,130118,2,0,P|238:175|217:156,1,75.0000028610231,2|0,2:0|2:0,2:0:0:0:
178,116,130289,6,0,L|63:99,1,100,0|0,1:2|2:0,2:0:0:0:
79,101,130632,38,0,L|86:152,1,50,8|0,2:0|2:0,2:0:0:0:
163,200,130804,1,2,2:3:0:0:
154,208,130889,2,0,L|138:267,1,50,8|0,2:3|2:0,2:0:0:0:
43,260,131061,1,2,2:3:0:0:
54,260,131146,2,0,L|75:329,1,50,8|2,2:3|1:3,2:0:0:0:
136,366,131318,1,8,2:0:0:0:
136,366,131489,6,0,B|203:358|151:339|237:335,1,100,2|0,2:0|2:0,2:0:0:0:
316,337,131661,37,0,1:2:0:0:
316,337,131832,2,0,L|307:244,1,50,2|0,2:3|2:0,2:0:0:0:
297,203,132004,2,0,L|415:226,1,100,8|0,2:0|3:0,2:0:0:0:
206,188,132346,5,2,2:3:0:0:
466,109,132518,1,0,3:0:0:0:
430,153,132603,1,0,3:0:0:0:
376,137,132689,2,0,L|394:52,1,50,10|0,2:3|2:0,2:0:0:0:
412,10,132861,1,2,2:0:0:0:
492,218,133032,38,0,P|414:270|349:350,1,150,0|0,1:2|2:0,2:0:0:0:
293,312,133375,2,0,P|306:363|313:374,1,50,10|0,2:3|2:0,2:0:0:0:
480,354,133546,2,0,P|429:378|424:383,1,50,0|0,3:0|2:0,2:0:0:0:
375,310,133718,1,0,3:0:0:0:
373,298,133803,1,0,3:0:0:0:
371,286,133889,1,2,2:0:0:0:
369,273,133975,1,0,1:2:0:0:
368,261,134060,1,8,2:0:0:0:
212,372,134232,6,0,P|152:370|92:366,1,100,2|0,2:0|1:2,2:0:0:0:
112,367,134575,2,0,L|103:297,1,50,2|0,2:3|2:0,2:0:0:0:
196,192,134746,2,0,P|195:246|188:305,1,100,8|0,2:0|3:0,2:0:0:0:
18,152,135089,37,2,2:3:0:0:
97,218,135261,1,0,3:0:0:0:
105,168,135346,1,0,3:0:0:0:
114,119,135432,2,0,L|190:107,1,50,10|0,2:3|2:0,2:0:0:0:
259,103,135604,1,2,2:0:0:0:
32,37,135775,5,0,1:2:0:0:
34,44,135946,1,2,2:3:0:0:
283,187,136118,1,10,2:3:0:0:
281,194,136289,1,0,3:0:0:0:
475,52,136461,38,2,B|469:74|480:114|480:114|458:81|432:78,1,125,0|0,3:0|2:0,2:1:0:0:
341,77,136632,6,2,B|331:86|325:110|325:110|323:86|308:69,1,75.0000028610231,2|0,2:0|1:2,2:1:0:0:
223,67,136804,38,0,B|220:59|224:48|224:48|216:57|210:60,1,37.5000014305115,10|0,2:1|2:0,2:0:0:0:
156,9,136975,6,0,L|163:143,1,119.999996337891,2|0,2:0|1:2,2:0:0:0:
162,128,137318,2,0,L|100:117,1,59.9999981689454,2|0,2:3|2:0,2:0:0:0:
62,215,137489,2,0,P|128:207|200:216,1,119.999996337891,8|0,2:0|3:0,2:0:0:0:
12,137,137832,37,2,2:3:0:0:
247,272,138004,1,0,3:0:0:0:
279,225,138089,1,0,3:0:0:0:
258,172,138175,2,0,L|273:100,1,59.9999981689454,10|0,2:3|2:0,2:0:0:0:
287,25,138346,1,2,2:0:0:0:
420,245,138518,6,0,P|362:208|347:156,1,119.999996337891,0|0,1:2|2:0,2:0:0:0:
466,104,138861,2,0,P|447:127|438:155,1,59.9999981689454,10|0,2:3|2:0,2:0:0:0:
363,71,139032,2,0,P|386:51|414:41,1,59.9999981689454,0|0,3:0|2:0,2:0:0:0:
347,161,139204,1,0,3:0:0:0:
328,163,139289,1,0,3:0:0:0:
309,166,139375,1,2,2:0:0:0:
291,169,139461,1,0,1:2:0:0:
272,172,139546,1,8,2:0:0:0:
74,65,139718,38,0,L|210:86,1,119.999996337891,2|0,2:0|1:2,2:0:0:0:
192,83,140061,2,0,L|184:156,1,59.9999981689454,2|0,2:3|2:0,2:0:0:0:
129,266,140232,2,0,P|98:161|82:125,1,119.999996337891,8|0,2:0|3:0,2:0:0:0:
236,271,140575,5,2,2:3:0:0:
21,241,140746,1,0,3:0:0:0:
15,305,140831,1,0,3:0:0:0:
37,360,140918,2,0,L|139:341,1,59.9999981689454,10|0,2:3|2:0,2:0:0:0:
205,359,141089,1,2,2:0:0:0:
317,157,141261,38,0,P|290:277|285:339,1,179.999994506836,0|0,1:2|2:0,2:0:0:0:
369,365,141604,2,2,P|355:302|340:302,1,59.9999981689454,10|0,2:3|2:0,2:0:0:0:
455,265,141775,2,2,P|400:234|384:244,1,59.9999981689454,2|0,3:0|2:0,2:0:0:0:
441,111,141946,5,2,2:1:0:0:
380,149,142031,1,2,2:1:0:0:
320,167,142117,1,2,2:1:0:0:
260,165,142203,1,0,1:2:0:0:
209,152,142288,1,10,2:1:0:0:
178,134,142374,1,2,2:1:0:0:
157,112,142460,1,2,2:1:0:0:
147,95,142546,1,2,2:1:0:0:
63,42,142804,38,0,L|51:125,1,69.9999978637696,2|0,2:0|2:0,2:0:0:0:
5,214,142975,2,0,P|89:194|154:218,1,139.999995727539,8|0,2:0|3:0,2:0:0:0:
281,91,143318,5,2,2:3:0:0:
229,267,143489,1,0,3:0:0:0:
222,209,143574,1,0,3:0:0:0:
209,152,143661,2,0,P|274:191|291:192,1,69.9999978637696,10|0,2:3|2:0,2:0:0:0:
347,152,143832,1,2,2:0:0:0:
131,305,144004,38,0,P|262:275|350:268,1,209.999993591309,0|0,1:2|2:0,2:0:0:0:
392,346,144346,2,0,P|343:365|320:347,1,69.9999978637696,10|0,2:3|2:0,2:0:0:0:
466,298,144518,2,0,P|470:377|449:393,1,69.9999978637696,0|0,3:0|2:0,2:0:0:0:
422,214,144689,1,0,3:0:0:0:
429,184,144774,1,0,3:0:0:0:
439,156,144860,1,2,2:0:0:0:
449,128,144946,1,0,1:2:0:0:
461,100,145032,6,0,L|516:92,2,34.9999989318848,10|0|0,2:3|2:0|2:0,2:0:0:0:
305,112,145204,2,0,L|339:118,2,34.9999989318848,2|0|0,2:3|2:0|2:0,2:0:0:0:
190,81,145375,37,0,1:2:0:0:
190,81,145546,2,0,L|202:165,1,69.9999978637696,2|0,2:3|2:0,2:0:0:0:
257,244,145718,2,0,P|195:230|92:223,1,139.999995727539,8|0,2:0|3:0,2:0:0:0:
288,326,146061,5,2,2:3:0:0:
67,145,146232,1,0,3:0:0:0:
20,194,146317,1,0,3:0:0:0:
28,262,146404,2,0,L|47:344,1,69.9999978637696,10|0,2:3|2:0,2:0:0:0:
136,362,146575,2,0,L|116:198,1,139.999995727539,2|0,2:0|1:2,2:0:0:0:
88,40,146918,37,2,2:3:0:0:
401,94,147089,1,10,2:3:0:0:
399,101,147261,1,0,3:0:0:0:
164,129,147432,6,2,B|178:102|177:56|177:56|180:102|207:125,1,150.000005722046,0|0,3:0|2:0,2:1:0:0:
271,178,147604,38,2,B|288:162|290:132|290:132|289:162|299:180,1,100,2|0,2:0|1:2,2:1:0:0:
371,222,147775,6,0,B|378:231|376:246|376:246|378:231|385:223,1,50,10|0,2:1|2:0,2:0:0:0:
463,274,147946,38,0,P|288:309|260:326,1,160,2|0,2:0|1:2,2:0:0:0:
306,299,148289,2,0,L|299:378,1,80,2|0,2:3|2:0,2:0:0:0:
203,375,148461,2,0,P|194:265|180:191,1,160,8|0,2:0|3:0,2:0:0:0:
253,91,148804,5,2,2:3:0:0:
102,302,148975,1,0,3:0:0:0:
56,241,149060,1,0,3:0:0:0:
101,182,149146,2,0,L|224:217,1,80,10|0,2:3|2:0,2:0:0:0:
279,195,149318,1,2,2:0:0:0:
22,142,149489,38,0,P|141:133|252:90,1,240,0|0,1:2|2:0,2:0:0:0:
338,57,149832,2,0,P|333:141|306:153,1,80,10|0,2:3|2:0,2:0:0:0:
194,18,150004,2,0,P|277:13|282:22,1,80,0|0,3:0|2:0,2:0:0:0:
252,90,150175,1,0,3:0:0:0:
254,112,150260,1,0,3:0:0:0:
257,136,150346,1,2,2:0:0:0:
260,160,150432,1,0,1:2:0:0:
263,184,150517,1,8,2:0:0:0:
431,114,150689,6,0,P|407:278|404:306,1,160,2|0,2:0|1:2,2:0:0:0:
407,272,151032,2,0,L|302:281,1,80,2|0,2:3|2:0,2:0:0:0:
215,338,151204,2,0,P|189:222|164:162,1,160,8|0,2:0|3:0,2:0:0:0:
311,366,151546,1,2,2:3:0:0:
79,224,151718,1,0,3:0:0:0:
67,148,151803,1,0,3:0:0:0:
124,98,151889,2,0,L|237:88,1,80,10|0,2:3|2:0,2:0:0:0:
292,83,152061,1,2,2:0:0:0:
111,339,152232,38,0,P|208:216|293:162,1,240,0|0,1:2|2:0,2:0:0:0:
395,133,152575,2,2,P|336:201|317:191,1,80,10|0,2:3|2:0,2:0:0:0:
455,272,152746,2,2,P|365:271|355:244,1,80,0|0,3:0|2:0,2:0:0:0:
194,335,152918,5,2,2:3:0:0:
177,300,153004,1,2,2:3:0:0:
197,260,153089,1,2,2:3:0:0:
185,226,153175,1,0,1:3:0:0:
201,189,153260,1,10,2:3:0:0:
189,158,153346,1,2,2:3:0:0:
205,130,153432,1,2,2:3:0:0:
193,104,153518,1,2,2:3:0:0:
205,86,153603,37,0,2:0:0:0:
