osu file format v14

[General]
AudioFilename: audio.mp3
AudioLeadIn: 0
PreviewTime: 43809
Countdown: 0
SampleSet: Soft
StackLeniency: 0.6
Mode: 0
LetterboxInBreaks: 0
WidescreenStoryboard: 1

[Editor]
Bookmarks: 43899,68061,87785
DistanceSpacing: 1.3
BeatDivisor: 4
GridSize: 4
TimelineZoom: 3.2

[Metadata]
Title:Paper Planes (Cut Ver.)
TitleUnicode:Paper Planes (Cut Ver.)
Artist:Virtual Riot
ArtistUnicode:Virtual Riot
Creator:Fursum
Version:Advanced
Source:
Tags:electronic instrumental liquid dnb drum and bass garvanturr cyberia950
BeatmapID:3654189
BeatmapSetID:1187781

[Difficulty]
HPDrainRate:3.5
CircleSize:3
OverallDifficulty:5.5
ApproachRate:6.5
SliderMultiplier:1.4
SliderTickRate:1

[Events]
//Background and Video events
0,0,"paper (1).jpg",0,0
//Break Periods
2,87974,97771
//Storyboard Layer 0 (Background)
//Storyboard Layer 1 (Fail)
//Storyboard Layer 2 (Pass)
//Storyboard Layer 3 (Foreground)
//Storyboard Layer 4 (Overlay)
//Storyboard Sound Samples

[TimingPoints]
4,342.857142857143,4,2,1,50,1,0
21946,-133.333333333333,4,2,1,50,0,0
32918,-117.647058823529,4,2,1,60,0,0
42860,-117.647058823529,4,2,1,70,0,0
43204,-117.647058823529,4,2,1,50,0,0
43546,-117.647058823529,4,2,1,35,0,0
43889,-117.647058823529,4,2,2,75,0,0
44061,-100,4,2,2,75,0,0
65831,-100,4,2,2,50,0,0
68061,-100,4,2,2,65,0,0
68575,-100,4,2,2,75,0,0
86746,-100,4,2,2,50,0,0
86918,-100,4,2,2,40,0,0
87432,-80,4,2,2,75,0,0
87946,-80,4,2,2,40,0,0
98746,-125,4,2,2,40,0,0
109375,-125,4,2,2,75,0,0
109632,-125,4,2,2,5,0,0
109718,-100,4,2,2,65,0,0
120004,-100,4,2,3,65,0,0
120346,-100,4,2,3,55,0,0
120517,-100,4,2,3,50,0,0
120603,-100,4,2,3,45,0,0
120861,-100,4,2,2,65,0,0
141946,-100,4,2,3,65,0,0
142289,-100,4,2,3,55,0,0
142460,-100,4,2,3,50,0,0
142546,-100,4,2,3,45,0,0
142804,-100,4,2,2,65,0,0

[Colours]
Combo1 : 223,107,239
Combo2 : 216,216,216
Combo3 : 154,154,154
Combo4 : 231,235,71

[HitObjects]
154,261,21946,6,0,P|224:241|369:217,1,210.000008010865,2|0,0:3|0:0,0:0:0:0:
193,364,23146,2,0,B|201:218|255:277|250:104,1,262.500010013581,2|0,0:3|0:0,0:0:0:0:
250,111,24175,1,2,0:3:0:0:
370,196,24518,6,0,P|273:205|110:246,1,262.500010013581,2|0,0:3|0:0,0:0:0:0:
75,29,25889,2,0,P|183:4|253:134,1,262.500010013581,2|0,0:3|0:0,0:0:0:0:
256,117,26918,1,2,0:3:0:0:
399,150,27261,38,0,P|301:131|228:267,1,262.500010013581,2|0,0:3|0:0,0:0:0:0:
36,370,28632,2,0,P|233:340|315:336,1,262.500010013581,2|0,0:3|0:0,0:0:0:0:
295,336,29661,1,2,0:3:0:0:
431,275,30004,6,0,P|380:162|257:168,1,262.500010013581,2|0,0:3|0:0,0:0:0:0:
51,95,31375,2,0,B|92:117|127:201|127:201|121:110|155:67,1,262.500010013581,2|2,0:3|0:3,0:0:0:0:
259,170,32575,1,8,0:0:0:0:
259,170,32918,6,0,P|300:178|387:184,1,119.000002269745,0|8,3:0|0:0,0:0:0:0:
460,52,33604,2,0,P|400:56|342:67,1,119.000002269745,0|8,0:0|0:0,0:0:0:0:
267,31,34118,38,0,P|296:176|320:323,1,297.500005674362,2|2,0:3|3:3,0:0:0:0:
320,322,35146,1,2,3:3:0:0:
402,193,35489,38,0,B|321:160|254:233|277:246|214:299|133:268,1,297.500005674362,2|0,0:3|3:0,0:0:0:0:
99,118,36689,1,8,0:0:0:0:
107,107,36861,6,0,P|235:108|248:254,1,297.500005674362,2|2,0:3|3:3,0:0:0:0:
244,259,37889,2,0,P|250:301|256:333,1,59.5000011348725,2|8,3:3|0:0,0:0:0:0:
182,362,38232,38,0,P|229:288|412:324,1,297.500005674362,2|2,0:3|3:3,0:0:0:0:
472,180,39432,1,8,0:0:0:0:
462,186,39604,2,0,P|338:143|192:48,1,297.500005674362,2|2,0:3|3:3,0:0:0:0:
189,62,40632,2,0,P|168:40|143:25,1,59.5000011348725,2|8,3:3|0:0,0:0:0:0:
88,88,40975,6,0,P|188:53|385:22,1,297.500005674362,2|2,0:3|3:3,0:0:0:0:
403,176,42175,1,8,0:0:0:0:
394,186,42346,2,0,P|309:200|273:117,1,178.500003404617,2|8,0:3|0:0,0:0:0:0:
376,23,43204,37,0,0:0:0:0:
302,382,43889,21,4,1:1:0:0:
322,297,44061,2,0,P|328:263|344:221,2,70,2|10|2,0:1|0:3|0:3,0:0:0:0:
295,384,44575,2,0,P|245:230|218:183,1,210,2|2,0:1|0:1,0:0:0:0:
129,180,45261,5,2,1:3:0:0:
125,170,45432,1,2,0:3:0:0:
123,159,45604,2,0,P|143:108|230:100,1,140,10|0,0:1|3:0,0:0:0:0:
287,32,46118,2,0,P|359:54|432:74,1,140,2|2,1:0|0:1,0:0:0:0:
510,92,46632,37,0,1:1:0:0:
504,183,46804,2,0,P|507:226|513:255,2,70,2|10|2,0:1|0:3|0:3,0:0:0:0:
500,93,47318,2,0,P|458:170|369:264,1,210,2|2,0:1|0:1,0:0:0:0:
380,351,48004,5,2,1:3:0:0:
372,360,48175,1,2,0:3:0:0:
362,365,48346,2,0,P|304:348|284:268,1,140,10|0,0:1|3:0,0:0:0:0:
200,236,48861,2,0,P|220:198|309:187,1,140,2|2,1:0|0:1,0:0:0:0:
387,139,49375,37,0,1:1:0:0:
381,130,49546,2,0,L|400:54,2,70,2|8|2,0:0|0:3|0:0,0:0:0:0:
308,186,50061,1,2,0:0:0:0:
298,192,50232,2,0,B|221:187|266:149|168:142,1,140,2|2,1:2|0:2,0:0:0:0:
163,51,50746,6,0,L|92:67,1,70,2|2,1:2|0:2,0:0:0:0:
6,89,51089,1,8,0:3:0:0:
113,234,51432,38,0,P|155:225|190:229,2,70,2|2|10,3:2|1:3|0:3,0:0:0:0:
23,251,51946,2,0,P|89:279|103:347,1,140,2|2,3:2|3:2,0:0:0:0:
191,368,52461,1,10,0:3:0:0:
202,377,52632,2,0,P|251:371|290:284,1,140,2|2,3:2|1:2,0:0:0:0:
366,242,53146,1,10,0:3:0:0:
380,247,53318,6,0,P|419:280|427:309,1,70,2|2,3:2|1:3,0:0:0:0:
466,378,53661,2,0,B|524:338|524:338|499:245,1,140,2|2,3:2|3:2,0:0:0:0:
464,190,54175,1,2,0:0:0:0:
467,178,54346,1,2,1:2:0:0:
469,165,54518,2,0,L|478:117,2,35,10|0|0,0:3|0:0|0:0,0:0:0:0:
379,149,54861,37,4,1:1:0:0:
321,79,55032,2,0,P|301:63|274:12,2,70,2|10|2,0:1|0:3|0:3,0:0:0:0:
372,152,55546,2,0,P|257:113|155:101,1,210,2|2,0:1|0:1,0:0:0:0:
140,189,56232,5,2,1:3:0:0:
128,186,56404,1,2,0:3:0:0:
116,183,56575,2,0,P|75:129|90:56,1,140,10|0,0:1|3:0,0:0:0:0:
169,101,57089,2,0,P|247:89|317:84,1,140,2|2,1:0|0:1,0:0:0:0:
356,163,57604,37,0,1:1:0:0:
325,249,57775,2,0,P|311:285|287:322,2,70,2|10|2,0:1|0:3|0:3,0:0:0:0:
366,167,58289,2,0,P|377:266|428:380,1,210,2|2,0:1|0:1,0:0:0:0:
500,323,58975,5,2,1:3:0:0:
503,311,59146,1,2,0:3:0:0:
505,299,59318,2,0,P|501:245|441:161,1,140,10|0,0:1|3:0,0:0:0:0:
429,86,59832,2,0,P|364:96|279:75,1,140,2|2,1:0|0:1,0:0:0:0:
201,96,60346,37,0,1:1:0:0:
202,83,60518,2,0,L|221:13,2,70,2|8|2,0:0|0:3|0:0,0:0:0:0:
113,104,61032,1,2,0:0:0:0:
115,117,61204,2,0,B|127:200|141:153|154:258,1,140,2|2,1:2|0:2,0:0:0:0:
243,268,61718,6,0,P|225:318|203:335,1,70,2|2,1:2|0:2,0:0:0:0:
122,332,62061,1,8,0:3:0:0:
230,176,62404,38,0,L|303:166,2,70,2|2|10,3:2|1:3|0:3,0:0:0:0:
183,98,62918,2,0,P|124:79|73:146,1,140,2|2,3:2|3:2,0:0:0:0:
87,219,63433,1,10,0:3:0:0:
74,223,63604,2,0,P|43:266|82:335,1,140,2|2,3:2|1:2,0:0:0:0:
169,359,64118,1,10,0:3:0:0:
180,364,64289,2,0,P|216:356|224:253,1,140,2|2,3:2|1:2,0:0:0:0:
328,250,64804,6,0,P|316:212|286:194,1,70,10|2,0:3|3:2,0:0:0:0:
264,109,65146,1,2,0:0:0:0:
261,93,65318,1,2,1:2:0:0:
257,77,65489,2,0,L|250:35,4,35,10|0|0|2|4,0:3|0:0|0:3|0:3|1:3,0:0:0:0:
230,210,68061,38,0,L|368:182,1,140,0|0,1:0|3:0,0:0:0:0:
457,165,68575,5,0,1:0:0:0:
315,292,68918,2,0,B|228:271|228:271|213:251|213:251|107:224,1,210,8|0,0:3|1:0,0:0:0:0:
4,79,69775,1,0,3:0:0:0:
15,84,69946,38,0,L|9:13,1,70,0|0,1:0|3:0,0:0:0:0:
100,18,70289,2,0,P|112:136|121:234,1,210,8|0,0:3|1:0,0:0:0:0:
199,273,70975,2,0,L|208:367,1,70,8|0,0:3|3:0,0:0:0:0:
124,384,71318,5,0,1:0:0:0:
292,297,71661,2,0,B|340:304|340:304|347:315|347:315|498:333,1,210,8|0,0:3|1:0,0:0:0:0:
492,124,72518,1,0,3:0:0:0:
484,114,72689,38,0,L|412:127,1,70,0|0,1:0|3:0,0:0:0:0:
415,35,73032,2,0,P|336:70|346:184,1,210,8|0,0:3|1:0,0:0:0:0:
485,304,73889,1,0,3:0:0:0:
492,299,74061,5,0,1:0:0:0:
311,355,74404,2,0,B|217:342|217:342|210:334|210:334|88:316,1,210,8|0,0:3|1:0,0:0:0:0:
70,134,75261,1,0,3:0:0:0:
56,138,75432,38,0,P|36:168|40:214,1,70,0|0,1:0|3:0,0:0:0:0:
124,227,75775,2,0,P|195:189|335:145,1,210,8|0,0:3|1:0,0:0:0:0:
345,61,76461,2,0,P|383:80|399:113,1,70,8|0,0:3|3:0,0:0:0:0:
399,194,76804,5,0,1:0:0:0:
225,268,77146,2,0,B|233:203|233:203|225:174|225:174|243:42,1,210,8|0,0:3|1:0,0:0:0:0:
53,31,78004,1,0,3:0:0:0:
63,34,78175,38,0,L|77:122,1,70,0|0,1:0|3:0,0:0:0:0:
58,193,78518,2,0,B|137:205|106:159|194:169,1,140,8|0,0:3|3:0,0:0:0:0:
280,190,79032,1,0,1:0:0:0:
376,27,79375,1,0,3:0:0:0:
382,18,79546,5,0,1:0:0:0:
454,193,79889,2,0,P|382:216|248:296,1,210,8|0,0:3|1:0,0:0:0:0:
101,374,80746,1,0,3:0:0:0:
89,367,80918,38,0,P|57:355|8:343,1,70,0|0,1:0|3:0,0:0:0:0:
41,256,81261,2,0,P|118:263|163:130,1,210,8|0,0:3|1:0,0:0:0:0:
261,130,81946,2,0,P|264:94|270:58,1,70,8|0,0:3|3:0,0:0:0:0:
199,2,82289,5,0,1:0:0:0:
353,109,82632,2,0,B|346:168|346:168|337:182|337:182|322:325,1,210,8|0,0:3|1:0,0:0:0:0:
139,356,83489,1,0,3:0:0:0:
140,342,83661,38,0,L|149:263,1,70,0|0,1:0|3:0,0:0:0:0:
162,182,84004,2,0,P|99:186|59:253,1,140,8|0,0:3|3:0,0:0:0:0:
46,336,84518,1,0,1:0:0:0:
233,307,84861,1,0,3:0:0:0:
246,311,85032,5,0,1:0:0:0:
433,285,85375,2,0,P|454:158|485:55,1,210,8|0,0:3|1:0,0:0:0:0:
294,28,86232,1,0,3:0:0:0:
308,34,86404,38,0,P|328:60|336:105,1,70,0|0,1:0|3:0,0:0:0:0:
358,183,86746,1,0,3:3:0:0:
62,336,87432,6,2,P|9:361|56:323,1,175,0|4,3:0|1:3,0:0:0:0:
315,164,98746,6,0,L|254:146,1,56,2|0,3:2|0:0,0:0:0:0:
251,144,99089,1,0,3:0:0:0:
381,79,99432,2,0,P|423:126|420:182,1,112,2|0,3:2|3:0,0:0:0:0:
312,267,100118,6,0,P|295:91|284:36,1,224,2|2,3:2|3:2,0:0:0:0:
401,292,101489,38,0,P|408:330|409:351,1,56,2|0,3:2|0:0,0:0:0:0:
404,356,101832,1,0,3:0:0:0:
492,239,102175,1,2,3:2:0:0:
347,221,102518,2,0,P|301:196|289:190,1,56,0|0,3:0|0:0,0:0:0:0:
290,183,102861,6,0,P|196:204|56:214,1,224,2|2,3:2|3:2,0:0:0:0:
182,304,103889,1,0,3:0:0:0:
64,207,104232,38,0,P|70:173|74:136,1,56,2|0,3:2|0:0,0:0:0:0:
64,142,104575,2,0,P|57:114|48:88,1,56,0|0,3:0|0:0,0:0:0:0:
37,83,104918,2,0,P|41:47|105:18,1,112,2|0,3:2|3:0,0:0:0:0:
239,71,105604,6,0,P|260:142|147:203,1,224,2|2,3:2|3:2,0:0:0:0:
148,203,106632,1,0,3:0:0:0:
270,281,106975,38,0,P|301:268|334:260,1,56,2|0,3:2|0:0,0:0:0:0:
332,253,107318,2,0,P|364:260|393:275,1,56,0|0,3:0|0:0,0:0:0:0:
394,282,107661,2,0,P|423:254|498:214,1,112,2|0,3:2|3:0,0:0:0:0:
492,73,108346,5,2,3:2:0:0:
383,169,108689,2,0,L|312:152,1,56,0|0,3:0|0:0,0:0:0:0:
253,184,109032,1,2,3:2:0:0:
242,188,109204,1,0,0:0:0:0:
231,192,109375,1,0,3:0:0:0:
143,24,109718,6,0,P|67:27|41:88,1,140,2|8,1:2|0:0,0:0:0:0:
11,265,110404,1,0,0:0:0:0:
21,257,110575,2,0,P|77:254|167:281,1,140,2|2,0:2|0:0,0:0:0:0:
229,333,111089,6,0,L|464:286,1,210,0|0,1:2|0:0,0:0:0:0:
445,298,111775,1,0,0:0:0:0:
482,215,111946,37,2,0:0:0:0:
465,125,112118,2,0,P|440:100|396:84,1,70,10|2,0:0|0:0,0:0:0:0:
316,89,112461,6,0,B|317:164|366:135|365:215,1,140,2|8,1:2|0:0,0:0:0:0:
220,336,113146,1,0,0:0:0:0:
133,366,113318,2,0,P|71:340|73:263,1,140,2|2,0:2|0:0,0:0:0:0:
9,202,113832,38,0,P|81:183|218:136,1,210,0|0,1:2|0:0,0:0:0:0:
293,103,114518,1,0,3:0:0:0:
298,92,114689,1,0,3:0:0:0:
355,168,114861,1,8,0:0:0:0:
204,281,115204,6,0,B|288:282|254:330|331:332,1,140,2|8,1:2|0:0,0:0:0:0:
474,212,115889,1,0,0:0:0:0:
483,203,116061,2,0,P|496:159|440:77,1,140,2|2,0:2|0:0,0:0:0:0:
399,13,116575,38,0,P|282:35|276:136,1,210,0|0,1:2|0:0,0:0:0:0:
273,120,117261,1,0,0:0:0:0:
208,184,117432,5,2,0:0:0:0:
119,206,117604,2,0,P|85:190|56:150,1,70,10|2,0:0|0:0,0:0:0:0:
53,75,117946,37,2,1:2:0:0:
15,260,118289,2,0,P|21:294|23:329,1,70,8|0,0:0|0:0,0:0:0:0:
105,370,118632,1,0,0:0:0:0:
196,367,118804,2,0,P|250:333|226:267,1,140,2|2,0:2|0:0,0:0:0:0:
167,202,119318,5,0,1:2:0:0:
340,277,119661,2,0,L|424:307,1,70,8|2,0:0|0:3,0:0:0:0:
487,260,120004,2,0,L|499:207,3,35,2|2|2|0,0:1|0:1|0:1|1:2,0:0:0:0:
498,212,120346,2,0,L|510:159,3,35,10|2|2|2,0:1|0:1|0:1|0:1,0:0:0:0:
436,54,120861,37,2,0:0:0:0:
423,58,121032,2,0,L|342:73,1,70,8|0,0:0|0:0,0:0:0:0:
334,160,121375,1,0,0:0:0:0:
324,170,121546,2,0,P|277:148|264:52,1,140,2|2,0:2|0:0,0:0:0:0:
180,16,122061,6,0,P|121:10|69:135,1,210,0|0,1:2|0:0,0:0:0:0:
63,219,122746,1,0,0:0:0:0:
74,224,122918,37,2,0:0:0:0:
110,307,123089,2,0,P|152:287|202:279,1,70,10|2,0:3|0:3,0:0:0:0:
259,316,123432,5,2,1:2:0:0:
225,136,123775,2,0,P|218:97|209:47,1,70,8|0,0:0|0:0,0:0:0:0:
296,31,124118,1,0,0:0:0:0:
348,105,124289,2,0,P|428:118|508:135,1,140,2|2,0:2|0:0,0:0:0:0:
498,218,124804,37,0,1:2:0:0:
445,294,124975,2,0,P|415:276|409:242,2,70,0|8|0,0:0|0:0|0:0,0:0:0:0:
491,380,125489,5,0,1:0:0:0:
502,378,125661,1,0,1:0:0:0:
512,376,125832,1,10,0:1:0:0:
315,372,126175,38,0,B|236:370|271:329|184:323,1,140,2|8,1:2|0:0,0:0:0:0:
48,196,126861,1,0,0:0:0:0:
36,202,127032,2,0,P|18:233|79:312,1,140,2|2,0:2|0:0,0:0:0:0:
135,248,127546,6,0,P|154:180|168:34,1,210,0|0,1:2|0:0,0:0:0:0:
82,74,128232,2,0,P|55:103|78:177,2,105,2|2|2,0:3|1:3|0:0,0:0:0:0:
170,48,128918,37,2,1:2:0:0:
299,187,129261,2,0,P|351:173|381:171,1,70,8|0,0:0|0:0,0:0:0:0:
457,181,129604,2,0,B|435:109|435:109|378:69|378:69|359:7,1,210,0|2,0:0|0:0,0:0:0:0:
272,32,130289,6,0,L|175:10,1,70,0|0,1:2|0:0,0:0:0:0:
119,58,130632,2,0,P|144:103|160:163,2,105,8|8|8,0:0|0:3|0:3,0:0:0:0:
47,0,131318,2,0,P|26:32|41:88,1,70,8|2,0:0|0:0,0:0:0:0:
62,146,131661,37,0,1:2:0:0:
247,185,132004,2,0,L|343:175,1,70,8|0,0:0|3:0,0:0:0:0:
360,257,132346,2,0,L|214:273,1,140,2|10,0:3|0:3,0:0:0:0:
174,351,132861,1,2,0:0:0:0:
162,353,133032,6,0,P|95:340|125:216,1,210,0|0,1:2|3:0,0:0:0:0:
135,136,133718,1,0,3:0:0:0:
142,126,133889,2,0,L|214:111,1,70,2|8,0:0|0:0,0:0:0:0:
289,65,134232,38,0,L|361:49,2,70,2|0|2,0:0|1:2|0:3,0:0:0:0:
289,156,134746,2,0,L|360:141,1,70,8|0,0:0|3:0,0:0:0:0:
447,126,135089,2,0,P|443:211|390:219,1,140,2|10,0:3|0:3,0:0:0:0:
362,304,135604,1,2,0:0:0:0:
351,297,135775,5,0,1:2:0:0:
271,342,135946,2,0,L|198:335,2,70,2|10|0,0:3|0:3|3:0,0:0:0:0:
275,250,136461,1,0,3:0:0:0:
270,237,136632,1,2,0:0:0:0:
265,225,136804,2,0,L|238:153,1,70,10|2,0:1|0:0,0:0:0:0:
202,76,137146,37,0,1:2:0:0:
134,247,137489,2,0,P|128:213|116:180,1,70,8|0,0:3|3:0,0:0:0:0:
25,184,137832,2,0,P|44:247|53:334,1,140,2|10,0:3|0:3,0:0:0:0:
129,370,138346,1,2,0:0:0:0:
201,314,138518,6,0,P|289:250|379:288,1,210,0|0,1:2|3:0,0:0:0:0:
434,353,139204,1,0,3:0:0:0:
446,348,139375,2,0,P|470:293|469:260,1,70,2|8,0:0|0:0,0:0:0:0:
509,201,139718,38,0,P|499:159|487:129,2,70,2|0|2,0:0|1:2|0:3,0:0:0:0:
417,198,140232,2,0,P|378:182|326:154,1,70,8|0,0:0|3:0,0:0:0:0:
276,219,140575,2,0,P|254:135|230:66,1,140,2|10,0:3|0:3,0:0:0:0:
299,18,141089,1,2,0:0:0:0:
310,23,141261,5,0,1:2:0:0:
162,141,141604,2,2,P|127:150|95:165,1,70,10|2,0:3|3:0,0:0:0:0:
86,255,141946,2,0,L|35:241,3,35,2|2|2|0,0:1|0:1|0:1|1:2,0:0:0:0:
39,236,142289,2,0,L|-11:222,3,35,10|2|2|2,0:1|0:1|0:1|0:1,0:0:0:0:
92,346,142804,37,2,0:2:0:0:
105,350,142975,2,0,L|184:334,1,70,8|0,0:0|3:0,0:0:0:0:
241,275,143318,1,2,0:3:0:0:
400,362,143661,2,0,P|423:333|428:276,1,70,10|2,0:3|0:0,0:0:0:0:
492,235,144004,6,0,P|478:156|359:142,1,210,0|0,1:2|3:0,0:0:0:0:
276,160,144689,1,0,3:0:0:0:
268,171,144861,1,2,0:0:0:0:
193,119,145032,2,0,P|185:86|202:30,1,70,10|2,0:3|0:3,0:0:0:0:
275,16,145375,37,0,1:2:0:0:
100,85,145718,2,0,P|45:63|15:56,1,70,8|0,0:0|3:0,0:0:0:0:
7,147,146061,2,0,P|127:191|160:207,1,140,2|10,0:3|0:3,0:0:0:0:
214,246,146575,1,2,0:0:0:0:
218,255,146746,1,0,1:2:0:0:
152,318,146918,6,0,L|75:337,2,70,2|10|0,0:3|0:3|3:0,0:0:0:0:
237,349,147432,1,0,3:0:0:0:
247,352,147604,1,2,0:0:0:0:
257,354,147775,2,0,L|334:374,1,70,10|2,0:1|0:0,0:0:0:0:
415,379,148118,38,0,B|421:263|342:301|342:180,1,210,0|0,1:2|3:0,0:0:0:0:
391,112,148804,1,2,0:3:0:0:
264,242,149146,2,0,P|223:237|175:231,1,70,10|2,0:3|0:0,0:0:0:0:
149,153,149489,6,0,P|184:87|308:125,1,210,0|0,1:2|3:0,0:0:0:0:
391,112,150175,1,0,3:0:0:0:
389,125,150346,2,0,P|383:153|366:207,1,70,2|8,0:0|0:0,0:0:0:0:
318,267,150689,38,0,P|352:321|429:308,1,140,2|2,0:0|0:3,0:0:0:0:
486,251,151204,2,0,L|469:153,1,70,8|0,0:0|3:0,0:0:0:0:
494,93,151546,1,2,0:3:0:0:
315,59,151889,2,0,L|248:82,1,70,10|2,0:3|0:0,0:0:0:0:
179,22,152232,6,0,B|131:72|131:72|186:161,1,140,0|10,1:2|0:3,0:0:0:0:
250,171,152746,1,0,3:0:0:0:
191,240,152918,38,0,L|148:262,3,35,2|2|2|0,0:3|0:3|0:3|1:3,0:0:0:0:
149,254,153261,2,0,L|106:276,3,35,10|2|2|2,0:3|0:3|0:3|0:3,0:0:0:0:
107,269,153604,1,2,0:2:0:0:
