osu file format v14

[General]
AudioFilename: audio.mp3
AudioLeadIn: 0
PreviewTime: 48598
Countdown: 0
SampleSet: Soft
StackLeniency: 0.7
Mode: 0
LetterboxInBreaks: 0
WidescreenStoryboard: 0

[Editor]
Bookmarks: 11128,18628,48628,63628,78628,93628,108628,138628,153628,168628,183628,198628
DistanceSpacing: 1.4
BeatDivisor: 4
GridSize: 32
TimelineZoom: 1.9

[Metadata]
Title:Idols (EDM Mashup)
TitleUnicode:Idols (EDM Mashup)
Artist:Virtual Riot
ArtistUnicode:Virtual Riot
Creator:pkk
Version:YMCA
Source:
Tags:proximity pkmnyab
BeatmapID:1004123
BeatmapSetID:469554

[Difficulty]
HPDrainRate:6
CircleSize:4
OverallDifficulty:8
ApproachRate:9
SliderMultiplier:1.9
SliderTickRate:1

[Events]
//Background and Video events
0,0,"dcma.jpg",0,0
//Break Periods
2,78828,92945
//Storyboard Layer 0 (Background)
//Storyboard Layer 1 (Fail)
//Storyboard Layer 2 (Pass)
//Storyboard Layer 3 (Foreground)
//Storyboard Sound Samples

[TimingPoints]
-122,468.75,4,2,1,40,1,0
18628,-66.6666666666667,4,2,1,65,0,1
33159,-66.6666666666667,4,2,1,55,0,0
33628,-66.6666666666667,4,2,1,55,0,1
48628,-76.9230769230769,4,2,1,55,0,0
63628,-76.9230769230769,4,2,1,55,0,1
78628,-76.9230769230769,4,2,1,55,0,0
93628,-83.3333333333333,4,2,1,55,0,0
108628,-66.6666666666667,4,2,1,55,0,1
122690,-66.6666666666667,4,2,1,55,0,0
123628,-66.6666666666667,4,2,1,55,0,1
138628,-76.9230769230769,4,2,1,55,0,0

[Colours]
Combo1 : 208,150,231
Combo2 : 134,211,249
Combo3 : 247,251,85
Combo4 : 237,103,164

[HitObjects]
256,192,346,12,0,3393,0:0:0:0:
88,192,3628,6,0,L|73:51,1,142.5
314,150,4331,1,0,0:0:0:0:
314,150,4565,2,0,L|298:291,2,142.5
177,76,5503,6,0,P|250:67|337:23,1,142.5
452,188,6206,1,0,0:0:0:0:
452,188,6440,2,0,P|386:160|316:151,2,142.5
190,217,7378,6,0,P|207:148|239:84,1,142.5
60,202,8081,1,0,0:0:0:0:
60,202,8315,2,0,P|91:265|109:334,2,142.5
213,232,9253,6,0,B|268:256|268:256|368:230,1,142.5
470,121,9956,1,0,0:0:0:0:
470,121,10190,2,0,B|415:145|415:145|315:119,2,142.5
239,62,11128,6,0,L|246:115,1,47.5
204,189,11362,1,0,0:0:0:0:
393,130,11596,1,0,0:0:0:0:
275,289,11830,1,0,0:0:0:0:
278,92,12065,1,0,0:0:0:0:
392,252,12299,1,0,0:0:0:0:
392,252,12417,2,0,P|441:243|496:235,1,95
446,338,12768,1,0,0:0:0:0:
349,343,12885,6,0,L|233:323,1,95
190,267,13237,1,0,0:0:0:0:
317,128,13471,1,0,0:0:0:0:
353,227,13706,1,0,0:0:0:0:
211,115,13940,1,0,0:0:0:0:
395,45,14174,1,0,0:0:0:0:
395,45,14292,2,0,L|498:52,1,95
424,142,14643,1,0,0:0:0:0:
324,117,14760,6,0,L|229:123,1,95
142,75,15112,1,0,0:0:0:0:
75,225,15346,1,0,0:0:0:0:
238,208,15581,1,0,0:0:0:0:
63,125,15815,6,0,P|18:164|-7:210,1,95
172,85,16284,2,0,P|145:45|108:16,1,95
145,197,16753,2,0,P|201:215|284:176,1,142.5
292,148,17221,2,0,L|304:208,1,47.5
311,207,17690,6,0,L|385:199,1,47.5
182,87,17924,2,0,L|256:79,1,47.5
186,263,18159,6,0,L|138:268,1,47.5
49,164,18393,2,0,L|1:169,1,47.5
332,106,18628,5,0,0:0:0:0:
138,267,18862,2,0,L|138:196,1,71.2500027179719
224,76,19096,2,0,L|224:147,1,71.2500027179719
426,223,19331,2,0,P|376:180|298:208,1,142.500005435944
245,257,19683,1,0,0:0:0:0:
253,287,19799,1,0,0:0:0:0:
118,140,20034,5,0,0:0:0:0:
153,134,20151,1,0,0:0:0:0:
188,128,20268,1,0,0:0:0:0:
223,123,20385,1,0,0:0:0:0:
258,117,20502,5,0,0:0:0:0:
309,242,20737,2,0,L|238:238,1,71.2500027179719
392,186,20971,1,0,0:0:0:0:
392,186,21206,2,0,P|397:127|443:163,1,142.500005435944
464,200,21557,1,0,0:0:0:0:
470,238,21674,2,0,P|466:272|457:320,1,71.2500027179719
360,358,21909,2,0,P|325:367|289:370,1,71.2500027179719
200,262,22143,2,0,P|235:271|271:274,1,71.2500027179719
393,143,22378,6,0,P|320:156|272:282,1,213.750008153916
389,214,22846,2,0,L|393:136,1,71.2500027179719
453,293,23081,2,0,L|449:364,1,71.2500027179719
333,322,23315,6,0,P|268:292|197:283,1,142.500005435944
87,216,23667,1,0,0:0:0:0:
87,216,23783,2,0,P|122:208|154:192,1,71.2500027179719
290,137,24018,2,0,P|255:129|223:113,1,71.2500027179719
144,47,24253,5,0,0:0:0:0:
294,21,24487,1,0,0:0:0:0:
393,141,24721,1,0,0:0:0:0:
390,155,24838,1,0,0:0:0:0:
387,169,24956,2,0,L|362:328,1,142.500005435944
218,333,25424,2,0,L|229:248,1,71.2500027179719
198,115,25659,2,0,L|127:109,1,71.2500027179719
283,160,25893,2,0,L|354:154,1,71.2500027179719
476,63,26128,6,0,P|447:129|448:207,1,142.500005435944
446,198,26479,1,0,0:0:0:0:
446,198,26596,1,0,0:0:0:0:
253,295,26831,2,0,P|282:229|281:151,1,142.500005435944
283,160,27182,1,0,0:0:0:0:
283,160,27299,1,0,0:0:0:0:
141,274,27534,1,0,0:0:0:0:
141,274,27651,1,0,0:0:0:0:
141,274,27768,2,0,L|133:188,1,71.2500027179719
133,103,28003,6,0,L|62:97,1,71.2500027179719
223,152,28237,2,0,L|294:146,1,71.2500027179719
367,74,28471,1,0,0:0:0:0:
476,232,28706,2,0,P|408:222|361:272,1,142.500005435944
362,272,29057,1,0,0:0:0:0:
362,272,29174,1,0,0:0:0:0:
171,238,29409,5,0,0:0:0:0:
168,195,29526,1,0,0:0:0:0:
165,152,29643,1,0,0:0:0:0:
163,109,29760,1,0,0:0:0:0:
160,69,29878,6,0,L|4:57,1,142.500005435944
243,155,30346,2,0,L|326:149,1,71.2500027179719
371,66,30581,2,0,L|450:61,1,71.2500027179719
495,160,30815,2,0,P|440:218|416:289,1,142.500005435944
242,340,31284,2,0,P|277:335|312:327,1,71.2500027179719
271,233,31518,2,0,P|236:224|201:220,1,71.2500027179719
89,238,31753,6,0,P|59:173|64:80,1,142.500005435944
11,152,32104,2,0,P|31:220|77:275,1,142.500005435944
187,311,32456,2,0,P|245:269|287:186,1,142.500005435944
294,275,32807,2,0,P|244:324|178:349,1,142.500005435944
152,227,33159,5,0,0:0:0:0:
251,132,33393,2,0,P|313:133|352:169,1,106.875004076958
346,159,33628,5,0,0:0:0:0:
153,228,33862,2,0,P|169:256|200:246,1,71.2500027179719
122,146,34096,1,0,0:0:0:0:
122,146,34331,2,0,P|114:216|80:278,1,142.500005435944
3,329,34682,1,0,0:0:0:0:
3,329,34799,1,0,0:0:0:0:
161,370,35034,2,0,L|243:367,1,71.2500027179719
374,271,35268,2,0,L|303:274,1,71.2500027179719
212,222,35503,6,0,B|203:196|203:196|211:175|211:175|204:154,1,71.2500027179719
162,72,35737,1,0,0:0:0:0:
274,32,35971,2,0,B|283:58|283:58|275:79|275:79|281:99,1,71.2500027179719
68,173,36206,2,0,B|79:131|79:131|61:77|61:77|72:36,1,142.500005435944
162,72,36557,1,0,0:0:0:0:
162,72,36674,1,0,0:0:0:0:
295,134,36909,2,0,L|373:127,1,71.2500027179719
483,112,37143,2,0,L|468:192,1,71.2500027179719
380,270,37378,6,0,P|300:236|298:334,1,213.750008153916
302,352,37846,2,0,L|373:347,1,71.2500027179719
239,271,38081,2,0,L|145:265,1,71.2500027179719
104,191,38315,5,0,0:0:0:0:
217,61,38549,1,0,0:0:0:0:
219,76,38667,1,0,0:0:0:0:
221,91,38783,1,0,0:0:0:0:
330,196,39018,1,0,0:0:0:0:
458,108,39253,6,0,L|473:12,1,71.2500027179719
333,87,39487,1,0,0:0:0:0:
507,190,39721,2,0,L|496:260,1,71.2500027179719
397,314,39956,2,0,B|351:299|351:299|304:323|304:323|264:310,1,142.500005435944
192,246,40307,1,0,0:0:0:0:
192,246,40424,1,0,0:0:0:0:
257,125,40659,2,0,P|288:126|350:144,1,71.2500027179719
370,46,40893,2,0,P|399:68|422:95,1,71.2500027179719
404,199,41128,6,0,P|372:269|370:341,1,142.500005435944
368,333,41479,1,0,0:0:0:0:
368,333,41596,1,0,0:0:0:0:
232,221,41831,2,0,P|264:151|266:79,1,142.500005435944
201,28,42182,1,0,0:0:0:0:
200,27,42299,2,0,L|113:18,1,71.2500027179719
57,124,42534,5,0,0:0:0:0:
60,157,42651,1,0,0:0:0:0:
64,191,42768,1,0,0:0:0:0:
68,225,42885,1,0,0:0:0:0:
73,260,43003,6,0,P|137:236|188:282,1,142.500005435944
105,346,43354,1,0,0:0:0:0:
86,343,43471,2,0,L|-5:333,1,71.2500027179719
188,283,43706,6,0,L|351:276,1,142.500005435944
410,290,44057,1,0,0:0:0:0:
421,298,44174,2,0,L|429:213,1,71.2500027179719
346,133,44409,5,0,0:0:0:0:
311,130,44526,1,0,0:0:0:0:
277,128,44643,1,0,0:0:0:0:
243,126,44760,1,0,0:0:0:0:
209,124,44878,6,0,P|178:188|191:264,1,142.500005435944
187,256,45229,1,0,0:0:0:0:
187,256,45346,1,0,0:0:0:0:
421,171,45581,2,0,P|452:235|439:311,1,142.500005435944
443,303,45932,1,0,0:0:0:0:
443,303,46049,1,0,0:0:0:0:
266,273,46284,6,0,P|233:259|198:252,1,71.2500027179719
197,152,46518,2,0,P|162:159|129:174,1,71.2500027179719
293,179,46753,6,0,P|331:132|329:34,1,142.500005435944
248,76,47104,2,0,P|292:131|361:139,1,142.500005435944
379,237,47456,2,0,P|341:306|326:387,1,142.500005435944
241,296,47807,2,0,P|224:226|189:165,1,142.500005435944
106,132,48159,6,0,L|61:132,1,35.625001358986
406,132,48394,2,0,L|451:132,1,35.625001358986
321,338,48628,6,0,P|262:291|143:325,1,185.249991519928
147,329,49096,2,0,L|223:324,2,61.7499971733095
302,196,49565,2,0,L|240:200,2,61.7499971733095
151,95,50034,1,0,0:0:0:0:
151,95,50151,2,0,L|230:89,2,61.7499971733095
301,15,50503,5,0,0:0:0:0:
272,187,50737,2,0,L|240:177,1,30.8749985866547
379,147,50971,1,0,0:0:0:0:
425,313,51206,1,0,0:0:0:0:
258,267,51440,1,0,0:0:0:0:
448,226,51675,1,0,0:0:0:0:
281,180,51909,1,0,0:0:0:0:
327,346,52143,1,0,0:0:0:0:
146,249,52378,6,0,P|204:235|259:268,1,123.499994346619,4|0,0:0|0:0,0:0:0:0:
51,290,52846,1,0,0:0:0:0:
52,273,52963,2,0,L|55:211,2,61.7499971733095
136,157,53315,1,0,0:0:0:0:
135,140,53432,2,0,L|132:78,2,61.7499971733095
243,165,53784,2,0,L|322:154,1,61.7499971733095
379,212,54018,2,0,L|458:201,1,61.7499971733095
298,245,54253,6,0,P|275:302|268:364,1,123.499994346619,4|0,0:0|0:0,0:0:0:0:
171,214,54721,1,0,0:0:0:0:
379,212,54956,2,0,L|379:151,1,61.7499971733095
289,114,55190,2,0,P|362:135|343:61,1,185.249991519928
325,37,55659,2,0,L|263:34,1,61.7499971733095
417,6,55893,2,0,L|478:3,1,61.7499971733095
496,92,56128,6,0,P|448:170|434:261,1,185.249991519928,4|0,0:0|0:0,0:0:0:0:
434,261,56596,1,0,0:0:0:0:
434,261,56713,2,0,L|357:258,1,61.7499971733095
261,153,57065,1,0,0:0:0:0:
261,153,57182,2,0,L|338:150,1,61.7499971733095
178,47,57534,1,0,0:0:0:0:
178,47,57651,2,0,L|95:45,2,61.7499971733095
279,12,58003,5,4,0:0:0:0:
429,117,58237,1,0,0:0:0:0:
300,187,58471,1,0,0:0:0:0:
404,122,58706,5,0,0:0:0:0:
470,280,58940,1,0,0:0:0:0:
308,218,59174,1,0,0:0:0:0:
488,181,59409,5,0,0:0:0:0:
383,336,59643,1,0,0:0:0:0:
187,234,59878,6,0,P|99:212|34:211,1,123.499994346619
158,127,60346,1,0,0:0:0:0:
179,124,60463,2,0,B|197:120|197:120|211:132|211:132|248:118,2,61.7499971733095
223,41,60815,1,0,0:0:0:0:
244,38,60932,2,0,B|262:34|262:34|276:46|276:46|313:32,2,61.7499971733095
319,132,61284,2,0,L|329:212,1,61.7499971733095
393,94,61518,2,0,L|385:32,1,61.7499971733095
491,204,61753,6,0,P|427:233|457:154,1,185.249991519928
493,214,62221,2,0,P|429:243|459:164,1,185.249991519928
496,225,62690,2,0,P|432:254|462:175,1,185.249991519928
396,270,63159,6,0,B|348:291|348:291|309:262|309:262|269:289|220:275,1,185.249991519928
122,241,63628,6,0,P|160:192|174:132,1,123.499994346619
337,50,64096,2,0,P|351:110|389:159,1,123.499994346619
321,330,64565,2,0,P|242:239|122:240,2,246.999988693238
478,260,65737,1,0,0:0:0:0:
343,176,65971,1,0,0:0:0:0:
434,80,66206,1,0,0:0:0:0:
434,80,66323,1,0,0:0:0:0:
434,80,66440,6,0,L|372:75,1,61.7499971733095
240,31,66674,2,0,L|302:36,1,61.7499971733095
194,108,66909,2,0,P|179:136|174:166,1,61.7499971733095
88,139,67143,1,0,0:0:0:0:
88,139,67260,1,0,0:0:0:0:
88,139,67378,2,0,P|107:241|115:281,1,123.499994346619
325,329,67846,5,0,0:0:0:0:
187,338,68081,1,0,0:0:0:0:
398,265,68315,5,0,0:0:0:0:
260,256,68549,1,0,0:0:0:0:
389,174,68784,5,0,0:0:0:0:
202,122,69018,1,0,0:0:0:0:
257,333,69253,6,0,P|285:265|291:204,1,123.499994346619
244,101,69721,1,0,0:0:0:0:
109,123,69956,1,0,0:0:0:0:
337,77,70190,1,0,0:0:0:0:
188,38,70424,1,0,0:0:0:0:
332,207,70659,2,0,L|329:268,1,61.7499971733095
245,346,70893,2,0,L|248:285,1,61.7499971733095
122,241,71128,6,0,P|160:192|174:132,1,123.499994346619
313,82,71596,2,0,P|327:142|365:191,1,123.499994346619
321,330,72065,2,0,P|242:239|122:240,2,246.999988693238
440,296,73237,1,0,0:0:0:0:
376,190,73471,1,0,0:0:0:0:
434,80,73706,1,0,0:0:0:0:
434,80,73823,1,0,0:0:0:0:
434,80,73940,6,0,L|363:72,1,61.7499971733095
293,28,74174,2,0,L|222:20,1,61.7499971733095
194,108,74409,2,0,P|179:136|174:166,1,61.7499971733095
246,224,74643,2,0,P|260:196|265:166,1,61.7499971733095
88,139,74878,2,0,P|107:241|115:281,1,123.499994346619
341,303,75346,5,0,0:0:0:0:
241,334,75581,1,0,0:0:0:0:
365,281,75815,5,0,0:0:0:0:
198,253,76049,1,0,0:0:0:0:
389,259,76284,5,0,0:0:0:0:
120,301,76518,1,0,0:0:0:0:
322,103,76753,6,0,L|305:247,1,123.499994346619
102,164,77221,2,0,L|154:157,1,30.8749985866547
201,100,77456,2,0,L|232:105,1,30.8749985866547
301,180,77690,2,0,L|353:173,2,30.8749985866547
433,155,77924,1,0,0:0:0:0:
433,155,78042,1,0,0:0:0:0:
433,155,78159,2,0,P|419:183|411:213,1,61.7499971733095
341,269,78393,2,0,P|347:299|363:326,1,61.7499971733095
452,352,78628,1,4,0:0:0:0:
95,153,93628,6,0,P|148:132|203:143,1,113.999996520996
189,57,93979,2,0,P|243:70|283:110,1,113.999996520996
271,190,94331,1,0,0:0:0:0:
178,273,94565,2,0,P|213:342|309:303,1,170.999994781494
294,328,95034,1,0,0:0:0:0:
353,230,95268,1,0,0:0:0:0:
294,131,95503,6,0,P|346:111|401:125,1,113.999996520996
351,196,95854,2,0,P|298:215|243:201,1,113.999996520996
184,144,96206,1,0,0:0:0:0:
294,131,96440,2,0,B|259:210|316:209|286:298,1,170.999994781494
286,297,96909,1,0,0:0:0:0:
180,255,97143,1,0,0:0:0:0:
110,106,97378,6,0,L|238:88,1,113.999996520996
294,131,97729,2,0,L|422:113,1,113.999996520996
406,115,98081,1,0,0:0:0:0:
400,227,98315,2,0,P|391:291|418:227,2,170.999994781494
286,217,99253,6,0,B|231:244|231:244|183:227|183:227|125:262,1,170.999994781494
132,257,99721,1,0,0:0:0:0:
55,172,99956,1,0,0:0:0:0:
132,89,100190,2,0,L|254:84,1,113.999996520996
386,170,100659,2,0,L|272:173,1,113.999996520996
95,153,101128,6,0,P|148:132|203:143,1,113.999996520996
189,57,101479,2,0,P|243:70|283:110,1,113.999996520996
271,190,101831,1,0,0:0:0:0:
178,273,102065,2,0,P|213:342|309:303,1,170.999994781494
294,328,102534,1,0,0:0:0:0:
353,230,102768,1,0,0:0:0:0:
294,131,103003,6,0,P|346:111|401:125,1,113.999996520996
351,196,103354,2,0,P|298:215|243:201,1,113.999996520996
184,144,103706,1,0,0:0:0:0:
294,131,103940,2,0,B|259:210|316:209|286:298,1,170.999994781494
286,297,104409,1,0,0:0:0:0:
180,255,104643,1,0,0:0:0:0:
110,106,104878,6,0,L|238:88,1,113.999996520996
294,131,105229,2,0,L|422:113,1,113.999996520996
406,115,105581,1,0,0:0:0:0:
399,227,105815,2,0,P|413:301|485:279,1,170.999994781494
485,279,106284,2,0,L|472:155,1,113.999996520996
216,200,106753,6,0,P|277:227|255:163,1,170.999994781494
210,208,107221,6,0,P|271:235|249:171,1,170.999994781494
204,215,107690,6,0,P|265:242|243:178,1,170.999994781494
174,136,108159,2,0,L|117:131,1,56.9999982604981
285,79,108393,1,0,0:0:0:0:
318,216,108628,5,0,0:0:0:0:
142,43,108862,2,0,L|142:114,1,71.2500027179719
91,167,109096,2,0,L|91:238,1,71.2500027179719
170,210,109331,2,0,P|177:129|126:216,1,213.750008153916
91,167,109799,1,0,0:0:0:0:
226,292,110034,5,0,0:0:0:0:
263,283,110151,1,0,0:0:0:0:
293,255,110268,5,0,0:0:0:0:
330,246,110385,1,0,0:0:0:0:
357,226,110503,5,0,0:0:0:0:
247,160,110737,2,0,L|176:156,1,71.2500027179719
156,263,110971,1,0,0:0:0:0:
156,263,111206,2,0,P|181:226|111:256,1,213.750008153916
217,325,111674,5,0,0:0:0:0:
251,322,111792,1,0,0:0:0:0:
285,320,111909,1,0,0:0:0:0:
408,305,112143,2,0,P|441:275|456:246,1,71.2500027179719
430,146,112378,6,0,B|381:118|350:181|287:147,1,142.500005435944
148,128,112846,2,0,L|144:50,1,71.2500027179719
74,166,113081,2,0,L|78:237,1,71.2500027179719
153,294,113315,6,0,P|218:264|289:255,1,142.500005435944
473,244,113784,2,0,P|406:220|345:185,1,142.500005435944
335,67,114253,5,0,0:0:0:0:
335,67,114487,1,0,0:0:0:0:
235,163,114721,1,0,0:0:0:0:
235,163,114838,1,0,0:0:0:0:
235,163,114956,2,0,L|255:323,1,142.500005435944
367,210,115424,2,0,L|351:123,1,71.2500027179719
446,63,115659,2,0,L|375:57,1,71.2500027179719
294,84,115893,2,0,L|223:78,1,71.2500027179719
134,101,116128,6,0,P|163:167|162:245,1,142.500005435944
164,236,116479,1,0,0:0:0:0:
164,236,116596,1,0,0:0:0:0:
303,217,116831,2,0,P|289:287|244:351,1,142.500005435944,0|0,0:3|0:3,0:3:0:0:
250,345,117182,1,0,0:3:0:0:
250,345,117299,1,0,0:3:0:0:
420,270,117534,1,0,0:0:0:0:
420,270,117651,1,0,0:0:0:0:
420,270,117768,2,0,L|428:184,1,71.2500027179719
379,103,118003,6,0,L|450:97,1,71.2500027179719
289,152,118237,2,0,L|218:146,1,71.2500027179719
145,74,118471,1,0,0:0:0:0:
36,232,118706,2,0,P|104:222|151:272,1,142.500005435944
150,272,119057,1,0,0:0:0:0:
150,272,119174,1,0,0:0:0:0:
341,238,119409,5,0,0:0:0:0:
344,195,119526,1,0,0:0:0:0:
347,152,119643,1,0,0:0:0:0:
349,109,119760,1,0,0:0:0:0:
352,69,119878,6,0,L|505:49,1,142.500005435944
442,175,120346,2,0,L|359:169,1,71.2500027179719
296,134,120581,2,0,L|213:128,1,71.2500027179719
130,64,120815,2,0,B|101:122|160:149|110:225,1,142.500005435944
54,271,121284,2,0,P|33:224|29:186,1,71.2500027179719
213,203,121518,2,0,P|205:237|189:269,1,71.2500027179719
120,373,121753,6,0,P|192:351|287:349,1,142.500005435944
331,296,122104,1,0,0:0:0:0:
416,323,122221,2,0,L|429:237,1,71.2500027179719
372,149,122456,1,0,0:0:0:0:
372,149,122573,1,0,0:0:0:0:
372,149,122690,6,0,P|303:193|328:111,1,213.750008153916
146,100,123159,5,0,0:0:0:0:
146,100,123393,2,0,L|134:180,1,71.2500027179719
173,260,123628,5,0,0:0:0:0:
331,241,123862,2,0,P|315:269|284:259,1,71.2500027179719
365,155,124096,1,0,0:0:0:0:
365,155,124331,2,0,P|373:225|400:291,1,142.500005435944
475,332,124682,1,0,0:0:0:0:
475,332,124799,1,0,0:0:0:0:
324,356,125034,2,0,L|242:353,1,71.2500027179719
125,275,125268,2,0,L|196:278,1,71.2500027179719
277,234,125503,6,0,B|305:179|305:179|289:149|289:149|316:91,1,142.500005435944
225,45,125971,2,0,B|216:71|216:71|224:92|224:92|218:112,1,71.2500027179719
400,200,126206,2,0,B|389:158|389:158|407:104|407:104|396:63,1,142.500005435944
316,28,126557,1,0,0:0:0:0:
316,28,126674,1,0,0:0:0:0:
172,80,126909,2,0,L|94:73,1,71.2500027179719
39,149,127143,2,0,L|54:229,1,71.2500027179719
132,270,127378,6,0,P|210:233|221:334,1,213.750008153916
210,351,127846,2,0,L|117:345,1,71.2500027179719
273,271,128081,2,0,L|367:265,1,71.2500027179719
408,191,128315,5,0,0:0:0:0:
309,95,128549,1,0,0:0:0:0:
309,95,128667,1,0,0:0:0:0:
309,95,128784,1,0,0:0:0:0:
219,179,129018,1,0,0:0:0:0:
105,142,129253,6,0,L|90:46,1,71.2500027179719
206,70,129487,1,0,0:0:0:0:
23,190,129721,2,0,L|34:260,1,71.2500027179719
115,314,129956,2,0,B|161:299|161:299|208:323|208:323|291:297,1,142.500005435944
320,246,130307,1,0,0:0:0:0:
320,246,130424,1,0,0:0:0:0:
264,124,130659,2,0,P|233:125|171:143,1,71.2500027179719
153,48,130893,2,0,P|129:66|88:116,1,71.2500027179719
118,187,131128,6,0,P|150:257|152:329,1,142.500005435944
154,321,131479,1,0,0:0:0:0:
154,321,131596,1,0,0:0:0:0:
280,221,131831,2,0,P|248:151|246:79,1,142.500005435944
244,87,132182,1,0,0:0:0:0:
245,86,132299,2,0,L|332:77,1,71.2500027179719
416,101,132534,5,0,0:0:0:0:
413,134,132651,1,0,0:0:0:0:
409,168,132768,1,0,0:0:0:0:
405,202,132885,1,0,0:0:0:0:
401,236,133003,6,0,P|329:215|286:297,1,142.500005435944
287,257,133354,1,0,0:0:0:0:
287,257,133471,2,0,L|300:331,1,71.2500027179719
167,328,133706,6,0,P|204:255|193:186,1,142.500005435944
198,196,134057,1,0,0:0:0:0:
198,196,134174,2,0,L|190:111,1,71.2500027179719
301,36,134409,5,0,0:0:0:0:
335,33,134526,1,0,0:0:0:0:
369,31,134643,1,0,0:0:0:0:
403,29,134760,1,0,0:0:0:0:
438,27,134878,6,0,P|469:91|456:167,1,142.500005435944
460,159,135229,1,0,0:0:0:0:
460,159,135346,1,0,0:0:0:0:
274,150,135581,2,0,L|104:134,1,142.500005435944
133,136,135932,1,0,0:0:0:0:
133,136,136049,1,0,0:0:0:0:
145,307,136284,2,0,L|220:359,1,71.2500027179719
345,324,136518,2,0,L|272:265,1,71.2500027179719
208,219,136753,5,0,0:0:0:0:
334,178,136987,1,0,0:0:0:0:
187,173,137221,5,0,0:0:0:0:
357,207,137456,1,0,0:0:0:0:
158,215,137690,5,0,0:0:0:0:
395,206,137924,1,0,0:0:0:0:
256,64,138159,5,0,0:0:0:0:
256,288,138393,1,0,0:0:0:0:
97,327,138628,6,0,P|154:303|216:297,1,123.499994346619
363,214,139096,2,0,L|287:209,2,61.7499971733095
193,118,139565,2,0,L|255:122,2,61.7499971733095
332,32,140034,1,0,0:0:0:0:
332,32,140151,2,0,L|253:26,2,61.7499971733095
419,91,140503,5,0,0:0:0:0:
346,206,140737,2,0,L|280:183,1,61.7499971733095
209,196,140971,1,0,0:0:0:0:
152,320,141206,1,0,0:0:0:0:
269,272,141440,1,0,0:0:0:0:
87,262,141674,1,0,0:0:0:0:
225,366,141909,1,0,0:0:0:0:
174,214,142143,1,0,0:0:0:0:
301,215,142378,6,0,L|329:346,1,123.499994346619
447,229,142846,1,0,0:0:0:0:
447,229,142963,2,0,L|444:167,2,61.7499971733095
358,109,143315,1,0,0:0:0:0:
358,109,143432,2,0,L|362:47,2,61.7499971733095
264,100,143784,2,0,L|189:89,1,61.7499971733095
118,105,144018,2,0,L|43:94,1,61.7499971733095
22,173,144253,6,0,P|50:227|65:287,1,123.499994346619
179,311,144721,1,0,0:0:0:0:
291,318,144956,2,0,L|291:257,1,61.7499971733095
257,179,145190,2,0,P|323:206|306:125,1,185.249991519928
234,88,145659,2,0,L|142:81,1,61.7499971733095
305,45,145893,2,0,L|394:30,1,61.7499971733095
457,91,146128,6,0,B|450:136|450:136|429:160|429:160|421:205,1,123.499994346619
311,289,146596,1,0,0:0:0:0:
293,296,146713,2,0,L|216:293,1,61.7499971733095
205,189,147065,1,0,0:0:0:0:
187,196,147182,2,0,L|110:193,1,61.7499971733095
254,96,147534,1,0,0:0:0:0:
262,104,147651,2,0,L|345:102,2,61.7499971733095
174,50,148003,5,0,0:0:0:0:
84,134,148237,1,0,0:0:0:0:
203,169,148471,1,0,0:0:0:0:
108,122,148706,5,0,0:0:0:0:
82,243,148940,1,0,0:0:0:0:
200,203,149174,1,0,0:0:0:0:
92,265,149409,5,0,0:0:0:0:
213,289,149643,1,0,0:0:0:0:
325,234,149878,6,0,P|413:212|478:211,1,123.499994346619
354,127,150346,1,0,0:0:0:0:
333,124,150463,2,0,B|315:120|315:120|301:132|301:132|264:118,2,61.7499971733095
289,41,150815,1,0,0:0:0:0:
268,38,150932,2,0,B|250:34|250:34|236:46|236:46|199:32,2,61.7499971733095
193,132,151284,2,0,L|183:212,1,61.7499971733095
119,94,151518,2,0,L|127:32,1,61.7499971733095
21,204,151753,6,0,P|85:233|55:154,1,185.249991519928
19,214,152221,2,0,P|83:243|53:164,1,185.249991519928
16,225,152690,2,0,P|80:254|50:175,1,185.249991519928
116,270,153159,6,0,B|164:291|164:291|203:262|203:262|243:289|292:275,1,185.249991519928
390,241,153628,6,0,P|352:192|338:132,1,123.499994346619
199,82,154096,2,0,P|185:142|147:191,1,123.499994346619
191,330,154565,2,0,P|270:239|390:240,2,246.999988693238
72,296,155737,1,0,0:0:0:0:
136,190,155971,1,0,0:0:0:0:
78,80,156206,1,0,0:0:0:0:
78,80,156323,1,0,0:0:0:0:
78,80,156440,6,0,L|139:75,1,61.7499971733095
210,36,156674,2,0,L|271:31,1,61.7499971733095
318,108,156909,2,0,P|333:136|338:166,1,61.7499971733095
424,139,157143,2,0,P|448:103|460:57,1,61.7499971733095
424,139,157378,2,0,P|405:241|397:281,1,123.499994346619
187,329,157846,5,0,0:0:0:0:
325,338,158081,1,0,0:0:0:0:
114,265,158315,5,0,0:0:0:0:
285,250,158549,1,0,0:0:0:0:
123,174,158784,5,0,0:0:0:0:
339,186,159018,1,0,0:0:0:0:
255,333,159253,6,0,P|227:265|221:204,1,123.499994346619
268,101,159721,1,0,0:0:0:0:
403,123,159956,1,0,0:0:0:0:
175,77,160190,1,0,0:0:0:0:
324,38,160424,1,0,0:0:0:0:
180,207,160659,2,0,L|183:268,1,61.7499971733095
269,337,160893,2,0,L|330:334,1,61.7499971733095
390,241,161128,6,0,P|352:192|338:132,1,123.499994346619
199,82,161596,2,0,P|185:142|147:191,1,123.499994346619
191,330,162065,2,0,P|270:239|390:240,2,246.999988693238
72,296,163237,1,0,0:0:0:0:
136,190,163471,1,0,0:0:0:0:
78,80,163706,1,0,0:0:0:0:
78,80,163823,1,0,0:0:0:0:
78,80,163940,6,0,L|149:72,1,61.7499971733095
219,28,164174,2,0,L|290:20,1,61.7499971733095
318,108,164409,2,0,P|333:136|338:166,1,61.7499971733095
266,224,164643,2,0,P|252:196|247:166,1,61.7499971733095
424,139,164878,2,0,P|405:241|397:281,1,123.499994346619
171,303,165346,5,0,0:0:0:0:
271,334,165581,1,0,0:0:0:0:
147,281,165815,5,0,0:0:0:0:
314,253,166049,1,0,0:0:0:0:
153,259,166284,5,0,0:0:0:0:
344,170,166518,1,0,0:0:0:0:
190,103,166753,6,0,L|207:247,1,123.499994346619
416,96,167221,2,0,L|364:89,2,30.8749985866547
316,162,167456,2,0,L|264:169,2,30.8749985866547
88,109,167690,6,0,P|66:157|123:114,1,185.249991519928
220,107,168159,1,0,0:0:0:0:
220,107,168393,2,0,L|217:171,1,61.7499971733095
160,303,168628,6,0,L|315:299,1,123.499994346619
291,114,169096,1,0,0:0:0:0:
291,114,169331,2,0,L|280:181,1,61.7499971733095
198,205,169565,2,0,P|134:179|60:172,1,123.499994346619
111,89,169917,2,0,L|204:82,1,61.7499971733095
303,40,170268,1,0,0:0:0:0:
303,40,170503,6,0,P|369:75|437:51,1,123.499994346619
489,27,170854,1,0,0:0:0:0:
489,27,170971,1,0,0:0:0:0:
449,169,171206,1,0,0:0:0:0:
336,167,171440,2,0,L|346:290,1,123.499994346619
268,353,171792,1,0,0:0:0:0:
268,353,171909,2,0,L|200:343,1,61.7499971733095
160,267,172143,2,0,L|92:257,1,61.7499971733095
34,199,172378,6,0,P|103:165|180:162,1,123.499994346619
221,127,172729,2,0,P|290:161|367:164,1,123.499994346619
403,123,173081,1,0,0:0:0:0:
480,217,173315,2,0,B|450:300|450:300|361:240,1,185.249991519928
294,215,173784,2,0,P|232:212|175:234,1,123.499994346619
29,217,174253,6,0,B|54:169|54:169|44:71,1,123.499994346619
159,37,174721,1,0,0:0:0:0:
159,37,174956,2,0,L|167:110,1,61.7499971733095
241,144,175190,2,0,P|307:128|369:131,1,123.499994346619
309,231,175542,2,0,P|247:232|187:216,1,123.499994346619
119,174,175893,1,0,0:0:0:0:
103,314,176128,6,0,L|241:308,1,123.499994346619
306,305,176479,1,0,0:0:0:0:
306,305,176596,1,0,0:0:0:0:
291,114,176831,2,0,L|280:181,1,61.7499971733095
198,205,177065,2,0,P|134:179|60:172,1,123.499994346619
111,89,177417,2,0,L|204:82,1,61.7499971733095
303,40,177768,1,0,0:0:0:0:
303,40,178003,6,0,P|369:75|437:51,1,123.499994346619
489,27,178354,1,0,0:0:0:0:
489,27,178471,1,0,0:0:0:0:
449,169,178706,1,0,0:0:0:0:
336,167,178940,2,0,L|346:290,1,123.499994346619
268,353,179292,1,0,0:0:0:0:
268,353,179409,2,0,L|200:343,1,61.7499971733095
160,267,179643,2,0,L|92:257,1,61.7499971733095
34,199,179878,6,0,P|103:165|180:162,1,123.499994346619
221,127,180229,2,0,P|290:161|367:164,1,123.499994346619
403,123,180581,1,0,0:0:0:0:
480,217,180815,2,0,B|450:300|450:300|361:240,1,185.249991519928
294,215,181284,2,0,P|232:212|175:234,1,123.499994346619
29,217,181753,6,0,B|54:169|54:169|44:71,1,123.499994346619
159,37,182221,1,0,0:0:0:0:
159,37,182456,2,0,L|167:110,1,61.7499971733095
241,144,182690,2,0,P|307:128|369:131,1,123.499994346619
309,231,183042,2,0,P|247:232|187:216,1,123.499994346619
119,174,183393,1,0,0:0:0:0:
185,48,183628,5,0,0:0:0:0:
185,48,183862,1,0,0:0:0:0:
345,51,184096,1,0,0:0:0:0:
185,48,184331,2,0,P|164:130|134:188,1,123.499994346619
206,219,184682,1,0,0:0:0:0:
206,219,184799,1,0,0:0:0:0:
325,134,185034,2,0,L|386:125,1,61.7499971733095
469,111,185268,1,0,0:0:0:0:
454,251,185503,6,0,P|381:232|312:240,1,123.499994346619
179,280,185971,1,0,0:0:0:0:
273,149,186206,2,0,L|187:136,1,61.7499971733095
135,67,186440,2,0,L|265:66,1,123.499994346619
341,96,186792,1,0,0:0:0:0:
341,96,186909,1,0,0:0:0:0:
442,172,187143,2,0,L|425:242,1,61.7499971733095
358,273,187378,6,0,P|286:252|234:252,1,123.499994346619
300,139,187846,1,0,0:0:0:0:
160,59,188081,2,0,P|176:128|186:187,1,123.499994346619
143,248,188432,1,0,0:0:0:0:
143,248,188549,1,0,0:0:0:0:
258,307,188784,2,0,L|319:298,1,61.7499971733095
398,290,189018,1,0,0:0:0:0:
463,208,189253,6,0,P|411:177|350:178,1,123.499994346619
279,219,189604,1,0,0:0:0:0:
279,219,189721,1,0,0:0:0:0:
178,149,189956,2,0,L|239:139,1,61.7499971733095
185,61,190190,2,0,L|61:61,1,123.499994346619
61,61,190542,1,0,0:0:0:0:
61,61,190659,1,0,0:0:0:0:
145,151,190893,2,0,L|128:221,1,61.7499971733095
259,208,191128,5,0,0:0:0:0:
259,208,191362,1,0,0:0:0:0:
167,51,191596,1,0,0:0:0:0:
327,48,191831,2,0,P|348:130|378:188,1,123.499994346619
306,219,192182,1,0,0:0:0:0:
306,219,192299,1,0,0:0:0:0:
187,134,192534,2,0,L|125:125,1,61.7499971733095
43,111,192768,1,0,0:0:0:0:
58,251,193003,6,0,P|131:232|200:240,1,123.499994346619
333,280,193471,1,0,0:0:0:0:
239,149,193706,2,0,L|325:136,1,61.7499971733095
377,67,193940,2,0,L|247:66,1,123.499994346619
171,96,194292,1,0,0:0:0:0:
171,96,194409,1,0,0:0:0:0:
70,172,194643,2,0,L|87:242,1,61.7499971733095
154,273,194878,6,0,P|226:252|278:252,1,123.499994346619
212,139,195346,1,0,0:0:0:0:
352,59,195581,2,0,P|336:128|326:187,1,123.499994346619
369,248,195932,1,0,0:0:0:0:
369,248,196049,1,0,0:0:0:0:
254,307,196284,2,0,L|192:298,1,61.7499971733095
114,290,196518,1,0,0:0:0:0:
48,208,196753,6,0,P|98:167|204:232,1,185.249991519928
66,168,197221,6,0,P|124:141|210:231,1,185.249991519928
91,131,197690,6,0,P|154:120|214:229,1,185.249991519928
329,243,198159,6,0,L|401:238,1,61.7499971733095
451,127,198393,1,0,0:0:0:0:
451,127,198628,1,0,0:0:0:0:
