osu file format v14

[General]
AudioFilename: audio.mp3
AudioLeadIn: 0
PreviewTime: 74650
Countdown: 1
SampleSet: Normal
StackLeniency: 0.2
Mode: 0
LetterboxInBreaks: 0
WidescreenStoryboard: 0

[Editor]
Bookmarks: 5050,9850,14650,19450,38650,42850,43450,50650,51250,52150,53050,55450,56650,57250,57850,67450,72250,74350,74650,76450,77050,85450,86650,93850,94450,96250,96850,105850,113050,115450,134650,153850,173050,192250,201850,211450
DistanceSpacing: 0.5
BeatDivisor: 8
GridSize: 32
TimelineZoom: 3.799999

[Metadata]
Title:Earth & Sky
TitleUnicode:Earth & Sky
Artist:Virtual Riot
ArtistUnicode:Virtual Riot
Creator:nitsuga5124
Version:Underground?
Source:rth and sky virtual riot technical drumstep
Tags:
BeatmapID:1373578
BeatmapSetID:648360

[Difficulty]
HPDrainRate:5
CircleSize:4
OverallDifficulty:8
ApproachRate:9.4
SliderMultiplier:2.4
SliderTickRate:1

[Events]
//Background and Video events
0,0,"imagen.png",0,0
//Break Periods
2,3450,4496
2,8249,9296
2,19650,35696
2,58050,62096
2,63150,66896
2,74850,75896
//Storyboard Layer 0 (Background)
//Storyboard Layer 1 (Fail)
//Storyboard Layer 2 (Pass)
//Storyboard Layer 3 (Foreground)
//Storyboard Sound Samples

[TimingPoints]
250,300,4,1,0,65,1,0
36850,-111.111111111111,4,1,0,65,0,0
37450,-125,4,1,0,65,0,0
38050,-142.857142857143,4,1,0,65,0,0
38650,-100,4,1,0,65,0,0
39250,-153.846153846154,4,1,0,65,0,0
39850,-100,4,1,0,65,0,0
40450,-153.846153846154,4,1,0,65,0,0
41050,-100,4,1,0,65,0,0
46450,-133.333333333333,4,1,0,65,0,0
47050,-100,4,1,0,65,0,0
62650,-181.818181818182,4,1,0,25,0,0
62950,-181.818181818182,4,1,0,5,0,0
67450,-151.515151515152,4,1,0,50,0,0
67675,-100,4,1,0,5,0,0
67750,-100,4,1,0,50,0,0
68650,-153.846153846154,4,1,0,50,0,0
68875,-100,4,1,0,5,0,0
68950,-100,4,1,0,50,0,0
69850,-153.846153846154,4,1,0,50,0,0
70075,-100,4,1,0,5,0,0
70150,-100,4,1,0,50,0,0
71050,-153.846153846154,4,1,0,50,0,0
71275,-100,4,1,0,5,0,0
71344,-100,4,1,0,50,0,0
72250,-80,4,1,0,65,0,0
77056,-80,4,1,0,65,0,0
80200,-80,4,1,0,5,0,0
80350,-80,4,1,0,65,0,0
81475,-133.333333333333,4,1,0,65,0,0
81737,-133.333333333333,4,1,0,65,0,0
81850,-80,4,1,0,65,0,0
92050,-100,4,1,0,65,0,0
92350,-80,4,1,0,65,0,0
93850,-158.730158730159,4,1,0,65,0,0
95650,-133.333333333333,4,1,0,65,0,0
96250,-100,4,1,0,5,0,0
96325,-100,4,1,0,15,0,0
96400,-100,4,1,0,25,0,0
96475,-100,4,1,0,35,0,0
96550,-100,4,1,0,45,0,0
96625,-100,4,1,0,55,0,0
96700,-100,4,1,0,65,0,0
96775,-100,4,1,0,75,0,0
96850,-80,4,1,0,65,0,0
100750,-74.0740740740741,4,1,0,65,0,0
101050,-80,4,1,0,65,0,0
109562,-100,4,1,0,65,0,0
109975,-80,4,1,0,65,0,0
110350,-66.6666666666667,4,1,0,65,0,0
110650,-100,4,1,0,65,0,0
111850,-80,4,1,0,65,0,0

[Colours]
Combo1 : 219,219,219
Combo2 : 255,128,64
Combo3 : 255,128,128
Combo4 : 119,114,126
Combo5 : 255,128,0
Combo6 : 255,255,0

[HitObjects]
180,202,250,5,0,0:0:0:0:
52,124,437,6,0,L|145:106,1,90
52,260,737,2,0,L|145:278,1,90
289,294,1037,5,0,0:0:0:0:
52,260,1337,6,0,L|145:242,1,90
288,213,1637,5,0,0:0:0:0:
246,213,1750,1,0,0:0:0:0:
73,136,1937,5,0,0:0:0:0:
115,136,2050,1,0,0:0:0:0:
288,214,2237,5,0,0:0:0:0:
121,365,2537,6,0,L|28:347,1,90
124,217,2837,5,0,0:0:0:0:
124,149,2950,1,0,0:0:0:0:
271,145,3137,5,0,0:0:0:0:
271,77,3250,1,0,0:0:0:0:
110,94,5050,5,0,0:0:0:0:
99,287,5237,6,0,L|202:251,1,90
395,239,5537,6,0,L|292:203,1,90
183,257,5837,1,0,0:0:0:0:
275,84,6137,6,0,L|254:191,1,90
340,262,6437,2,0,L|257:191,1,90
152,229,6737,6,0,L|255:193,1,90
378,149,7037,1,0,0:0:0:0:
47,277,7337,6,0,L|97:195,1,90
229,263,7637,2,0,L|321:206,1,90
144,124,7937,2,0,L|194:42,1,90
433,317,9850,5,0,0:0:0:0:
298,205,10037,5,0,0:0:0:0:
329,187,10150,1,0,0:0:0:0:
189,211,10337,5,0,0:0:0:0:
207,180,10450,1,0,0:0:0:0:
58,328,10637,5,0,0:0:0:0:
109,124,10937,5,0,0:0:0:0:
99,158,11050,1,0,0:0:0:0:
252,101,11237,5,0,0:0:0:0:
242,135,11350,1,0,0:0:0:0:
384,172,11537,5,0,0:0:0:0:
374,206,11650,1,0,0:0:0:0:
180,202,11837,1,0,0:0:0:0:
381,240,12137,5,0,0:0:0:0:
443,203,12250,1,0,0:0:0:0:
274,110,12550,5,0,0:0:0:0:
456,169,12850,1,0,0:0:0:0:
340,137,13037,1,0,0:0:0:0:
340,137,13337,5,0,0:0:0:0:
180,202,14650,5,0,0:0:0:0:
299,111,14837,5,0,0:0:0:0:
271,132,14950,1,0,0:0:0:0:
203,282,15137,5,0,0:0:0:0:
203,282,15250,1,0,0:0:0:0:
202,207,15437,5,0,0:0:0:0:
422,123,15737,5,0,0:0:0:0:
393,145,15850,1,0,0:0:0:0:
329,52,16037,5,0,0:0:0:0:
312,84,16150,1,0,0:0:0:0:
229,220,16337,5,0,0:0:0:0:
229,220,16450,1,0,0:0:0:0:
228,136,16637,5,0,0:0:0:0:
369,81,17050,5,0,0:0:0:0:
180,202,17350,1,0,0:0:0:0:
422,123,17650,1,0,0:0:0:0:
251,178,17837,1,0,0:0:0:0:
251,178,18137,5,0,0:0:0:0:
406,116,18437,6,0,L|361:201,1,90
210,269,18737,2,0,L|155:196,1,90
80,86,18925,1,0,0:0:0:0:
113,82,19037,1,0,0:0:0:0:
147,78,19150,1,0,0:0:0:0:
259,228,19337,5,0,0:0:0:0:
143,82,19450,1,0,0:0:0:0:
178,114,36250,6,0,L|46:118,2,120
329,157,36850,2,0,L|456:162,2,107.999996704102
178,270,37450,6,0,L|62:265,2,96
340,305,38050,2,0,L|434:310,2,83.9999974365235
78,306,38650,6,0,P|151:193|103:338,1,420
151,273,39250,6,0,B|236:205|236:205|303:203|303:203|383:134,1,272.999987503052
459,100,39850,6,0,P|386:213|434:68,1,420
383,130,40450,6,0,L|237:131,1,116.999994644165
227,130,40750,2,0,B|286:130|286:130|291:123|291:123|296:130|296:130|373:130,1,116.999994644165
260,96,41050,6,0,P|333:209|285:64,1,420
333,128,41650,6,0,L|130:128,1,180
93,128,41950,2,0,L|164:128,1,60
212,128,42100,6,0,P|120:268|330:195,1,540
299,159,42850,5,0,0:0:0:0:
299,248,42962,1,0,0:0:0:0:
216,272,43075,5,0,0:0:0:0:
216,295,43150,1,0,0:0:0:0:
119,259,43262,5,0,0:0:0:0:
126,281,43337,1,0,0:0:0:0:
106,369,43450,6,0,P|198:229|34:278,1,420
126,281,44050,6,0,B|171:202|171:202|271:150,1,180
251,231,44350,2,0,B|171:192|171:192|126:103,1,180
106,15,44650,6,0,P|198:155|34:106,1,420
126,103,45250,6,0,L|243:224,1,120
98,242,45550,2,0,L|245:91,1,180
236,205,45850,6,0,P|144:65|308:114,1,420
217,118,46487,2,0,P|309:258|183:286,1,315.000012016297
137,284,47050,5,0,0:0:0:0:
232,97,47237,1,0,0:0:0:0:
231,223,47350,1,0,0:0:0:0:
375,284,47650,5,0,0:0:0:0:
280,97,47837,1,0,0:0:0:0:
281,223,47950,1,0,0:0:0:0:
300,312,48250,6,0,P|208:172|372:221,1,420
281,223,48850,1,0,0:0:0:0:
131,226,49037,1,0,0:0:0:0:
107,256,49150,1,0,0:0:0:0:
280,134,49337,1,0,0:0:0:0:
247,134,49450,6,0,B|5:134|5:134|136:287,1,420
163,312,50050,1,0,0:0:0:0:
285,112,50237,1,0,0:0:0:0:
285,21,50350,1,0,0:0:0:0:
168,227,50537,1,0,0:0:0:0:
168,317,50650,6,0,P|318:218|167:139,1,420
253,223,51250,2,0,P|140:195|79:91,1,240
380,93,51737,1,0,0:0:0:0:
380,93,51850,2,0,L|380:319,1,210
360,310,52150,5,0,0:0:0:0:
320,314,52250,1,0,0:0:0:0:
287,290,52350,1,0,0:0:0:0:
271,253,52450,1,0,0:0:0:0:
271,213,52550,1,0,0:0:0:0:
291,178,52650,1,0,0:0:0:0:
324,155,52750,1,0,0:0:0:0:
223,143,53050,6,0,B|153:162|102:80|102:80|63:221|176:334,1,420
237,338,53650,1,0,0:0:0:0:
360,254,53837,2,0,L|372:160,1,90
223,144,54137,1,0,0:0:0:0:
223,143,54250,6,0,B|293:162|344:80|344:80|383:221|270:334,1,420
237,282,54850,1,0,0:0:0:0:
334,168,55037,2,0,L|346:74,1,90
224,166,55337,1,0,0:0:0:0:
224,143,55450,6,0,B|294:162|345:80|345:80|345:141,1,180
180,137,55750,2,0,P|266:154|344:112,1,180
180,137,56050,2,0,P|80:93|-1:124,1,180
180,137,56350,2,0,P|280:181|361:150,1,180
0,137,56650,6,0,B|91:152|91:152|192:137,1,180
371,171,56950,2,0,B|285:155|285:155|179:171,1,180
193,168,57250,6,0,B|181:242|181:242|187:253|181:262|181:262|193:360,1,180
253,257,57550,6,0,B|265:183|265:183|259:172|265:163|265:163|253:65,1,180
342,172,57850,1,0,0:0:0:0:
184,227,62650,6,0,B|287:201|287:201|255:192,1,132.00000402832
273,210,67450,6,0,P|262:168|226:209,1,118.799999637451
124,273,67750,2,0,P|174:320|340:292,1,240
332,299,68650,6,0,P|343:341|375:298,1,116.999994644165
481,236,68950,2,0,P|431:189|261:218,1,240
271,207,69850,6,0,P|227:229|271:256,1,116.999994644165
335,356,70150,2,0,P|397:259|363:147,1,240
366,150,71050,6,0,P|410:128|370:100,1,116.999994644165
302,1,71350,2,0,P|240:98|274:210,1,240
274,210,72250,5,0,0:0:0:0:
134,229,72550,2,0,B|190:302|190:302|330:279,1,225
457,164,72850,2,0,B|433:253|296:286,1,187.5
89,254,73150,6,0,B|175:295|175:295|315:272,1,225
498,170,73450,2,0,B|433:241|296:275,1,225
109,346,73750,6,0,B|190:302|190:302|330:279,1,225
477,119,74050,2,0,B|396:228|321:279,1,225
257,361,74350,5,0,0:0:0:0:
309,347,74425,1,0,0:0:0:0:
355,320,74500,1,0,0:0:0:0:
393,282,74575,1,0,0:0:0:0:
419,235,74650,1,0,0:0:0:0:
134,108,76450,5,0,0:0:0:0:
186,119,76525,1,0,0:0:0:0:
234,145,76600,1,0,0:0:0:0:
271,183,76675,1,0,0:0:0:0:
182,156,76750,5,0,0:0:0:0:
234,145,76825,1,0,0:0:0:0:
282,119,76900,1,0,0:0:0:0:
319,81,76975,1,0,0:0:0:0:
343,33,77050,2,0,P|301:102|172:158,1,225
54,184,77350,6,2,B|97:177|150:201|128:297|128:297|234:259,1,262.5
285,238,77650,2,0,P|343:212|319:52,1,225
479,68,77950,6,0,B|342:68|342:68|419:123,1,225
277,246,78250,2,0,L|500:211,1,225
302,93,78550,2,0,B|250:114|277:246|277:246|192:191,1,262.5
65,63,78850,6,0,P|126:109|328:72,1,262.5
302,93,79150,2,0,B|266:189|118:179|53:147,1,262.5
119,254,79450,6,0,B|263:188|263:188|205:303,1,262.5
82,297,79750,2,0,L|351:172,1,262.5
295,147,80050,2,0,L|158:212,1,150
90,64,80350,6,0,B|147:90|159:212|159:212|224:108,1,262.5
184,66,80650,2,0,B|239:60|261:71|306:132|286:172|251:213|191:195|150:225,1,262.5
207,133,80950,2,0,L|52:184,1,150
377,81,81250,6,0,P|374:162|265:166,1,187.5
377,81,81493,2,0,P|424:115|414:156,1,101.250003862381
377,80,81737,2,0,P|410:70|430:69,1,45.0000017166138
284,77,81850,6,0,P|374:112|280:179,1,262.5
110,32,82150,2,0,L|319:133,1,225
381,342,82450,2,0,P|414:230|299:211,1,262.5
177,343,82750,6,0,B|120:333|120:333|73:300,1,112.5
347,270,82900,6,0,B|404:260|404:260|451:227,1,112.5
249,128,83050,2,0,B|203:24|203:24|186:140,1,225
262,256,83350,2,0,B|309:360|309:360|326:244,1,225
65,79,83650,6,0,B|102:65|102:65|118:102|118:102|156:90|156:90|172:122|172:122|210:109|210:109|226:143,1,225
429,109,83950,2,0,B|392:124|392:124|406:162|406:162|371:180|371:180|381:214|381:214|345:231|345:231|357:266,1,225,0|0,2:0|2:0,2:0:0:0:
83,115,84250,6,0,P|244:92|307:136,1,225
190,156,84550,1,0,0:0:0:0:
264,198,84625,1,0,0:0:0:0:
72,340,84850,5,0,0:0:0:0:
349,69,85150,2,0,L|349:185,1,112.5
269,35,85337,2,0,L|269:80,1,37.5
200,66,85450,1,0,0:0:0:0:
272,238,85562,5,0,0:0:0:0:
338,202,85637,1,0,0:0:0:0:
175,295,85750,2,0,L|277:234,1,112.5
328,150,86050,5,0,0:0:0:0:
88,26,86162,5,0,0:0:0:0:
154,62,86237,1,0,0:0:0:0:
254,113,86350,2,0,L|125:47,1,112.5
412,331,86650,6,0,P|449:143|425:51,1,262.5
326,157,86950,2,0,P|477:274|519:359,1,262.5
434,76,87250,6,0,P|331:157|270:271,1,262.5
57,300,87550,6,0,B|175:212|127:295|302:266,1,225
60,200,87850,6,0,B|220:245|132:283|286:269,1,225
224,177,88150,2,0,L|354:90,1,150
108,205,88450,6,0,P|253:271|350:209,1,262.5
246,320,88750,2,0,P|101:254|4:316,1,262.5
191,269,89050,6,0,B|349:245|304:81,1,225
218,336,89350,2,0,L|237:109,1,225
290,34,89650,6,0,L|111:34,1,150
161,384,89950,6,0,B|-10:331|-10:331|96:297,1,262.5
183,214,90250,2,0,P|207:299|130:257,1,225
293,40,90550,2,0,P|233:91|313:192,1,225
360,83,90850,6,0,P|357:164|248:168,1,187.5
397,155,91093,2,0,P|407:242|487:279,1,168.75
368,238,91337,2,0,P|366:284|326:324,1,75
180,93,91450,6,0,B|201:93|273:100|269:193|212:224|212:224|318:224,1,262.5
179,162,91750,2,0,P|143:252|255:282,1,225
397,130,92050,6,0,L|211:225,1,210
493,228,92350,6,0,B|428:193|398:131|398:131|363:195|301:226,1,262.5
123,53,92650,6,0,P|216:142|126:155,1,262.5
122,278,92950,2,0,P|45:199|150:165,1,262.5
123,53,93250,6,0,L|122:284,1,225
389,331,93550,6,0,L|390:100,1,225
389,105,93850,6,0,P|466:184|361:220,1,264.599991925049
402,169,94450,5,0,0:0:0:0:
138,131,94637,5,0,0:0:0:0:
402,169,94750,1,0,0:0:0:0:
9,127,94937,5,0,0:0:0:0:
275,132,95050,6,0,P|352:210|246:246,1,264.599991925049
289,194,95650,6,0,P|366:287|246:242,1,337.500012874604
309,255,96250,6,0,L|264:217,14,30
163,143,96850,5,0,0:0:0:0:
307,67,97000,6,0,L|298:187,1,112.5
333,112,97150,2,0,L|294:186,1,75
148,324,97337,6,0,L|184:316,1,37.5
315,286,97450,1,0,0:0:0:0:
164,120,97562,6,0,L|246:251,1,150
328,4,97750,6,0,L|236:26,1,75
168,247,97937,2,0,L|259:247,1,75
256,22,98050,6,0,L|242:260,1,225
416,108,98350,6,0,B|348:170|276:131|276:132,1,150
345,155,98537,2,0,B|281:159|258:107|257:108,1,75
54,79,98650,6,0,B|87:154|87:154|24:218|108:183|108:183|179:248,1,262.5
140,111,98950,6,0,B|109:179|167:237|167:237|90:206|26:265,1,262.5
435,57,99250,6,0,B|321:215|321:215|403:166,1,262.5
136,189,99550,6,0,L|321:213,1,187.5
379,180,99775,5,0,0:0:0:0:
221,161,99850,2,0,L|334:219,1,112.5
474,285,100000,6,0,L|406:251,3,75
183,146,100375,5,0,0:0:0:0:
185,29,100450,2,0,L|184:274,1,225
185,29,100750,6,0,B|172:110|172:110|193:169|193:169|185:276,1,243.000000926971
250,105,101050,2,0,P|439:118|261:174,1,525
343,125,101650,6,0,L|439:329,1,225
308,232,101950,6,0,P|298:178|266:131,1,112.5
186,99,102100,2,0,P|196:154|228:201,1,112.5
69,27,102250,6,0,L|165:231,1,225
122,331,102550,6,0,P|154:285|164:230,1,112.5
130,151,102700,2,0,P|97:196|87:251,1,112.5
255,334,102850,5,0,0:0:0:0:
130,151,103075,6,0,L|138:203,1,37.5
102,41,103150,2,0,L|101:322,1,262.5
216,100,103450,5,0,0:0:0:0:
178,287,103600,6,0,L|174:245,1,37.5
255,334,103675,2,0,L|259:292,1,37.5
174,249,104050,6,0,P|236:195|248:298,1,225
255,294,104350,2,0,P|266:192|174:249,1,262.5
174,249,104650,5,0,0:0:0:0:
187,85,104875,1,0,0:0:0:0:
184,147,104950,1,0,0:0:0:0:
174,249,105250,5,0,0:0:0:0:
269,114,105475,1,0,0:0:0:0:
235,166,105550,1,0,0:0:0:0:
235,166,105850,6,0,P|392:63|268:197,1,525
314,115,106468,6,0,L|316:347,1,225
151,198,106750,6,0,P|192:142|191:108,1,75
79,205,106937,2,0,P|148:199|173:176,1,75
192,138,107068,6,0,L|194:370,1,225
339,113,107350,6,0,P|403:86|436:95,1,75
314,181,107537,2,0,P|336:115|364:96,1,75
406,87,107668,6,0,L|408:319,1,225
190,108,107968,6,0,P|254:81|287:90,1,75
257,82,108137,2,0,P|321:107|333:124,1,75
190,108,108250,6,0,B|167:164|167:164|112:197|125:247|125:247|95:260|111:318,1,225
261,203,108550,6,0,P|310:285|227:235,1,262.5
414,278,108850,6,0,B|432:211|429:126|393:90|393:90|396:135|374:171,1,262.5
314,113,109150,2,0,B|323:60|343:23|402:-1|402:-1|468:70,1,225
293,190,109450,5,0,0:0:0:0:
176,44,109562,2,0,L|194:123,2,75
176,44,109975,6,0,L|195:127,1,75
176,44,110350,6,0,P|233:120|172:62,1,315.000012016297
173,76,110650,6,0,P|316:78|176:44,1,420
244,67,111250,5,0,0:0:0:0:
144,81,111550,6,0,L|191:127,1,60
121,194,111737,2,0,L|185:208,1,60
179,206,111850,5,0,0:0:0:0:
337,163,111962,6,0,P|332:229|306:299,1,112.5
299,66,112262,2,0,B|263:134|263:134|263:218,1,150
156,187,112450,5,0,0:0:0:0:
263,207,112562,6,0,P|232:255|243:338,1,112.5
333,127,112862,2,0,B|344:201|344:201|307:280,1,150
95,262,113050,6,0,P|246:145|124:279,1,562.5
159,187,113650,5,0,0:0:0:0:
366,81,113837,5,0,0:0:0:0:
336,111,113950,1,0,0:0:0:0:
294,229,114137,5,0,0:0:0:0:
362,114,114250,6,0,B|295:167|247:157|247:157|236:206|158:254,1,262.5
223,25,114550,2,0,B|298:15|327:87|354:66|332:142|413:173,1,225
209,285,114850,6,0,B|287:196|287:196|394:157,1,225
176,135,115150,2,0,B|237:140|237:140|284:183|328:156|328:156|350:181|400:149,1,225
293,90,115450,5,0,0:0:0:0:
