osu file format v14

[General]
AudioFilename: 01. Bears Gotta Burn.mp3
AudioLeadIn: 0
PreviewTime: 41142
Countdown: 1
SampleSet: Normal
StackLeniency: 0.7
Mode: 0
LetterboxInBreaks: 0
WidescreenStoryboard: 1

[Editor]
Bookmarks: 30857,44571,69428,86142,100697,126840,155901,208265,225719
DistanceSpacing: 2
BeatDivisor: 8
GridSize: 4
TimelineZoom: 2.899999

[Metadata]
Title:Bears Gotta Burn
TitleUnicode:Bears Gotta Burn
Artist:Virtual Riot
ArtistUnicode:Virtual Riot
Creator:Bloodyguol
Version:Burn!
Source:
Tags:drumstep dubstep dnb drum and bass
BeatmapID:1482059
BeatmapSetID:699986

[Difficulty]
HPDrainRate:6
CircleSize:4.5
OverallDifficulty:8.5
ApproachRate:9.5
SliderMultiplier:2.5
SliderTickRate:1

[Events]
//Background and Video events
0,0,"nicebg.jpg",0,0
//Break Periods
//Storyboard Layer 0 (Background)
//Storyboard Layer 1 (Fail)
//Storyboard Layer 2 (Pass)
//Storyboard Layer 3 (Foreground)
//Storyboard Sound Samples

[TimingPoints]
0,428.571428571429,4,1,0,100,1,0
0,-200,4,1,0,100,0,0
1714,-166.666666666667,4,1,0,100,0,0
3428,-200,4,1,0,100,0,0
5142,-125,4,1,0,100,0,0
7714,-200,4,1,0,100,0,0
10714,-125,4,1,0,100,0,0
21321,-100,4,1,0,100,0,0
23142,-200,4,1,0,100,0,0
25285,-125,4,1,0,100,0,0
25928,-76.9230769230769,4,1,0,100,0,0
30857,-200,4,1,0,100,0,0
44571,-50,4,1,0,100,0,0
45053,-142.857142857143,4,1,0,100,0,0
46339,-50,4,1,0,100,0,0
47196,-142.857142857143,4,1,0,100,0,0
48000,-50,4,1,0,100,0,0
48428,-66.6666666666667,4,1,0,100,0,0
50571,-50,4,1,0,100,0,0
51642,-66.6666666666667,4,1,0,100,0,0
51910,-142.857142857143,4,1,0,100,0,0
53196,-50,4,1,0,100,0,0
53625,-142.857142857143,4,1,0,100,0,0
54857,-50,4,1,0,100,0,0
55285,-62.5,4,1,0,100,0,0
57428,-50,4,1,0,100,0,0
58392,-66.6666666666667,4,1,0,100,0,0
58767,-142.857142857143,4,1,0,100,0,0
60053,-50,4,1,0,100,0,0
60482,-142.857142857143,4,1,0,100,0,0
61714,-50,4,1,0,100,0,0
62142,-62.5,4,1,0,100,0,0
64285,-50,4,1,0,100,0,0
65250,-66.6666666666667,4,1,0,100,0,0
65625,-142.857142857143,4,1,0,100,0,0
66910,-50,4,1,0,100,0,0
72428,-62.5,4,1,0,100,0,0
72910,-58.8235294117647,4,1,0,100,0,0
73285,-62.5,4,1,0,100,0,0
73714,-50,4,1,0,100,0,0
74196,-58.8235294117647,4,1,0,100,0,0
75428,-50,4,1,0,100,0,0
75964,-58.8235294117647,4,1,0,100,0,0
77142,-50,4,1,0,100,0,0
79339,-58.8235294117647,4,1,0,100,0,0
80571,-50,4,1,0,100,0,0
81107,-58.8235294117647,4,1,0,100,0,0
82285,-50,4,1,0,100,0,0
82821,-58.8235294117647,4,1,0,100,0,0
85714,-50,4,1,0,100,0,0
86142,-58.8235294117647,4,1,0,100,0,0
90857,-50,4,1,0,100,0,0
93000,-58.8235294117647,4,1,0,100,0,0
94285,-50,4,1,0,100,0,0
94714,-58.8235294117647,4,1,0,100,0,0
96000,-50,4,1,0,100,0,0
96428,-55.5555555555556,4,1,0,100,0,0
99412,857.142857142857,4,1,0,100,1,0
102412,-62.5,4,1,0,100,0,0
103697,-100,4,1,0,100,0,0
109269,-62.5,4,1,0,100,0,0
109912,-100,4,1,0,100,0,0
110983,-62.5,4,1,0,100,0,0
111412,-100,4,1,0,100,0,0
116126,-62.5,4,1,0,100,0,0
116554,-100,4,1,0,100,0,0
122983,-62.5,4,1,0,100,0,0
123412,-100,4,1,0,100,0,0
144044,882.352941176471,4,1,0,100,1,0
145614,909.090909090909,4,1,0,100,1,0
147454,937.5,4,1,0,100,1,0
149354,967.741935483871,4,1,0,100,1,0
150580,1000,4,1,0,100,1,0
151092,1034.48275862069,4,1,0,100,1,0
153180,1071.42857142857,4,1,0,100,1,0
155356,363.636363636364,4,1,0,100,1,0
155901,-66.6666666666667,4,1,0,100,0,0
156174,-50,4,1,0,100,0,0
156492,-50,4,1,0,100,0,0
157174,-50,4,1,0,100,0,0
161537,-200,4,1,0,100,0,0
161992,-50,4,1,0,100,0,0
163719,-200,4,1,0,100,0,0
164628,-50,4,1,0,100,0,0

[HitObjects]
68,184,0,6,0,B|92:176|100:152|100:152|80:140|80:124|80:124|100:124|112:112|112:112|88:60|200:44|200:44|192:120|272:120,1,343.75
428,296,1714,6,0,B|368:280|344:224|344:224|336:240|352:252|352:252|324:264|324:264|344:268|352:288|352:288|328:292|316:312|316:312|328:372|236:244|132:336,1,449.99998626709
456,48,3428,6,0,B|420:60|396:48|396:48|396:84|424:100|424:100|384:104|364:84|364:84|360:116|380:140|380:140|312:96|236:116,1,375
148,124,4928,1,0,0:0:0:0:
296,200,5142,2,0,P|292:256|320:296,1,100
152,312,5571,5,0,0:0:0:0:
208,92,5785,1,0,0:0:0:0:
152,312,6000,2,0,P|193:284|214:240,1,100
424,96,6428,2,0,P|386:128|371:175,1,100
164,156,6857,2,0,P|184:199|229:228,1,100
460,232,7285,5,0,0:0:0:0:
144,92,7500,1,0,0:0:0:0:
144,92,7607,1,0,0:0:0:0:
104,143,7714,2,0,B|130:162|163:155|163:155|173:224|271:240,1,187.5
217,60,8572,1,0,0:0:0:0:
178,56,8679,1,0,0:0:0:0:
139,52,8786,1,0,0:0:0:0:
100,48,8893,1,0,0:0:0:0:
107,85,9000,1,0,0:0:0:0:
114,124,9107,1,0,0:0:0:0:
122,162,9214,1,0,0:0:0:0:
192,128,9321,2,0,B|224:160|280:144|280:144|308:224|236:260,1,218.75
432,288,10285,5,0,0:0:0:0:
444,244,10392,1,0,0:0:0:0:
352,224,10500,1,0,0:0:0:0:
352,224,10607,1,0,0:0:0:0:
352,224,10714,2,0,L|320:248,4,40
348,112,11142,5,0,0:0:0:0:
296,80,11250,1,0,0:0:0:0:
236,68,11357,1,0,0:0:0:0:
176,72,11464,1,0,0:0:0:0:
124,104,11571,1,0,0:0:0:0:
168,164,11678,1,0,0:0:0:0:
212,224,11785,1,0,0:0:0:0:
256,284,11892,1,0,0:0:0:0:
304,340,12000,2,0,L|344:284,4,50
372,236,12535,5,0,0:0:0:0:
403,169,12642,1,0,0:0:0:0:
384,98,12749,1,0,0:0:0:0:
324,56,12856,1,0,0:0:0:0:
251,63,12963,1,0,0:0:0:0:
288,132,13071,5,0,0:0:0:0:
214,130,13178,1,0,0:0:0:0:
157,177,13285,1,0,0:0:0:0:
143,249,13392,1,0,0:0:0:0:
179,312,13499,1,0,0:0:0:0:
360,136,13714,5,0,0:0:0:0:
276,336,13928,1,0,0:0:0:0:
240,292,14035,1,0,0:0:0:0:
296,284,14142,1,0,0:0:0:0:
224,96,14357,1,0,0:0:0:0:
128,224,14571,6,0,B|163:178,1,50
192,304,15000,1,0,0:0:0:0:
256,144,15214,1,0,0:0:0:0:
320,304,15428,1,0,0:0:0:0:
112,160,15642,1,0,0:0:0:0:
64,208,15749,1,0,0:0:0:0:
160,112,15857,6,0,B|211:66,1,50
176,208,16071,1,0,0:0:0:0:
396,136,16285,2,0,P|372:160|364:184,1,50
428,192,16500,2,0,P|452:240|408:312,2,100
200,296,17142,5,0,0:0:0:0:
208,136,17357,1,0,0:0:0:0:
270,152,17464,1,0,0:0:0:0:
254,90,17571,1,0,0:0:0:0:
200,296,17785,1,0,0:0:0:0:
128,88,18000,2,0,L|224:88,1,50
288,172,18428,2,0,L|352:172,2,50
468,200,18857,1,0,0:0:0:0:
444,284,19071,1,0,0:0:0:0:
324,64,19285,1,0,0:0:0:0:
444,284,19499,1,0,0:0:0:0:
196,268,19714,6,0,P|144:244|108:160,1,150
138,50,20142,5,0,0:0:0:0:
154,112,20249,1,0,0:0:0:0:
92,96,20356,1,0,0:0:0:0:
300,64,20571,1,0,0:0:0:0:
424,146,20785,1,0,0:0:0:0:
358,183,20892,1,0,0:0:0:0:
424,220,21000,1,0,0:0:0:0:
304,308,21214,5,0,0:0:0:0:
284,168,21321,2,0,B|229:162|229:162|233:278|134:291|65:261,1,250
95,186,21857,2,0,B|144:191|144:191|141:75|239:61|267:79,1,250
328,40,22392,5,0,0:0:0:0:
367,101,22499,1,0,0:0:0:0:
368,173,22606,1,0,0:0:0:0:
329,230,22714,2,0,P|316:289|353:337,1,125
208,144,23142,2,0,B|240:180|256:220|256:220|280:152|332:152|372:164,1,218.75
308,264,24000,5,0,0:0:0:0:
289,310,24107,1,0,0:0:0:0:
249,340,24214,1,0,0:0:0:0:
199,342,24321,1,0,0:0:0:0:
136,300,24428,5,0,0:0:0:0:
184,269,24535,1,0,0:0:0:0:
195,213,24642,1,0,0:0:0:0:
162,166,24749,1,0,0:0:0:0:
176,92,24857,5,0,0:0:0:0:
233,95,24964,1,0,0:0:0:0:
269,139,25071,1,0,0:0:0:0:
263,196,25178,1,0,0:0:0:0:
296,268,25285,6,0,L|348:296,2,50
428,144,25607,6,0,L|383:120,2,50
244,236,25928,2,0,L|143:182,1,81.2499962806703
120,72,26142,2,0,L|191:110,1,81.2499962806703
288,156,26357,1,0,0:0:0:0:
328,80,26464,1,0,0:0:0:0:
480,208,26571,2,0,L|379:154,1,81.2499962806703
292,112,26785,1,0,0:0:0:0:
373,86,26892,1,0,0:0:0:0:
390,283,26999,2,0,L|356:174,1,81.2499962806703
312,44,27214,2,0,L|335:121,1,81.2499962806703
272,288,27428,1,0,0:0:0:0:
256,192,27535,12,0,29999,0:0:0:0:
412,116,30857,6,0,B|261:264|314:324|314:324|119:183|98:249|98:249|88:90|215:76|215:76|213:92,1,750
232,192,34285,6,0,P|284:272|280:192,1,250
232,192,36000,6,0,P|284:112|280:192,1,250
256,288,37714,5,0,0:0:0:0:
256,96,38571,5,0,0:0:0:0:
256,192,38678,12,0,41142,0:0:0:0:
140,88,41357,5,0,0:0:0:0:
140,61,41464,1,0,0:0:0:0:
163,74,41571,1,0,0:0:0:0:
176,288,41785,5,0,2:0:0:0:
213,265,41892,1,0,2:0:0:0:
213,309,41999,1,0,2:0:0:0:
384,276,42214,5,0,0:0:0:0:
324,276,42321,1,0,0:0:0:0:
352,229,42428,1,0,0:0:0:0:
332,88,42642,5,0,0:0:0:0:
299,32,42749,1,0,0:0:0:0:
361,30,42856,1,0,0:0:0:0:
252,248,43071,5,0,0:0:0:0:
286,308,43178,1,0,0:0:0:0:
218,309,43285,1,0,0:0:0:0:
184,136,43500,5,0,0:0:0:0:
141,59,43607,1,0,0:0:0:0:
226,58,43714,1,0,0:0:0:0:
314,354,43928,5,0,0:0:0:0:
399,353,44035,1,0,0:0:0:0:
356,276,44142,1,0,0:0:0:0:
280,136,44357,5,0,0:0:0:0:
244,208,44464,1,0,0:0:0:0:
324,208,44571,2,0,B|360:76|360:76|316:124|260:84|260:84|220:136|152:96|152:96|136:136|64:136,1,437.5
108,188,45000,1,0,0:0:0:0:
92,264,45053,2,0,B|83:261|83:261|90:256|90:256|81:253|81:253|88:248|88:248|80:246|80:246|87:240|87:240|78:238|78:238|85:232|85:232|76:230|76:230|83:224|83:224|75:222|75:222|82:217|82:217|73:214|73:214|80:209|80:209|71:206,1,131.249995994568
260,164,45428,1,0,0:0:0:0:
336,151,45481,2,0,B|334:142|334:142|328:148|328:148|326:140|326:140|320:146|320:146|318:138|318:138|312:144|312:144|311:136|311:136|305:142|305:142|303:133|303:133|297:140|297:140|295:131|295:131|289:138|289:138|287:129|287:129|281:136|281:136|280:127,1,131.249995994568
132,80,45857,1,0,0:0:0:0:
56,67,45910,2,0,B|57:58|57:58|63:64|63:64|65:56|65:56|71:62|71:62|73:54|73:54|79:60|79:60|80:52|80:52|86:58|86:58|88:49|88:49|94:56|94:56|96:47|96:47|102:54|102:54|104:45|104:45|110:52|110:52|111:46,1,131.249995994568
296,108,46285,1,0,0:0:0:0:
336,108,46339,2,0,P|380:168|200:192,1,375
180,100,46714,5,0,0:0:0:0:
180,100,46767,1,0,0:0:0:0:
264,60,46928,1,0,0:0:0:0:
272,152,47089,1,0,0:0:0:0:
272,152,47142,1,0,0:0:0:0:
272,152,47196,2,0,B|275:160|275:160|266:157|266:157|269:166|269:166|261:163|261:163|264:172|264:172|255:169|255:169|258:177|258:177|250:175|250:175|253:183|253:183|244:181|244:181|247:189|247:189|239:187|239:187|242:195|242:195|233:192|233:192|236:201,1,131.249995994568
192,220,47571,1,0,0:0:0:0:
296,340,47785,1,0,0:0:0:0:
48,340,48000,6,0,B|92:212|164:264|192:340|192:340|200:292|200:292|228:308|228:308|232:280|232:280|260:280|260:280|288:236|256:200|256:200,1,437.5
256,160,48428,2,0,P|288:112|268:60,1,93.7500035762788
416,32,48642,2,0,P|384:80|404:132,1,93.7500035762788
304,336,48857,5,0,0:0:0:0:
344,172,48964,1,0,0:0:0:0:
226,292,49071,5,0,0:0:0:0:
344,172,49178,1,0,0:0:0:0:
164,72,49285,2,0,P|118:107|121:163,1,93.7500035762788
216,348,49500,2,0,P|272:337|296:287,1,93.7500035762788
444,76,49714,2,0,P|400:37|346:50,1,93.7500035762788
40,156,49928,2,0,P|96:169|138:133,1,93.7500035762788
344,340,50142,2,0,P|346:282|302:248,1,93.7500035762788
128,140,50357,2,0,P|87:117|68:76,1,93.7500035762788
140,48,50571,6,0,B|176:52|176:52|168:68|168:68|196:60|196:60|176:88|176:88|216:68|216:68|192:100|192:100|236:76|236:76|216:116|216:116|200:136|200:136|328:164|400:56|400:56,2,500
112,116,51535,1,0,0:0:0:0:
80,180,51642,6,0,L|33:261,2,93.7500035762788
120,252,51910,2,0,B|124:244|124:244|128:252|128:252|132:244|132:244|136:252|136:252|140:244|140:244|144:252|144:252|148:244|148:244|152:252|152:252|156:244|156:244|160:252|160:252|164:244|164:244|168:252|168:252|172:244|172:244|176:252|176:252|180:244,1,131.249995994568
288,136,52285,1,0,0:0:0:0:
224,180,52339,2,0,B|228:172|228:172|232:180|232:180|236:172|236:172|240:180|240:180|244:172|244:172|248:180|248:180|252:172|252:172|256:180|256:180|260:172|260:172|264:180|264:180|268:172|268:172|272:180|272:180|276:172|276:172|280:180|280:180|284:172,1,131.249995994568
420,40,52714,1,0,0:0:0:0:
356,84,52768,2,0,B|360:76|360:76|364:84|364:84|368:76|368:76|372:84|372:84|376:76|380:84|380:84|384:76|384:76|388:84|388:84|392:76|392:76|396:84|396:84|400:76|400:76|404:84|404:84|408:76|408:76|412:84|412:84|416:76,1,109.37499666214
476,128,53142,5,0,0:0:0:0:
432,164,53196,2,0,B|460:188|460:188|436:204|436:204|476:220|476:220|444:240|444:240|476:264|476:264|428:340|312:356|244:280,1,437.5
216,232,53625,2,0,B|213:237|213:237|209:229|209:229|205:237|205:237|201:229|201:229|197:237|197:237|193:229|193:229|189:237|189:237|185:229|185:229|181:237|181:237|177:229|177:229|173:237|173:237|169:229|169:229|165:237|165:237|161:229|161:229|157:237,1,131.249995994568
157,237,54000,5,0,0:0:0:0:
157,237,54053,1,0,0:0:0:0:
244,280,54214,1,0,0:0:0:0:
248,180,54375,1,0,0:0:0:0:
248,180,54428,1,0,0:0:0:0:
248,180,54482,1,0,0:0:0:0:
344,184,54642,1,0,0:0:0:0:
288,312,54803,1,0,0:0:0:0:
260,312,54857,6,0,B|172:308|256:232|192:236|192:236|228:196|228:196|176:188|176:188|300:152|236:32|144:52,1,437.5
232,60,55285,2,0,B|288:64|288:40|288:40|340:32,1,100
392,236,55500,2,0,P|340:224|284:252,1,100
236,80,55714,5,0,0:0:0:0:
240,268,55821,1,0,0:0:0:0:
137,109,55928,5,0,0:0:0:0:
240,268,56035,1,0,0:0:0:0:
360,176,56142,6,0,P|320:208|256:204,1,100
144,168,56357,2,0,P|192:140|244:152,1,100
424,128,56571,2,0,L|328:160,1,100
68,256,56785,2,0,L|180:216,1,100
424,256,57000,2,0,L|328:224,1,100
68,128,57214,2,0,L|180:168,1,100
444,60,57428,6,0,B|480:120|464:180|464:180|432:152|432:152|440:188|440:188|412:172|412:172|404:200|404:200|316:136|316:136|296:164|296:164|244:128|256:80,2,500
344,28,58392,1,0,0:0:0:0:
272,64,58500,6,0,B|240:92|240:92|244:80|244:80|212:60|212:60,2,93.7500035762788
336,104,58767,2,0,B|344:100|344:100|340:110|340:110|348:110|348:110|344:117|344:117|352:117|352:117|348:124|348:124|356:124|356:124|352:131|352:131|360:131|360:131|355:138|355:138|364:138|364:138|360:145|360:145|368:145|368:145|364:152|364:152|372:151,1,109.37499666214
348,236,59142,1,0,0:0:0:0:
376,307,59196,2,0,B|377:298|377:298|369:302|369:302|370:293|370:293|362:298|362:298|363:289|363:289|355:293|355:293|356:285|356:285|349:289|349:289|350:280|350:280|342:285|342:285|343:276|343:276|335:280|335:280|336:271|336:271|329:276|329:276|330:267,1,131.249995994568
236,136,59571,1,0,0:0:0:0:
208,65,59625,2,0,B|207:74|207:74|215:70|215:70|214:79|214:79|222:74|222:74|221:83|221:83|229:79|229:79|228:87|228:87|235:83|235:83|234:92|234:92|242:87|242:87|241:96|241:96|249:92|249:92|248:101|248:101|255:96|255:96|254:102,1,131.249995994568
156,244,60000,1,0,0:0:0:0:
160,316,60053,2,0,B|176:288|148:256|148:256|180:260|180:260|152:224|152:224|208:264|248:272|248:272|260:152|120:136,1,437.5
88,108,60482,2,0,B|95:103|95:103|94:112|94:112|102:108|102:108|101:117|101:117|108:112|108:112|107:121|107:121|115:117|115:117|114:126|114:126|122:122|122:122|120:130|120:130|128:126|128:126|127:135|127:135|135:131|135:131|133:140|133:140|139:137,1,131.249995994568
139,137,60857,1,0,0:0:0:0:
139,137,60910,1,0,0:0:0:0:
212,204,61071,1,0,0:0:0:0:
316,100,61232,1,0,0:0:0:0:
302,128,61285,1,0,0:0:0:0:
289,156,61339,1,0,0:0:0:0:
288,256,61500,1,0,0:0:0:0:
192,316,61714,6,0,B|152:260|88:248|88:248|120:244|120:244|112:216|112:216|192:224|224:176|224:176|192:168|192:168|204:144|204:144|152:144|136:96,1,437.5
32,108,62142,2,0,P|52:48|104:36,1,100
328,212,62357,2,0,P|308:272|256:284,1,100
50,125,62571,5,0,0:0:0:0:
241,161,62678,1,0,0:0:0:0:
163,48,62785,5,0,0:0:0:0:
129,239,62892,1,0,0:0:0:0:
356,92,63000,6,0,P|312:116|252:96,1,100
184,292,63214,2,0,P|226:268|274:277,1,100
468,288,63428,2,0,P|409:296|379:332,1,100
148,52,63642,2,0,P|199:47|250:74,1,100
72,336,63857,2,0,L|152:270,1,100
432,68,64071,2,0,L|337:129,1,100
64,168,64285,2,0,B|100:132|60:116|60:116|80:104|80:104|44:76|44:76|88:72|88:72|36:32|36:32|156:100|300:20,2,500
132,204,65250,6,0,L|240:204,3,93.7500035762788
184,124,65625,2,0,B|186:129|186:129|190:121|190:121|194:129|194:129|198:121|198:121|202:129|202:129|206:121|206:121|210:129|210:129|214:121|214:121|218:129|218:129|222:121|222:121|226:129|226:129|230:121|230:121|234:129|234:129|238:121|238:121|242:129,1,131.249995994568
242,129,66000,1,0,0:0:0:0:
242,129,66053,1,0,0:0:0:0:
336,132,66214,1,0,0:0:0:0:
424,168,66375,1,0,0:0:0:0:
424,136,66429,1,0,0:0:0:0:
424,104,66482,1,0,0:0:0:0:
336,132,66642,1,0,0:0:0:0:
344,224,66803,1,0,0:0:0:0:
344,224,66857,1,0,0:0:0:0:
344,224,66910,2,0,B|335:219|335:219|338:228|338:228|329:225|329:225|331:233|331:233|323:230|323:230|326:238|326:238|317:236|317:236|319:243|319:243|311:240|311:240|314:249|314:249|305:245|305:245|307:254|307:254|299:251|299:251|302:260|302:260|216:308|108:240|156:132,1,375
184,76,67285,1,0,0:0:0:0:
182,50,67339,2,0,B|297:35|336:127|336:127|313:102|313:102|299:121|299:121|278:104|278:104|232:106|244:200,1,375
336,224,67714,1,0,0:0:0:0:
336,252,67767,2,0,B|327:247|327:247|330:256|330:256|321:253|321:253|323:261|323:261|315:258|315:258|318:266|318:266|309:264|309:264|311:271|311:271|303:268|303:268|306:277|306:277|297:273|297:273|299:282|299:282|291:279|291:279|294:288|294:288|284:284|284:284|216:308|136:252|152:188|152:188|144:180|144:180|152:180|152:180|144:172|144:172|152:172|152:172|144:164|144:164|152:164|152:164|144:156|144:156|152:156|152:156|144:148|144:148|152:148|152:148|144:140,2,437.5
52,280,68571,5,0,0:0:0:0:
304,216,68785,1,0,0:0:0:0:
88,176,69000,5,0,0:0:0:0:
340,112,69214,1,0,0:0:0:0:
152,308,69428,5,0,0:0:0:0:
112,312,69535,1,0,0:0:0:0:
80,288,69642,1,0,0:0:0:0:
80,240,69749,1,0,0:0:0:0:
108,200,69856,1,0,0:0:0:0:
164,180,69964,1,0,0:0:0:0:
224,188,70071,1,0,0:0:0:0:
268,228,70178,1,0,0:0:0:0:
312,272,70285,5,0,0:0:0:0:
292,204,70392,1,0,0:0:0:0:
244,152,70500,1,0,0:0:0:0:
180,120,70607,1,0,0:0:0:0:
112,100,70714,5,0,0:0:0:0:
192,96,70821,1,0,0:0:0:0:
268,120,70928,1,0,0:0:0:0:
332,168,71035,1,0,0:0:0:0:
380,232,71142,2,0,P|424:176|428:116,1,125
360,72,71357,1,0,0:0:0:0:
320,152,71464,1,0,0:0:0:0:
268,76,71571,2,0,P|227:122|218:183,1,125
300,196,71785,1,0,0:0:0:0:
340,116,71892,1,0,0:0:0:0:
392,200,72000,6,0,B|325:184|287:241|287:241|287:188|250:155|250:155|284:134|284:134|232:126|232:126|254:102|254:102|193:80|205:31,1,437.5
144,96,72428,2,0,P|131:143|147:190,1,100
380,190,72642,2,0,P|395:143|383:95,1,100
228,324,72857,1,0,0:0:0:0:
244,284,72910,2,0,P|287:276|304:264,1,53.125001013279
260,240,73017,2,0,P|303:232|320:212,1,53.125001013279
276,196,73125,2,0,P|319:188|336:164,1,53.125001013279
324,56,73285,6,0,P|384:68|420:112,1,100
340,336,73500,2,0,P|284:336|252:256,1,100
152,64,73714,2,0,B|176:84|200:76|200:76|208:48|208:48|240:76|240:76|240:52|240:52|320:100|416:48|416:48|416:148|292:168,1,500
252,188,74196,6,0,P|209:153|177:160,1,53.125001013279,0|0,2:0|2:0,2:0:0:0:
202,233,74303,2,0,P|191:287|216:323,1,53.125001013279,0|0,2:0|2:0,2:0:0:0:
265,254,74410,2,0,P|301:240|324:191,1,53.125001013279,0|0,2:0|2:0,2:0:0:0:
409,134,74571,2,0,P|356:131|314:162,1,106.250002026558
420,224,74732,6,0,P|394:218|375:200,1,53.125001013279,0|0,2:0|2:0,2:0:0:0:
485,213,74839,2,0,P|487:239|479:264,1,53.125001013279,0|0,2:0|2:0,2:0:0:0:
472,328,75000,1,0,0:0:0:0:
412,324,75053,2,0,P|391:308|365:305,1,53.125001013279
392,272,75160,2,0,P|326:315|249:306,1,159.375003039837
240,348,75428,6,0,B|234:274|135:282|135:282|160:240|200:217|200:217|172:206|172:206|214:181|214:181|152:181|152:181|126:110|200:82,1,500
308,164,75964,2,0,L|264:128,1,53.125001013279
280,232,76125,2,0,L|328:268,1,53.125001013279
372,212,76285,1,0,0:0:0:0:
472,120,76392,2,0,L|428:84,1,53.125001013279
296,72,76553,2,0,L|344:108,1,53.125001013279
392,148,76714,1,0,0:0:0:0:
368,236,76821,2,0,L|316:200,1,53.125001013279
212,236,76982,2,0,L|264:200,1,53.125001013279
288,292,77142,2,0,B|285:289|285:289|285:298|285:298|278:293|278:293|278:301|278:301|270:296|270:296|271:305|271:305|264:300|264:300|264:308|264:308|256:303|256:303|257:312|257:312|249:307|249:307|249:315|249:315|242:311|242:311|242:319|242:319|124:344|60:188|236:128,1,437.5
256,136,77571,6,0,P|440:120|360:284,1,437.5
348,320,78000,6,0,B|380:244|364:164|364:164|348:272|248:280|248:280|236:308|236:308|216:292|216:292|196:316|196:316|144:288,1,437.5
168,304,78428,6,0,P|99:135|324:76,1,437.5
326,70,78857,6,0,B|316:68|316:68|296:92|296:92|276:76|276:76|264:104|264:104|164:112|148:220|148:220|132:140|164:64,1,437.5
80,176,79339,2,0,P|56:187|45:211,1,53.125001013279
98,327,79500,2,0,P|126:310|131:276,1,53.125001013279
72,76,79714,1,0,0:0:0:0:
184,108,79821,6,0,P|200:80|232:76,1,53.125001013279
224,120,79928,2,0,P|232:96|264:88,1,53.125001013279
264,132,80035,2,0,P|276:108|312:104,1,53.125001013279
308,148,80142,1,0,0:0:0:0:
352,164,80196,2,0,P|352:190|321:210,1,53.125001013279
216,292,80357,2,0,P|215:266|233:247,1,53.125001013279
320,68,80571,2,0,B|321:69|321:69|320:60|320:60|328:65|328:65|328:57|328:57|335:62|335:62|335:53|335:53|342:58|342:58|342:49|342:49|350:54|350:54|349:45|349:45|357:51|357:51|356:42|356:42|364:47|364:47|363:38|363:38|482:14|546:170|422:254|348:286,1,500
256,264,81107,6,0,P|292:305|324:304,1,53.125001013279,0|0,2:0|2:0,2:0:0:0:
312,228,81214,2,0,P|331:175|313:136,1,53.125001013279,0|0,2:0|2:0,2:0:0:0:
253,196,81321,2,0,P|214:202|183:247,1,53.125001013279,0|0,2:0|2:0,2:0:0:0:
96,284,81482,2,0,P|146:295|193:272,1,106.250002026558
64,224,81643,2,0,P|39:234|23:255,1,53.125001013279,0|0,2:0|2:0,2:0:0:0:
130,224,81750,2,0,P|128:197|115:174,1,53.125001013279,0|0,2:0|2:0,2:0:0:0:
64,128,81911,1,0,0:0:0:0:
97,111,81964,2,0,P|95:84|108:61,1,53.125001013279
131,94,82071,2,0,P|194:48|272:54,1,159.375003039837
340,89,82285,2,0,B|414:121|538:205|474:361|355:337|355:337|356:328|356:328|348:333|348:333|349:324|349:324|341:330|341:330|342:321|342:321|334:326|334:326|334:317|334:317|327:322|327:322|327:313|327:313|320:318|320:318|320:310|320:310|312:315|312:315|313:306|313:306|312:308,1,500
204,220,82821,6,0,L|245:253,1,53.125001013279
232,152,82982,2,0,L|189:120,1,53.125001013279
140,172,83142,1,0,0:0:0:0:
40,264,83249,2,0,L|81:297,1,53.125001013279
216,312,83410,2,0,L|173:280,1,53.125001013279
120,236,83571,1,0,0:0:0:0:
144,148,83678,2,0,L|187:178,1,53.125001013279
300,148,83839,2,0,L|256:178,1,53.125001013279
200,216,84000,5,0,0:0:0:0:
142,195,84107,1,0,0:0:0:0:
97,147,84214,1,0,0:0:0:0:
80,87,84321,1,0,0:0:0:0:
167,137,84428,5,0,0:0:0:0:
142,195,84535,1,0,0:0:0:0:
145,260,84642,1,0,0:0:0:0:
175,314,84749,1,0,0:0:0:0:
88,318,84857,5,0,0:0:0:0:
145,260,84964,1,0,0:0:0:0:
169,186,85071,1,0,0:0:0:0:
160,110,85178,1,0,0:0:0:0:
97,150,85285,5,0,0:0:0:0:
169,186,85392,1,0,0:0:0:0:
247,184,85499,1,0,0:0:0:0:
315,151,85606,1,0,0:0:0:0:
341,77,85714,6,0,B|310:56|281:77|281:77|288:109|288:109|258:99|258:99|282:142|282:142|234:214|151:238|151:238|216:236|260:272,1,437.5
294,274,86142,2,0,L|241:261,1,53.125001013279
138,306,86250,2,0,L|190:318,1,53.125001013279
326,146,86410,2,0,L|273:133,1,53.125001013279
170,178,86518,2,0,L|222:190,1,53.125001013279
398,230,86678,2,0,L|345:217,1,53.125001013279
242,262,86785,1,0,0:0:0:0:
242,262,86839,2,0,L|294:274,1,53.125001013279
430,102,87000,2,0,L|377:89,1,53.125001013279
274,134,87108,2,0,L|326:146,1,53.125001013279
398,230,87214,1,0,0:0:0:0:
398,230,87268,2,0,L|345:217,1,53.125001013279
269,263,87428,6,0,B|228:332|140:324|140:324|116:248|160:200|160:200|120:196|120:196|120:180|120:180|96:172|92:136,1,371.875007092953
191,84,87857,2,0,L|143:137,1,53.125001013279
203,245,87964,2,0,L|238:204,1,53.125001013279
257,101,88071,2,0,L|209:154,1,53.125001013279
269,263,88178,2,0,L|304:222,1,53.125001013279
355,79,88285,1,0,0:0:0:0:
355,79,88338,2,0,L|310:135,1,53.125001013279
300,152,88446,2,0,P|251:209|266:292,1,159.375003039837
355,79,88714,1,0,0:0:0:0:
355,79,88767,2,0,L|310:135,1,53.125001013279
300,152,88875,2,0,P|251:209|266:292,1,159.375003039837
384,272,89142,6,0,B|350:233|392:200|392:200|423:211|423:211|418:187|418:187|443:211|481:216|481:216|420:154|452:91|405:78,1,371.875007092953
304,220,89571,2,0,P|304:196|280:164,1,53.125001013279
352,148,89678,2,0,P|328:136|268:144,1,53.125001013279
180,128,89839,2,0,P|168:156|176:184,1,53.125001013279
140,236,90000,2,0,P|172:244|212:224,1,53.125001013279
172,292,90107,2,0,P|220:256|220:196,1,106.250002026558
236,304,90267,2,0,P|247:268|222:226,1,53.125001013279
376,132,90428,2,0,P|348:136|324:176,1,53.125001013279
308,112,90535,2,0,P|300:168|348:228,1,106.250002026558
280,176,90696,2,0,P|312:188|352:176,1,53.125001013279
404,301,90857,6,0,B|560:192|416:144|400:48|400:48|304:96|370:148,1,437.5
320,192,91285,2,0,P|256:352|192:192,1,437.5
141,148,91714,6,0,B|208:96|112:48|112:48|96:144|-48:192|107:301,1,437.5
160,256,92142,2,0,P|256:96|352:256,1,437.5
340,324,92571,6,0,B|184:240|224:180|224:180|240:212|261:202|261:202|272:179|272:179|280:206|280:206|302:163|444:144,1,437.5
416,224,93000,2,0,P|388:240|356:227,1,53.125001013279,0|0,0:3|0:3,0:0:0:0:
376,284,93107,2,0,P|323:270|293:223,1,106.250002026558
304,300,93267,2,0,P|283:250|299:199,1,106.250002026558
236,196,93428,2,0,P|220:217|220:249,1,53.125001013279
168,164,93535,2,0,P|173:216|206:256,1,106.250002026558
112,208,93696,2,0,P|125:230|148:244,1,53.125001013279
232,328,93803,2,0,P|232:274|264:232,1,106.250002026558
296,292,93964,2,0,P|265:247|273:189,1,106.250002026558
332,228,94125,2,0,P|281:210|253:158,1,106.250002026558
328,148,94285,6,0,B|353:145|353:145|352:154|352:154|362:147|362:147|362:161|362:161|374:150|374:150|372:168|372:168|386:153|386:153|382:174|382:174|398:157|398:157|395:183|395:183|423:164|423:164|429:182|429:182|496:248|332:308,1,437.5
276,312,94714,2,0,L|232:268,1,53.125001013279
213,305,94821,2,0,L|197:245,1,53.125001013279
162,269,94928,2,0,L|178:209,1,53.125001013279
136,212,95035,2,0,L|180:168,1,53.125001013279
142,149,95142,1,0,0:0:0:0:
178,98,95196,2,0,B|192:125|192:125|227:137,1,53.125001013279
235,72,95303,2,0,P|296:106|251:201,1,159.375003039837
142,149,95571,1,0,0:0:0:0:
178,98,95625,2,0,B|192:125|192:125|227:137,1,53.125001013279
235,72,95732,2,0,P|296:106|251:201,1,159.375003039837
208,224,96000,6,0,B|86:202|24:95|24:95|61:111|106:104|106:104|113:79|113:79|126:103|126:103|138:58|175:40,1,437.5
240,40,96428,2,0,P|250:66|245:102,1,56.2499982833863
312,72,96535,2,0,P|303:116|251:167,1,112.499996566773
360,132,96696,2,0,P|341:147|296:151,1,56.2499982833863
208,328,96857,2,0,P|194:298|201:271,1,56.2499982833863
136,322,96964,2,0,P|150:277|206:244,1,112.499996566773
100,264,97125,2,0,P|133:239|223:227,1,112.499996566773
56,160,97285,2,0,P|87:145|110:149,1,56.2499982833863
36,92,97392,2,0,P|72:132|142:123,1,112.499996566773
96,56,97553,2,0,P|144:81|164:132,1,112.499996566773
232,152,97714,5,0,0:0:0:0:
216,216,97821,1,0,0:0:0:0:
256,268,97928,1,0,0:0:0:0:
323,269,98035,1,0,0:0:0:0:
364,217,98142,1,0,0:0:0:0:
322,268,98250,1,0,0:0:0:0:
242,272,98357,1,0,0:0:0:0:
172,236,98464,1,0,0:0:0:0:
128,168,98571,1,0,0:0:0:0:
440,56,98785,5,0,0:0:0:0:
318,326,99000,5,0,0:0:0:0:
284,45,99107,1,0,0:0:0:0:
147,293,99214,1,0,0:0:0:0:
403,173,99321,1,0,0:0:0:0:
125,119,99412,1,0,0:0:0:0:
256,192,99519,12,0,100269,0:0:0:0:
320,96,100697,5,0,0:0:0:0:
320,96,100912,1,0,0:0:0:0:
320,96,101126,1,0,0:0:0:0:
320,288,101554,1,0,0:0:0:0:
64,192,101983,2,0,L|96:192,1,31.25
384,96,102412,6,0,B|448:128|448:128|384:160,1,100
352,224,102840,1,0,0:0:0:0:
160,224,103054,1,0,0:0:0:0:
128,192,103162,1,0,0:0:0:0:
160,160,103269,1,0,0:0:0:0:
352,64,103483,1,0,0:0:0:0:
352,64,103697,2,0,L|320:64,1,31.25
256,192,104126,6,0,L|256:256,2,62.5
96,160,104769,6,0,L|96:128,1,31.25
160,128,104983,2,0,L|160:96,1,31.25
224,96,105197,1,0,0:0:0:0:
288,320,105412,2,0,L|288:288,1,31.25
384,96,105840,6,0,L|384:160,2,62.5
224,64,106483,1,0,0:0:0:0:
160,96,106590,1,0,0:0:0:0:
96,128,106697,1,0,0:0:0:0:
96,288,106912,1,0,0:0:0:0:
416,288,107126,2,0,L|384:288,1,31.25
128,96,107554,6,0,L|192:96,2,62.5
384,96,108412,1,0,0:0:0:0:
256,352,108840,2,0,L|256:320,1,31.25
128,96,109269,6,0,B|64:128|64:128|128:160,1,100
320,96,109697,1,0,0:0:0:0:
384,128,109912,2,0,L|384:96,2,31.25
384,288,110340,1,0,0:0:0:0:
96,288,110554,2,0,L|128:288,1,31.25
384,288,110983,6,0,B|448:256|448:256|422:243,1,100
132,56,111412,2,0,L|200:56,2,62.5
256,160,112054,5,0,0:0:0:0:
256,224,112162,1,0,0:0:0:0:
256,288,112269,2,0,L|224:288,1,31.25
128,192,112483,1,0,0:0:0:0:
256,96,112697,2,0,L|288:96,1,31.25
384,192,112912,1,0,0:0:0:0:
384,352,113126,1,0,0:0:0:0:
256,288,113340,5,0,0:0:0:0:
192,256,113447,1,0,0:0:0:0:
128,224,113554,1,0,0:0:0:0:
256,288,113769,1,0,0:0:0:0:
64,192,113983,2,0,L|64:160,1,31.25
352,64,114412,6,0,L|288:64,2,62.5
256,192,115269,5,0,0:0:0:0:
64,72,115697,2,0,L|64:128,1,31.25
352,256,116126,6,0,B|416:288|416:288|352:320,1,100
128,224,116554,2,0,L|128:192,1,31.25
128,128,116769,1,0,0:0:0:0:
224,128,116876,1,0,0:0:0:0:
128,128,116983,1,0,0:0:0:0:
224,224,117197,1,0,0:0:0:0:
416,64,117412,2,0,L|384:64,1,31.25
448,256,117840,5,0,0:0:0:0:
256,192,118054,1,0,0:0:0:0:
64,128,118269,1,0,0:0:0:0:
288,288,118483,2,0,L|256:288,1,31.25
160,288,118697,2,0,L|128:288,1,31.25
288,192,118912,1,0,0:0:0:0:
128,192,119126,2,0,L|160:192,1,31.25
416,64,119554,6,0,L|380:64,1,31.25
224,64,119769,1,0,0:0:0:0:
416,224,119983,2,0,L|384:224,1,31.25
224,224,120197,1,0,0:0:0:0:
320,224,120304,1,0,0:0:0:0:
224,224,120412,1,0,0:0:0:0:
224,64,120626,1,0,0:0:0:0:
128,288,120840,2,0,L|168:288,1,31.25
128,96,121269,6,0,L|192:96,2,62.5
416,96,122126,1,0,0:0:0:0:
416,96,122340,1,0,0:0:0:0:
416,288,122554,2,0,L|384:288,1,31.25
128,96,122983,6,0,B|192:128|192:128|166:140,1,100
192,288,123412,2,0,L|224:288,1,31.25
288,224,123626,1,0,0:0:0:0:
384,288,123733,1,0,0:0:0:0:
288,224,123840,1,0,0:0:0:0:
192,288,124054,1,0,0:0:0:0:
192,288,124269,2,0,L|224:288,1,31.25
256,192,124697,5,0,0:0:0:0:
192,64,124912,2,0,L|160:64,1,31.25
256,64,125126,1,0,0:0:0:0:
352,64,125340,6,0,L|320:64,1,31.25
352,224,125554,6,0,L|352:192,1,31.25
192,224,125769,1,0,0:0:0:0:
192,128,125876,1,0,0:0:0:0:
192,224,125983,6,0,L|192:256,1,31.25
288,128,126197,1,0,0:0:0:0:
288,224,126412,6,0,L|288:256,1,31.25
192,128,126626,1,0,0:0:0:0:
368,64,126840,5,0,0:0:0:0:
144,80,127269,1,0,0:0:0:0:
368,128,127697,1,0,0:0:0:0:
144,144,128126,1,0,0:0:0:0:
368,192,128554,1,0,0:0:0:0:
96,208,128983,5,0,0:0:0:0:
416,272,129412,1,0,0:0:0:0:
96,272,129840,1,0,0:0:0:0:
416,112,130269,5,0,0:0:0:0:
96,112,130697,1,0,0:0:0:0:
416,192,131126,1,0,0:0:0:0:
96,192,131554,1,0,0:0:0:0:
416,320,131983,5,0,0:0:0:0:
416,64,132412,1,0,0:0:0:0:
96,64,132840,1,0,0:0:0:0:
96,320,133269,1,0,0:0:0:0:
464,192,133697,5,0,0:0:0:0:
256,48,134126,1,0,0:0:0:0:
48,192,134554,1,0,0:0:0:0:
256,336,134983,1,0,0:0:0:0:
256,336,135412,5,0,0:0:0:0:
256,192,135840,5,0,0:0:0:0:
256,192,136269,1,0,0:0:0:0:
256,48,136697,5,0,0:0:0:0:
256,48,137126,1,0,0:0:0:0:
468,192,137554,5,0,0:0:0:0:
468,192,137983,1,0,0:0:0:0:
44,192,138412,5,0,0:0:0:0:
44,192,138840,1,0,0:0:0:0:
192,192,139269,1,0,0:0:0:0:
256,192,139697,1,0,0:0:0:0:
256,128,140126,1,0,0:0:0:0:
256,288,140554,5,0,0:0:0:0:
272,296,140662,1,0,0:0:0:0:
280,316,140769,1,0,0:0:0:0:
272,340,140876,1,0,0:0:0:0:
208,320,140983,5,0,0:0:0:0:
184,304,141090,1,0,0:0:0:0:
184,272,141197,1,0,0:0:0:0:
200,244,141304,1,0,0:0:0:0:
136,228,141412,5,0,0:0:0:0:
104,204,141519,1,0,0:0:0:0:
88,164,141626,1,0,0:0:0:0:
96,120,141733,1,0,0:0:0:0:
164,144,141840,5,0,0:0:0:0:
208,124,141947,1,0,0:0:0:0:
260,120,142054,1,0,0:0:0:0:
316,132,142162,1,0,0:0:0:0:
364,172,142269,5,0,0:0:0:0:
364,172,142697,1,0,0:0:0:0:
388,232,143126,1,0,0:0:0:0:
388,232,143554,1,0,0:0:0:0:
48,132,144044,5,0,0:0:0:0:
204,40,144485,1,0,0:0:0:0:
96,184,144926,1,0,0:0:0:0:
248,88,145367,1,0,0:0:0:0:
460,192,145841,5,0,0:0:0:0:
352,336,146295,1,0,0:0:0:0:
396,160,146750,1,0,0:0:0:0:
288,304,147204,1,0,0:0:0:0:
40,200,147688,5,0,0:0:0:0:
164,344,148157,1,0,0:0:0:0:
108,172,148625,1,0,0:0:0:0:
232,304,149094,1,0,0:0:0:0:
480,176,149595,5,0,0:0:0:0:
364,36,150079,1,0,0:0:0:0:
436,336,150580,5,0,0:0:0:0:
64,48,151092,5,0,0:0:0:0:
268,328,151609,1,0,0:0:0:0:
192,228,151867,1,0,0:0:0:0:
328,48,152126,1,0,0:0:0:0:
408,144,152385,1,0,0:0:0:0:
332,244,152643,1,0,0:0:0:0:
92,52,152902,1,0,0:0:0:0:
92,124,153180,5,0,0:0:0:0:
432,56,153447,1,0,0:0:0:0:
232,324,153715,1,0,0:0:0:0:
144,220,153983,1,0,0:0:0:0:
396,340,154251,1,0,0:0:0:0:
476,40,154519,1,0,0:0:0:0:
480,32,154787,1,0,0:0:0:0:
96,284,155356,5,0,0:0:0:0:
96,284,155901,2,0,B|184:332|276:340|276:340|240:288,1,234.375008940697
328,276,156174,2,0,P|332:244|224:184,1,125
120,68,156356,2,0,P|124:128|172:165,1,125
204,88,156492,2,0,B|208:64|208:64|216:72|216:72|220:56|220:56|228:68|228:68|232:48|232:48|240:64|240:64|248:40|248:40|256:64|256:64|292:64|320:28|320:28|344:124|448:152|448:152|440:164|440:164|452:164|452:164|440:176|440:176|460:176|460:176|444:192|444:192|468:192|468:192|448:208|448:208|476:208|476:208|372:204|320:312,1,750
336,282,157174,2,0,P|380:236|420:216,1,62.5
475,208,157265,2,0,B|427:295|335:283|335:283|376:248|368:192,1,250
475,208,157537,2,0,B|427:295|335:283|335:283|376:248|368:192,2,250
96,96,158083,6,0,P|184:112|292:96,1,187.5
416,288,158356,2,0,P|328:304|220:288,1,187.5
415,95,158628,2,0,P|324:79|231:92,1,187.5
96,287,158901,2,0,P|187:271|280:284,1,187.5
324,224,159083,2,0,P|380:196|324:200,1,125
296,156,159219,2,0,P|240:128|296:132,2,125
324,88,159446,1,0,0:0:0:0:
176,304,159628,1,0,0:0:0:0:
88,216,159719,1,0,0:0:0:0:
400,212,159901,2,0,B|444:74|343:-13|186:88|258:196|258:196|267:193|267:193|264:202|264:202|272:199|272:199|268:208|268:208|277:205|277:205|274:214|274:214|283:212|283:212|279:220|279:220|288:218|288:218|285:226|285:226|293:224|293:224|289:233|289:233|298:230|298:230|313:244,1,500
288,224,160356,6,0,L|258:166,1,62.5
269,192,160447,2,0,L|204:188,1,62.5
233,188,160538,2,0,L|204:132,1,62.5
215,157,160629,2,0,L|150:153,1,62.5
179,153,160720,2,0,L|150:97,1,62.5
86,92,160810,2,0,P|120:38|191:46,1,125
232,73,160947,2,0,P|276:119|296:255,1,187.5
284,321,161129,2,0,P|225:249|215:157,1,187.5
232,73,161356,2,0,P|276:119|301:223,1,125
344,239,161537,6,0,L|317:254,1,31.25
284,321,161674,1,0,0:0:0:0:
344,239,161810,6,0,L|317:254,1,31.25
272,220,161992,6,0,L|302:162,1,62.5
291,188,162083,2,0,L|356:184,1,62.5
327,184,162174,2,0,L|356:128,1,62.5
345,153,162265,2,0,L|410:149,1,62.5
381,149,162356,2,0,L|410:93,1,62.5
474,88,162446,2,0,P|440:34|369:42,1,125
328,69,162583,2,0,P|284:115|264:251,1,187.5
276,317,162765,2,0,P|335:245|345:153,1,187.5
328,69,162992,2,0,P|284:115|259:219,1,125
192,320,163174,2,0,P|251:302|300:264,1,125
328,69,163356,2,0,P|264:70|173:126,1,125
54,150,163538,2,0,P|108:180|169:187,1,125
80,36,163719,6,0,L|106:51,1,31.25
140,118,163856,1,0,0:0:0:0:
80,36,163992,6,0,L|106:51,1,31.25
320,112,164265,1,0,0:0:0:0:
256,192,164356,2,0,L|283:178,1,31.25
320,112,164537,1,0,0:0:0:0:
96,284,164628,2,0,B|184:332|276:340|276:340|240:288,1,234.375008940697
328,276,164901,2,0,P|332:244|224:184,1,125
120,68,165083,2,0,P|124:128|172:165,1,125
204,88,165219,2,0,B|208:64|208:64|216:72|216:72|220:56|220:56|228:68|228:68|232:48|232:48|240:64|240:64|248:40|248:40|256:64|256:64|292:64|320:28|320:28|344:124|448:152|448:152|440:164|440:164|452:164|452:164|440:176|440:176|460:176|460:176|444:192|444:192|468:192|468:192|448:208|448:208|476:208|476:208|372:204|320:312,1,750
336,282,165901,2,0,P|380:236|420:216,1,62.5
475,208,165992,2,0,B|427:295|335:283|335:283|376:248|368:192,1,250
475,208,166264,2,0,B|427:295|335:283|335:283|376:248|368:192,2,250
96,96,166810,6,0,P|184:112|292:96,1,187.5
416,288,167083,2,0,P|328:304|220:288,1,187.5
415,95,167355,2,0,P|324:79|231:92,1,187.5
96,287,167628,2,0,P|187:271|280:284,1,187.5
324,224,167810,2,0,P|380:196|324:200,1,125
296,156,167946,2,0,P|240:128|296:132,2,125
324,88,168173,1,0,0:0:0:0:
176,304,168355,1,0,0:0:0:0:
88,216,168446,1,0,0:0:0:0:
400,212,168628,2,0,B|444:74|343:-13|186:88|258:196|258:196|267:193|267:193|264:202|264:202|272:199|272:199|268:208|268:208|277:205|277:205|274:214|274:214|283:212|283:212|279:220|279:220|288:218|288:218|285:226|285:226|293:224|293:224|289:233|289:233|298:230|298:230|313:244,1,500
288,224,169083,6,0,L|258:166,1,62.5
269,192,169174,2,0,L|204:188,1,62.5
233,188,169265,2,0,L|204:132,1,62.5
215,157,169356,2,0,L|150:153,1,62.5
179,153,169447,2,0,L|150:97,1,62.5
86,92,169537,2,0,P|120:38|191:46,1,125
232,73,169674,2,0,P|276:119|296:255,1,187.5
284,321,169856,2,0,P|225:249|215:157,1,187.5
232,73,170083,2,0,P|276:119|301:223,1,125
344,239,170264,6,0,L|317:254,1,31.25
284,321,170401,1,0,0:0:0:0:
344,239,170537,6,0,L|317:254,1,31.25
272,220,170719,6,0,L|302:162,1,62.5
291,188,170810,2,0,L|356:184,1,62.5
327,184,170901,2,0,L|356:128,1,62.5
345,153,170992,2,0,L|410:149,1,62.5
381,149,171083,2,0,L|410:93,1,62.5
474,88,171173,2,0,P|440:34|369:42,1,125
328,69,171310,2,0,P|284:115|264:251,1,187.5
276,317,171492,2,0,P|335:245|345:153,1,187.5
328,69,171719,2,0,P|284:115|259:219,1,125
192,320,171901,2,0,P|251:302|300:264,1,125
328,69,172083,2,0,P|264:70|173:126,1,125
54,150,172265,2,0,P|108:180|169:187,1,125
80,36,172446,6,0,L|106:51,1,31.25
140,118,172583,1,0,0:0:0:0:
80,36,172719,6,0,L|106:51,1,31.25
320,112,172992,1,0,0:0:0:0:
256,192,173083,2,0,L|283:178,1,31.25
320,112,173264,1,0,0:0:0:0:
96,284,173356,2,0,B|184:332|276:340|276:340|240:288,1,234.375008940697
328,276,173629,2,0,P|332:244|224:184,1,125
120,68,173811,2,0,P|124:128|172:165,1,125
204,88,173947,2,0,B|208:64|208:64|216:72|216:72|220:56|220:56|228:68|228:68|232:48|232:48|240:64|240:64|248:40|248:40|256:64|256:64|292:64|320:28|320:28|344:124|448:152|448:152|440:164|440:164|452:164|452:164|440:176|440:176|460:176|460:176|444:192|444:192|468:192|468:192|448:208|448:208|476:208|476:208|372:204|320:312,1,750
336,282,174629,2,0,P|380:236|420:216,1,62.5
475,208,174720,2,0,B|427:295|335:283|335:283|376:248|368:192,1,250
475,208,174992,2,0,B|427:295|335:283|335:283|376:248|368:192,2,250
96,96,175538,6,0,P|184:112|292:96,1,187.5
416,288,175811,2,0,P|328:304|220:288,1,187.5
415,95,176083,2,0,P|324:79|231:92,1,187.5
96,287,176356,2,0,P|187:271|280:284,1,187.5
324,224,176538,2,0,P|380:196|324:200,1,125
296,156,176674,2,0,P|240:128|296:132,2,125
324,88,176901,1,0,0:0:0:0:
176,304,177083,1,0,0:0:0:0:
88,216,177174,1,0,0:0:0:0:
400,212,177356,2,0,B|444:74|343:-13|186:88|258:196|258:196|267:193|267:193|264:202|264:202|272:199|272:199|268:208|268:208|277:205|277:205|274:214|274:214|283:212|283:212|279:220|279:220|288:218|288:218|285:226|285:226|293:224|293:224|289:233|289:233|298:230|298:230|313:244,1,500
288,224,177811,6,0,L|258:166,1,62.5
269,192,177902,2,0,L|204:188,1,62.5
233,188,177993,2,0,L|204:132,1,62.5
215,157,178084,2,0,L|150:153,1,62.5
179,153,178175,2,0,L|150:97,1,62.5
86,92,178265,2,0,P|120:38|191:46,1,125
232,73,178402,2,0,P|276:119|296:255,1,187.5
284,321,178584,2,0,P|225:249|215:157,1,187.5
232,73,178811,2,0,P|276:119|301:223,1,125
344,239,178992,6,0,L|317:254,1,31.25
284,321,179129,1,0,0:0:0:0:
344,239,179265,6,0,L|317:254,1,31.25
272,220,179447,6,0,L|302:162,1,62.5
291,188,179538,2,0,L|356:184,1,62.5
327,184,179629,2,0,L|356:128,1,62.5
345,153,179720,2,0,L|410:149,1,62.5
381,149,179811,2,0,L|410:93,1,62.5
474,88,179901,2,0,P|440:34|369:42,1,125
328,69,180038,2,0,P|284:115|264:251,1,187.5
276,317,180220,2,0,P|335:245|345:153,1,187.5
328,69,180447,2,0,P|284:115|259:219,1,125
192,320,180629,2,0,P|251:302|300:264,1,125
328,69,180811,2,0,P|264:70|173:126,1,125
54,150,180993,2,0,P|108:180|169:187,1,125
80,36,181174,6,0,L|106:51,1,31.25
140,118,181311,1,0,0:0:0:0:
80,36,181447,6,0,L|106:51,1,31.25
320,112,181720,1,0,0:0:0:0:
256,192,181811,2,0,L|283:178,1,31.25
320,112,181992,1,0,0:0:0:0:
96,284,182083,2,0,B|184:332|276:340|276:340|240:288,1,234.375008940697
328,276,182356,2,0,P|332:244|224:184,1,125
120,68,182538,2,0,P|124:128|172:165,1,125
204,88,182674,2,0,B|208:64|208:64|216:72|216:72|220:56|220:56|228:68|228:68|232:48|232:48|240:64|240:64|248:40|248:40|256:64|256:64|292:64|320:28|320:28|344:124|448:152|448:152|440:164|440:164|452:164|452:164|440:176|440:176|460:176|460:176|444:192|444:192|468:192|468:192|448:208|448:208|476:208|476:208|372:204|320:312,1,750
336,282,183356,2,0,P|380:236|420:216,1,62.5
475,208,183447,2,0,B|427:295|335:283|335:283|376:248|368:192,1,250
475,208,183719,2,0,B|427:295|335:283|335:283|376:248|368:192,2,250
96,96,184265,6,0,P|184:112|292:96,1,187.5
416,288,184538,2,0,P|328:304|220:288,1,187.5
415,95,184810,2,0,P|324:79|231:92,1,187.5
96,287,185083,2,0,P|187:271|280:284,1,187.5
324,224,185265,2,0,P|380:196|324:200,1,125
296,156,185401,2,0,P|240:128|296:132,2,125
324,88,185628,1,0,0:0:0:0:
176,304,185810,1,0,0:0:0:0:
88,216,185901,1,0,0:0:0:0:
400,212,186083,2,0,B|444:74|343:-13|186:88|258:196|258:196|267:193|267:193|264:202|264:202|272:199|272:199|268:208|268:208|277:205|277:205|274:214|274:214|283:212|283:212|279:220|279:220|288:218|288:218|285:226|285:226|293:224|293:224|289:233|289:233|298:230|298:230|313:244,1,500
288,224,186538,6,0,L|258:166,1,62.5
269,192,186629,2,0,L|204:188,1,62.5
233,188,186720,2,0,L|204:132,1,62.5
215,157,186811,2,0,L|150:153,1,62.5
179,153,186902,2,0,L|150:97,1,62.5
86,92,186992,2,0,P|120:38|191:46,1,125
232,73,187129,2,0,P|276:119|296:255,1,187.5
284,321,187311,2,0,P|225:249|215:157,1,187.5
232,73,187538,2,0,P|276:119|301:223,1,125
344,239,187719,6,0,L|317:254,1,31.25
284,321,187856,1,0,0:0:0:0:
344,239,187992,6,0,L|317:254,1,31.25
272,220,188174,6,0,L|302:162,1,62.5
291,188,188265,2,0,L|356:184,1,62.5
327,184,188356,2,0,L|356:128,1,62.5
345,153,188447,2,0,L|410:149,1,62.5
381,149,188538,2,0,L|410:93,1,62.5
474,88,188628,2,0,P|440:34|369:42,1,125
328,69,188765,2,0,P|284:115|264:251,1,187.5
276,317,188947,2,0,P|335:245|345:153,1,187.5
328,69,189174,2,0,P|284:115|259:219,1,125
192,320,189356,2,0,P|251:302|300:264,1,125
328,69,189538,2,0,P|264:70|173:126,1,125
54,150,189720,2,0,P|108:180|169:187,1,125
80,36,189901,6,0,L|106:51,1,31.25
140,118,190038,1,0,0:0:0:0:
80,36,190174,6,0,L|106:51,1,31.25
320,112,190447,1,0,0:0:0:0:
256,192,190538,2,0,L|283:178,1,31.25
320,112,190719,1,0,0:0:0:0:
