osu file format v14

[General]
AudioFilename: audio.mp3
AudioLeadIn: 0
PreviewTime: 244714
Countdown: 1
SampleSet: None
StackLeniency: 0.7
Mode: 0
LetterboxInBreaks: 0
WidescreenStoryboard: 1

[Editor]
DistanceSpacing: 2.75
BeatDivisor: 6
GridSize: 4
TimelineZoom: 2.899999

[Metadata]
Title:Leave It Behind (Oolacile Remix)
TitleUnicode:Leave It Behind (Oolacile Remix)
Artist:Virtual Riot & 12th Planet
ArtistUnicode:Virtual Riot & 12th Planet
Creator:shizukanoto
Version:Descent
Source:
Tags:edm dubstep
BeatmapID:4267938
BeatmapSetID:523234

[Difficulty]
HPDrainRate:7
CircleSize:4
OverallDifficulty:7
ApproachRate:9
SliderMultiplier:1.99999995529652
SliderTickRate:1

[Events]
//Background and Video events
0,0,"bg.jpg",0,0
//Break Periods
//Storyboard Layer 0 (Background)
//Storyboard Layer 1 (Fail)
//Storyboard Layer 2 (Pass)
//Storyboard Layer 3 (Foreground)
//Storyboard Layer 4 (Overlay)
//Storyboard Sound Samples

[TimingPoints]
0,428.571428571429,4,1,0,100,1,0
35142,-200,4,1,0,100,0,0
36000,-100,4,1,0,100,0,0

[Colours]
Combo1 : 140,0,255

[HitObjects]
180,260,1714,5,0,1:0:0:0:
176,60,2142,1,0,1:0:0:0:
304,288,2571,5,0,1:0:0:0:
244,129,3000,1,0,1:0:0:0:
232,308,3428,5,0,1:0:0:0:
333,150,3857,1,0,1:0:0:0:
120,200,4285,1,0,1:0:0:0:
384,247,4714,5,0,1:0:0:0:
172,252,5142,5,0,1:0:0:0:
368,220,5571,2,0,P|416:272|480:260,1,133.333333333333,0|0,1:0|1:0,1:0:0:0:
473,264,6000,1,0,1:0:0:0:
350,68,6428,5,0,1:0:0:0:
201,184,6857,1,0,1:0:0:0:
412,80,7286,1,0,1:0:0:0:
444,216,7714,1,0,1:0:0:0:
476,48,8142,1,0,1:0:0:0:
332,252,8571,5,0,2:0:0:0:
280,59,9000,1,0,2:0:0:0:
196,183,9428,1,0,2:0:0:0:
87,111,9857,1,0,2:0:0:0:
139,305,10285,5,0,2:0:0:0:
52,288,10714,1,0,2:0:0:0:
332,252,11143,1,0,2:0:0:0:
280,59,11571,1,0,2:0:0:0:
414,204,12000,5,0,1:0:0:0:
328,177,12428,2,0,B|360:136|416:148|416:148|404:200,1,150,0|0,1:0|1:0,1:0:0:0:
272,212,12857,1,0,1:0:0:0:
215,105,13285,2,0,B|184:64|128:76|128:76|140:128,1,150,0|0,1:0|1:0,1:0:0:0:
226,106,13714,5,0,1:0:0:0:
352,132,13928,1,0,1:0:0:0:
320,204,14142,1,0,1:0:0:0:
225,114,14357,1,0,1:0:0:0:
129,134,14571,1,0,1:0:0:0:
53,60,14785,1,0,1:0:0:0:
46,155,15000,1,0,1:0:0:0:
143,139,15214,1,0,1:0:0:0:
299,49,15428,5,0,1:0:0:0:
456,154,15857,1,0,1:0:0:0:
148,280,16178,1,0,1:0:0:0:
145,286,16285,1,0,1:0:0:0:
47,327,16714,1,0,1:0:0:0:
312,356,17571,1,0,1:0:0:0:
443,278,18000,1,0,1:0:0:0:
108,252,18857,5,0,1:0:0:0:
92,112,19285,2,0,L|224:111|256:88,1,150.33332824707,0|0,1:0|1:0,1:0:0:0:
241,94,19714,1,0,1:0:0:0:
368,46,20142,1,0,1:0:0:0:
297,259,21000,1,0,1:0:0:0:
370,57,21428,1,0,1:0:0:0:
92,296,21857,2,0,L|204:366|242:358,1,150,0|0,1:0|1:0,1:0:0:0:
294,189,22285,5,0,1:0:0:0:
344,328,22714,1,0,1:0:0:0:
376,116,23142,1,0,1:0:0:0:
244,316,23571,2,0,L|204:212,1,66.6666666666667,0|0,1:0|1:0,1:0:0:0:
124,227,23857,2,0,L|183:261,1,66.7333297729492,0|0,1:0|1:0,1:0:0:0:
276,71,24428,2,0,L|316:175,1,66.6666666666667,0|0,1:0|1:0,1:0:0:0:
396,154,24714,2,0,L|326:113,1,66.533332824707,0|0,1:0|1:0,1:0:0:0:
89,93,25571,1,0,1:0:0:0:
92,101,25714,6,0,L|89:167,1,66.6666641235352,0|0,1:0|1:0,1:0:0:0:
23,149,25999,1,0,1:0:0:0:
169,199,26142,2,0,L|175:133,1,66.6666641235352,0|0,1:0|1:0,1:0:0:0:
23,149,26428,1,0,1:0:0:0:
250,196,26571,2,0,L|237:262,1,66.6666641235352,0|0,1:0|1:0,1:0:0:0:
93,194,26857,5,0,1:0:0:0:
380,234,27000,5,0,1:0:0:0:
242,267,27142,1,0,1:0:0:0:
312,152,27285,1,0,1:0:0:0:
384,328,27428,5,0,1:0:0:0:
435,190,27750,2,0,L|439:158,1,25,0|0,1:0|1:0,1:0:0:0:
441,194,27857,5,0,1:0:0:0:
369,226,28000,1,0,1:0:0:0:
444,272,28142,1,0,1:0:0:0:
282,147,28285,5,0,1:0:0:0:
288,224,28428,1,0,1:0:0:0:
216,188,28571,1,0,1:0:0:0:
151,301,28714,5,0,1:0:0:0:
148,384,28857,1,0,1:0:0:0:
220,348,29000,1,0,1:0:0:0:
84,92,29142,6,0,B|91:65|91:65|80:52|158:85|158:85|176:52,1,150.399993896484,0|0,1:0|1:0,1:0:0:0:
127,142,30000,1,0,1:0:0:0:
139,147,30428,1,0,1:0:0:0:
128,150,30857,1,0,1:0:0:0:
134,154,31286,1,0,1:0:0:0:
146,171,31714,1,0,1:0:0:0:
77,240,32143,1,0,1:0:0:0:
130,313,32571,1,0,1:0:0:0:
42,345,33000,1,0,1:0:0:0:
54,352,33428,1,0,1:0:0:0:
156,379,33857,5,0,1:0:0:0:
402,91,34285,1,0,1:0:0:0:
410,87,34714,1,0,1:0:0:0:
419,84,35142,2,0,B|451:72|451:72|419:36,2,66.6666666666667,0|0|0,1:0|1:0|1:0,1:0:0:0:
84,92,36000,6,0,B|91:65|91:65|80:52|158:85|158:85|176:52,1,150.399993896484,0|0,1:0|1:0,1:0:0:0:
172,75,36428,1,0,1:0:0:0:
240,52,36571,2,0,L|178:77,1,66.6666564941406,0|0,1:0|1:0,1:0:0:0:
352,161,36857,6,0,L|404:120,2,66.7333297729492,0|0|0,1:0|1:0|1:0,1:0:0:0:
419,202,37285,5,0,1:0:0:0:
400,105,37428,1,0,1:0:0:0:
486,130,37571,1,0,1:0:0:0:
293,216,37714,2,0,L|324:274,2,66.7333297729492,0|0|0,1:0|1:0|1:0,1:0:0:0:
142,288,38142,1,0,1:0:0:0:
66,233,38285,1,0,1:0:0:0:
63,323,38428,1,0,1:0:0:0:
224,248,38571,6,0,L|283:216,2,66.8666610717773,0|0|0,1:0|1:0|1:0,1:0:0:0:
212,326,39000,5,0,1:0:0:0:
152,175,39143,1,0,1:0:0:0:
341,159,39286,1,0,1:0:0:0:
353,326,39428,6,0,L|353:293,6,33.3333333333333,0|0|0|0|0|0|0,1:0|1:0|1:0|1:0|1:0|1:0|1:0,1:0:0:0:
219,84,40000,1,0,1:0:0:0:
219,84,40071,1,0,1:0:0:0:
219,84,40142,1,0,1:0:0:0:
362,322,40285,6,0,L|362:358,6,33.3333333333333,0|0|0|0|0|0|0,1:0|1:0|1:0|1:0|1:0|1:0|1:0,1:0:0:0:
231,265,40857,2,0,L|260:248,2,33.3333320617676,0|0|0,1:0|1:0|1:0,1:0:0:0:
107,140,41142,5,0,1:0:0:0:
268,152,41285,1,0,1:0:0:0:
209,246,41428,1,0,1:0:0:0:
220,26,41571,5,0,1:0:0:0:
52,206,41714,1,0,1:0:0:0:
350,308,41857,1,0,1:0:0:0:
485,20,42000,5,0,1:0:0:0:
498,360,42285,1,0,1:0:0:0:
30,201,42571,1,0,1:0:0:0:
224,251,42857,6,0,P|233:133|233:255,1,400.066680908203,0|0,1:0|1:0,1:0:0:0:
