osu file format v14

[General]
AudioFilename: Noise Channel Radio - Noisechan & Nugget- Adventures in Chiptunes - 01 Noise Channel Theme (Full Mix)_1,4.mp3
AudioLeadIn: 2
PreviewTime: 68017
Countdown: 0
SampleSet: None
StackLeniency: 0.7
Mode: 3
LetterboxInBreaks: 0
SpecialStyle: 0
WidescreenStoryboard: 0

[Editor]
DistanceSpacing: 0.8
BeatDivisor: 4
GridSize: 8
TimelineZoom: 1

[Metadata]
Title:Send My Love to Mars
TitleUnicode:Send My Love to Mars
Artist:Virt
ArtistUnicode:Virt
Creator:Sonny737
Version:Hard x1,4
Source:Nuclear Blast JS Awesome Bomb Filez 5
Tags:Stepmania nb5
BeatmapID:1487445
BeatmapSetID:702404

[Difficulty]
HPDrainRate:7
CircleSize:4
OverallDifficulty:8
ApproachRate:10
SliderMultiplier:1.4
SliderTickRate:1

[Events]
//Background and Video events
0,0,"mars_bg.png",0,0
//Break Periods
//Storyboard Layer 0 (Background)
//Storyboard Layer 1 (Fail)
//Storyboard Layer 2 (Pass)
//Storyboard Layer 3 (Foreground)
//Storyboard Sound Samples

[TimingPoints]
799,266.666666666667,4,4,0,100,1,0

[HitObjects]
448,192,799,5,0,0:0:0:0:
192,192,990,1,0,0:0:0:0:
320,192,1085,1,0,0:0:0:0:
64,192,1275,1,0,0:0:0:0:
192,192,1370,1,0,0:0:0:0:
320,192,1465,1,0,0:0:0:0:
448,192,1561,1,0,0:0:0:0:
64,0,1561,128,0,1847:1:0:0:0:
192,0,1847,128,0,2132:1:0:0:0:
448,192,2132,1,0,0:0:0:0:
320,0,2132,128,0,2418:1:0:0:0:
448,0,2418,128,0,2704:1:0:0:0:
192,0,2704,128,0,2894:1:0:0:0:
64,0,2894,128,0,3085:1:0:0:0:
448,192,3085,1,0,0:0:0:0:
320,0,3085,128,0,3370:1:0:0:0:
64,192,3370,1,0,0:0:0:0:
192,0,3370,128,0,3656:1:0:0:0:
64,192,3656,1,0,0:0:0:0:
320,0,3656,128,0,3942:1:0:0:0:
64,192,3942,1,0,0:0:0:0:
448,0,3942,128,0,4227:1:0:0:0:
64,192,4418,1,0,0:0:0:0:
192,192,4465,1,0,0:0:0:0:
320,192,4513,1,0,0:0:0:0:
448,192,4561,1,0,0:0:0:0:
320,0,4799,128,0,4990:1:0:0:0:
192,0,4990,128,0,5180:1:0:0:0:
64,0,5180,128,0,5370:1:0:0:0:
448,192,5370,1,0,0:0:0:0:
320,192,5465,1,0,0:0:0:0:
448,192,5561,1,0,0:0:0:0:
64,192,5656,1,0,0:0:0:0:
192,192,5751,1,0,0:0:0:0:
64,192,5878,1,0,0:0:0:0:
320,192,5942,1,0,0:0:0:0:
448,192,5942,1,0,0:0:0:0:
192,192,6037,1,0,0:0:0:0:
320,192,6085,1,0,0:0:0:0:
64,192,6132,1,0,0:0:0:0:
448,192,6132,1,0,0:0:0:0:
192,192,6180,1,0,0:0:0:0:
320,192,6227,1,0,0:0:0:0:
192,192,6275,1,0,0:0:0:0:
64,192,6322,1,0,0:0:0:0:
320,192,6370,1,0,0:0:0:0:
192,192,6418,1,0,0:0:0:0:
64,192,6513,1,0,0:0:0:0:
448,192,6513,1,0,0:0:0:0:
320,192,6561,1,0,0:0:0:0:
192,192,6608,1,0,0:0:0:0:
448,192,6608,1,0,0:0:0:0:
64,192,6656,1,0,0:0:0:0:
320,192,6704,1,0,0:0:0:0:
64,192,6799,1,0,0:0:0:0:
448,192,6799,1,0,0:0:0:0:
192,192,6847,1,0,0:0:0:0:
320,192,6894,1,0,0:0:0:0:
64,192,6942,1,0,0:0:0:0:
192,192,6990,1,0,0:0:0:0:
320,192,7037,1,0,0:0:0:0:
448,192,7085,1,0,0:0:0:0:
192,192,7132,1,0,0:0:0:0:
320,192,7180,1,0,0:0:0:0:
192,192,7227,1,0,0:0:0:0:
64,192,7275,1,0,0:0:0:0:
448,192,7322,1,0,0:0:0:0:
320,192,7370,1,0,0:0:0:0:
64,192,7418,1,0,0:0:0:0:
192,192,7465,1,0,0:0:0:0:
64,192,7656,1,0,0:0:0:0:
320,192,7656,1,0,0:0:0:0:
192,192,7704,1,0,0:0:0:0:
448,192,7751,1,0,0:0:0:0:
192,192,7799,1,0,0:0:0:0:
320,192,7847,1,0,0:0:0:0:
64,192,7894,1,0,0:0:0:0:
448,192,7942,1,0,0:0:0:0:
320,192,7990,1,0,0:0:0:0:
64,192,8037,1,0,0:0:0:0:
192,192,8037,1,0,0:0:0:0:
64,192,8132,1,0,0:0:0:0:
320,192,8132,1,0,0:0:0:0:
448,192,8180,1,0,0:0:0:0:
192,192,8227,1,0,0:0:0:0:
320,192,8322,1,0,0:0:0:0:
448,192,8322,1,0,0:0:0:0:
192,192,8370,1,0,0:0:0:0:
448,192,8418,1,0,0:0:0:0:
64,192,8513,1,0,0:0:0:0:
192,192,8513,1,0,0:0:0:0:
448,192,8561,1,0,0:0:0:0:
320,192,8608,1,0,0:0:0:0:
320,192,8704,1,0,0:0:0:0:
448,192,8704,1,0,0:0:0:0:
192,192,8751,1,0,0:0:0:0:
64,192,8799,1,0,0:0:0:0:
192,192,8847,1,0,0:0:0:0:
320,192,8894,1,0,0:0:0:0:
64,192,8990,1,0,0:0:0:0:
192,192,8990,1,0,0:0:0:0:
320,192,9037,1,0,0:0:0:0:
192,192,9085,1,0,0:0:0:0:
320,192,9180,1,0,0:0:0:0:
448,192,9180,1,0,0:0:0:0:
64,192,9227,1,0,0:0:0:0:
192,192,9275,1,0,0:0:0:0:
320,192,9322,1,0,0:0:0:0:
448,192,9370,1,0,0:0:0:0:
320,192,9418,1,0,0:0:0:0:
192,192,9465,1,0,0:0:0:0:
64,192,9513,1,0,0:0:0:0:
320,192,9561,1,0,0:0:0:0:
448,192,9561,1,0,0:0:0:0:
64,192,9608,1,0,0:0:0:0:
192,192,9656,1,0,0:0:0:0:
320,192,9656,1,0,0:0:0:0:
448,192,9704,1,0,0:0:0:0:
192,192,9751,1,0,0:0:0:0:
64,192,9847,1,0,0:0:0:0:
320,192,9847,1,0,0:0:0:0:
448,192,9894,1,0,0:0:0:0:
64,192,9942,1,0,0:0:0:0:
192,192,9990,1,0,0:0:0:0:
320,192,10037,1,0,0:0:0:0:
448,192,10085,1,0,0:0:0:0:
320,192,10132,1,0,0:0:0:0:
192,192,10180,1,0,0:0:0:0:
64,192,10227,1,0,0:0:0:0:
320,192,10275,1,0,0:0:0:0:
192,192,10322,1,0,0:0:0:0:
448,192,10370,1,0,0:0:0:0:
320,192,10418,1,0,0:0:0:0:
192,192,10465,1,0,0:0:0:0:
64,192,10513,1,0,0:0:0:0:
192,192,10704,1,0,0:0:0:0:
320,192,10704,1,0,0:0:0:0:
64,192,10751,1,0,0:0:0:0:
192,192,10799,1,0,0:0:0:0:
320,192,10847,1,0,0:0:0:0:
448,192,10894,1,0,0:0:0:0:
320,192,10942,1,0,0:0:0:0:
192,192,10990,1,0,0:0:0:0:
64,192,11037,1,0,0:0:0:0:
320,192,11085,1,0,0:0:0:0:
448,192,11085,1,0,0:0:0:0:
192,192,11180,1,0,0:0:0:0:
320,192,11180,1,0,0:0:0:0:
64,192,11275,1,0,0:0:0:0:
320,192,11370,1,0,0:0:0:0:
448,192,11370,1,0,0:0:0:0:
192,192,11418,1,0,0:0:0:0:
64,192,11466,1,0,0:0:0:0:
448,192,11513,1,0,0:0:0:0:
320,192,11561,1,0,0:0:0:0:
192,192,11609,1,0,0:0:0:0:
320,192,11656,1,0,0:0:0:0:
192,192,11704,1,0,0:0:0:0:
64,192,11752,1,0,0:0:0:0:
448,192,11799,1,0,0:0:0:0:
192,192,11847,1,0,0:0:0:0:
448,192,11895,1,0,0:0:0:0:
64,192,11942,1,0,0:0:0:0:
320,192,11942,1,0,0:0:0:0:
320,192,12037,1,0,0:0:0:0:
448,192,12037,1,0,0:0:0:0:
64,192,12132,1,0,0:0:0:0:
192,192,12132,1,0,0:0:0:0:
320,192,12180,1,0,0:0:0:0:
64,192,12227,1,0,0:0:0:0:
448,192,12227,1,0,0:0:0:0:
192,192,12322,1,0,0:0:0:0:
320,192,12418,1,0,0:0:0:0:
320,192,12513,1,0,0:0:0:0:
64,192,12608,1,0,0:0:0:0:
192,192,12704,1,0,0:0:0:0:
320,192,12799,1,0,0:0:0:0:
192,192,12894,1,0,0:0:0:0:
448,192,12894,1,0,0:0:0:0:
320,192,12942,1,0,0:0:0:0:
192,192,12990,1,0,0:0:0:0:
64,192,13085,1,0,0:0:0:0:
448,192,13085,1,0,0:0:0:0:
192,192,13180,1,0,0:0:0:0:
320,192,13180,1,0,0:0:0:0:
64,192,13275,1,0,0:0:0:0:
448,192,13275,1,0,0:0:0:0:
320,192,13370,1,0,0:0:0:0:
192,192,13465,1,0,0:0:0:0:
320,192,13465,1,0,0:0:0:0:
64,192,13561,1,0,0:0:0:0:
320,192,13656,1,0,0:0:0:0:
448,192,13656,1,0,0:0:0:0:
192,192,13704,1,0,0:0:0:0:
64,192,13751,1,0,0:0:0:0:
448,192,13799,1,0,0:0:0:0:
320,192,13847,1,0,0:0:0:0:
192,192,13894,1,0,0:0:0:0:
64,192,13942,1,0,0:0:0:0:
192,192,13990,1,0,0:0:0:0:
320,192,14037,1,0,0:0:0:0:
448,192,14085,1,0,0:0:0:0:
192,192,14132,1,0,0:0:0:0:
320,192,14180,1,0,0:0:0:0:
64,192,14227,1,0,0:0:0:0:
192,192,14275,1,0,0:0:0:0:
320,192,14322,1,0,0:0:0:0:
64,192,14418,1,0,0:0:0:0:
448,192,14418,1,0,0:0:0:0:
320,192,14465,1,0,0:0:0:0:
192,192,14513,1,0,0:0:0:0:
64,192,14608,1,0,0:0:0:0:
448,192,14608,1,0,0:0:0:0:
192,192,14656,1,0,0:0:0:0:
320,192,14704,1,0,0:0:0:0:
448,192,14704,1,0,0:0:0:0:
192,192,14751,1,0,0:0:0:0:
64,192,14799,1,0,0:0:0:0:
448,192,14799,1,0,0:0:0:0:
320,192,14847,1,0,0:0:0:0:
192,192,14894,1,0,0:0:0:0:
320,192,14990,1,0,0:0:0:0:
448,192,14990,1,0,0:0:0:0:
64,192,15037,1,0,0:0:0:0:
448,192,15085,1,0,0:0:0:0:
64,192,15180,1,0,0:0:0:0:
320,192,15180,1,0,0:0:0:0:
192,192,15227,1,0,0:0:0:0:
320,192,15275,1,0,0:0:0:0:
64,192,15322,1,0,0:0:0:0:
192,192,15370,1,0,0:0:0:0:
320,192,15418,1,0,0:0:0:0:
448,192,15465,1,0,0:0:0:0:
64,192,15513,1,0,0:0:0:0:
192,192,15561,1,0,0:0:0:0:
320,192,15608,1,0,0:0:0:0:
192,192,15656,1,0,0:0:0:0:
64,192,15751,1,0,0:0:0:0:
448,192,15847,1,0,0:0:0:0:
64,192,15942,1,0,0:0:0:0:
320,192,15942,1,0,0:0:0:0:
448,192,15990,1,0,0:0:0:0:
192,192,16037,1,0,0:0:0:0:
64,192,16085,1,0,0:0:0:0:
320,192,16132,1,0,0:0:0:0:
448,192,16132,1,0,0:0:0:0:
192,192,16180,1,0,0:0:0:0:
64,192,16227,1,0,0:0:0:0:
448,192,16227,1,0,0:0:0:0:
320,192,16275,1,0,0:0:0:0:
64,192,16322,1,0,0:0:0:0:
192,192,16322,1,0,0:0:0:0:
448,192,16370,1,0,0:0:0:0:
64,192,16418,1,0,0:0:0:0:
192,192,16465,1,0,0:0:0:0:
320,192,16513,1,0,0:0:0:0:
448,192,16513,1,0,0:0:0:0:
192,192,16561,1,0,0:0:0:0:
64,192,16608,1,0,0:0:0:0:
320,192,16656,1,0,0:0:0:0:
192,192,16704,1,0,0:0:0:0:
448,192,16751,1,0,0:0:0:0:
64,192,16799,1,0,0:0:0:0:
320,192,16799,1,0,0:0:0:0:
192,192,16847,1,0,0:0:0:0:
448,192,16894,1,0,0:0:0:0:
320,192,16942,1,0,0:0:0:0:
192,192,16990,1,0,0:0:0:0:
64,192,17037,1,0,0:0:0:0:
320,192,17085,1,0,0:0:0:0:
448,192,17085,1,0,0:0:0:0:
192,192,17132,1,0,0:0:0:0:
320,192,17180,1,0,0:0:0:0:
64,192,17227,1,0,0:0:0:0:
448,192,17275,1,0,0:0:0:0:
320,192,17322,1,0,0:0:0:0:
192,192,17370,1,0,0:0:0:0:
64,192,17418,1,0,0:0:0:0:
192,192,17465,1,0,0:0:0:0:
320,192,17513,1,0,0:0:0:0:
64,192,17561,1,0,0:0:0:0:
448,192,17561,1,0,0:0:0:0:
192,192,17608,1,0,0:0:0:0:
320,192,17656,1,0,0:0:0:0:
448,192,17704,1,0,0:0:0:0:
192,192,17751,1,0,0:0:0:0:
320,192,17799,1,0,0:0:0:0:
64,192,17847,1,0,0:0:0:0:
192,192,17847,1,0,0:0:0:0:
448,192,17894,1,0,0:0:0:0:
320,192,17942,1,0,0:0:0:0:
192,192,17990,1,0,0:0:0:0:
64,192,18037,1,0,0:0:0:0:
192,192,18085,1,0,0:0:0:0:
320,192,18132,1,0,0:0:0:0:
448,192,18132,1,0,0:0:0:0:
64,192,18180,1,0,0:0:0:0:
192,192,18227,1,0,0:0:0:0:
320,192,18275,1,0,0:0:0:0:
64,192,18322,1,0,0:0:0:0:
448,0,18322,128,0,18608:1:0:0:0:
192,192,18418,1,0,0:0:0:0:
192,192,18513,1,0,0:0:0:0:
192,192,18704,1,0,0:0:0:0:
448,192,18704,1,0,0:0:0:0:
64,192,18799,1,0,0:0:0:0:
320,192,18799,1,0,0:0:0:0:
192,192,18894,1,0,0:0:0:0:
448,192,18990,1,0,0:0:0:0:
320,0,18990,128,0,19275:1:0:0:0:
192,192,19180,1,0,0:0:0:0:
448,192,19275,1,0,0:0:0:0:
64,192,19465,1,0,0:0:0:0:
192,192,19561,1,0,0:0:0:0:
320,192,19656,1,0,0:0:0:0:
448,192,19656,1,0,0:0:0:0:
192,192,19751,1,0,0:0:0:0:
320,192,19847,1,0,0:0:0:0:
64,0,19847,128,0,20037:1:0:0:0:
192,192,19942,1,0,0:0:0:0:
448,192,20037,1,0,0:0:0:0:
64,192,20132,1,0,0:0:0:0:
192,192,20132,1,0,0:0:0:0:
320,192,20227,1,0,0:0:0:0:
448,192,20227,1,0,0:0:0:0:
64,192,20322,1,0,0:0:0:0:
192,192,20322,1,0,0:0:0:0:
320,192,20418,1,0,0:0:0:0:
448,192,20513,1,0,0:0:0:0:
192,0,20513,128,0,20608:1:0:0:0:
64,192,20704,1,0,0:0:0:0:
320,0,20704,128,0,20799:1:0:0:0:
192,192,20799,1,0,0:0:0:0:
320,192,20894,1,0,0:0:0:0:
448,0,20894,128,0,20990:1:0:0:0:
192,192,20990,1,0,0:0:0:0:
448,192,21085,1,0,0:0:0:0:
64,0,21085,128,0,21180:1:0:0:0:
320,192,21180,1,0,0:0:0:0:
192,192,21275,1,0,0:0:0:0:
64,192,21370,1,0,0:0:0:0:
320,192,21370,1,0,0:0:0:0:
192,192,21418,1,0,0:0:0:0:
320,192,21465,1,0,0:0:0:0:
448,192,21513,1,0,0:0:0:0:
64,192,21561,1,0,0:0:0:0:
192,192,21608,1,0,0:0:0:0:
320,192,21656,1,0,0:0:0:0:
448,192,21704,1,0,0:0:0:0:
64,192,21751,1,0,0:0:0:0:
192,192,21751,1,0,0:0:0:0:
320,192,21847,1,0,0:0:0:0:
448,192,21847,1,0,0:0:0:0:
192,192,21942,1,0,0:0:0:0:
320,192,22037,1,0,0:0:0:0:
64,0,22037,128,0,22704:1:0:0:0:
192,192,22227,1,0,0:0:0:0:
448,192,22322,1,0,0:0:0:0:
320,192,22513,1,0,0:0:0:0:
192,192,22608,1,0,0:0:0:0:
448,192,22704,1,0,0:0:0:0:
320,192,22799,1,0,0:0:0:0:
64,192,22894,1,0,0:0:0:0:
448,0,22894,128,0,23085:1:0:0:0:
192,192,22990,1,0,0:0:0:0:
320,192,23085,1,0,0:0:0:0:
64,192,23275,1,0,0:0:0:0:
320,192,23275,1,0,0:0:0:0:
192,192,23370,1,0,0:0:0:0:
448,192,23370,1,0,0:0:0:0:
64,192,23465,1,0,0:0:0:0:
448,192,23561,1,0,0:0:0:0:
320,0,23561,128,0,23847:1:0:0:0:
64,192,23608,1,0,0:0:0:0:
192,192,23656,1,0,0:0:0:0:
64,192,23751,1,0,0:0:0:0:
448,192,23847,1,0,0:0:0:0:
192,192,23942,1,0,0:0:0:0:
448,192,24037,1,0,0:0:0:0:
320,192,24085,1,0,0:0:0:0:
64,192,24132,1,0,0:0:0:0:
192,192,24132,1,0,0:0:0:0:
320,192,24227,1,0,0:0:0:0:
448,192,24227,1,0,0:0:0:0:
64,192,24322,1,0,0:0:0:0:
192,192,24322,1,0,0:0:0:0:
320,192,24370,1,0,0:0:0:0:
64,192,24418,1,0,0:0:0:0:
448,192,24418,1,0,0:0:0:0:
192,192,24465,1,0,0:0:0:0:
320,192,24513,1,0,0:0:0:0:
448,192,24561,1,0,0:0:0:0:
192,192,24608,1,0,0:0:0:0:
320,192,24656,1,0,0:0:0:0:
64,192,24704,1,0,0:0:0:0:
448,192,24751,1,0,0:0:0:0:
64,192,24799,1,0,0:0:0:0:
192,192,24847,1,0,0:0:0:0:
320,192,24894,1,0,0:0:0:0:
448,192,24942,1,0,0:0:0:0:
64,192,24990,1,0,0:0:0:0:
192,192,24990,1,0,0:0:0:0:
320,192,25037,1,0,0:0:0:0:
448,192,25085,1,0,0:0:0:0:
320,192,25132,1,0,0:0:0:0:
64,192,25180,1,0,0:0:0:0:
192,192,25180,1,0,0:0:0:0:
448,192,25227,1,0,0:0:0:0:
320,192,25275,1,0,0:0:0:0:
192,192,25322,1,0,0:0:0:0:
64,192,25370,1,0,0:0:0:0:
192,192,25418,1,0,0:0:0:0:
320,192,25465,1,0,0:0:0:0:
448,192,25465,1,0,0:0:0:0:
192,192,25513,1,0,0:0:0:0:
64,192,25561,1,0,0:0:0:0:
448,192,25608,1,0,0:0:0:0:
320,192,25656,1,0,0:0:0:0:
192,192,25704,1,0,0:0:0:0:
64,192,25751,1,0,0:0:0:0:
448,192,25751,1,0,0:0:0:0:
192,192,25799,1,0,0:0:0:0:
320,192,25847,1,0,0:0:0:0:
448,192,25894,1,0,0:0:0:0:
192,192,25942,1,0,0:0:0:0:
320,192,25942,1,0,0:0:0:0:
64,192,25990,1,0,0:0:0:0:
448,192,26037,1,0,0:0:0:0:
320,192,26085,1,0,0:0:0:0:
192,192,26132,1,0,0:0:0:0:
320,192,26180,1,0,0:0:0:0:
64,192,26227,1,0,0:0:0:0:
192,192,26227,1,0,0:0:0:0:
448,192,26275,1,0,0:0:0:0:
320,192,26323,1,0,0:0:0:0:
192,192,26370,1,0,0:0:0:0:
64,192,26418,1,0,0:0:0:0:
192,192,26466,1,0,0:0:0:0:
320,192,26513,1,0,0:0:0:0:
448,192,26513,1,0,0:0:0:0:
64,192,26561,1,0,0:0:0:0:
192,192,26609,1,0,0:0:0:0:
320,192,26656,1,0,0:0:0:0:
448,192,26704,1,0,0:0:0:0:
320,192,26752,1,0,0:0:0:0:
192,192,26799,1,0,0:0:0:0:
64,192,26847,1,0,0:0:0:0:
448,192,26895,1,0,0:0:0:0:
320,192,26942,1,0,0:0:0:0:
192,192,26990,1,0,0:0:0:0:
64,192,27037,1,0,0:0:0:0:
192,192,27085,1,0,0:0:0:0:
320,192,27132,1,0,0:0:0:0:
448,192,27180,1,0,0:0:0:0:
64,192,27227,1,0,0:0:0:0:
192,192,27275,1,0,0:0:0:0:
320,192,27275,1,0,0:0:0:0:
448,192,27323,1,0,0:0:0:0:
64,192,27370,1,0,0:0:0:0:
192,192,27370,1,0,0:0:0:0:
320,192,27418,1,0,0:0:0:0:
64,192,27466,1,0,0:0:0:0:
448,192,27466,1,0,0:0:0:0:
192,192,27513,1,0,0:0:0:0:
320,192,27561,1,0,0:0:0:0:
448,192,27609,1,0,0:0:0:0:
64,192,27656,1,0,0:0:0:0:
192,192,27704,1,0,0:0:0:0:
320,192,27752,1,0,0:0:0:0:
448,192,27752,1,0,0:0:0:0:
192,192,27799,1,0,0:0:0:0:
64,192,27847,1,0,0:0:0:0:
448,192,27895,1,0,0:0:0:0:
320,192,27942,1,0,0:0:0:0:
192,192,27990,1,0,0:0:0:0:
64,192,28037,1,0,0:0:0:0:
320,192,28085,1,0,0:0:0:0:
192,192,28132,1,0,0:0:0:0:
448,192,28180,1,0,0:0:0:0:
320,192,28227,1,0,0:0:0:0:
192,192,28275,1,0,0:0:0:0:
64,192,28323,1,0,0:0:0:0:
192,192,28370,1,0,0:0:0:0:
320,192,28418,1,0,0:0:0:0:
448,192,28466,1,0,0:0:0:0:
64,192,28513,1,0,0:0:0:0:
320,192,28561,1,0,0:0:0:0:
192,192,28609,1,0,0:0:0:0:
448,192,28656,1,0,0:0:0:0:
64,192,28704,1,0,0:0:0:0:
192,192,28752,1,0,0:0:0:0:
320,192,28799,1,0,0:0:0:0:
448,192,28847,1,0,0:0:0:0:
320,192,28895,1,0,0:0:0:0:
192,192,28942,1,0,0:0:0:0:
64,192,28990,1,0,0:0:0:0:
448,192,28990,1,0,0:0:0:0:
192,192,29037,1,0,0:0:0:0:
320,192,29085,1,0,0:0:0:0:
448,192,29132,1,0,0:0:0:0:
64,192,29180,1,0,0:0:0:0:
192,192,29227,1,0,0:0:0:0:
320,192,29275,1,0,0:0:0:0:
448,192,29323,1,0,0:0:0:0:
64,192,29370,1,0,0:0:0:0:
192,192,29370,1,0,0:0:0:0:
320,192,29418,1,0,0:0:0:0:
64,192,29466,1,0,0:0:0:0:
448,192,29466,1,0,0:0:0:0:
320,192,29513,1,0,0:0:0:0:
64,192,29561,1,0,0:0:0:0:
192,192,29561,1,0,0:0:0:0:
448,192,29609,1,0,0:0:0:0:
192,192,29656,1,0,0:0:0:0:
320,192,29656,1,0,0:0:0:0:
64,192,29704,1,0,0:0:0:0:
448,192,29752,1,0,0:0:0:0:
320,192,29799,1,0,0:0:0:0:
192,192,29847,1,0,0:0:0:0:
64,192,29895,1,0,0:0:0:0:
192,192,29942,1,0,0:0:0:0:
320,192,29942,1,0,0:0:0:0:
448,192,29990,1,0,0:0:0:0:
320,192,30037,1,0,0:0:0:0:
192,192,30085,1,0,0:0:0:0:
64,192,30132,1,0,0:0:0:0:
448,192,30132,1,0,0:0:0:0:
192,192,30180,1,0,0:0:0:0:
320,192,30227,1,0,0:0:0:0:
448,192,30275,1,0,0:0:0:0:
64,192,30323,1,0,0:0:0:0:
192,192,30323,1,0,0:0:0:0:
320,192,30370,1,0,0:0:0:0:
64,192,30418,1,0,0:0:0:0:
448,192,30418,1,0,0:0:0:0:
192,192,30466,1,0,0:0:0:0:
320,192,30513,1,0,0:0:0:0:
448,192,30561,1,0,0:0:0:0:
192,192,30609,1,0,0:0:0:0:
320,192,30656,1,0,0:0:0:0:
64,192,30704,1,0,0:0:0:0:
192,192,30752,1,0,0:0:0:0:
320,192,30799,1,0,0:0:0:0:
448,192,30847,1,0,0:0:0:0:
320,192,30895,1,0,0:0:0:0:
192,192,30942,1,0,0:0:0:0:
64,192,30990,1,0,0:0:0:0:
448,192,31037,1,0,0:0:0:0:
192,192,31085,1,0,0:0:0:0:
448,192,31132,1,0,0:0:0:0:
320,192,31180,1,0,0:0:0:0:
64,0,31180,128,0,31466:1:0:0:0:
192,192,31227,1,0,0:0:0:0:
320,192,31275,1,0,0:0:0:0:
448,192,31370,1,0,0:0:0:0:
192,192,31466,1,0,0:0:0:0:
320,192,31466,1,0,0:0:0:0:
448,192,31513,1,0,0:0:0:0:
64,192,31561,1,0,0:0:0:0:
192,192,31609,1,0,0:0:0:0:
320,192,31656,1,0,0:0:0:0:
448,192,31656,1,0,0:0:0:0:
192,192,31752,1,0,0:0:0:0:
320,192,31752,1,0,0:0:0:0:
448,192,31799,1,0,0:0:0:0:
64,192,31847,1,0,0:0:0:0:
320,192,31942,1,0,0:0:0:0:
448,0,31942,128,0,32227:1:0:0:0:
192,192,31990,1,0,0:0:0:0:
64,192,32037,1,0,0:0:0:0:
192,192,32132,1,0,0:0:0:0:
320,192,32227,1,0,0:0:0:0:
64,192,32275,1,0,0:0:0:0:
192,192,32323,1,0,0:0:0:0:
320,192,32370,1,0,0:0:0:0:
64,192,32418,1,0,0:0:0:0:
448,192,32418,1,0,0:0:0:0:
192,192,32466,1,0,0:0:0:0:
320,192,32513,1,0,0:0:0:0:
448,192,32513,1,0,0:0:0:0:
64,192,32561,1,0,0:0:0:0:
192,192,32609,1,0,0:0:0:0:
320,192,32609,1,0,0:0:0:0:
448,192,32656,1,0,0:0:0:0:
64,192,32704,1,0,0:0:0:0:
192,192,32704,1,0,0:0:0:0:
320,192,32752,1,0,0:0:0:0:
192,192,32799,1,0,0:0:0:0:
64,192,32847,1,0,0:0:0:0:
448,192,32895,1,0,0:0:0:0:
320,192,32942,1,0,0:0:0:0:
64,192,32990,1,0,0:0:0:0:
192,192,32990,1,0,0:0:0:0:
320,192,33037,1,0,0:0:0:0:
448,192,33085,1,0,0:0:0:0:
64,192,33132,1,0,0:0:0:0:
192,192,33180,1,0,0:0:0:0:
320,192,33180,1,0,0:0:0:0:
448,192,33227,1,0,0:0:0:0:
64,192,33275,1,0,0:0:0:0:
192,192,33323,1,0,0:0:0:0:
320,192,33370,1,0,0:0:0:0:
448,192,33370,1,0,0:0:0:0:
192,192,33418,1,0,0:0:0:0:
64,192,33466,1,0,0:0:0:0:
448,192,33466,1,0,0:0:0:0:
320,192,33513,1,0,0:0:0:0:
192,192,33561,1,0,0:0:0:0:
64,192,33609,1,0,0:0:0:0:
448,192,33656,1,0,0:0:0:0:
320,192,33704,1,0,0:0:0:0:
192,192,33752,1,0,0:0:0:0:
64,192,33799,1,0,0:0:0:0:
448,192,33847,1,0,0:0:0:0:
320,192,33895,1,0,0:0:0:0:
192,192,33942,1,0,0:0:0:0:
320,192,33990,1,0,0:0:0:0:
192,192,34037,1,0,0:0:0:0:
64,192,34085,1,0,0:0:0:0:
448,192,34132,1,0,0:0:0:0:
320,192,34180,1,0,0:0:0:0:
192,192,34227,1,0,0:0:0:0:
64,0,34227,128,0,34418:1:0:0:0:
320,192,34275,1,0,0:0:0:0:
448,192,34323,1,0,0:0:0:0:
192,192,34418,1,0,0:0:0:0:
320,192,34513,1,0,0:0:0:0:
448,192,34513,1,0,0:0:0:0:
64,192,34561,1,0,0:0:0:0:
192,192,34609,1,0,0:0:0:0:
320,192,34656,1,0,0:0:0:0:
64,192,34704,1,0,0:0:0:0:
448,192,34704,1,0,0:0:0:0:
320,192,34799,1,0,0:0:0:0:
448,192,34799,1,0,0:0:0:0:
192,192,34847,1,0,0:0:0:0:
64,192,34895,1,0,0:0:0:0:
320,192,34990,1,0,0:0:0:0:
448,0,34990,128,0,35180:1:0:0:0:
192,192,35037,1,0,0:0:0:0:
64,192,35085,1,0,0:0:0:0:
320,192,35132,1,0,0:0:0:0:
192,192,35180,1,0,0:0:0:0:
320,192,35227,1,0,0:0:0:0:
448,192,35275,1,0,0:0:0:0:
64,192,35323,1,0,0:0:0:0:
320,192,35370,1,0,0:0:0:0:
192,192,35418,1,0,0:0:0:0:
64,192,35466,1,0,0:0:0:0:
448,192,35466,1,0,0:0:0:0:
320,192,35513,1,0,0:0:0:0:
64,192,35561,1,0,0:0:0:0:
192,192,35561,1,0,0:0:0:0:
320,192,35609,1,0,0:0:0:0:
64,192,35656,1,0,0:0:0:0:
448,192,35656,1,0,0:0:0:0:
192,192,35704,1,0,0:0:0:0:
320,192,35752,1,0,0:0:0:0:
448,192,35752,1,0,0:0:0:0:
64,192,35799,1,0,0:0:0:0:
192,192,35847,1,0,0:0:0:0:
320,192,35895,1,0,0:0:0:0:
448,192,35942,1,0,0:0:0:0:
320,192,35990,1,0,0:0:0:0:
64,192,36037,1,0,0:0:0:0:
192,192,36037,1,0,0:0:0:0:
448,192,36085,1,0,0:0:0:0:
192,192,36132,1,0,0:0:0:0:
320,192,36180,1,0,0:0:0:0:
64,192,36227,1,0,0:0:0:0:
448,192,36227,1,0,0:0:0:0:
192,192,36275,1,0,0:0:0:0:
320,192,36323,1,0,0:0:0:0:
448,192,36370,1,0,0:0:0:0:
64,192,36418,1,0,0:0:0:0:
192,192,36418,1,0,0:0:0:0:
320,192,36466,1,0,0:0:0:0:
64,192,36513,1,0,0:0:0:0:
448,192,36513,1,0,0:0:0:0:
192,192,36561,1,0,0:0:0:0:
320,192,36609,1,0,0:0:0:0:
192,192,36656,1,0,0:0:0:0:
320,192,36704,1,0,0:0:0:0:
448,192,36752,1,0,0:0:0:0:
64,192,36799,1,0,0:0:0:0:
192,192,36799,1,0,0:0:0:0:
320,192,36847,1,0,0:0:0:0:
448,192,36895,1,0,0:0:0:0:
64,192,36942,1,0,0:0:0:0:
192,192,36990,1,0,0:0:0:0:
320,192,37037,1,0,0:0:0:0:
448,192,37085,1,0,0:0:0:0:
320,192,37132,1,0,0:0:0:0:
192,192,37180,1,0,0:0:0:0:
64,192,37227,1,0,0:0:0:0:
320,192,37275,1,0,0:0:0:0:
448,0,37275,128,0,37466:1:0:0:0:
192,192,37323,1,0,0:0:0:0:
64,192,37370,1,0,0:0:0:0:
320,192,37418,1,0,0:0:0:0:
192,192,37466,1,0,0:0:0:0:
320,192,37513,1,0,0:0:0:0:
448,192,37561,1,0,0:0:0:0:
64,0,37561,128,0,37704:1:0:0:0:
192,192,37609,1,0,0:0:0:0:
320,192,37656,1,0,0:0:0:0:
448,192,37704,1,0,0:0:0:0:
192,192,37752,1,0,0:0:0:0:
320,192,37752,1,0,0:0:0:0:
64,192,37799,1,0,0:0:0:0:
192,192,37847,1,0,0:0:0:0:
320,192,37895,1,0,0:0:0:0:
64,192,37942,1,0,0:0:0:0:
448,192,37942,1,0,0:0:0:0:
192,192,37990,1,0,0:0:0:0:
320,192,38037,1,0,0:0:0:0:
448,0,38037,128,0,38323:1:0:0:0:
64,192,38085,1,0,0:0:0:0:
192,192,38132,1,0,0:0:0:0:
320,192,38180,1,0,0:0:0:0:
192,192,38227,1,0,0:0:0:0:
64,192,38275,1,0,0:0:0:0:
192,192,38323,1,0,0:0:0:0:
320,192,38370,1,0,0:0:0:0:
448,192,38418,1,0,0:0:0:0:
64,192,38466,1,0,0:0:0:0:
192,192,38514,1,0,0:0:0:0:
320,192,38561,1,0,0:0:0:0:
192,192,38609,1,0,0:0:0:0:
320,192,38657,1,0,0:0:0:0:
448,192,38704,1,0,0:0:0:0:
64,192,38752,1,0,0:0:0:0:
192,192,38800,1,0,0:0:0:0:
320,192,38800,1,0,0:0:0:0:
448,192,38847,1,0,0:0:0:0:
192,192,38895,1,0,0:0:0:0:
320,192,38942,1,0,0:0:0:0:
64,192,38990,1,0,0:0:0:0:
448,192,39037,1,0,0:0:0:0:
192,192,39085,1,0,0:0:0:0:
320,192,39085,1,0,0:0:0:0:
64,192,39132,1,0,0:0:0:0:
448,192,39180,1,0,0:0:0:0:
192,192,39228,1,0,0:0:0:0:
320,192,39275,1,0,0:0:0:0:
448,192,39275,1,0,0:0:0:0:
64,192,39323,1,0,0:0:0:0:
192,192,39371,1,0,0:0:0:0:
320,192,39418,1,0,0:0:0:0:
64,192,39466,1,0,0:0:0:0:
448,192,39466,1,0,0:0:0:0:
320,192,39514,1,0,0:0:0:0:
64,192,39561,1,0,0:0:0:0:
192,192,39561,1,0,0:0:0:0:
448,192,39609,1,0,0:0:0:0:
320,192,39657,1,0,0:0:0:0:
192,192,39704,1,0,0:0:0:0:
64,192,39752,1,0,0:0:0:0:
320,192,39800,1,0,0:0:0:0:
192,192,39847,1,0,0:0:0:0:
448,192,39895,1,0,0:0:0:0:
64,192,39942,1,0,0:0:0:0:
192,192,39990,1,0,0:0:0:0:
320,192,40037,1,0,0:0:0:0:
448,192,40085,1,0,0:0:0:0:
320,192,40132,1,0,0:0:0:0:
192,192,40180,1,0,0:0:0:0:
64,192,40228,1,0,0:0:0:0:
448,192,40275,1,0,0:0:0:0:
192,192,40323,1,0,0:0:0:0:
448,192,40371,1,0,0:0:0:0:
64,192,40418,1,0,0:0:0:0:
192,192,40466,1,0,0:0:0:0:
320,192,40514,1,0,0:0:0:0:
448,192,40561,1,0,0:0:0:0:
64,192,40609,1,0,0:0:0:0:
320,192,40657,1,0,0:0:0:0:
64,192,40704,1,0,0:0:0:0:
448,192,40752,1,0,0:0:0:0:
320,192,40800,1,0,0:0:0:0:
192,192,40847,1,0,0:0:0:0:
320,192,40895,1,0,0:0:0:0:
448,192,40942,1,0,0:0:0:0:
64,192,40990,1,0,0:0:0:0:
192,192,41037,1,0,0:0:0:0:
320,192,41085,1,0,0:0:0:0:
448,192,41132,1,0,0:0:0:0:
192,192,41180,1,0,0:0:0:0:
64,0,41180,128,0,41371:1:0:0:0:
320,192,41275,1,0,0:0:0:0:
192,192,41371,1,0,0:0:0:0:
448,192,41466,1,0,0:0:0:0:
192,192,41561,1,0,0:0:0:0:
320,192,41561,1,0,0:0:0:0:
64,192,41657,1,0,0:0:0:0:
448,192,41657,1,0,0:0:0:0:
192,192,41752,1,0,0:0:0:0:
448,192,41847,1,0,0:0:0:0:
320,0,41847,128,0,42132:1:0:0:0:
192,192,41942,1,0,0:0:0:0:
64,192,42037,1,0,0:0:0:0:
448,192,42132,1,0,0:0:0:0:
64,192,42228,1,0,0:0:0:0:
192,192,42323,1,0,0:0:0:0:
320,192,42418,1,0,0:0:0:0:
448,192,42514,1,0,0:0:0:0:
192,192,42609,1,0,0:0:0:0:
320,192,42704,1,0,0:0:0:0:
448,0,42704,128,0,42895:1:0:0:0:
64,192,42800,1,0,0:0:0:0:
192,192,42895,1,0,0:0:0:0:
64,192,42990,1,0,0:0:0:0:
320,192,43085,1,0,0:0:0:0:
448,192,43085,1,0,0:0:0:0:
64,192,43180,1,0,0:0:0:0:
192,192,43180,1,0,0:0:0:0:
448,192,43275,1,0,0:0:0:0:
192,192,43371,1,0,0:0:0:0:
320,192,43371,1,0,0:0:0:0:
64,192,43466,1,0,0:0:0:0:
320,192,43561,1,0,0:0:0:0:
448,192,43561,1,0,0:0:0:0:
192,192,43657,1,0,0:0:0:0:
64,192,43752,1,0,0:0:0:0:
448,192,43752,1,0,0:0:0:0:
192,192,43847,1,0,0:0:0:0:
320,192,43942,1,0,0:0:0:0:
192,192,44037,1,0,0:0:0:0:
64,0,44037,128,0,44132:1:0:0:0:
320,192,44132,1,0,0:0:0:0:
192,192,44228,1,0,0:0:0:0:
448,0,44228,128,0,44371:1:0:0:0:
64,192,44323,1,0,0:0:0:0:
320,192,44418,1,0,0:0:0:0:
192,192,44514,1,0,0:0:0:0:
320,192,44609,1,0,0:0:0:0:
448,192,44609,1,0,0:0:0:0:
64,192,44704,1,0,0:0:0:0:
192,192,44704,1,0,0:0:0:0:
448,192,44800,1,0,0:0:0:0:
320,192,44895,1,0,0:0:0:0:
64,0,44895,128,0,45180:1:0:0:0:
448,192,44990,1,0,0:0:0:0:
192,192,45085,1,0,0:0:0:0:
320,192,45180,1,0,0:0:0:0:
448,192,45275,1,0,0:0:0:0:
64,192,45371,1,0,0:0:0:0:
192,192,45466,1,0,0:0:0:0:
320,192,45561,1,0,0:0:0:0:
448,192,45657,1,0,0:0:0:0:
320,192,45752,1,0,0:0:0:0:
64,0,45752,128,0,45942:1:0:0:0:
192,192,45847,1,0,0:0:0:0:
448,192,45942,1,0,0:0:0:0:
192,192,46037,1,0,0:0:0:0:
320,192,46132,1,0,0:0:0:0:
448,192,46132,1,0,0:0:0:0:
64,192,46228,1,0,0:0:0:0:
320,192,46228,1,0,0:0:0:0:
192,192,46323,1,0,0:0:0:0:
64,192,46418,1,0,0:0:0:0:
448,0,46418,128,0,46704:1:0:0:0:
320,192,46466,1,0,0:0:0:0:
192,192,46514,1,0,0:0:0:0:
64,192,46561,1,0,0:0:0:0:
320,192,46609,1,0,0:0:0:0:
192,192,46657,1,0,0:0:0:0:
320,192,46704,1,0,0:0:0:0:
448,192,46752,1,0,0:0:0:0:
192,192,46800,1,0,0:0:0:0:
320,192,46847,1,0,0:0:0:0:
64,192,46895,1,0,0:0:0:0:
192,192,46942,1,0,0:0:0:0:
64,192,46990,1,0,0:0:0:0:
320,192,46990,1,0,0:0:0:0:
448,192,47037,1,0,0:0:0:0:
64,192,47085,1,0,0:0:0:0:
192,192,47085,1,0,0:0:0:0:
320,192,47132,1,0,0:0:0:0:
64,192,47180,1,0,0:0:0:0:
448,192,47180,1,0,0:0:0:0:
192,192,47228,1,0,0:0:0:0:
320,192,47275,1,0,0:0:0:0:
448,192,47275,1,0,0:0:0:0:
64,192,47323,1,0,0:0:0:0:
192,192,47371,1,0,0:0:0:0:
320,192,47418,1,0,0:0:0:0:
448,192,47466,1,0,0:0:0:0:
320,192,47514,1,0,0:0:0:0:
192,192,47561,1,0,0:0:0:0:
64,192,47609,1,0,0:0:0:0:
448,192,47657,1,0,0:0:0:0:
192,192,47704,1,0,0:0:0:0:
320,192,47752,1,0,0:0:0:0:
64,192,47800,1,0,0:0:0:0:
192,192,47847,1,0,0:0:0:0:
320,192,47895,1,0,0:0:0:0:
64,192,47942,1,0,0:0:0:0:
448,192,47942,1,0,0:0:0:0:
320,192,47990,1,0,0:0:0:0:
192,192,48037,1,0,0:0:0:0:
64,192,48085,1,0,0:0:0:0:
192,192,48132,1,0,0:0:0:0:
320,192,48132,1,0,0:0:0:0:
448,192,48180,1,0,0:0:0:0:
64,192,48227,1,0,0:0:0:0:
192,192,48227,1,0,0:0:0:0:
320,192,48275,1,0,0:0:0:0:
64,192,48323,1,0,0:0:0:0:
448,192,48323,1,0,0:0:0:0:
192,192,48370,1,0,0:0:0:0:
320,192,48418,1,0,0:0:0:0:
448,192,48466,1,0,0:0:0:0:
192,192,48513,1,0,0:0:0:0:
320,192,48513,1,0,0:0:0:0:
64,192,48561,1,0,0:0:0:0:
448,192,48609,1,0,0:0:0:0:
192,192,48656,1,0,0:0:0:0:
320,192,48704,1,0,0:0:0:0:
448,192,48704,1,0,0:0:0:0:
64,192,48752,1,0,0:0:0:0:
192,192,48799,1,0,0:0:0:0:
320,192,48847,1,0,0:0:0:0:
192,192,48895,1,0,0:0:0:0:
320,192,48942,1,0,0:0:0:0:
448,192,48990,1,0,0:0:0:0:
192,192,49037,1,0,0:0:0:0:
320,192,49085,1,0,0:0:0:0:
64,192,49132,1,0,0:0:0:0:
192,192,49180,1,0,0:0:0:0:
320,192,49227,1,0,0:0:0:0:
448,192,49275,1,0,0:0:0:0:
320,192,49323,1,0,0:0:0:0:
192,192,49370,1,0,0:0:0:0:
64,192,49418,1,0,0:0:0:0:
320,192,49466,1,0,0:0:0:0:
448,192,49466,1,0,0:0:0:0:
192,192,49513,1,0,0:0:0:0:
448,192,49561,1,0,0:0:0:0:
64,192,49609,1,0,0:0:0:0:
192,192,49656,1,0,0:0:0:0:
320,192,49656,1,0,0:0:0:0:
448,192,49704,1,0,0:0:0:0:
64,192,49752,1,0,0:0:0:0:
192,192,49752,1,0,0:0:0:0:
320,192,49799,1,0,0:0:0:0:
64,192,49847,1,0,0:0:0:0:
448,192,49847,1,0,0:0:0:0:
320,192,49895,1,0,0:0:0:0:
192,192,49942,1,0,0:0:0:0:
64,192,49990,1,0,0:0:0:0:
320,192,50037,1,0,0:0:0:0:
448,192,50037,1,0,0:0:0:0:
192,192,50085,1,0,0:0:0:0:
64,192,50132,1,0,0:0:0:0:
448,192,50180,1,0,0:0:0:0:
192,192,50227,1,0,0:0:0:0:
320,192,50227,1,0,0:0:0:0:
64,192,50275,1,0,0:0:0:0:
320,192,50323,1,0,0:0:0:0:
192,192,50370,1,0,0:0:0:0:
448,192,50418,1,0,0:0:0:0:
64,192,50466,1,0,0:0:0:0:
320,192,50513,1,0,0:0:0:0:
192,192,50561,1,0,0:0:0:0:
320,192,50609,1,0,0:0:0:0:
64,192,50656,1,0,0:0:0:0:
192,192,50704,1,0,0:0:0:0:
320,192,50752,1,0,0:0:0:0:
448,192,50799,1,0,0:0:0:0:
320,192,50847,1,0,0:0:0:0:
192,192,50895,1,0,0:0:0:0:
64,192,50942,1,0,0:0:0:0:
320,192,50990,1,0,0:0:0:0:
448,192,50990,1,0,0:0:0:0:
192,192,51037,1,0,0:0:0:0:
448,192,51085,1,0,0:0:0:0:
320,192,51132,1,0,0:0:0:0:
64,192,51180,1,0,0:0:0:0:
192,192,51180,1,0,0:0:0:0:
448,192,51227,1,0,0:0:0:0:
192,192,51275,1,0,0:0:0:0:
320,192,51275,1,0,0:0:0:0:
64,192,51323,1,0,0:0:0:0:
320,192,51370,1,0,0:0:0:0:
448,192,51370,1,0,0:0:0:0:
192,192,51418,1,0,0:0:0:0:
64,192,51466,1,0,0:0:0:0:
448,192,51513,1,0,0:0:0:0:
192,192,51561,1,0,0:0:0:0:
320,192,51561,1,0,0:0:0:0:
64,192,51609,1,0,0:0:0:0:
320,192,51656,1,0,0:0:0:0:
192,192,51704,1,0,0:0:0:0:
448,192,51752,1,0,0:0:0:0:
64,192,51799,1,0,0:0:0:0:
192,192,51847,1,0,0:0:0:0:
320,192,51847,1,0,0:0:0:0:
448,192,51895,1,0,0:0:0:0:
192,192,51942,1,0,0:0:0:0:
320,192,51990,1,0,0:0:0:0:
64,192,52037,1,0,0:0:0:0:
192,192,52085,1,0,0:0:0:0:
320,192,52132,1,0,0:0:0:0:
448,192,52132,1,0,0:0:0:0:
192,192,52180,1,0,0:0:0:0:
64,192,52227,1,0,0:0:0:0:
448,192,52275,1,0,0:0:0:0:
320,192,52323,1,0,0:0:0:0:
192,192,52370,1,0,0:0:0:0:
64,192,52418,1,0,0:0:0:0:
192,192,52466,1,0,0:0:0:0:
320,192,52513,1,0,0:0:0:0:
448,192,52561,1,0,0:0:0:0:
64,192,52609,1,0,0:0:0:0:
192,192,52609,1,0,0:0:0:0:
320,192,52656,1,0,0:0:0:0:
192,192,52704,1,0,0:0:0:0:
320,192,52752,1,0,0:0:0:0:
64,192,52799,1,0,0:0:0:0:
192,192,52847,1,0,0:0:0:0:
320,192,52895,1,0,0:0:0:0:
448,192,52895,1,0,0:0:0:0:
192,192,52942,1,0,0:0:0:0:
64,192,52990,1,0,0:0:0:0:
448,192,53037,1,0,0:0:0:0:
320,192,53085,1,0,0:0:0:0:
192,192,53132,1,0,0:0:0:0:
64,192,53180,1,0,0:0:0:0:
448,192,53180,1,0,0:0:0:0:
192,192,53227,1,0,0:0:0:0:
320,192,53275,1,0,0:0:0:0:
448,192,53323,1,0,0:0:0:0:
192,192,53370,1,0,0:0:0:0:
64,0,53370,128,0,53752:1:0:0:0:
320,192,53466,1,0,0:0:0:0:
448,192,53561,1,0,0:0:0:0:
192,192,53752,1,0,0:0:0:0:
448,192,53752,1,0,0:0:0:0:
64,192,53847,1,0,0:0:0:0:
320,192,53847,1,0,0:0:0:0:
192,192,53942,1,0,0:0:0:0:
320,192,54037,1,0,0:0:0:0:
448,0,54037,128,0,54513:1:0:0:0:
64,192,54227,1,0,0:0:0:0:
320,192,54323,1,0,0:0:0:0:
192,192,54513,1,0,0:0:0:0:
64,192,54609,1,0,0:0:0:0:
192,192,54704,1,0,0:0:0:0:
320,192,54704,1,0,0:0:0:0:
448,192,54799,1,0,0:0:0:0:
192,192,54895,1,0,0:0:0:0:
64,0,54895,128,0,55085:1:0:0:0:
320,192,54990,1,0,0:0:0:0:
192,192,55085,1,0,0:0:0:0:
448,192,55180,1,0,0:0:0:0:
64,192,55275,1,0,0:0:0:0:
320,192,55275,1,0,0:0:0:0:
192,192,55370,1,0,0:0:0:0:
320,192,55370,1,0,0:0:0:0:
448,192,55466,1,0,0:0:0:0:
192,192,55561,1,0,0:0:0:0:
64,0,55561,128,0,55656:1:0:0:0:
448,192,55752,1,0,0:0:0:0:
192,0,55752,128,0,55847:1:0:0:0:
320,192,55847,1,0,0:0:0:0:
64,192,55942,1,0,0:0:0:0:
448,0,55942,128,0,56037:1:0:0:0:
320,192,56037,1,0,0:0:0:0:
192,192,56132,1,0,0:0:0:0:
320,192,56227,1,0,0:0:0:0:
448,192,56227,1,0,0:0:0:0:
192,192,56323,1,0,0:0:0:0:
64,192,56418,1,0,0:0:0:0:
320,0,56418,128,0,56609:1:0:0:0:
192,192,56513,1,0,0:0:0:0:
448,192,56609,1,0,0:0:0:0:
64,192,56704,1,0,0:0:0:0:
192,192,56752,1,0,0:0:0:0:
320,192,56799,1,0,0:0:0:0:
448,192,56799,1,0,0:0:0:0:
192,192,56895,1,0,0:0:0:0:
320,192,56895,1,0,0:0:0:0:
64,192,56990,1,0,0:0:0:0:
320,192,57085,1,0,0:0:0:0:
448,0,57085,128,0,57370:1:0:0:0:
64,192,57275,1,0,0:0:0:0:
320,192,57370,1,0,0:0:0:0:
192,192,57466,1,0,0:0:0:0:
448,192,57561,1,0,0:0:0:0:
320,192,57656,1,0,0:0:0:0:
192,192,57752,1,0,0:0:0:0:
448,192,57847,1,0,0:0:0:0:
320,192,57942,1,0,0:0:0:0:
64,0,57942,128,0,58227:1:0:0:0:
192,192,58037,1,0,0:0:0:0:
320,192,58132,1,0,0:0:0:0:
64,192,58323,1,0,0:0:0:0:
320,192,58323,1,0,0:0:0:0:
192,192,58418,1,0,0:0:0:0:
448,192,58418,1,0,0:0:0:0:
320,192,58513,1,0,0:0:0:0:
64,192,58609,1,0,0:0:0:0:
448,0,58609,128,0,58895:1:0:0:0:
192,192,58799,1,0,0:0:0:0:
320,192,58895,1,0,0:0:0:0:
64,192,58990,1,0,0:0:0:0:
320,192,59085,1,0,0:0:0:0:
448,192,59085,1,0,0:0:0:0:
192,192,59132,1,0,0:0:0:0:
64,192,59180,1,0,0:0:0:0:
448,192,59180,1,0,0:0:0:0:
192,192,59275,1,0,0:0:0:0:
320,192,59275,1,0,0:0:0:0:
448,192,59323,1,0,0:0:0:0:
64,192,59370,1,0,0:0:0:0:
192,192,59370,1,0,0:0:0:0:
320,192,59418,1,0,0:0:0:0:
64,192,59466,1,0,0:0:0:0:
448,192,59466,1,0,0:0:0:0:
192,192,59513,1,0,0:0:0:0:
320,192,59561,1,0,0:0:0:0:
448,192,59609,1,0,0:0:0:0:
320,192,59656,1,0,0:0:0:0:
192,192,59704,1,0,0:0:0:0:
64,192,59752,1,0,0:0:0:0:
448,192,59799,1,0,0:0:0:0:
192,192,59847,1,0,0:0:0:0:
320,192,59895,1,0,0:0:0:0:
64,192,59942,1,0,0:0:0:0:
192,192,59990,1,0,0:0:0:0:
320,192,60037,1,0,0:0:0:0:
448,192,60037,1,0,0:0:0:0:
192,192,60085,1,0,0:0:0:0:
64,192,60132,1,0,0:0:0:0:
448,192,60180,1,0,0:0:0:0:
192,192,60227,1,0,0:0:0:0:
320,192,60227,1,0,0:0:0:0:
64,192,60275,1,0,0:0:0:0:
448,192,60323,1,0,0:0:0:0:
192,192,60370,1,0,0:0:0:0:
320,192,60418,1,0,0:0:0:0:
64,192,60466,1,0,0:0:0:0:
192,192,60513,1,0,0:0:0:0:
320,192,60513,1,0,0:0:0:0:
448,192,60561,1,0,0:0:0:0:
320,192,60609,1,0,0:0:0:0:
192,192,60656,1,0,0:0:0:0:
64,192,60704,1,0,0:0:0:0:
192,192,60752,1,0,0:0:0:0:
320,192,60799,1,0,0:0:0:0:
448,192,60799,1,0,0:0:0:0:
64,192,60847,1,0,0:0:0:0:
320,192,60895,1,0,0:0:0:0:
192,192,60942,1,0,0:0:0:0:
64,192,60990,1,0,0:0:0:0:
448,192,60990,1,0,0:0:0:0:
320,192,61037,1,0,0:0:0:0:
192,192,61085,1,0,0:0:0:0:
320,192,61132,1,0,0:0:0:0:
448,192,61180,1,0,0:0:0:0:
64,192,61227,1,0,0:0:0:0:
192,192,61275,1,0,0:0:0:0:
320,192,61275,1,0,0:0:0:0:
448,192,61322,1,0,0:0:0:0:
192,192,61370,1,0,0:0:0:0:
320,192,61418,1,0,0:0:0:0:
64,192,61465,1,0,0:0:0:0:
448,192,61513,1,0,0:0:0:0:
192,192,61561,1,0,0:0:0:0:
320,192,61561,1,0,0:0:0:0:
64,192,61608,1,0,0:0:0:0:
448,192,61656,1,0,0:0:0:0:
320,192,61704,1,0,0:0:0:0:
192,192,61751,1,0,0:0:0:0:
320,192,61799,1,0,0:0:0:0:
448,192,61847,1,0,0:0:0:0:
192,192,61894,1,0,0:0:0:0:
320,192,61942,1,0,0:0:0:0:
64,192,61990,1,0,0:0:0:0:
192,192,62037,1,0,0:0:0:0:
320,192,62085,1,0,0:0:0:0:
448,192,62132,1,0,0:0:0:0:
320,192,62180,1,0,0:0:0:0:
192,192,62227,1,0,0:0:0:0:
64,192,62275,1,0,0:0:0:0:
320,192,62322,1,0,0:0:0:0:
448,192,62322,1,0,0:0:0:0:
192,192,62370,1,0,0:0:0:0:
64,192,62418,1,0,0:0:0:0:
448,192,62418,1,0,0:0:0:0:
320,192,62465,1,0,0:0:0:0:
64,192,62513,1,0,0:0:0:0:
192,192,62513,1,0,0:0:0:0:
448,192,62561,1,0,0:0:0:0:
320,192,62608,1,0,0:0:0:0:
192,192,62656,1,0,0:0:0:0:
320,192,62704,1,0,0:0:0:0:
448,192,62751,1,0,0:0:0:0:
64,192,62799,1,0,0:0:0:0:
192,192,62847,1,0,0:0:0:0:
320,192,62894,1,0,0:0:0:0:
448,192,62942,1,0,0:0:0:0:
192,192,62990,1,0,0:0:0:0:
320,192,63037,1,0,0:0:0:0:
64,192,63085,1,0,0:0:0:0:
448,192,63085,1,0,0:0:0:0:
320,192,63132,1,0,0:0:0:0:
192,192,63180,1,0,0:0:0:0:
64,192,63227,1,0,0:0:0:0:
320,192,63275,1,0,0:0:0:0:
448,192,63275,1,0,0:0:0:0:
192,192,63322,1,0,0:0:0:0:
448,192,63370,1,0,0:0:0:0:
64,192,63418,1,0,0:0:0:0:
192,192,63465,1,0,0:0:0:0:
320,192,63465,1,0,0:0:0:0:
448,192,63513,1,0,0:0:0:0:
64,192,63561,1,0,0:0:0:0:
192,192,63608,1,0,0:0:0:0:
320,192,63656,1,0,0:0:0:0:
448,192,63656,1,0,0:0:0:0:
64,192,63704,1,0,0:0:0:0:
192,192,63751,1,0,0:0:0:0:
320,192,63751,1,0,0:0:0:0:
448,192,63799,1,0,0:0:0:0:
320,192,63847,1,0,0:0:0:0:
192,192,63894,1,0,0:0:0:0:
64,192,63942,1,0,0:0:0:0:
448,192,63942,1,0,0:0:0:0:
320,192,63990,1,0,0:0:0:0:
192,192,64037,1,0,0:0:0:0:
320,192,64085,1,0,0:0:0:0:
192,192,64132,1,0,0:0:0:0:
64,192,64180,1,0,0:0:0:0:
448,192,64227,1,0,0:0:0:0:
192,192,64275,1,0,0:0:0:0:
320,192,64322,1,0,0:0:0:0:
64,192,64370,1,0,0:0:0:0:
192,192,64418,1,0,0:0:0:0:
320,192,64418,1,0,0:0:0:0:
448,192,64465,1,0,0:0:0:0:
64,192,64513,1,0,0:0:0:0:
192,192,64513,1,0,0:0:0:0:
320,192,64561,1,0,0:0:0:0:
64,192,64608,1,0,0:0:0:0:
448,192,64608,1,0,0:0:0:0:
192,192,64656,1,0,0:0:0:0:
320,192,64704,1,0,0:0:0:0:
448,192,64704,1,0,0:0:0:0:
64,192,64751,1,0,0:0:0:0:
192,192,64799,1,0,0:0:0:0:
320,192,64847,1,0,0:0:0:0:
192,192,64894,1,0,0:0:0:0:
64,192,64942,1,0,0:0:0:0:
320,192,64990,1,0,0:0:0:0:
448,192,64990,1,0,0:0:0:0:
192,192,65037,1,0,0:0:0:0:
448,192,65085,1,0,0:0:0:0:
64,192,65132,1,0,0:0:0:0:
192,192,65180,1,0,0:0:0:0:
320,192,65180,1,0,0:0:0:0:
448,192,65227,1,0,0:0:0:0:
320,192,65275,1,0,0:0:0:0:
192,192,65322,1,0,0:0:0:0:
64,192,65370,1,0,0:0:0:0:
448,192,65370,1,0,0:0:0:0:
320,192,65418,1,0,0:0:0:0:
64,192,65465,1,0,0:0:0:0:
192,192,65465,1,0,0:0:0:0:
320,192,65513,1,0,0:0:0:0:
448,192,65561,1,0,0:0:0:0:
64,192,65608,1,0,0:0:0:0:
320,192,65656,1,0,0:0:0:0:
192,192,65704,1,0,0:0:0:0:
448,192,65751,1,0,0:0:0:0:
320,192,65799,1,0,0:0:0:0:
192,192,65847,1,0,0:0:0:0:
64,192,65894,1,0,0:0:0:0:
192,192,65942,1,0,0:0:0:0:
320,192,65990,1,0,0:0:0:0:
448,192,66037,1,0,0:0:0:0:
64,192,66085,1,0,0:0:0:0:
192,192,66132,1,0,0:0:0:0:
320,192,66180,1,0,0:0:0:0:
64,192,66227,1,0,0:0:0:0:
192,192,66227,1,0,0:0:0:0:
448,192,66275,1,0,0:0:0:0:
320,192,66322,1,0,0:0:0:0:
192,192,66370,1,0,0:0:0:0:
64,192,66418,1,0,0:0:0:0:
448,192,66465,1,0,0:0:0:0:
192,192,66513,1,0,0:0:0:0:
320,192,66513,1,0,0:0:0:0:
64,192,66561,1,0,0:0:0:0:
448,192,66608,1,0,0:0:0:0:
192,192,66656,1,0,0:0:0:0:
320,192,66704,1,0,0:0:0:0:
448,192,66704,1,0,0:0:0:0:
64,192,66751,1,0,0:0:0:0:
192,192,66799,1,0,0:0:0:0:
320,192,66799,1,0,0:0:0:0:
448,192,66847,1,0,0:0:0:0:
64,192,66894,1,0,0:0:0:0:
192,192,66942,1,0,0:0:0:0:
320,192,66990,1,0,0:0:0:0:
448,192,66990,1,0,0:0:0:0:
192,192,67037,1,0,0:0:0:0:
64,192,67085,1,0,0:0:0:0:
448,192,67132,1,0,0:0:0:0:
192,192,67180,1,0,0:0:0:0:
320,192,67227,1,0,0:0:0:0:
64,192,67275,1,0,0:0:0:0:
192,192,67322,1,0,0:0:0:0:
320,192,67370,1,0,0:0:0:0:
448,192,67417,1,0,0:0:0:0:
64,192,67465,1,0,0:0:0:0:
192,192,67465,1,0,0:0:0:0:
320,192,67513,1,0,0:0:0:0:
64,192,67560,1,0,0:0:0:0:
448,192,67560,1,0,0:0:0:0:
320,192,67608,1,0,0:0:0:0:
64,192,67656,1,0,0:0:0:0:
192,192,67656,1,0,0:0:0:0:
448,192,67703,1,0,0:0:0:0:
192,192,67751,1,0,0:0:0:0:
320,192,67751,1,0,0:0:0:0:
64,192,67799,1,0,0:0:0:0:
448,192,67846,1,0,0:0:0:0:
192,192,67894,1,0,0:0:0:0:
320,192,67942,1,0,0:0:0:0:
64,192,67989,1,0,0:0:0:0:
192,192,68037,1,0,0:0:0:0:
320,192,68037,1,0,0:0:0:0:
448,192,68085,1,0,0:0:0:0:
320,192,68132,1,0,0:0:0:0:
192,192,68180,1,0,0:0:0:0:
64,192,68227,1,0,0:0:0:0:
448,192,68227,1,0,0:0:0:0:
192,192,68275,1,0,0:0:0:0:
320,192,68322,1,0,0:0:0:0:
64,192,68370,1,0,0:0:0:0:
320,192,68417,1,0,0:0:0:0:
448,192,68417,1,0,0:0:0:0:
192,192,68465,1,0,0:0:0:0:
64,192,68513,1,0,0:0:0:0:
448,192,68513,1,0,0:0:0:0:
192,192,68560,1,0,0:0:0:0:
320,192,68608,1,0,0:0:0:0:
448,192,68656,1,0,0:0:0:0:
320,192,68703,1,0,0:0:0:0:
192,192,68751,1,0,0:0:0:0:
64,192,68799,1,0,0:0:0:0:
448,192,68846,1,0,0:0:0:0:
192,192,68894,1,0,0:0:0:0:
320,192,68942,1,0,0:0:0:0:
64,192,68989,1,0,0:0:0:0:
192,192,69037,1,0,0:0:0:0:
320,192,69085,1,0,0:0:0:0:
448,192,69132,1,0,0:0:0:0:
64,192,69180,1,0,0:0:0:0:
192,192,69227,1,0,0:0:0:0:
320,192,69275,1,0,0:0:0:0:
448,192,69275,1,0,0:0:0:0:
192,192,69322,1,0,0:0:0:0:
64,192,69370,1,0,0:0:0:0:
320,192,69417,1,0,0:0:0:0:
192,192,69465,1,0,0:0:0:0:
448,192,69513,1,0,0:0:0:0:
192,192,69560,1,0,0:0:0:0:
320,192,69560,1,0,0:0:0:0:
64,192,69608,1,0,0:0:0:0:
448,192,69656,1,0,0:0:0:0:
192,192,69703,1,0,0:0:0:0:
320,192,69751,1,0,0:0:0:0:
448,192,69751,1,0,0:0:0:0:
64,192,69799,1,0,0:0:0:0:
192,192,69846,1,0,0:0:0:0:
320,192,69846,1,0,0:0:0:0:
448,192,69894,1,0,0:0:0:0:
320,192,69942,1,0,0:0:0:0:
192,192,69989,1,0,0:0:0:0:
64,192,70037,1,0,0:0:0:0:
448,192,70037,1,0,0:0:0:0:
320,192,70085,1,0,0:0:0:0:
192,192,70132,1,0,0:0:0:0:
320,192,70180,1,0,0:0:0:0:
448,192,70227,1,0,0:0:0:0:
64,192,70275,1,0,0:0:0:0:
192,192,70322,1,0,0:0:0:0:
320,192,70370,1,0,0:0:0:0:
192,192,70417,1,0,0:0:0:0:
64,192,70465,1,0,0:0:0:0:
320,192,70513,1,0,0:0:0:0:
448,192,70513,1,0,0:0:0:0:
192,192,70560,1,0,0:0:0:0:
64,192,70608,1,0,0:0:0:0:
448,192,70608,1,0,0:0:0:0:
320,192,70656,1,0,0:0:0:0:
64,192,70703,1,0,0:0:0:0:
192,192,70703,1,0,0:0:0:0:
448,192,70751,1,0,0:0:0:0:
192,192,70799,1,0,0:0:0:0:
320,192,70799,1,0,0:0:0:0:
64,192,70846,1,0,0:0:0:0:
448,192,70894,1,0,0:0:0:0:
192,192,70942,1,0,0:0:0:0:
320,192,70989,1,0,0:0:0:0:
64,192,71037,1,0,0:0:0:0:
192,192,71085,1,0,0:0:0:0:
320,192,71085,1,0,0:0:0:0:
448,192,71132,1,0,0:0:0:0:
320,192,71180,1,0,0:0:0:0:
192,192,71227,1,0,0:0:0:0:
64,192,71275,1,0,0:0:0:0:
448,192,71275,1,0,0:0:0:0:
320,192,71322,1,0,0:0:0:0:
192,192,71370,1,0,0:0:0:0:
64,192,71417,1,0,0:0:0:0:
320,192,71465,1,0,0:0:0:0:
448,192,71465,1,0,0:0:0:0:
192,192,71513,1,0,0:0:0:0:
320,192,71560,1,0,0:0:0:0:
448,192,71560,1,0,0:0:0:0:
64,192,71608,1,0,0:0:0:0:
192,192,71656,1,0,0:0:0:0:
320,192,71703,1,0,0:0:0:0:
448,192,71751,1,0,0:0:0:0:
64,192,71799,1,0,0:0:0:0:
192,192,71846,1,0,0:0:0:0:
320,192,71846,1,0,0:0:0:0:
448,192,71894,1,0,0:0:0:0:
192,192,71942,1,0,0:0:0:0:
320,192,71989,1,0,0:0:0:0:
64,192,72037,1,0,0:0:0:0:
448,192,72085,1,0,0:0:0:0:
320,192,72132,1,0,0:0:0:0:
192,192,72180,1,0,0:0:0:0:
320,192,72227,1,0,0:0:0:0:
192,192,72275,1,0,0:0:0:0:
64,192,72322,1,0,0:0:0:0:
448,192,72322,1,0,0:0:0:0:
320,192,72370,1,0,0:0:0:0:
192,192,72417,1,0,0:0:0:0:
320,192,72465,1,0,0:0:0:0:
448,192,72513,1,0,0:0:0:0:
64,192,72560,1,0,0:0:0:0:
192,192,72608,1,0,0:0:0:0:
320,192,72608,1,0,0:0:0:0:
448,192,72656,1,0,0:0:0:0:
320,192,72703,1,0,0:0:0:0:
192,192,72751,1,0,0:0:0:0:
64,192,72799,1,0,0:0:0:0:
448,192,72799,1,0,0:0:0:0:
192,192,72846,1,0,0:0:0:0:
320,192,72894,1,0,0:0:0:0:
448,192,72942,1,0,0:0:0:0:
64,192,72989,1,0,0:0:0:0:
192,192,72989,1,0,0:0:0:0:
320,192,73037,1,0,0:0:0:0:
64,192,73085,1,0,0:0:0:0:
448,192,73085,1,0,0:0:0:0:
320,192,73132,1,0,0:0:0:0:
192,192,73180,1,0,0:0:0:0:
64,192,73227,1,0,0:0:0:0:
448,192,73275,1,0,0:0:0:0:
192,192,73322,1,0,0:0:0:0:
320,192,73370,1,0,0:0:0:0:
192,192,73417,1,0,0:0:0:0:
320,192,73465,1,0,0:0:0:0:
64,192,73512,1,0,0:0:0:0:
192,192,73560,1,0,0:0:0:0:
320,192,73608,1,0,0:0:0:0:
448,192,73655,1,0,0:0:0:0:
320,192,73703,1,0,0:0:0:0:
192,192,73751,1,0,0:0:0:0:
64,192,73798,1,0,0:0:0:0:
320,192,73846,1,0,0:0:0:0:
448,192,73846,1,0,0:0:0:0:
192,192,73894,1,0,0:0:0:0:
448,192,73941,1,0,0:0:0:0:
64,192,73989,1,0,0:0:0:0:
192,192,74037,1,0,0:0:0:0:
320,192,74084,1,0,0:0:0:0:
64,192,74132,1,0,0:0:0:0:
448,192,74132,1,0,0:0:0:0:
192,192,74180,1,0,0:0:0:0:
320,192,74227,1,0,0:0:0:0:
448,192,74275,1,0,0:0:0:0:
192,192,74322,1,0,0:0:0:0:
320,192,74322,1,0,0:0:0:0:
64,192,74370,1,0,0:0:0:0:
448,192,74417,1,0,0:0:0:0:
192,192,74465,1,0,0:0:0:0:
320,192,74512,1,0,0:0:0:0:
448,192,74512,1,0,0:0:0:0:
64,192,74560,1,0,0:0:0:0:
192,192,74608,1,0,0:0:0:0:
320,192,74608,1,0,0:0:0:0:
448,192,74655,1,0,0:0:0:0:
320,192,74703,1,0,0:0:0:0:
192,192,74751,1,0,0:0:0:0:
64,192,74798,1,0,0:0:0:0:
320,192,74846,1,0,0:0:0:0:
192,192,74894,1,0,0:0:0:0:
448,192,74941,1,0,0:0:0:0:
320,192,74989,1,0,0:0:0:0:
192,192,75037,1,0,0:0:0:0:
64,192,75084,1,0,0:0:0:0:
448,192,75132,1,0,0:0:0:0:
192,192,75180,1,0,0:0:0:0:
448,192,75227,1,0,0:0:0:0:
64,192,75275,1,0,0:0:0:0:
320,192,75322,1,0,0:0:0:0:
64,192,75370,1,0,0:0:0:0:
192,192,75417,1,0,0:0:0:0:
320,192,75465,1,0,0:0:0:0:
448,192,75512,1,0,0:0:0:0:
320,192,75560,1,0,0:0:0:0:
192,192,75608,1,0,0:0:0:0:
64,192,75655,1,0,0:0:0:0:
192,192,75703,1,0,0:0:0:0:
320,192,75751,1,0,0:0:0:0:
448,192,75798,1,0,0:0:0:0:
64,192,75846,1,0,0:0:0:0:
192,192,75894,1,0,0:0:0:0:
320,192,75941,1,0,0:0:0:0:
448,192,75989,1,0,0:0:0:0:
64,192,76037,1,0,0:0:0:0:
192,192,76084,1,0,0:0:0:0:
320,192,76132,1,0,0:0:0:0:
448,192,76180,1,0,0:0:0:0:
320,192,76227,1,0,0:0:0:0:
192,192,76275,1,0,0:0:0:0:
64,192,76322,1,0,0:0:0:0:
320,192,76370,1,0,0:0:0:0:
192,192,76417,1,0,0:0:0:0:
448,192,76465,1,0,0:0:0:0:
64,192,76512,1,0,0:0:0:0:
192,192,76560,1,0,0:0:0:0:
320,192,76608,1,0,0:0:0:0:
448,192,76608,1,0,0:0:0:0:
64,192,76655,1,0,0:0:0:0:
192,192,76703,1,0,0:0:0:0:
320,192,76703,1,0,0:0:0:0:
448,192,76751,1,0,0:0:0:0:
64,192,76798,1,0,0:0:0:0:
192,192,76798,1,0,0:0:0:0:
320,192,76846,1,0,0:0:0:0:
64,192,76894,1,0,0:0:0:0:
448,192,76894,1,0,0:0:0:0:
192,192,76941,1,0,0:0:0:0:
320,192,76989,1,0,0:0:0:0:
192,192,77037,1,0,0:0:0:0:
64,192,77084,1,0,0:0:0:0:
448,192,77132,1,0,0:0:0:0:
192,192,77180,1,0,0:0:0:0:
320,192,77180,1,0,0:0:0:0:
448,192,77227,1,0,0:0:0:0:
64,192,77275,1,0,0:0:0:0:
192,192,77322,1,0,0:0:0:0:
320,192,77370,1,0,0:0:0:0:
448,192,77370,1,0,0:0:0:0:
192,192,77417,1,0,0:0:0:0:
64,192,77465,1,0,0:0:0:0:
320,192,77465,1,0,0:0:0:0:
448,192,77512,1,0,0:0:0:0:
64,192,77560,1,0,0:0:0:0:
192,192,77560,1,0,0:0:0:0:
320,192,77608,1,0,0:0:0:0:
64,192,77655,1,0,0:0:0:0:
448,192,77655,1,0,0:0:0:0:
192,192,77703,1,0,0:0:0:0:
320,192,77751,1,0,0:0:0:0:
448,192,77798,1,0,0:0:0:0:
192,192,77846,1,0,0:0:0:0:
320,192,77894,1,0,0:0:0:0:
64,192,77941,1,0,0:0:0:0:
448,192,77989,1,0,0:0:0:0:
320,192,78037,1,0,0:0:0:0:
192,192,78084,1,0,0:0:0:0:
64,192,78132,1,0,0:0:0:0:
320,192,78180,1,0,0:0:0:0:
192,192,78227,1,0,0:0:0:0:
448,192,78275,1,0,0:0:0:0:
320,192,78322,1,0,0:0:0:0:
192,192,78370,1,0,0:0:0:0:
320,192,78417,1,0,0:0:0:0:
448,192,78417,1,0,0:0:0:0:
64,192,78465,1,0,0:0:0:0:
192,192,78512,1,0,0:0:0:0:
320,192,78560,1,0,0:0:0:0:
192,192,78608,1,0,0:0:0:0:
320,192,78655,1,0,0:0:0:0:
64,192,78703,1,0,0:0:0:0:
448,192,78703,1,0,0:0:0:0:
192,192,78751,1,0,0:0:0:0:
320,192,78798,1,0,0:0:0:0:
448,192,78846,1,0,0:0:0:0:
64,192,78894,1,0,0:0:0:0:
320,192,78894,1,0,0:0:0:0:
192,192,78941,1,0,0:0:0:0:
320,192,78989,1,0,0:0:0:0:
448,192,78989,1,0,0:0:0:0:
64,192,79037,1,0,0:0:0:0:
192,192,79084,1,0,0:0:0:0:
320,192,79132,1,0,0:0:0:0:
64,192,79180,1,0,0:0:0:0:
192,192,79180,1,0,0:0:0:0:
448,192,79227,1,0,0:0:0:0:
320,192,79275,1,0,0:0:0:0:
192,192,79322,1,0,0:0:0:0:
64,192,79370,1,0,0:0:0:0:
448,192,79417,1,0,0:0:0:0:
192,192,79465,1,0,0:0:0:0:
320,192,79512,1,0,0:0:0:0:
64,192,79560,1,0,0:0:0:0:
192,192,79607,1,0,0:0:0:0:
320,192,79655,1,0,0:0:0:0:
448,192,79655,1,0,0:0:0:0:
192,192,79703,1,0,0:0:0:0:
64,192,79750,1,0,0:0:0:0:
320,192,79750,1,0,0:0:0:0:
448,192,79798,1,0,0:0:0:0:
64,192,79846,1,0,0:0:0:0:
192,192,79846,1,0,0:0:0:0:
320,192,79893,1,0,0:0:0:0:
64,192,79941,1,0,0:0:0:0:
448,192,79941,1,0,0:0:0:0:
192,192,79989,1,0,0:0:0:0:
320,192,80036,1,0,0:0:0:0:
448,192,80084,1,0,0:0:0:0:
64,192,80132,1,0,0:0:0:0:
320,192,80132,1,0,0:0:0:0:
192,192,80179,1,0,0:0:0:0:
320,192,80227,1,0,0:0:0:0:
448,192,80227,1,0,0:0:0:0:
64,192,80275,1,0,0:0:0:0:
192,192,80322,1,0,0:0:0:0:
64,192,80370,1,0,0:0:0:0:
320,192,80417,1,0,0:0:0:0:
448,192,80417,1,0,0:0:0:0:
192,192,80465,1,0,0:0:0:0:
64,192,80512,1,0,0:0:0:0:
448,192,80512,1,0,0:0:0:0:
320,192,80560,1,0,0:0:0:0:
64,192,80607,1,0,0:0:0:0:
192,192,80607,1,0,0:0:0:0:
448,192,80655,1,0,0:0:0:0:
192,192,80703,1,0,0:0:0:0:
320,192,80703,1,0,0:0:0:0:
64,192,80750,1,0,0:0:0:0:
320,192,80798,1,0,0:0:0:0:
192,192,80846,1,0,0:0:0:0:
448,192,80893,1,0,0:0:0:0:
64,192,80941,1,0,0:0:0:0:
192,192,80989,1,0,0:0:0:0:
320,192,81036,1,0,0:0:0:0:
448,192,81084,1,0,0:0:0:0:
64,192,81132,1,0,0:0:0:0:
192,192,81179,1,0,0:0:0:0:
320,192,81227,1,0,0:0:0:0:
448,192,81275,1,0,0:0:0:0:
192,192,81322,1,0,0:0:0:0:
320,192,81370,1,0,0:0:0:0:
64,192,81417,1,0,0:0:0:0:
320,192,81465,1,0,0:0:0:0:
448,192,81465,1,0,0:0:0:0:
192,192,81512,1,0,0:0:0:0:
64,192,81560,1,0,0:0:0:0:
448,192,81607,1,0,0:0:0:0:
192,192,81655,1,0,0:0:0:0:
320,192,81703,1,0,0:0:0:0:
64,192,81750,1,0,0:0:0:0:
448,192,81750,1,0,0:0:0:0:
192,192,81798,1,0,0:0:0:0:
320,192,81846,1,0,0:0:0:0:
192,192,81893,1,0,0:0:0:0:
320,192,81941,1,0,0:0:0:0:
448,192,81941,1,0,0:0:0:0:
64,192,81989,1,0,0:0:0:0:
192,192,82036,1,0,0:0:0:0:
320,192,82036,1,0,0:0:0:0:
448,192,82084,1,0,0:0:0:0:
320,192,82132,1,0,0:0:0:0:
192,192,82179,1,0,0:0:0:0:
64,192,82227,1,0,0:0:0:0:
448,192,82227,1,0,0:0:0:0:
320,192,82275,1,0,0:0:0:0:
192,192,82322,1,0,0:0:0:0:
64,192,82370,1,0,0:0:0:0:
320,192,82417,1,0,0:0:0:0:
192,192,82465,1,0,0:0:0:0:
320,192,82512,1,0,0:0:0:0:
192,192,82560,1,0,0:0:0:0:
448,192,82607,1,0,0:0:0:0:
64,192,82655,1,0,0:0:0:0:
192,192,82703,1,0,0:0:0:0:
320,192,82703,1,0,0:0:0:0:
448,192,82750,1,0,0:0:0:0:
64,192,82798,1,0,0:0:0:0:
320,192,82798,1,0,0:0:0:0:
192,192,82846,1,0,0:0:0:0:
320,192,82893,1,0,0:0:0:0:
448,192,82893,1,0,0:0:0:0:
64,192,82941,1,0,0:0:0:0:
192,192,82989,1,0,0:0:0:0:
320,192,82989,1,0,0:0:0:0:
448,192,83036,1,0,0:0:0:0:
320,192,83084,1,0,0:0:0:0:
192,192,83132,1,0,0:0:0:0:
64,192,83179,1,0,0:0:0:0:
448,192,83227,1,0,0:0:0:0:
192,192,83275,1,0,0:0:0:0:
320,192,83275,1,0,0:0:0:0:
64,192,83322,1,0,0:0:0:0:
448,192,83370,1,0,0:0:0:0:
192,192,83417,1,0,0:0:0:0:
320,192,83465,1,0,0:0:0:0:
64,192,83512,1,0,0:0:0:0:
320,192,83560,1,0,0:0:0:0:
192,192,83607,1,0,0:0:0:0:
64,192,83655,1,0,0:0:0:0:
448,192,83655,1,0,0:0:0:0:
192,192,83703,1,0,0:0:0:0:
320,192,83750,1,0,0:0:0:0:
448,192,83750,1,0,0:0:0:0:
64,192,83798,1,0,0:0:0:0:
192,192,83846,1,0,0:0:0:0:
320,192,83893,1,0,0:0:0:0:
448,192,83941,1,0,0:0:0:0:
320,192,83989,1,0,0:0:0:0:
64,192,84036,1,0,0:0:0:0:
192,192,84036,1,0,0:0:0:0:
448,192,84084,1,0,0:0:0:0:
320,192,84132,1,0,0:0:0:0:
192,192,84179,1,0,0:0:0:0:
64,192,84227,1,0,0:0:0:0:
448,192,84275,1,0,0:0:0:0:
320,192,84322,1,0,0:0:0:0:
192,192,84370,1,0,0:0:0:0:
320,192,84417,1,0,0:0:0:0:
192,192,84465,1,0,0:0:0:0:
64,192,84512,1,0,0:0:0:0:
448,192,84512,1,0,0:0:0:0:
320,192,84560,1,0,0:0:0:0:
192,192,84607,1,0,0:0:0:0:
64,192,84655,1,0,0:0:0:0:
448,192,84703,1,0,0:0:0:0:
192,192,84750,1,0,0:0:0:0:
320,192,84798,1,0,0:0:0:0:
448,192,84798,1,0,0:0:0:0:
64,192,84846,1,0,0:0:0:0:
192,192,84893,1,0,0:0:0:0:
320,192,84941,1,0,0:0:0:0:
64,192,84989,1,0,0:0:0:0:
448,192,84989,1,0,0:0:0:0:
192,192,85036,1,0,0:0:0:0:
320,192,85084,1,0,0:0:0:0:
192,192,85132,1,0,0:0:0:0:
320,192,85179,1,0,0:0:0:0:
448,192,85179,1,0,0:0:0:0:
64,192,85227,1,0,0:0:0:0:
192,192,85275,1,0,0:0:0:0:
320,192,85275,1,0,0:0:0:0:
448,192,85322,1,0,0:0:0:0:
320,192,85370,1,0,0:0:0:0:
192,192,85417,1,0,0:0:0:0:
64,192,85465,1,0,0:0:0:0:
448,192,85512,1,0,0:0:0:0:
192,192,85560,1,0,0:0:0:0:
320,192,85607,1,0,0:0:0:0:
64,192,85655,1,0,0:0:0:0:
192,192,85702,1,0,0:0:0:0:
448,192,85750,1,0,0:0:0:0:
320,192,85798,1,0,0:0:0:0:
192,192,85845,1,0,0:0:0:0:
64,192,85893,1,0,0:0:0:0:
448,192,85941,1,0,0:0:0:0:
192,192,85988,1,0,0:0:0:0:
320,192,86036,1,0,0:0:0:0:
448,192,86036,1,0,0:0:0:0:
64,192,86084,1,0,0:0:0:0:
192,192,86131,1,0,0:0:0:0:
320,192,86179,1,0,0:0:0:0:
448,192,86227,1,0,0:0:0:0:
64,192,86274,1,0,0:0:0:0:
192,192,86322,1,0,0:0:0:0:
320,192,86322,1,0,0:0:0:0:
448,192,86370,1,0,0:0:0:0:
192,192,86417,1,0,0:0:0:0:
320,192,86465,1,0,0:0:0:0:
64,192,86512,1,0,0:0:0:0:
448,192,86512,1,0,0:0:0:0:
320,192,86560,1,0,0:0:0:0:
192,192,86607,1,0,0:0:0:0:
64,192,86655,1,0,0:0:0:0:
320,192,86702,1,0,0:0:0:0:
448,192,86702,1,0,0:0:0:0:
192,192,86750,1,0,0:0:0:0:
64,192,86798,1,0,0:0:0:0:
448,192,86798,1,0,0:0:0:0:
192,192,86845,1,0,0:0:0:0:
320,192,86893,1,0,0:0:0:0:
448,192,86941,1,0,0:0:0:0:
320,192,86988,1,0,0:0:0:0:
192,192,87036,1,0,0:0:0:0:
64,192,87084,1,0,0:0:0:0:
448,192,87131,1,0,0:0:0:0:
192,192,87179,1,0,0:0:0:0:
320,192,87227,1,0,0:0:0:0:
64,192,87274,1,0,0:0:0:0:
192,192,87322,1,0,0:0:0:0:
320,192,87370,1,0,0:0:0:0:
448,192,87417,1,0,0:0:0:0:
320,192,87465,1,0,0:0:0:0:
192,192,87512,1,0,0:0:0:0:
64,192,87560,1,0,0:0:0:0:
448,192,87560,1,0,0:0:0:0:
192,192,87750,1,0,0:0:0:0:
64,192,87845,1,0,0:0:0:0:
192,192,87941,1,0,0:0:0:0:
320,192,88036,1,0,0:0:0:0:
448,192,88131,1,0,0:0:0:0:
320,192,88227,1,0,0:0:0:0:
192,192,88322,1,0,0:0:0:0:
64,192,88417,1,0,0:0:0:0:
320,192,88417,1,0,0:0:0:0:
448,192,88417,1,0,0:0:0:0:
192,192,88512,1,0,0:0:0:0:
320,192,88607,1,0,0:0:0:0:
448,192,88702,1,0,0:0:0:0:
64,192,88798,1,0,0:0:0:0:
320,192,88798,1,0,0:0:0:0:
448,192,88845,1,0,0:0:0:0:
192,192,88893,1,0,0:0:0:0:
320,192,88988,1,0,0:0:0:0:
448,192,89084,1,0,0:0:0:0:
64,192,89179,1,0,0:0:0:0:
192,192,89179,1,0,0:0:0:0:
320,192,89179,1,0,0:0:0:0:
192,192,89274,1,0,0:0:0:0:
320,192,89370,1,0,0:0:0:0:
448,192,89465,1,0,0:0:0:0:
320,192,89512,1,0,0:0:0:0:
64,192,89560,1,0,0:0:0:0:
192,192,89560,1,0,0:0:0:0:
448,192,89607,1,0,0:0:0:0:
320,192,89655,1,0,0:0:0:0:
64,192,89750,1,0,0:0:0:0:
192,192,89798,1,0,0:0:0:0:
320,192,89845,1,0,0:0:0:0:
192,192,89893,1,0,0:0:0:0:
64,192,89941,1,0,0:0:0:0:
320,192,89941,1,0,0:0:0:0:
448,192,89941,1,0,0:0:0:0:
192,192,90036,1,0,0:0:0:0:
320,192,90131,1,0,0:0:0:0:
448,192,90227,1,0,0:0:0:0:
192,192,90274,1,0,0:0:0:0:
64,192,90322,1,0,0:0:0:0:
320,192,90322,1,0,0:0:0:0:
192,192,90370,1,0,0:0:0:0:
320,192,90417,1,0,0:0:0:0:
64,192,90512,1,0,0:0:0:0:
192,192,90607,1,0,0:0:0:0:
64,192,90702,1,0,0:0:0:0:
320,192,90702,1,0,0:0:0:0:
448,192,90702,1,0,0:0:0:0:
192,192,90798,1,0,0:0:0:0:
320,192,90893,1,0,0:0:0:0:
448,192,90988,1,0,0:0:0:0:
320,192,91036,1,0,0:0:0:0:
64,192,91084,1,0,0:0:0:0:
192,192,91084,1,0,0:0:0:0:
448,192,91131,1,0,0:0:0:0:
320,192,91179,1,0,0:0:0:0:
64,192,91274,1,0,0:0:0:0:
192,192,91322,1,0,0:0:0:0:
320,192,91370,1,0,0:0:0:0:
192,192,91417,1,0,0:0:0:0:
64,192,91465,1,0,0:0:0:0:
320,192,91465,1,0,0:0:0:0:
448,192,91465,1,0,0:0:0:0:
192,192,91560,1,0,0:0:0:0:
320,192,91655,1,0,0:0:0:0:
448,192,91750,1,0,0:0:0:0:
320,192,91798,1,0,0:0:0:0:
64,192,91845,1,0,0:0:0:0:
192,192,91845,1,0,0:0:0:0:
320,192,91893,1,0,0:0:0:0:
448,192,91941,1,0,0:0:0:0:
192,192,92036,1,0,0:0:0:0:
320,192,92131,1,0,0:0:0:0:
64,192,92227,1,0,0:0:0:0:
192,192,92227,1,0,0:0:0:0:
448,192,92227,1,0,0:0:0:0:
64,192,92322,1,0,0:0:0:0:
320,192,92417,1,0,0:0:0:0:
192,192,92512,1,0,0:0:0:0:
64,192,92560,1,0,0:0:0:0:
320,192,92607,1,0,0:0:0:0:
448,192,92607,1,0,0:0:0:0:
192,192,92655,1,0,0:0:0:0:
64,192,92702,1,0,0:0:0:0:
320,192,92797,1,0,0:0:0:0:
192,192,92845,1,0,0:0:0:0:
448,192,92893,1,0,0:0:0:0:
320,192,92940,1,0,0:0:0:0:
64,192,92988,1,0,0:0:0:0:
192,192,92988,1,0,0:0:0:0:
448,192,92988,1,0,0:0:0:0:
320,192,93083,1,0,0:0:0:0:
192,192,93179,1,0,0:0:0:0:
448,192,93274,1,0,0:0:0:0:
320,192,93322,1,0,0:0:0:0:
64,192,93369,1,0,0:0:0:0:
192,192,93369,1,0,0:0:0:0:
320,192,93417,1,0,0:0:0:0:
448,192,93465,1,0,0:0:0:0:
192,192,93560,1,0,0:0:0:0:
320,192,93655,1,0,0:0:0:0:
64,192,93750,1,0,0:0:0:0:
192,192,93750,1,0,0:0:0:0:
448,192,93750,1,0,0:0:0:0:
320,192,93845,1,0,0:0:0:0:
64,192,93940,1,0,0:0:0:0:
320,192,94036,1,0,0:0:0:0:
192,192,94084,1,0,0:0:0:0:
64,192,94131,1,0,0:0:0:0:
448,192,94131,1,0,0:0:0:0:
192,192,94179,1,0,0:0:0:0:
320,192,94227,1,0,0:0:0:0:
448,192,94322,1,0,0:0:0:0:
320,192,94370,1,0,0:0:0:0:
192,192,94417,1,0,0:0:0:0:
320,192,94465,1,0,0:0:0:0:
64,192,94512,1,0,0:0:0:0:
192,192,94512,1,0,0:0:0:0:
448,192,94512,1,0,0:0:0:0:
320,192,94607,1,0,0:0:0:0:
192,192,94702,1,0,0:0:0:0:
448,192,94798,1,0,0:0:0:0:
192,192,94845,1,0,0:0:0:0:
64,192,94893,1,0,0:0:0:0:
320,192,94893,1,0,0:0:0:0:
192,192,94941,1,0,0:0:0:0:
448,192,94988,1,0,0:0:0:0:
64,192,95084,1,0,0:0:0:0:
192,192,95179,1,0,0:0:0:0:
64,192,95274,1,0,0:0:0:0:
320,192,95274,1,0,0:0:0:0:
448,192,95274,1,0,0:0:0:0:
320,192,95370,1,0,0:0:0:0:
192,192,95465,1,0,0:0:0:0:
448,192,95560,1,0,0:0:0:0:
64,192,95607,1,0,0:0:0:0:
192,192,95655,1,0,0:0:0:0:
320,192,95655,1,0,0:0:0:0:
448,192,95702,1,0,0:0:0:0:
64,192,95750,1,0,0:0:0:0:
448,192,95845,1,0,0:0:0:0:
320,192,95893,1,0,0:0:0:0:
192,192,95941,1,0,0:0:0:0:
320,192,95988,1,0,0:0:0:0:
64,192,96036,1,0,0:0:0:0:
192,192,96036,1,0,0:0:0:0:
448,192,96036,1,0,0:0:0:0:
320,192,96131,1,0,0:0:0:0:
64,192,96227,1,0,0:0:0:0:
448,192,96322,1,0,0:0:0:0:
320,192,96370,1,0,0:0:0:0:
64,192,96417,1,0,0:0:0:0:
192,192,96417,1,0,0:0:0:0:
320,192,96465,1,0,0:0:0:0:
448,192,96512,1,0,0:0:0:0:
64,192,96607,1,0,0:0:0:0:
192,192,96702,1,0,0:0:0:0:
64,192,96798,1,0,0:0:0:0:
320,192,96798,1,0,0:0:0:0:
448,192,96798,1,0,0:0:0:0:
192,192,96845,1,0,0:0:0:0:
320,192,96893,1,0,0:0:0:0:
192,192,96988,1,0,0:0:0:0:
64,192,97084,1,0,0:0:0:0:
192,192,97132,1,0,0:0:0:0:
320,192,97179,1,0,0:0:0:0:
448,192,97179,1,0,0:0:0:0:
64,192,97227,1,0,0:0:0:0:
192,192,97275,1,0,0:0:0:0:
448,192,97370,1,0,0:0:0:0:
320,192,97417,1,0,0:0:0:0:
192,192,97465,1,0,0:0:0:0:
64,192,97512,1,0,0:0:0:0:
192,192,97560,1,0,0:0:0:0:
320,192,97560,1,0,0:0:0:0:
448,192,97560,1,0,0:0:0:0:
64,192,97607,1,0,0:0:0:0:
320,192,97655,1,0,0:0:0:0:
192,192,97750,1,0,0:0:0:0:
320,192,97846,1,0,0:0:0:0:
192,192,97893,1,0,0:0:0:0:
64,192,97941,1,0,0:0:0:0:
448,192,97941,1,0,0:0:0:0:
320,192,97989,1,0,0:0:0:0:
192,192,98036,1,0,0:0:0:0:
64,192,98132,1,0,0:0:0:0:
448,192,98227,1,0,0:0:0:0:
64,192,98322,1,0,0:0:0:0:
192,192,98322,1,0,0:0:0:0:
320,192,98322,1,0,0:0:0:0:
448,192,98417,1,0,0:0:0:0:
192,192,98512,1,0,0:0:0:0:
320,192,98607,1,0,0:0:0:0:
448,192,98655,1,0,0:0:0:0:
64,192,98703,1,0,0:0:0:0:
192,192,98703,1,0,0:0:0:0:
320,192,98750,1,0,0:0:0:0:
448,192,98798,1,0,0:0:0:0:
192,192,98893,1,0,0:0:0:0:
320,192,98941,1,0,0:0:0:0:
64,192,98989,1,0,0:0:0:0:
192,192,99036,1,0,0:0:0:0:
64,192,99084,1,0,0:0:0:0:
320,192,99084,1,0,0:0:0:0:
448,192,99084,1,0,0:0:0:0:
192,192,99179,1,0,0:0:0:0:
320,192,99275,1,0,0:0:0:0:
64,192,99370,1,0,0:0:0:0:
448,192,99370,1,0,0:0:0:0:
192,192,99465,1,0,0:0:0:0:
320,192,99465,1,0,0:0:0:0:
448,192,99512,1,0,0:0:0:0:
64,192,99560,1,0,0:0:0:0:
192,192,99655,1,0,0:0:0:0:
320,192,99750,1,0,0:0:0:0:
64,192,99846,1,0,0:0:0:0:
192,192,99846,1,0,0:0:0:0:
448,192,99846,1,0,0:0:0:0:
320,192,99941,1,0,0:0:0:0:
448,192,99941,1,0,0:0:0:0:
64,192,100132,1,0,0:0:0:0:
448,192,100132,1,0,0:0:0:0:
192,192,100227,1,0,0:0:0:0:
320,192,100227,1,0,0:0:0:0:
64,192,100322,1,0,0:0:0:0:
192,192,100322,1,0,0:0:0:0:
320,192,100417,1,0,0:0:0:0:
192,192,100512,1,0,0:0:0:0:
448,192,100512,1,0,0:0:0:0:
64,192,100607,1,0,0:0:0:0:
320,192,100607,1,0,0:0:0:0:
448,192,100607,1,0,0:0:0:0:
192,192,100703,1,0,0:0:0:0:
64,192,100798,1,0,0:0:0:0:
320,192,100798,1,0,0:0:0:0:
448,192,100893,1,0,0:0:0:0:
320,192,100941,1,0,0:0:0:0:
64,192,100989,1,0,0:0:0:0:
192,192,100989,1,0,0:0:0:0:
448,192,101036,1,0,0:0:0:0:
64,192,101084,1,0,0:0:0:0:
192,192,101084,1,0,0:0:0:0:
320,192,101179,1,0,0:0:0:0:
448,192,101179,1,0,0:0:0:0:
192,192,101275,1,0,0:0:0:0:
64,192,101370,1,0,0:0:0:0:
448,192,101370,1,0,0:0:0:0:
64,192,101465,1,0,0:0:0:0:
192,192,101465,1,0,0:0:0:0:
192,192,101560,1,0,0:0:0:0:
320,192,101560,1,0,0:0:0:0:
448,192,101655,1,0,0:0:0:0:
192,192,101703,1,0,0:0:0:0:
320,192,101751,1,0,0:0:0:0:
448,192,101751,1,0,0:0:0:0:
64,192,101798,1,0,0:0:0:0:
192,192,101846,1,0,0:0:0:0:
320,192,101846,1,0,0:0:0:0:
64,192,101941,1,0,0:0:0:0:
448,192,101941,1,0,0:0:0:0:
192,192,102037,1,0,0:0:0:0:
320,192,102084,1,0,0:0:0:0:
64,192,102132,1,0,0:0:0:0:
448,192,102132,1,0,0:0:0:0:
192,192,102227,1,0,0:0:0:0:
320,192,102227,1,0,0:0:0:0:
64,192,102322,1,0,0:0:0:0:
448,192,102322,1,0,0:0:0:0:
320,192,102417,1,0,0:0:0:0:
192,192,102465,1,0,0:0:0:0:
64,192,102512,1,0,0:0:0:0:
320,192,102512,1,0,0:0:0:0:
192,192,102560,1,0,0:0:0:0:
64,192,102608,1,0,0:0:0:0:
448,192,102608,1,0,0:0:0:0:
192,192,102703,1,0,0:0:0:0:
320,192,102703,1,0,0:0:0:0:
448,192,102798,1,0,0:0:0:0:
64,192,102894,1,0,0:0:0:0:
192,192,102894,1,0,0:0:0:0:
448,192,102941,1,0,0:0:0:0:
192,192,102989,1,0,0:0:0:0:
320,192,102989,1,0,0:0:0:0:
64,192,103084,1,0,0:0:0:0:
448,192,103084,1,0,0:0:0:0:
192,192,103180,1,0,0:0:0:0:
320,192,103227,1,0,0:0:0:0:
64,192,103275,1,0,0:0:0:0:
448,192,103275,1,0,0:0:0:0:
192,192,103322,1,0,0:0:0:0:
320,192,103370,1,0,0:0:0:0:
448,192,103370,1,0,0:0:0:0:
64,192,103465,1,0,0:0:0:0:
192,192,103465,1,0,0:0:0:0:
448,192,103560,1,0,0:0:0:0:
64,192,103608,1,0,0:0:0:0:
192,192,103655,1,0,0:0:0:0:
320,192,103655,1,0,0:0:0:0:
64,192,103703,1,0,0:0:0:0:
320,192,103751,1,0,0:0:0:0:
448,192,103751,1,0,0:0:0:0:
64,192,103846,1,0,0:0:0:0:
192,192,103846,1,0,0:0:0:0:
448,192,103941,1,0,0:0:0:0:
320,192,103989,1,0,0:0:0:0:
64,192,104037,1,0,0:0:0:0:
192,192,104037,1,0,0:0:0:0:
448,192,104084,1,0,0:0:0:0:
64,192,104132,1,0,0:0:0:0:
320,192,104132,1,0,0:0:0:0:
192,192,104227,1,0,0:0:0:0:
448,192,104227,1,0,0:0:0:0:
320,192,104322,1,0,0:0:0:0:
64,192,104417,1,0,0:0:0:0:
448,192,104417,1,0,0:0:0:0:
192,192,104465,1,0,0:0:0:0:
320,192,104513,1,0,0:0:0:0:
448,192,104513,1,0,0:0:0:0:
64,192,104608,1,0,0:0:0:0:
192,192,104608,1,0,0:0:0:0:
448,192,104703,1,0,0:0:0:0:
192,192,104751,1,0,0:0:0:0:
320,192,104799,1,0,0:0:0:0:
448,192,104799,1,0,0:0:0:0:
64,192,104846,1,0,0:0:0:0:
192,192,104894,1,0,0:0:0:0:
320,192,104894,1,0,0:0:0:0:
64,192,104989,1,0,0:0:0:0:
448,192,104989,1,0,0:0:0:0:
192,192,105085,1,0,0:0:0:0:
320,192,105132,1,0,0:0:0:0:
64,192,105180,1,0,0:0:0:0:
192,192,105180,1,0,0:0:0:0:
448,192,105227,1,0,0:0:0:0:
192,192,105275,1,0,0:0:0:0:
320,192,105275,1,0,0:0:0:0:
64,192,105370,1,0,0:0:0:0:
448,192,105370,1,0,0:0:0:0:
192,192,105465,1,0,0:0:0:0:
320,192,105513,1,0,0:0:0:0:
64,192,105560,1,0,0:0:0:0:
192,192,105560,1,0,0:0:0:0:
448,192,105608,1,0,0:0:0:0:
192,192,105656,1,0,0:0:0:0:
320,192,105656,1,0,0:0:0:0:
64,192,105751,1,0,0:0:0:0:
448,192,105751,1,0,0:0:0:0:
192,192,105846,1,0,0:0:0:0:
320,192,105942,1,0,0:0:0:0:
448,192,105942,1,0,0:0:0:0:
64,192,105989,1,0,0:0:0:0:
192,192,106037,1,0,0:0:0:0:
320,192,106037,1,0,0:0:0:0:
448,192,106085,1,0,0:0:0:0:
64,192,106132,1,0,0:0:0:0:
192,192,106132,1,0,0:0:0:0:
320,192,106227,1,0,0:0:0:0:
192,192,106275,1,0,0:0:0:0:
320,192,106322,1,0,0:0:0:0:
448,192,106322,1,0,0:0:0:0:
64,192,106370,1,0,0:0:0:0:
192,192,106417,1,0,0:0:0:0:
320,192,106417,1,0,0:0:0:0:
64,192,106513,1,0,0:0:0:0:
448,192,106513,1,0,0:0:0:0:
192,192,106608,1,0,0:0:0:0:
320,192,106656,1,0,0:0:0:0:
64,192,106703,1,0,0:0:0:0:
192,192,106703,1,0,0:0:0:0:
320,192,106799,1,0,0:0:0:0:
448,192,106799,1,0,0:0:0:0:
192,192,106894,1,0,0:0:0:0:
320,192,106894,1,0,0:0:0:0:
64,192,106989,1,0,0:0:0:0:
448,192,106989,1,0,0:0:0:0:
192,192,107037,1,0,0:0:0:0:
320,192,107085,1,0,0:0:0:0:
448,192,107085,1,0,0:0:0:0:
192,192,107132,1,0,0:0:0:0:
64,192,107180,1,0,0:0:0:0:
448,192,107180,1,0,0:0:0:0:
192,192,107275,1,0,0:0:0:0:
320,192,107275,1,0,0:0:0:0:
320,192,107370,1,0,0:0:0:0:
448,192,107370,1,0,0:0:0:0:
64,192,107465,1,0,0:0:0:0:
192,192,107465,1,0,0:0:0:0:
320,192,107561,1,0,0:0:0:0:
448,192,107561,1,0,0:0:0:0:
64,192,107656,1,0,0:0:0:0:
320,192,107656,1,0,0:0:0:0:
64,192,107751,1,0,0:0:0:0:
192,192,107751,1,0,0:0:0:0:
448,192,107799,1,0,0:0:0:0:
192,192,107847,1,0,0:0:0:0:
320,192,107847,1,0,0:0:0:0:
64,192,107894,1,0,0:0:0:0:
320,192,107942,1,0,0:0:0:0:
448,192,107942,1,0,0:0:0:0:
64,192,108037,1,0,0:0:0:0:
192,192,108037,1,0,0:0:0:0:
320,192,108132,1,0,0:0:0:0:
448,192,108132,1,0,0:0:0:0:
192,192,108180,1,0,0:0:0:0:
320,192,108227,1,0,0:0:0:0:
448,192,108227,1,0,0:0:0:0:
64,192,108275,1,0,0:0:0:0:
192,192,108322,1,0,0:0:0:0:
320,192,108322,1,0,0:0:0:0:
64,192,108418,1,0,0:0:0:0:
448,192,108418,1,0,0:0:0:0:
192,192,108513,1,0,0:0:0:0:
320,192,108513,1,0,0:0:0:0:
448,192,108561,1,0,0:0:0:0:
64,192,108608,1,0,0:0:0:0:
192,192,108608,1,0,0:0:0:0:
320,192,108656,1,0,0:0:0:0:
64,192,108704,1,0,0:0:0:0:
448,192,108704,1,0,0:0:0:0:
192,192,108799,1,0,0:0:0:0:
320,192,108799,1,0,0:0:0:0:
320,192,108894,1,0,0:0:0:0:
448,192,108894,1,0,0:0:0:0:
64,192,108990,1,0,0:0:0:0:
192,192,108990,1,0,0:0:0:0:
448,192,109037,1,0,0:0:0:0:
192,192,109085,1,0,0:0:0:0:
320,192,109085,1,0,0:0:0:0:
320,192,109180,1,0,0:0:0:0:
448,192,109180,1,0,0:0:0:0:
64,192,109275,1,0,0:0:0:0:
192,192,109275,1,0,0:0:0:0:
448,192,109322,1,0,0:0:0:0:
64,192,109370,1,0,0:0:0:0:
320,192,109370,1,0,0:0:0:0:
192,192,109418,1,0,0:0:0:0:
320,192,109465,1,0,0:0:0:0:
448,192,109465,1,0,0:0:0:0:
64,192,109561,1,0,0:0:0:0:
192,192,109561,1,0,0:0:0:0:
320,192,109656,1,0,0:0:0:0:
448,192,109656,1,0,0:0:0:0:
64,192,109751,1,0,0:0:0:0:
192,192,109751,1,0,0:0:0:0:
320,192,109847,1,0,0:0:0:0:
192,192,109942,1,0,0:0:0:0:
448,192,110037,1,0,0:0:0:0:
192,192,110085,1,0,0:0:0:0:
64,192,110132,1,0,0:0:0:0:
320,192,110132,1,0,0:0:0:0:
192,192,110227,1,0,0:0:0:0:
448,192,110322,1,0,0:0:0:0:
64,192,110418,1,0,0:0:0:0:
320,192,110513,1,0,0:0:0:0:
448,192,110513,1,0,0:0:0:0:
192,192,110609,1,0,0:0:0:0:
64,192,110704,1,0,0:0:0:0:
320,192,110799,1,0,0:0:0:0:
192,192,110847,1,0,0:0:0:0:
64,192,110895,1,0,0:0:0:0:
448,192,110895,1,0,0:0:0:0:
192,192,110990,1,0,0:0:0:0:
320,192,111085,1,0,0:0:0:0:
448,192,111180,1,0,0:0:0:0:
64,192,111275,1,0,0:0:0:0:
320,192,111275,1,0,0:0:0:0:
448,192,111323,1,0,0:0:0:0:
192,192,111370,1,0,0:0:0:0:
320,192,111418,1,0,0:0:0:0:
64,192,111466,1,0,0:0:0:0:
192,192,111513,1,0,0:0:0:0:
320,192,111561,1,0,0:0:0:0:
448,192,111561,1,0,0:0:0:0:
192,192,111609,1,0,0:0:0:0:
320,192,111656,1,0,0:0:0:0:
448,192,111704,1,0,0:0:0:0:
64,192,111752,1,0,0:0:0:0:
192,192,111799,1,0,0:0:0:0:
320,192,111847,1,0,0:0:0:0:
448,192,111847,1,0,0:0:0:0:
64,192,111895,1,0,0:0:0:0:
192,192,111942,1,0,0:0:0:0:
320,192,111990,1,0,0:0:0:0:
64,192,112037,1,0,0:0:0:0:
448,192,112037,1,0,0:0:0:0:
192,192,112085,1,0,0:0:0:0:
320,0,112132,128,0,112180:1:0:0:0:
64,192,112180,1,0,0:0:0:0:
448,0,112227,128,0,112275:1:0:0:0:
192,192,112275,1,0,0:0:0:0:
320,192,112323,1,0,0:0:0:0:
192,192,112370,1,0,0:0:0:0:
64,0,112418,128,0,112466:1:0:0:0:
320,192,112466,1,0,0:0:0:0:
192,0,112513,128,0,112561:1:0:0:0:
448,192,112561,1,0,0:0:0:0:
320,0,112609,128,0,112656:1:0:0:0:
64,192,112656,1,0,0:0:0:0:
448,0,112704,128,0,112752:1:0:0:0:
192,192,112752,1,0,0:0:0:0:
320,192,112799,1,0,0:0:0:0:
192,0,112895,128,0,112990:1:0:0:0:
64,192,112990,1,0,0:0:0:0:
448,0,113085,128,0,113180:1:0:0:0:
320,192,113180,1,0,0:0:0:0:
64,0,113275,128,0,113370:1:0:0:0:
192,192,113370,1,0,0:0:0:0:
64,192,113466,1,0,0:0:0:0:
320,0,113466,128,0,113561:1:0:0:0:
448,0,113561,128,0,113656:1:0:0:0:
192,192,113609,1,0,0:0:0:0:
64,0,113656,128,0,113752:1:0:0:0:
192,0,113752,128,0,113847:1:0:0:0:
448,0,113847,128,0,113942:1:0:0:0:
320,192,113942,1,0,0:0:0:0:
192,0,114037,128,0,114132:1:0:0:0:
448,0,114132,128,0,114227:1:0:0:0:
64,0,114227,128,0,114323:1:0:0:0:
192,192,114323,1,0,0:0:0:0:
448,192,114323,1,0,0:0:0:0:
320,0,114418,128,0,114513:1:0:0:0:
192,192,114513,1,0,0:0:0:0:
448,0,114609,128,0,114704:1:0:0:0:
192,192,114704,1,0,0:0:0:0:
64,0,114799,128,0,114895:1:0:0:0:
448,192,114895,1,0,0:0:0:0:
64,192,114990,1,0,0:0:0:0:
320,0,114990,128,0,115085:1:0:0:0:
192,0,115085,128,0,115180:1:0:0:0:
320,0,115180,128,0,115275:1:0:0:0:
448,0,115275,128,0,115370:1:0:0:0:
320,0,115370,128,0,115466:1:0:0:0:
192,0,115466,128,0,115561:1:0:0:0:
64,0,115561,128,0,115656:1:0:0:0:
320,0,115656,128,0,115752:1:0:0:0:
192,0,115752,128,0,115847:1:0:0:0:
64,192,115847,1,0,0:0:0:0:
448,0,115847,128,0,115942:1:0:0:0:
320,0,115942,128,0,116037:1:0:0:0:
64,0,116037,128,0,116132:1:0:0:0:
192,0,116132,128,0,116227:1:0:0:0:
448,192,116227,1,0,0:0:0:0:
320,0,116323,128,0,116418:1:0:0:0:
64,192,116418,1,0,0:0:0:0:
320,192,116513,1,0,0:0:0:0:
448,0,116513,128,0,116609:1:0:0:0:
320,0,116704,128,0,116799:1:0:0:0:
192,0,116799,128,0,116895:1:0:0:0:
64,0,116895,128,0,116990:1:0:0:0:
320,192,116990,1,0,0:0:0:0:
448,0,117085,128,0,117180:1:0:0:0:
320,0,117180,128,0,117275:1:0:0:0:
192,0,117275,128,0,117370:1:0:0:0:
64,192,117370,1,0,0:0:0:0:
448,192,117370,1,0,0:0:0:0:
320,0,117466,128,0,117561:1:0:0:0:
192,192,117561,1,0,0:0:0:0:
320,0,117656,128,0,117752:1:0:0:0:
192,192,117752,1,0,0:0:0:0:
64,0,117847,128,0,117942:1:0:0:0:
320,192,117942,1,0,0:0:0:0:
64,192,118037,1,0,0:0:0:0:
192,0,118037,128,0,118085:1:0:0:0:
320,192,118085,1,0,0:0:0:0:
192,192,118132,1,0,0:0:0:0:
64,192,118180,1,0,0:0:0:0:
448,0,118227,128,0,118275:1:0:0:0:
320,0,118275,128,0,118323:1:0:0:0:
192,0,118323,128,0,118370:1:0:0:0:
64,192,118370,1,0,0:0:0:0:
320,0,118418,128,0,118466:1:0:0:0:
192,192,118466,1,0,0:0:0:0:
448,0,118513,128,0,118561:1:0:0:0:
64,192,118561,1,0,0:0:0:0:
192,0,118609,128,0,118656:1:0:0:0:
320,192,118656,1,0,0:0:0:0:
64,0,118704,128,0,118752:1:0:0:0:
192,192,118752,1,0,0:0:0:0:
320,192,118799,1,0,0:0:0:0:
448,192,118847,1,0,0:0:0:0:
64,192,118895,1,0,0:0:0:0:
192,192,118895,1,0,0:0:0:0:
192,192,118990,1,0,0:0:0:0:
320,0,119085,128,0,119180:1:0:0:0:
448,0,119180,128,0,119275:1:0:0:0:
320,192,119275,1,0,0:0:0:0:
192,0,119370,128,0,119466:1:0:0:0:
448,192,119466,1,0,0:0:0:0:
192,192,119561,1,0,0:0:0:0:
320,0,119561,128,0,119656:1:0:0:0:
64,192,119656,1,0,0:0:0:0:
448,0,119752,128,0,119847:1:0:0:0:
192,0,119847,128,0,119942:1:0:0:0:
64,0,119942,128,0,120037:1:0:0:0:
448,192,120037,1,0,0:0:0:0:
320,0,120132,128,0,120227:1:0:0:0:
192,192,120227,1,0,0:0:0:0:
448,0,120323,128,0,120418:1:0:0:0:
64,192,120418,1,0,0:0:0:0:
192,192,120418,1,0,0:0:0:0:
320,0,120513,128,0,120609:1:0:0:0:
192,0,120609,128,0,120704:1:0:0:0:
64,0,120704,128,0,120799:1:0:0:0:
448,192,120799,1,0,0:0:0:0:
320,0,120895,128,0,120990:1:0:0:0:
64,192,120990,1,0,0:0:0:0:
448,192,120990,1,0,0:0:0:0:
320,192,121085,1,0,0:0:0:0:
192,0,121085,128,0,121180:1:0:0:0:
64,0,121275,128,0,121370:1:0:0:0:
448,0,121370,128,0,121466:1:0:0:0:
192,0,121466,128,0,121561:1:0:0:0:
64,192,121561,1,0,0:0:0:0:
320,0,121656,128,0,121752:1:0:0:0:
192,192,121752,1,0,0:0:0:0:
448,0,121847,128,0,121942:1:0:0:0:
64,192,121942,1,0,0:0:0:0:
192,192,121942,1,0,0:0:0:0:
320,192,122037,1,0,0:0:0:0:
64,0,122132,128,0,122227:1:0:0:0:
192,0,122227,128,0,122323:1:0:0:0:
320,192,122323,1,0,0:0:0:0:
320,0,122418,128,0,122513:1:0:0:0:
64,192,122513,1,0,0:0:0:0:
320,192,122609,1,0,0:0:0:0:
448,0,122609,128,0,122704:1:0:0:0:
192,0,122799,128,0,122895:1:0:0:0:
320,0,122895,128,0,122990:1:0:0:0:
192,0,122990,128,0,123085:1:0:0:0:
448,192,123085,1,0,0:0:0:0:
64,0,123180,128,0,123275:1:0:0:0:
192,0,123275,128,0,123370:1:0:0:0:
320,0,123370,128,0,123466:1:0:0:0:
64,192,123466,1,0,0:0:0:0:
448,0,123466,128,0,123513:1:0:0:0:
320,192,123513,1,0,0:0:0:0:
192,192,123561,1,0,0:0:0:0:
64,192,123609,1,0,0:0:0:0:
320,0,123656,128,0,123704:1:0:0:0:
448,192,123704,1,0,0:0:0:0:
192,0,123752,128,0,123799:1:0:0:0:
64,192,123799,1,0,0:0:0:0:
320,192,123847,1,0,0:0:0:0:
192,192,123895,1,0,0:0:0:0:
64,0,123942,128,0,123990:1:0:0:0:
448,192,123990,1,0,0:0:0:0:
320,192,124037,1,0,0:0:0:0:
192,192,124085,1,0,0:0:0:0:
448,0,124132,128,0,124227:1:0:0:0:
64,192,124180,1,0,0:0:0:0:
192,192,124227,1,0,0:0:0:0:
448,192,124275,1,0,0:0:0:0:
320,0,124323,128,0,124370:1:0:0:0:
192,192,124370,1,0,0:0:0:0:
320,0,124418,128,0,124466:1:0:0:0:
192,192,124466,1,0,0:0:0:0:
64,192,124513,1,0,0:0:0:0:
448,192,124561,1,0,0:0:0:0:
320,0,124609,128,0,124656:1:0:0:0:
192,192,124656,1,0,0:0:0:0:
64,192,124704,1,0,0:0:0:0:
320,192,124752,1,0,0:0:0:0:
192,192,124799,1,0,0:0:0:0:
448,192,124847,1,0,0:0:0:0:
320,192,124895,1,0,0:0:0:0:
192,192,124942,1,0,0:0:0:0:
448,192,124990,1,0,0:0:0:0:
64,0,124990,128,0,125037:1:0:0:0:
320,0,125085,128,0,125132:1:0:0:0:
192,0,125180,128,0,125227:1:0:0:0:
448,0,125275,128,0,125323:1:0:0:0:
64,0,125370,128,0,125418:1:0:0:0:
192,0,125466,128,0,125513:1:0:0:0:
320,0,125561,128,0,125609:1:0:0:0:
64,192,125656,1,0,0:0:0:0:
448,0,125656,128,0,125752:1:0:0:0:
448,0,125847,128,0,125895:1:0:0:0:
320,0,125942,128,0,125990:1:0:0:0:
192,0,126037,128,0,126085:1:0:0:0:
320,0,126132,128,0,126180:1:0:0:0:
448,0,126228,128,0,126275:1:0:0:0:
320,0,126275,128,0,126323:1:0:0:0:
192,0,126323,128,0,126371:1:0:0:0:
320,0,126418,128,0,126466:1:0:0:0:
192,192,126514,1,0,0:0:0:0:
448,0,126514,128,0,126561:1:0:0:0:
64,0,126609,128,0,126657:1:0:0:0:
192,0,126704,128,0,126752:1:0:0:0:
320,0,126800,128,0,126847:1:0:0:0:
448,0,126895,128,0,126942:1:0:0:0:
320,0,126990,128,0,127037:1:0:0:0:
192,0,127085,128,0,127132:1:0:0:0:
320,192,127180,1,0,0:0:0:0:
64,0,127180,128,0,127228:1:0:0:0:
448,0,127275,128,0,127323:1:0:0:0:
320,0,127371,128,0,127418:1:0:0:0:
192,0,127466,128,0,127514:1:0:0:0:
64,0,127561,128,0,127609:1:0:0:0:
192,0,127657,128,0,127704:1:0:0:0:
320,0,127704,128,0,127800:1:0:0:0:
64,0,127942,128,0,127990:1:0:0:0:
320,0,127990,128,0,128037:1:0:0:0:
448,192,128037,1,0,0:0:0:0:
192,0,128037,128,0,128132:1:0:0:0:
192,0,128228,128,0,128323:1:0:0:0:
192,0,128418,128,0,128466:1:0:0:0:
320,0,128514,128,0,128609:1:0:0:0:
64,192,128704,1,0,0:0:0:0:
448,0,128704,128,0,128800:1:0:0:0:
320,0,128895,128,0,128990:1:0:0:0:
192,0,129085,128,0,129180:1:0:0:0:
320,0,129275,128,0,129371:1:0:0:0:
64,0,129466,128,0,129561:1:0:0:0:
192,192,129561,1,0,0:0:0:0:
320,192,129561,1,0,0:0:0:0:
448,0,129657,128,0,129752:1:0:0:0:
448,0,129847,128,0,129942:1:0:0:0:
320,0,130037,128,0,130085:1:0:0:0:
192,0,130132,128,0,130180:1:0:0:0:
448,192,130228,1,0,0:0:0:0:
64,0,130228,128,0,130276:1:0:0:0:
320,0,130323,128,0,130371:1:0:0:0:
448,0,130419,128,0,130466:1:0:0:0:
320,0,130514,128,0,130562:1:0:0:0:
192,0,130609,128,0,130657:1:0:0:0:
320,0,130705,128,0,130800:1:0:0:0:
64,0,130895,128,0,130942:1:0:0:0:
192,0,130990,128,0,131037:1:0:0:0:
448,192,131085,1,0,0:0:0:0:
320,0,131085,128,0,131180:1:0:0:0:
192,192,131133,1,0,0:0:0:0:
64,192,131180,1,0,0:0:0:0:
448,192,131228,1,0,0:0:0:0:
320,192,131276,1,0,0:0:0:0:
192,192,131323,1,0,0:0:0:0:
320,0,131371,128,0,131466:1:0:0:0:
192,192,131419,1,0,0:0:0:0:
64,192,131466,1,0,0:0:0:0:
320,192,131514,1,0,0:0:0:0:
448,0,131562,128,0,131609:1:0:0:0:
192,192,131609,1,0,0:0:0:0:
320,0,131657,128,0,131705:1:0:0:0:
64,192,131705,1,0,0:0:0:0:
320,0,131752,128,0,131800:1:0:0:0:
192,192,131800,1,0,0:0:0:0:
448,192,131847,1,0,0:0:0:0:
320,192,131895,1,0,0:0:0:0:
192,0,131942,128,0,131990:1:0:0:0:
64,192,131990,1,0,0:0:0:0:
320,0,132037,128,0,132085:1:0:0:0:
192,192,132085,1,0,0:0:0:0:
448,0,132133,128,0,132228:1:0:0:0:
320,192,132180,1,0,0:0:0:0:
192,192,132228,1,0,0:0:0:0:
64,192,132276,1,0,0:0:0:0:
320,192,132323,1,0,0:0:0:0:
192,192,132371,1,0,0:0:0:0:
64,0,132419,128,0,132514:1:0:0:0:
320,192,132466,1,0,0:0:0:0:
448,192,132514,1,0,0:0:0:0:
64,192,132562,1,0,0:0:0:0:
192,192,132609,1,0,0:0:0:0:
320,0,132609,128,0,132705:1:0:0:0:
320,0,132895,128,0,132990:1:0:0:0:
192,0,133085,128,0,133133:1:0:0:0:
320,0,133180,128,0,133228:1:0:0:0:
64,192,133276,1,0,0:0:0:0:
448,0,133276,128,0,133752:1:0:0:0:
192,192,133467,1,0,0:0:0:0:
64,192,133562,1,0,0:0:0:0:
320,192,133562,1,0,0:0:0:0:
320,192,133752,1,0,0:0:0:0:
320,192,133847,1,0,0:0:0:0:
64,0,133942,128,0,133990:1:0:0:0:
192,0,134038,128,0,134085:1:0:0:0:
448,192,134133,1,0,0:0:0:0:
320,0,134133,128,0,134228:1:0:0:0:
448,0,134324,128,0,134371:1:0:0:0:
320,0,134419,128,0,134514:1:0:0:0:
192,0,134610,128,0,134705:1:0:0:0:
320,192,134800,1,0,0:0:0:0:
64,0,134800,128,0,134895:1:0:0:0:
448,0,134990,128,0,135085:1:0:0:0:
320,192,135085,1,0,0:0:0:0:
192,192,135133,1,0,0:0:0:0:
320,0,135181,128,0,135276:1:0:0:0:
192,192,135228,1,0,0:0:0:0:
64,192,135276,1,0,0:0:0:0:
192,0,135371,128,0,135419:1:0:0:0:
64,0,135467,128,0,135562:1:0:0:0:
320,192,135657,1,0,0:0:0:0:
448,0,135657,128,0,135847:1:0:0:0:
192,192,135705,1,0,0:0:0:0:
64,192,135752,1,0,0:0:0:0:
192,192,135800,1,0,0:0:0:0:
320,192,135847,1,0,0:0:0:0:
448,192,135895,1,0,0:0:0:0:
64,192,135942,1,0,0:0:0:0:
192,192,135990,1,0,0:0:0:0:
320,192,136038,1,0,0:0:0:0:
448,192,136038,1,0,0:0:0:0:
64,192,136085,1,0,0:0:0:0:
192,192,136133,1,0,0:0:0:0:
320,192,136133,1,0,0:0:0:0:
448,192,136181,1,0,0:0:0:0:
64,192,136228,1,0,0:0:0:0:
192,192,136228,1,0,0:0:0:0:
320,192,136276,1,0,0:0:0:0:
64,192,136324,1,0,0:0:0:0:
448,192,136324,1,0,0:0:0:0:
192,192,136372,1,0,0:0:0:0:
320,192,136419,1,0,0:0:0:0:
192,192,136467,1,0,0:0:0:0:
64,192,136515,1,0,0:0:0:0:
448,192,136562,1,0,0:0:0:0:
192,192,136610,1,0,0:0:0:0:
320,192,136610,1,0,0:0:0:0:
64,192,136657,1,0,0:0:0:0:
448,192,136705,1,0,0:0:0:0:
192,192,136752,1,0,0:0:0:0:
320,192,136800,1,0,0:0:0:0:
448,192,136800,1,0,0:0:0:0:
64,192,136847,1,0,0:0:0:0:
192,192,136895,1,0,0:0:0:0:
320,192,136943,1,0,0:0:0:0:
64,192,136990,1,0,0:0:0:0:
448,192,136990,1,0,0:0:0:0:
192,192,137038,1,0,0:0:0:0:
320,192,137086,1,0,0:0:0:0:
448,192,137086,1,0,0:0:0:0:
192,192,137133,1,0,0:0:0:0:
64,192,137181,1,0,0:0:0:0:
448,192,137229,1,0,0:0:0:0:
192,192,137276,1,0,0:0:0:0:
320,192,137324,1,0,0:0:0:0:
64,192,137372,1,0,0:0:0:0:
192,192,137419,1,0,0:0:0:0:
320,192,137467,1,0,0:0:0:0:
448,192,137515,1,0,0:0:0:0:
320,192,137562,1,0,0:0:0:0:
192,192,137610,1,0,0:0:0:0:
64,192,137657,1,0,0:0:0:0:
448,192,137705,1,0,0:0:0:0:
192,192,137752,1,0,0:0:0:0:
448,192,137800,1,0,0:0:0:0:
192,192,137847,1,0,0:0:0:0:
320,192,137847,1,0,0:0:0:0:
64,192,137895,1,0,0:0:0:0:
192,192,137943,1,0,0:0:0:0:
320,192,137990,1,0,0:0:0:0:
448,192,138038,1,0,0:0:0:0:
64,192,138086,1,0,0:0:0:0:
192,192,138133,1,0,0:0:0:0:
320,192,138133,1,0,0:0:0:0:
448,192,138181,1,0,0:0:0:0:
192,192,138229,1,0,0:0:0:0:
320,192,138276,1,0,0:0:0:0:
64,192,138324,1,0,0:0:0:0:
448,192,138324,1,0,0:0:0:0:
320,192,138372,1,0,0:0:0:0:
64,192,138419,1,0,0:0:0:0:
192,192,138419,1,0,0:0:0:0:
448,192,138467,1,0,0:0:0:0:
192,192,138515,1,0,0:0:0:0:
320,192,138562,1,0,0:0:0:0:
64,192,138610,1,0,0:0:0:0:
448,192,138610,1,0,0:0:0:0:
192,192,138657,1,0,0:0:0:0:
320,192,138705,1,0,0:0:0:0:
192,192,138752,1,0,0:0:0:0:
64,192,138800,1,0,0:0:0:0:
448,192,138847,1,0,0:0:0:0:
320,192,138895,1,0,0:0:0:0:
192,192,138943,1,0,0:0:0:0:
64,192,138990,1,0,0:0:0:0:
320,192,139038,1,0,0:0:0:0:
64,192,139086,1,0,0:0:0:0:
192,192,139086,1,0,0:0:0:0:
448,192,139133,1,0,0:0:0:0:
192,192,139181,1,0,0:0:0:0:
320,192,139181,1,0,0:0:0:0:
64,192,139229,1,0,0:0:0:0:
320,192,139276,1,0,0:0:0:0:
448,192,139276,1,0,0:0:0:0:
192,192,139324,1,0,0:0:0:0:
64,192,139372,1,0,0:0:0:0:
448,192,139372,1,0,0:0:0:0:
192,192,139420,1,0,0:0:0:0:
320,192,139467,1,0,0:0:0:0:
448,192,139515,1,0,0:0:0:0:
64,192,139562,1,0,0:0:0:0:
192,192,139610,1,0,0:0:0:0:
320,192,139657,1,0,0:0:0:0:
448,192,139657,1,0,0:0:0:0:
192,192,139705,1,0,0:0:0:0:
64,192,139752,1,0,0:0:0:0:
448,192,139800,1,0,0:0:0:0:
192,192,139848,1,0,0:0:0:0:
320,192,139848,1,0,0:0:0:0:
448,192,139895,1,0,0:0:0:0:
64,192,139943,1,0,0:0:0:0:
192,192,139991,1,0,0:0:0:0:
320,192,140038,1,0,0:0:0:0:
448,192,140038,1,0,0:0:0:0:
64,192,140086,1,0,0:0:0:0:
192,192,140134,1,0,0:0:0:0:
320,192,140134,1,0,0:0:0:0:
448,192,140181,1,0,0:0:0:0:
320,192,140229,1,0,0:0:0:0:
192,192,140277,1,0,0:0:0:0:
64,192,140324,1,0,0:0:0:0:
448,192,140372,1,0,0:0:0:0:
192,192,140420,1,0,0:0:0:0:
320,192,140467,1,0,0:0:0:0:
64,192,140515,1,0,0:0:0:0:
192,192,140562,1,0,0:0:0:0:
320,192,140610,1,0,0:0:0:0:
448,192,140657,1,0,0:0:0:0:
64,192,140705,1,0,0:0:0:0:
192,192,140752,1,0,0:0:0:0:
320,192,140800,1,0,0:0:0:0:
192,192,140848,1,0,0:0:0:0:
320,192,140895,1,0,0:0:0:0:
448,192,140895,1,0,0:0:0:0:
64,192,140943,1,0,0:0:0:0:
448,192,140991,1,0,0:0:0:0:
320,192,141038,1,0,0:0:0:0:
192,192,141086,1,0,0:0:0:0:
64,192,141134,1,0,0:0:0:0:
320,192,141181,1,0,0:0:0:0:
448,192,141181,1,0,0:0:0:0:
192,192,141229,1,0,0:0:0:0:
448,192,141277,1,0,0:0:0:0:
64,192,141324,1,0,0:0:0:0:
192,192,141372,1,0,0:0:0:0:
320,192,141372,1,0,0:0:0:0:
448,192,141420,1,0,0:0:0:0:
64,192,141467,1,0,0:0:0:0:
192,192,141467,1,0,0:0:0:0:
320,192,141515,1,0,0:0:0:0:
64,192,141562,1,0,0:0:0:0:
448,192,141610,1,0,0:0:0:0:
192,192,141657,1,0,0:0:0:0:
320,192,141657,1,0,0:0:0:0:
64,192,141705,1,0,0:0:0:0:
448,192,141752,1,0,0:0:0:0:
320,192,141800,1,0,0:0:0:0:
192,192,141848,1,0,0:0:0:0:
64,192,141895,1,0,0:0:0:0:
192,192,141943,1,0,0:0:0:0:
320,192,141991,1,0,0:0:0:0:
448,192,142038,1,0,0:0:0:0:
192,192,142086,1,0,0:0:0:0:
320,192,142134,1,0,0:0:0:0:
448,192,142134,1,0,0:0:0:0:
64,192,142181,1,0,0:0:0:0:
192,192,142229,1,0,0:0:0:0:
320,192,142229,1,0,0:0:0:0:
448,192,142277,1,0,0:0:0:0:
64,192,142324,1,0,0:0:0:0:
192,192,142324,1,0,0:0:0:0:
320,192,142372,1,0,0:0:0:0:
192,192,142420,1,0,0:0:0:0:
448,192,142420,1,0,0:0:0:0:
64,192,142467,1,0,0:0:0:0:
320,192,142515,1,0,0:0:0:0:
192,192,142562,1,0,0:0:0:0:
448,192,142610,1,0,0:0:0:0:
320,192,142657,1,0,0:0:0:0:
64,192,142705,1,0,0:0:0:0:
192,192,142705,1,0,0:0:0:0:
448,192,142753,1,0,0:0:0:0:
192,192,142800,1,0,0:0:0:0:
320,192,142848,1,0,0:0:0:0:
64,192,142896,1,0,0:0:0:0:
448,192,142896,1,0,0:0:0:0:
192,192,142943,1,0,0:0:0:0:
320,192,142991,1,0,0:0:0:0:
448,192,143039,1,0,0:0:0:0:
192,192,143086,1,0,0:0:0:0:
320,192,143086,1,0,0:0:0:0:
64,192,143134,1,0,0:0:0:0:
320,192,143182,1,0,0:0:0:0:
448,192,143182,1,0,0:0:0:0:
192,192,143229,1,0,0:0:0:0:
320,192,143277,1,0,0:0:0:0:
64,192,143325,1,0,0:0:0:0:
192,192,143372,1,0,0:0:0:0:
320,192,143420,1,0,0:0:0:0:
64,192,143467,1,0,0:0:0:0:
448,192,143467,1,0,0:0:0:0:
320,192,143515,1,0,0:0:0:0:
192,192,143562,1,0,0:0:0:0:
64,192,143610,1,0,0:0:0:0:
448,192,143657,1,0,0:0:0:0:
192,192,143705,1,0,0:0:0:0:
320,192,143753,1,0,0:0:0:0:
64,192,143800,1,0,0:0:0:0:
192,192,143848,1,0,0:0:0:0:
320,192,143896,1,0,0:0:0:0:
64,192,143943,1,0,0:0:0:0:
448,192,143943,1,0,0:0:0:0:
192,192,143991,1,0,0:0:0:0:
320,192,144039,1,0,0:0:0:0:
192,192,144086,1,0,0:0:0:0:
64,192,144134,1,0,0:0:0:0:
448,192,144182,1,0,0:0:0:0:
192,192,144229,1,0,0:0:0:0:
320,192,144229,1,0,0:0:0:0:
64,192,144277,1,0,0:0:0:0:
192,192,144325,1,0,0:0:0:0:
320,192,144372,1,0,0:0:0:0:
64,192,144420,1,0,0:0:0:0:
448,192,144420,1,0,0:0:0:0:
192,192,144467,1,0,0:0:0:0:
320,192,144515,1,0,0:0:0:0:
448,192,144562,1,0,0:0:0:0:
192,192,144610,1,0,0:0:0:0:
320,192,144610,1,0,0:0:0:0:
64,192,144657,1,0,0:0:0:0:
320,192,144705,1,0,0:0:0:0:
448,192,144705,1,0,0:0:0:0:
192,192,144753,1,0,0:0:0:0:
320,192,144800,1,0,0:0:0:0:
64,192,144848,1,0,0:0:0:0:
192,192,144896,1,0,0:0:0:0:
320,192,144943,1,0,0:0:0:0:
448,192,144991,1,0,0:0:0:0:
320,192,145039,1,0,0:0:0:0:
192,192,145086,1,0,0:0:0:0:
64,192,145134,1,0,0:0:0:0:
448,192,145182,1,0,0:0:0:0:
192,192,145229,1,0,0:0:0:0:
448,192,145277,1,0,0:0:0:0:
320,192,145325,1,0,0:0:0:0:
192,192,145372,1,0,0:0:0:0:
64,192,145420,1,0,0:0:0:0:
320,192,145467,1,0,0:0:0:0:
448,192,145467,1,0,0:0:0:0:
192,192,145515,1,0,0:0:0:0:
320,192,145562,1,0,0:0:0:0:
192,192,145610,1,0,0:0:0:0:
448,192,145658,1,0,0:0:0:0:
64,192,145705,1,0,0:0:0:0:
192,192,145753,1,0,0:0:0:0:
320,192,145753,1,0,0:0:0:0:
448,192,145801,1,0,0:0:0:0:
64,192,145848,1,0,0:0:0:0:
192,192,145896,1,0,0:0:0:0:
320,192,145944,1,0,0:0:0:0:
448,192,145944,1,0,0:0:0:0:
192,192,145991,1,0,0:0:0:0:
64,192,146039,1,0,0:0:0:0:
448,192,146087,1,0,0:0:0:0:
192,192,146134,1,0,0:0:0:0:
320,192,146134,1,0,0:0:0:0:
448,192,146182,1,0,0:0:0:0:
64,192,146230,1,0,0:0:0:0:
192,192,146230,1,0,0:0:0:0:
320,192,146277,1,0,0:0:0:0:
192,192,146325,1,0,0:0:0:0:
320,192,146372,1,0,0:0:0:0:
448,192,146420,1,0,0:0:0:0:
64,192,146467,1,0,0:0:0:0:
192,192,146515,1,0,0:0:0:0:
320,192,146562,1,0,0:0:0:0:
192,192,146610,1,0,0:0:0:0:
64,192,146658,1,0,0:0:0:0:
448,192,146705,1,0,0:0:0:0:
320,192,146753,1,0,0:0:0:0:
192,192,146801,1,0,0:0:0:0:
64,192,146848,1,0,0:0:0:0:
448,192,146896,1,0,0:0:0:0:
192,192,146944,1,0,0:0:0:0:
320,192,146991,1,0,0:0:0:0:
64,192,147039,1,0,0:0:0:0:
192,192,147087,1,0,0:0:0:0:
320,192,147134,1,0,0:0:0:0:
448,192,147182,1,0,0:0:0:0:
192,192,147230,1,0,0:0:0:0:
320,192,147277,1,0,0:0:0:0:
64,192,147325,1,0,0:0:0:0:
192,192,147372,1,0,0:0:0:0:
320,192,147420,1,0,0:0:0:0:
448,192,147467,1,0,0:0:0:0:
320,192,147515,1,0,0:0:0:0:
192,192,147562,1,0,0:0:0:0:
64,192,147610,1,0,0:0:0:0:
448,192,147658,1,0,0:0:0:0:
320,192,147705,1,0,0:0:0:0:
192,192,147753,1,0,0:0:0:0:
64,192,147801,1,0,0:0:0:0:
448,192,147848,1,0,0:0:0:0:
320,192,147896,1,0,0:0:0:0:
192,192,147944,1,0,0:0:0:0:
320,192,147991,1,0,0:0:0:0:
448,192,148039,1,0,0:0:0:0:
64,192,148087,1,0,0:0:0:0:
192,192,148134,1,0,0:0:0:0:
320,192,148182,1,0,0:0:0:0:
64,192,148230,1,0,0:0:0:0:
448,192,148230,1,0,0:0:0:0:
192,192,148277,1,0,0:0:0:0:
320,192,148325,1,0,0:0:0:0:
448,192,148325,1,0,0:0:0:0:
192,192,148372,1,0,0:0:0:0:
64,192,148420,1,0,0:0:0:0:
320,192,148420,1,0,0:0:0:0:
448,192,148467,1,0,0:0:0:0:
64,192,148515,1,0,0:0:0:0:
192,192,148515,1,0,0:0:0:0:
320,192,148563,1,0,0:0:0:0:
192,192,148610,1,0,0:0:0:0:
448,192,148658,1,0,0:0:0:0:
320,192,148706,1,0,0:0:0:0:
192,192,148753,1,0,0:0:0:0:
64,192,148801,1,0,0:0:0:0:
448,192,148801,1,0,0:0:0:0:
320,192,148849,1,0,0:0:0:0:
192,192,148896,1,0,0:0:0:0:
64,192,148944,1,0,0:0:0:0:
320,192,148992,1,0,0:0:0:0:
448,192,148992,1,0,0:0:0:0:
192,192,149039,1,0,0:0:0:0:
448,192,149087,1,0,0:0:0:0:
64,192,149135,1,0,0:0:0:0:
192,192,149182,1,0,0:0:0:0:
320,192,149182,1,0,0:0:0:0:
448,192,149230,1,0,0:0:0:0:
64,192,149277,1,0,0:0:0:0:
192,192,149277,1,0,0:0:0:0:
320,192,149325,1,0,0:0:0:0:
192,192,149372,1,0,0:0:0:0:
448,192,149420,1,0,0:0:0:0:
320,192,149467,1,0,0:0:0:0:
192,192,149515,1,0,0:0:0:0:
64,192,149563,1,0,0:0:0:0:
448,192,149610,1,0,0:0:0:0:
192,192,149658,1,0,0:0:0:0:
320,192,149706,1,0,0:0:0:0:
64,192,149753,1,0,0:0:0:0:
192,192,149801,1,0,0:0:0:0:
320,192,149849,1,0,0:0:0:0:
448,192,149896,1,0,0:0:0:0:
192,192,149944,1,0,0:0:0:0:
320,192,149992,1,0,0:0:0:0:
64,192,150039,1,0,0:0:0:0:
448,192,150039,1,0,0:0:0:0:
192,192,150087,1,0,0:0:0:0:
320,192,150135,1,0,0:0:0:0:
192,192,150182,1,0,0:0:0:0:
64,192,150230,1,0,0:0:0:0:
448,192,150277,1,0,0:0:0:0:
192,192,150325,1,0,0:0:0:0:
320,192,150325,1,0,0:0:0:0:
64,192,150372,1,0,0:0:0:0:
448,192,150420,1,0,0:0:0:0:
192,192,150467,1,0,0:0:0:0:
320,192,150515,1,0,0:0:0:0:
448,192,150515,1,0,0:0:0:0:
192,192,150563,1,0,0:0:0:0:
64,192,150610,1,0,0:0:0:0:
320,192,150610,1,0,0:0:0:0:
448,192,150658,1,0,0:0:0:0:
64,192,150706,1,0,0:0:0:0:
192,192,150753,1,0,0:0:0:0:
320,192,150801,1,0,0:0:0:0:
448,192,150801,1,0,0:0:0:0:
64,192,150849,1,0,0:0:0:0:
192,192,150896,1,0,0:0:0:0:
320,192,150944,1,0,0:0:0:0:
448,192,150992,1,0,0:0:0:0:
320,192,151039,1,0,0:0:0:0:
192,192,151087,1,0,0:0:0:0:
64,192,151135,1,0,0:0:0:0:
448,192,151182,1,0,0:0:0:0:
192,192,151230,1,0,0:0:0:0:
320,192,151277,1,0,0:0:0:0:
448,192,151277,1,0,0:0:0:0:
64,192,151325,1,0,0:0:0:0:
192,192,151372,1,0,0:0:0:0:
320,192,151372,1,0,0:0:0:0:
448,192,151420,1,0,0:0:0:0:
64,192,151467,1,0,0:0:0:0:
192,192,151467,1,0,0:0:0:0:
320,192,151515,1,0,0:0:0:0:
64,192,151563,1,0,0:0:0:0:
448,192,151563,1,0,0:0:0:0:
320,192,151611,1,0,0:0:0:0:
192,192,151658,1,0,0:0:0:0:
64,192,151706,1,0,0:0:0:0:
320,192,151754,1,0,0:0:0:0:
448,192,151754,1,0,0:0:0:0:
192,192,151801,1,0,0:0:0:0:
64,192,151849,1,0,0:0:0:0:
320,192,151849,1,0,0:0:0:0:
448,192,151897,1,0,0:0:0:0:
192,192,151944,1,0,0:0:0:0:
320,192,151992,1,0,0:0:0:0:
64,192,152040,1,0,0:0:0:0:
448,192,152040,1,0,0:0:0:0:
192,192,152087,1,0,0:0:0:0:
320,192,152135,1,0,0:0:0:0:
192,192,152182,1,0,0:0:0:0:
64,192,152230,1,0,0:0:0:0:
320,192,152230,1,0,0:0:0:0:
448,192,152277,1,0,0:0:0:0:
64,192,152325,1,0,0:0:0:0:
192,192,152325,1,0,0:0:0:0:
320,192,152372,1,0,0:0:0:0:
448,192,152420,1,0,0:0:0:0:
320,192,152468,1,0,0:0:0:0:
192,192,152515,1,0,0:0:0:0:
64,192,152563,1,0,0:0:0:0:
448,192,152611,1,0,0:0:0:0:
320,192,152658,1,0,0:0:0:0:
192,192,152706,1,0,0:0:0:0:
320,192,152754,1,0,0:0:0:0:
192,192,152801,1,0,0:0:0:0:
64,192,152849,1,0,0:0:0:0:
448,192,152897,1,0,0:0:0:0:
192,192,152944,1,0,0:0:0:0:
320,192,152992,1,0,0:0:0:0:
64,192,153040,1,0,0:0:0:0:
192,192,153087,1,0,0:0:0:0:
320,192,153087,1,0,0:0:0:0:
448,192,153135,1,0,0:0:0:0:
64,192,153182,1,0,0:0:0:0:
192,192,153230,1,0,0:0:0:0:
320,192,153277,1,0,0:0:0:0:
448,192,153325,1,0,0:0:0:0:
192,192,153372,1,0,0:0:0:0:
320,192,153372,1,0,0:0:0:0:
64,192,153420,1,0,0:0:0:0:
448,192,153468,1,0,0:0:0:0:
192,192,153515,1,0,0:0:0:0:
320,192,153563,1,0,0:0:0:0:
448,192,153563,1,0,0:0:0:0:
64,192,153611,1,0,0:0:0:0:
192,192,153658,1,0,0:0:0:0:
320,192,153658,1,0,0:0:0:0:
448,192,153706,1,0,0:0:0:0:
320,192,153754,1,0,0:0:0:0:
192,192,153801,1,0,0:0:0:0:
64,192,153849,1,0,0:0:0:0:
448,192,153849,1,0,0:0:0:0:
192,192,153897,1,0,0:0:0:0:
320,192,153944,1,0,0:0:0:0:
448,192,153992,1,0,0:0:0:0:
192,192,154040,1,0,0:0:0:0:
448,192,154087,1,0,0:0:0:0:
320,192,154135,1,0,0:0:0:0:
192,192,154182,1,0,0:0:0:0:
64,192,154230,1,0,0:0:0:0:
192,192,154277,1,0,0:0:0:0:
320,192,154325,1,0,0:0:0:0:
448,192,154325,1,0,0:0:0:0:
64,192,154372,1,0,0:0:0:0:
192,192,154420,1,0,0:0:0:0:
320,192,154420,1,0,0:0:0:0:
448,192,154468,1,0,0:0:0:0:
64,192,154515,1,0,0:0:0:0:
192,192,154515,1,0,0:0:0:0:
320,192,154563,1,0,0:0:0:0:
64,192,154611,1,0,0:0:0:0:
448,192,154611,1,0,0:0:0:0:
320,192,154659,1,0,0:0:0:0:
192,192,154706,1,0,0:0:0:0:
64,192,154754,1,0,0:0:0:0:
448,192,154802,1,0,0:0:0:0:
192,192,154849,1,0,0:0:0:0:
320,192,154897,1,0,0:0:0:0:
448,192,154897,1,0,0:0:0:0:
64,192,154945,1,0,0:0:0:0:
192,192,154992,1,0,0:0:0:0:
320,192,155040,1,0,0:0:0:0:
64,192,155087,1,0,0:0:0:0:
448,192,155087,1,0,0:0:0:0:
192,192,155135,1,0,0:0:0:0:
320,192,155182,1,0,0:0:0:0:
192,192,155230,1,0,0:0:0:0:
320,192,155277,1,0,0:0:0:0:
448,192,155277,1,0,0:0:0:0:
64,192,155325,1,0,0:0:0:0:
192,192,155373,1,0,0:0:0:0:
320,192,155373,1,0,0:0:0:0:
64,192,155420,1,0,0:0:0:0:
448,192,155468,1,0,0:0:0:0:
320,192,155516,1,0,0:0:0:0:
192,192,155563,1,0,0:0:0:0:
64,192,155611,1,0,0:0:0:0:
320,192,155659,1,0,0:0:0:0:
448,192,155659,1,0,0:0:0:0:
192,192,155706,1,0,0:0:0:0:
448,192,155754,1,0,0:0:0:0:
64,192,155802,1,0,0:0:0:0:
192,192,155849,1,0,0:0:0:0:
320,192,155897,1,0,0:0:0:0:
448,192,155945,1,0,0:0:0:0:
192,192,155992,1,0,0:0:0:0:
320,192,156040,1,0,0:0:0:0:
64,192,156087,1,0,0:0:0:0:
192,192,156135,1,0,0:0:0:0:
320,192,156135,1,0,0:0:0:0:
448,192,156182,1,0,0:0:0:0:
320,192,156230,1,0,0:0:0:0:
192,192,156277,1,0,0:0:0:0:
64,192,156325,1,0,0:0:0:0:
448,192,156373,1,0,0:0:0:0:
192,192,156420,1,0,0:0:0:0:
320,192,156420,1,0,0:0:0:0:
64,192,156468,1,0,0:0:0:0:
192,192,156516,1,0,0:0:0:0:
320,192,156563,1,0,0:0:0:0:
64,192,156611,1,0,0:0:0:0:
448,192,156611,1,0,0:0:0:0:
192,192,156659,1,0,0:0:0:0:
320,192,156706,1,0,0:0:0:0:
448,192,156754,1,0,0:0:0:0:
192,192,156802,1,0,0:0:0:0:
320,192,156802,1,0,0:0:0:0:
64,192,156849,1,0,0:0:0:0:
320,192,156897,1,0,0:0:0:0:
448,192,156897,1,0,0:0:0:0:
192,192,156945,1,0,0:0:0:0:
320,192,156992,1,0,0:0:0:0:
64,192,157040,1,0,0:0:0:0:
192,192,157087,1,0,0:0:0:0:
320,192,157135,1,0,0:0:0:0:
448,192,157182,1,0,0:0:0:0:
320,192,157230,1,0,0:0:0:0:
192,192,157277,1,0,0:0:0:0:
64,192,157325,1,0,0:0:0:0:
448,192,157373,1,0,0:0:0:0:
192,192,157420,1,0,0:0:0:0:
320,192,157468,1,0,0:0:0:0:
64,192,157516,1,0,0:0:0:0:
192,192,157563,1,0,0:0:0:0:
320,192,157611,1,0,0:0:0:0:
64,192,157659,1,0,0:0:0:0:
448,192,157659,1,0,0:0:0:0:
192,192,157707,1,0,0:0:0:0:
320,192,157754,1,0,0:0:0:0:
448,192,157802,1,0,0:0:0:0:
192,192,157850,1,0,0:0:0:0:
320,192,157897,1,0,0:0:0:0:
64,192,157945,1,0,0:0:0:0:
448,192,157945,1,0,0:0:0:0:
320,192,157992,1,0,0:0:0:0:
192,192,158040,1,0,0:0:0:0:
64,192,158087,1,0,0:0:0:0:
320,192,158135,1,0,0:0:0:0:
448,192,158135,1,0,0:0:0:0:
192,192,158182,1,0,0:0:0:0:
64,192,158230,1,0,0:0:0:0:
448,192,158230,1,0,0:0:0:0:
192,192,158278,1,0,0:0:0:0:
320,192,158325,1,0,0:0:0:0:
448,192,158373,1,0,0:0:0:0:
64,192,158421,1,0,0:0:0:0:
192,192,158421,1,0,0:0:0:0:
320,192,158468,1,0,0:0:0:0:
64,192,158516,1,0,0:0:0:0:
448,192,158516,1,0,0:0:0:0:
320,192,158564,1,0,0:0:0:0:
192,192,158611,1,0,0:0:0:0:
64,192,158659,1,0,0:0:0:0:
448,192,158707,1,0,0:0:0:0:
320,192,158754,1,0,0:0:0:0:
192,192,158802,1,0,0:0:0:0:
320,192,158850,1,0,0:0:0:0:
64,192,158897,1,0,0:0:0:0:
192,192,158897,1,0,0:0:0:0:
320,192,158992,1,0,0:0:0:0:
64,192,159087,1,0,0:0:0:0:
192,192,159182,1,0,0:0:0:0:
320,192,159182,1,0,0:0:0:0:
64,192,159468,1,0,0:0:0:0:
448,192,159468,1,0,0:0:0:0:
192,192,159516,1,0,0:0:0:0:
320,192,159564,1,0,0:0:0:0:
448,192,159611,1,0,0:0:0:0:
64,192,159659,1,0,0:0:0:0:
192,192,159659,1,0,0:0:0:0:
320,192,159754,1,0,0:0:0:0:
448,192,159850,1,0,0:0:0:0:
64,192,159945,1,0,0:0:0:0:
192,192,159945,1,0,0:0:0:0:
320,192,160135,1,0,0:0:0:0:
64,192,160230,1,0,0:0:0:0:
192,192,160230,1,0,0:0:0:0:
448,192,160278,1,0,0:0:0:0:
320,192,160325,1,0,0:0:0:0:
192,192,160373,1,0,0:0:0:0:
64,192,160421,1,0,0:0:0:0:
448,192,160421,1,0,0:0:0:0:
192,192,160468,1,0,0:0:0:0:
320,192,160516,1,0,0:0:0:0:
448,192,160564,1,0,0:0:0:0:
64,192,160611,1,0,0:0:0:0:
192,192,160659,1,0,0:0:0:0:
320,192,160707,1,0,0:0:0:0:
448,0,160707,128,0,160992:1:0:0:0:
64,192,160992,1,0,0:0:0:0:
192,192,160992,1,0,0:0:0:0:
320,192,161040,1,0,0:0:0:0:
448,192,161087,1,0,0:0:0:0:
192,192,161135,1,0,0:0:0:0:
64,192,161183,1,0,0:0:0:0:
448,192,161183,1,0,0:0:0:0:
192,192,161278,1,0,0:0:0:0:
64,192,161373,1,0,0:0:0:0:
320,192,161373,1,0,0:0:0:0:
448,192,161469,1,0,0:0:0:0:
192,0,161469,128,0,161755:1:0:0:0:
320,192,161755,1,0,0:0:0:0:
448,192,161755,1,0,0:0:0:0:
192,192,161802,1,0,0:0:0:0:
64,192,161850,1,0,0:0:0:0:
448,192,161897,1,0,0:0:0:0:
192,192,161945,1,0,0:0:0:0:
320,192,161945,1,0,0:0:0:0:
448,192,161992,1,0,0:0:0:0:
64,192,162040,1,0,0:0:0:0:
192,192,162087,1,0,0:0:0:0:
320,192,162135,1,0,0:0:0:0:
448,192,162183,1,0,0:0:0:0:
64,192,162230,1,0,0:0:0:0:
192,192,162230,1,0,0:0:0:0:
448,192,162421,1,0,0:0:0:0:
192,192,162516,1,0,0:0:0:0:
320,192,162564,1,0,0:0:0:0:
64,192,162612,1,0,0:0:0:0:
192,192,162659,1,0,0:0:0:0:
320,192,162707,1,0,0:0:0:0:
448,192,162707,1,0,0:0:0:0:
192,192,162802,1,0,0:0:0:0:
64,192,162897,1,0,0:0:0:0:
320,192,162992,1,0,0:0:0:0:
448,192,162992,1,0,0:0:0:0:
64,192,163183,1,0,0:0:0:0:
320,192,163278,1,0,0:0:0:0:
192,192,163326,1,0,0:0:0:0:
448,192,163373,1,0,0:0:0:0:
64,192,163421,1,0,0:0:0:0:
192,192,163469,1,0,0:0:0:0:
320,192,163469,1,0,0:0:0:0:
448,192,163516,1,0,0:0:0:0:
320,192,163564,1,0,0:0:0:0:
192,192,163612,1,0,0:0:0:0:
64,192,163659,1,0,0:0:0:0:
448,192,163707,1,0,0:0:0:0:
320,192,163755,1,0,0:0:0:0:
192,0,163755,128,0,164040:1:0:0:0:
320,192,163945,1,0,0:0:0:0:
64,192,164040,1,0,0:0:0:0:
448,192,164040,1,0,0:0:0:0:
192,192,164088,1,0,0:0:0:0:
320,192,164135,1,0,0:0:0:0:
448,192,164183,1,0,0:0:0:0:
64,192,164231,1,0,0:0:0:0:
192,192,164231,1,0,0:0:0:0:
320,192,164326,1,0,0:0:0:0:
192,192,164421,1,0,0:0:0:0:
448,192,164421,1,0,0:0:0:0:
64,0,164517,128,0,167231:1:0:0:0:
320,0,164517,128,0,167231:1:0:0:0:
