osu file format v14

[General]
AudioFilename: Noise Channel Radio - Noisechan & Nugget- Adventures in Chiptunes - 01 Noise Channel Theme (Full Mix)_1,1.mp3
AudioLeadIn: 2
PreviewTime: 86568
Countdown: 0
SampleSet: None
StackLeniency: 0.7
Mode: 3
LetterboxInBreaks: 0
SpecialStyle: 0
WidescreenStoryboard: 0

[Editor]
DistanceSpacing: 0.8
BeatDivisor: 4
GridSize: 8
TimelineZoom: 1

[Metadata]
Title:Send My Love to Mars
TitleUnicode:Send My Love to Mars
Artist:Virt
ArtistUnicode:Virt
Creator:Sonny737
Version:Hard x1,1
Source:Nuclear Blast JS Awesome Bomb Filez 5
Tags:Stepmania nb5
BeatmapID:1487442
BeatmapSetID:702404

[Difficulty]
HPDrainRate:7
CircleSize:4
OverallDifficulty:8
ApproachRate:10
SliderMultiplier:1.4
SliderTickRate:1

[Events]
//Background and Video events
0,0,"mars_bg.png",0,0
//Break Periods
//Storyboard Layer 0 (Background)
//Storyboard Layer 1 (Fail)
//Storyboard Layer 2 (Pass)
//Storyboard Layer 3 (Foreground)
//Storyboard Sound Samples

[TimingPoints]
1017,266.666666666667,4,4,0,100,1,0

[HitObjects]
448,192,1017,5,0,0:0:0:0:
192,192,1260,1,0,0:0:0:0:
320,192,1380,1,0,0:0:0:0:
64,192,1623,1,0,0:0:0:0:
192,192,1744,1,0,0:0:0:0:
320,192,1865,1,0,0:0:0:0:
448,192,1987,1,0,0:0:0:0:
64,0,1987,128,0,2350:1:0:0:0:
192,0,2350,128,0,2714:1:0:0:0:
448,192,2714,1,0,0:0:0:0:
320,0,2714,128,0,3078:1:0:0:0:
448,0,3078,128,0,3441:1:0:0:0:
192,0,3441,128,0,3683:1:0:0:0:
64,0,3683,128,0,3926:1:0:0:0:
448,192,3926,1,0,0:0:0:0:
320,0,3926,128,0,4290:1:0:0:0:
64,192,4290,1,0,0:0:0:0:
192,0,4290,128,0,4653:1:0:0:0:
64,192,4653,1,0,0:0:0:0:
320,0,4653,128,0,5017:1:0:0:0:
64,192,5017,1,0,0:0:0:0:
448,0,5017,128,0,5380:1:0:0:0:
64,192,5623,1,0,0:0:0:0:
192,192,5683,1,0,0:0:0:0:
320,192,5744,1,0,0:0:0:0:
448,192,5805,1,0,0:0:0:0:
320,0,6108,128,0,6350:1:0:0:0:
192,0,6350,128,0,6592:1:0:0:0:
64,0,6592,128,0,6835:1:0:0:0:
448,192,6835,1,0,0:0:0:0:
320,192,6956,1,0,0:0:0:0:
448,192,7078,1,0,0:0:0:0:
64,192,7199,1,0,0:0:0:0:
192,192,7319,1,0,0:0:0:0:
64,192,7481,1,0,0:0:0:0:
320,192,7562,1,0,0:0:0:0:
448,192,7562,1,0,0:0:0:0:
192,192,7683,1,0,0:0:0:0:
320,192,7744,1,0,0:0:0:0:
64,192,7805,1,0,0:0:0:0:
448,192,7805,1,0,0:0:0:0:
192,192,7865,1,0,0:0:0:0:
320,192,7926,1,0,0:0:0:0:
192,192,7987,1,0,0:0:0:0:
64,192,8047,1,0,0:0:0:0:
320,192,8108,1,0,0:0:0:0:
192,192,8169,1,0,0:0:0:0:
64,192,8290,1,0,0:0:0:0:
448,192,8290,1,0,0:0:0:0:
320,192,8350,1,0,0:0:0:0:
192,192,8410,1,0,0:0:0:0:
448,192,8410,1,0,0:0:0:0:
64,192,8471,1,0,0:0:0:0:
320,192,8532,1,0,0:0:0:0:
64,192,8653,1,0,0:0:0:0:
448,192,8653,1,0,0:0:0:0:
192,192,8714,1,0,0:0:0:0:
320,192,8774,1,0,0:0:0:0:
64,192,8835,1,0,0:0:0:0:
192,192,8896,1,0,0:0:0:0:
320,192,8956,1,0,0:0:0:0:
448,192,9017,1,0,0:0:0:0:
192,192,9078,1,0,0:0:0:0:
320,192,9138,1,0,0:0:0:0:
192,192,9199,1,0,0:0:0:0:
64,192,9260,1,0,0:0:0:0:
448,192,9320,1,0,0:0:0:0:
320,192,9380,1,0,0:0:0:0:
64,192,9441,1,0,0:0:0:0:
192,192,9501,1,0,0:0:0:0:
64,192,9744,1,0,0:0:0:0:
320,192,9744,1,0,0:0:0:0:
192,192,9805,1,0,0:0:0:0:
448,192,9865,1,0,0:0:0:0:
192,192,9926,1,0,0:0:0:0:
320,192,9987,1,0,0:0:0:0:
64,192,10047,1,0,0:0:0:0:
448,192,10108,1,0,0:0:0:0:
320,192,10169,1,0,0:0:0:0:
64,192,10229,1,0,0:0:0:0:
192,192,10229,1,0,0:0:0:0:
64,192,10350,1,0,0:0:0:0:
320,192,10350,1,0,0:0:0:0:
448,192,10410,1,0,0:0:0:0:
192,192,10471,1,0,0:0:0:0:
320,192,10592,1,0,0:0:0:0:
448,192,10592,1,0,0:0:0:0:
192,192,10653,1,0,0:0:0:0:
448,192,10714,1,0,0:0:0:0:
64,192,10835,1,0,0:0:0:0:
192,192,10835,1,0,0:0:0:0:
448,192,10896,1,0,0:0:0:0:
320,192,10956,1,0,0:0:0:0:
320,192,11078,1,0,0:0:0:0:
448,192,11078,1,0,0:0:0:0:
192,192,11138,1,0,0:0:0:0:
64,192,11199,1,0,0:0:0:0:
192,192,11260,1,0,0:0:0:0:
320,192,11319,1,0,0:0:0:0:
64,192,11441,1,0,0:0:0:0:
192,192,11441,1,0,0:0:0:0:
320,192,11501,1,0,0:0:0:0:
192,192,11562,1,0,0:0:0:0:
320,192,11683,1,0,0:0:0:0:
448,192,11683,1,0,0:0:0:0:
64,192,11744,1,0,0:0:0:0:
192,192,11805,1,0,0:0:0:0:
320,192,11865,1,0,0:0:0:0:
448,192,11926,1,0,0:0:0:0:
320,192,11987,1,0,0:0:0:0:
192,192,12047,1,0,0:0:0:0:
64,192,12108,1,0,0:0:0:0:
320,192,12169,1,0,0:0:0:0:
448,192,12169,1,0,0:0:0:0:
64,192,12229,1,0,0:0:0:0:
192,192,12289,1,0,0:0:0:0:
320,192,12289,1,0,0:0:0:0:
448,192,12350,1,0,0:0:0:0:
192,192,12410,1,0,0:0:0:0:
64,192,12532,1,0,0:0:0:0:
320,192,12532,1,0,0:0:0:0:
448,192,12592,1,0,0:0:0:0:
64,192,12653,1,0,0:0:0:0:
192,192,12714,1,0,0:0:0:0:
320,192,12774,1,0,0:0:0:0:
448,192,12835,1,0,0:0:0:0:
320,192,12896,1,0,0:0:0:0:
192,192,12956,1,0,0:0:0:0:
64,192,13017,1,0,0:0:0:0:
320,192,13078,1,0,0:0:0:0:
192,192,13138,1,0,0:0:0:0:
448,192,13199,1,0,0:0:0:0:
320,192,13259,1,0,0:0:0:0:
192,192,13319,1,0,0:0:0:0:
64,192,13380,1,0,0:0:0:0:
192,192,13623,1,0,0:0:0:0:
320,192,13623,1,0,0:0:0:0:
64,192,13683,1,0,0:0:0:0:
192,192,13744,1,0,0:0:0:0:
320,192,13805,1,0,0:0:0:0:
448,192,13865,1,0,0:0:0:0:
320,192,13926,1,0,0:0:0:0:
192,192,13987,1,0,0:0:0:0:
64,192,14047,1,0,0:0:0:0:
320,192,14108,1,0,0:0:0:0:
448,192,14108,1,0,0:0:0:0:
192,192,14229,1,0,0:0:0:0:
320,192,14229,1,0,0:0:0:0:
64,192,14350,1,0,0:0:0:0:
320,192,14471,1,0,0:0:0:0:
448,192,14471,1,0,0:0:0:0:
192,192,14532,1,0,0:0:0:0:
64,192,14593,1,0,0:0:0:0:
448,192,14653,1,0,0:0:0:0:
320,192,14714,1,0,0:0:0:0:
192,192,14775,1,0,0:0:0:0:
320,192,14835,1,0,0:0:0:0:
192,192,14896,1,0,0:0:0:0:
64,192,14957,1,0,0:0:0:0:
448,192,15017,1,0,0:0:0:0:
192,192,15078,1,0,0:0:0:0:
448,192,15139,1,0,0:0:0:0:
64,192,15199,1,0,0:0:0:0:
320,192,15199,1,0,0:0:0:0:
320,192,15319,1,0,0:0:0:0:
448,192,15319,1,0,0:0:0:0:
64,192,15441,1,0,0:0:0:0:
192,192,15441,1,0,0:0:0:0:
320,192,15501,1,0,0:0:0:0:
64,192,15562,1,0,0:0:0:0:
448,192,15562,1,0,0:0:0:0:
192,192,15683,1,0,0:0:0:0:
320,192,15805,1,0,0:0:0:0:
320,192,15926,1,0,0:0:0:0:
64,192,16047,1,0,0:0:0:0:
192,192,16169,1,0,0:0:0:0:
320,192,16289,1,0,0:0:0:0:
192,192,16410,1,0,0:0:0:0:
448,192,16410,1,0,0:0:0:0:
320,192,16471,1,0,0:0:0:0:
192,192,16532,1,0,0:0:0:0:
64,192,16653,1,0,0:0:0:0:
448,192,16653,1,0,0:0:0:0:
192,192,16774,1,0,0:0:0:0:
320,192,16774,1,0,0:0:0:0:
64,192,16896,1,0,0:0:0:0:
448,192,16896,1,0,0:0:0:0:
320,192,17017,1,0,0:0:0:0:
192,192,17138,1,0,0:0:0:0:
320,192,17138,1,0,0:0:0:0:
64,192,17260,1,0,0:0:0:0:
320,192,17380,1,0,0:0:0:0:
448,192,17380,1,0,0:0:0:0:
192,192,17441,1,0,0:0:0:0:
64,192,17501,1,0,0:0:0:0:
448,192,17562,1,0,0:0:0:0:
320,192,17623,1,0,0:0:0:0:
192,192,17683,1,0,0:0:0:0:
64,192,17744,1,0,0:0:0:0:
192,192,17805,1,0,0:0:0:0:
320,192,17865,1,0,0:0:0:0:
448,192,17926,1,0,0:0:0:0:
192,192,17987,1,0,0:0:0:0:
320,192,18047,1,0,0:0:0:0:
64,192,18108,1,0,0:0:0:0:
192,192,18169,1,0,0:0:0:0:
320,192,18229,1,0,0:0:0:0:
64,192,18350,1,0,0:0:0:0:
448,192,18350,1,0,0:0:0:0:
320,192,18410,1,0,0:0:0:0:
192,192,18471,1,0,0:0:0:0:
64,192,18592,1,0,0:0:0:0:
448,192,18592,1,0,0:0:0:0:
192,192,18653,1,0,0:0:0:0:
320,192,18714,1,0,0:0:0:0:
448,192,18714,1,0,0:0:0:0:
192,192,18774,1,0,0:0:0:0:
64,192,18835,1,0,0:0:0:0:
448,192,18835,1,0,0:0:0:0:
320,192,18896,1,0,0:0:0:0:
192,192,18956,1,0,0:0:0:0:
320,192,19078,1,0,0:0:0:0:
448,192,19078,1,0,0:0:0:0:
64,192,19138,1,0,0:0:0:0:
448,192,19199,1,0,0:0:0:0:
64,192,19320,1,0,0:0:0:0:
320,192,19320,1,0,0:0:0:0:
192,192,19380,1,0,0:0:0:0:
320,192,19441,1,0,0:0:0:0:
64,192,19501,1,0,0:0:0:0:
192,192,19562,1,0,0:0:0:0:
320,192,19623,1,0,0:0:0:0:
448,192,19683,1,0,0:0:0:0:
64,192,19744,1,0,0:0:0:0:
192,192,19805,1,0,0:0:0:0:
320,192,19865,1,0,0:0:0:0:
192,192,19926,1,0,0:0:0:0:
64,192,20047,1,0,0:0:0:0:
448,192,20169,1,0,0:0:0:0:
64,192,20290,1,0,0:0:0:0:
320,192,20290,1,0,0:0:0:0:
448,192,20350,1,0,0:0:0:0:
192,192,20410,1,0,0:0:0:0:
64,192,20471,1,0,0:0:0:0:
320,192,20532,1,0,0:0:0:0:
448,192,20532,1,0,0:0:0:0:
192,192,20592,1,0,0:0:0:0:
64,192,20653,1,0,0:0:0:0:
448,192,20653,1,0,0:0:0:0:
320,192,20714,1,0,0:0:0:0:
64,192,20774,1,0,0:0:0:0:
192,192,20774,1,0,0:0:0:0:
448,192,20835,1,0,0:0:0:0:
64,192,20896,1,0,0:0:0:0:
192,192,20956,1,0,0:0:0:0:
320,192,21017,1,0,0:0:0:0:
448,192,21017,1,0,0:0:0:0:
192,192,21078,1,0,0:0:0:0:
64,192,21138,1,0,0:0:0:0:
320,192,21199,1,0,0:0:0:0:
192,192,21260,1,0,0:0:0:0:
448,192,21320,1,0,0:0:0:0:
64,192,21380,1,0,0:0:0:0:
320,192,21380,1,0,0:0:0:0:
192,192,21441,1,0,0:0:0:0:
448,192,21501,1,0,0:0:0:0:
320,192,21562,1,0,0:0:0:0:
192,192,21623,1,0,0:0:0:0:
64,192,21683,1,0,0:0:0:0:
320,192,21744,1,0,0:0:0:0:
448,192,21744,1,0,0:0:0:0:
192,192,21805,1,0,0:0:0:0:
320,192,21865,1,0,0:0:0:0:
64,192,21926,1,0,0:0:0:0:
448,192,21987,1,0,0:0:0:0:
320,192,22047,1,0,0:0:0:0:
192,192,22108,1,0,0:0:0:0:
64,192,22169,1,0,0:0:0:0:
192,192,22229,1,0,0:0:0:0:
320,192,22290,1,0,0:0:0:0:
64,192,22350,1,0,0:0:0:0:
448,192,22350,1,0,0:0:0:0:
192,192,22410,1,0,0:0:0:0:
320,192,22471,1,0,0:0:0:0:
448,192,22532,1,0,0:0:0:0:
192,192,22592,1,0,0:0:0:0:
320,192,22653,1,0,0:0:0:0:
64,192,22714,1,0,0:0:0:0:
192,192,22714,1,0,0:0:0:0:
448,192,22774,1,0,0:0:0:0:
320,192,22835,1,0,0:0:0:0:
192,192,22896,1,0,0:0:0:0:
64,192,22956,1,0,0:0:0:0:
192,192,23017,1,0,0:0:0:0:
320,192,23078,1,0,0:0:0:0:
448,192,23078,1,0,0:0:0:0:
64,192,23138,1,0,0:0:0:0:
192,192,23199,1,0,0:0:0:0:
320,192,23259,1,0,0:0:0:0:
64,192,23319,1,0,0:0:0:0:
448,0,23319,128,0,23683:1:0:0:0:
192,192,23441,1,0,0:0:0:0:
192,192,23562,1,0,0:0:0:0:
192,192,23805,1,0,0:0:0:0:
448,192,23805,1,0,0:0:0:0:
64,192,23926,1,0,0:0:0:0:
320,192,23926,1,0,0:0:0:0:
192,192,24047,1,0,0:0:0:0:
448,192,24169,1,0,0:0:0:0:
320,0,24169,128,0,24532:1:0:0:0:
192,192,24410,1,0,0:0:0:0:
448,192,24532,1,0,0:0:0:0:
64,192,24774,1,0,0:0:0:0:
192,192,24896,1,0,0:0:0:0:
320,192,25017,1,0,0:0:0:0:
448,192,25017,1,0,0:0:0:0:
192,192,25138,1,0,0:0:0:0:
320,192,25259,1,0,0:0:0:0:
64,0,25259,128,0,25501:1:0:0:0:
192,192,25380,1,0,0:0:0:0:
448,192,25501,1,0,0:0:0:0:
64,192,25623,1,0,0:0:0:0:
192,192,25623,1,0,0:0:0:0:
320,192,25744,1,0,0:0:0:0:
448,192,25744,1,0,0:0:0:0:
64,192,25865,1,0,0:0:0:0:
192,192,25865,1,0,0:0:0:0:
320,192,25987,1,0,0:0:0:0:
448,192,26108,1,0,0:0:0:0:
192,0,26108,128,0,26229:1:0:0:0:
64,192,26350,1,0,0:0:0:0:
320,0,26350,128,0,26471:1:0:0:0:
192,192,26471,1,0,0:0:0:0:
320,192,26592,1,0,0:0:0:0:
448,0,26592,128,0,26714:1:0:0:0:
192,192,26714,1,0,0:0:0:0:
448,192,26835,1,0,0:0:0:0:
64,0,26835,128,0,26956:1:0:0:0:
320,192,26956,1,0,0:0:0:0:
192,192,27078,1,0,0:0:0:0:
64,192,27199,1,0,0:0:0:0:
320,192,27199,1,0,0:0:0:0:
192,192,27259,1,0,0:0:0:0:
320,192,27319,1,0,0:0:0:0:
448,192,27380,1,0,0:0:0:0:
64,192,27441,1,0,0:0:0:0:
192,192,27501,1,0,0:0:0:0:
320,192,27562,1,0,0:0:0:0:
448,192,27623,1,0,0:0:0:0:
64,192,27683,1,0,0:0:0:0:
192,192,27683,1,0,0:0:0:0:
320,192,27805,1,0,0:0:0:0:
448,192,27805,1,0,0:0:0:0:
192,192,27926,1,0,0:0:0:0:
320,192,28047,1,0,0:0:0:0:
64,0,28047,128,0,28896:1:0:0:0:
192,192,28289,1,0,0:0:0:0:
448,192,28410,1,0,0:0:0:0:
320,192,28653,1,0,0:0:0:0:
192,192,28774,1,0,0:0:0:0:
448,192,28896,1,0,0:0:0:0:
320,192,29017,1,0,0:0:0:0:
64,192,29138,1,0,0:0:0:0:
448,0,29138,128,0,29380:1:0:0:0:
192,192,29259,1,0,0:0:0:0:
320,192,29380,1,0,0:0:0:0:
64,192,29623,1,0,0:0:0:0:
320,192,29623,1,0,0:0:0:0:
192,192,29744,1,0,0:0:0:0:
448,192,29744,1,0,0:0:0:0:
64,192,29865,1,0,0:0:0:0:
448,192,29987,1,0,0:0:0:0:
320,0,29987,128,0,30350:1:0:0:0:
64,192,30047,1,0,0:0:0:0:
192,192,30108,1,0,0:0:0:0:
64,192,30229,1,0,0:0:0:0:
448,192,30350,1,0,0:0:0:0:
192,192,30471,1,0,0:0:0:0:
448,192,30592,1,0,0:0:0:0:
320,192,30653,1,0,0:0:0:0:
64,192,30714,1,0,0:0:0:0:
192,192,30714,1,0,0:0:0:0:
320,192,30835,1,0,0:0:0:0:
448,192,30835,1,0,0:0:0:0:
64,192,30956,1,0,0:0:0:0:
192,192,30956,1,0,0:0:0:0:
320,192,31017,1,0,0:0:0:0:
64,192,31078,1,0,0:0:0:0:
448,192,31078,1,0,0:0:0:0:
192,192,31138,1,0,0:0:0:0:
320,192,31199,1,0,0:0:0:0:
448,192,31259,1,0,0:0:0:0:
192,192,31319,1,0,0:0:0:0:
320,192,31380,1,0,0:0:0:0:
64,192,31441,1,0,0:0:0:0:
448,192,31501,1,0,0:0:0:0:
64,192,31562,1,0,0:0:0:0:
192,192,31623,1,0,0:0:0:0:
320,192,31683,1,0,0:0:0:0:
448,192,31744,1,0,0:0:0:0:
64,192,31805,1,0,0:0:0:0:
192,192,31805,1,0,0:0:0:0:
320,192,31865,1,0,0:0:0:0:
448,192,31926,1,0,0:0:0:0:
320,192,31987,1,0,0:0:0:0:
64,192,32047,1,0,0:0:0:0:
192,192,32047,1,0,0:0:0:0:
448,192,32108,1,0,0:0:0:0:
320,192,32169,1,0,0:0:0:0:
192,192,32229,1,0,0:0:0:0:
64,192,32289,1,0,0:0:0:0:
192,192,32350,1,0,0:0:0:0:
320,192,32410,1,0,0:0:0:0:
448,192,32410,1,0,0:0:0:0:
192,192,32471,1,0,0:0:0:0:
64,192,32532,1,0,0:0:0:0:
448,192,32592,1,0,0:0:0:0:
320,192,32653,1,0,0:0:0:0:
192,192,32714,1,0,0:0:0:0:
64,192,32774,1,0,0:0:0:0:
448,192,32774,1,0,0:0:0:0:
192,192,32835,1,0,0:0:0:0:
320,192,32896,1,0,0:0:0:0:
448,192,32956,1,0,0:0:0:0:
192,192,33017,1,0,0:0:0:0:
320,192,33017,1,0,0:0:0:0:
64,192,33078,1,0,0:0:0:0:
448,192,33138,1,0,0:0:0:0:
320,192,33199,1,0,0:0:0:0:
192,192,33260,1,0,0:0:0:0:
320,192,33320,1,0,0:0:0:0:
64,192,33380,1,0,0:0:0:0:
192,192,33380,1,0,0:0:0:0:
448,192,33441,1,0,0:0:0:0:
320,192,33502,1,0,0:0:0:0:
192,192,33562,1,0,0:0:0:0:
64,192,33623,1,0,0:0:0:0:
192,192,33684,1,0,0:0:0:0:
320,192,33744,1,0,0:0:0:0:
448,192,33744,1,0,0:0:0:0:
64,192,33805,1,0,0:0:0:0:
192,192,33866,1,0,0:0:0:0:
320,192,33926,1,0,0:0:0:0:
448,192,33987,1,0,0:0:0:0:
320,192,34048,1,0,0:0:0:0:
192,192,34108,1,0,0:0:0:0:
64,192,34169,1,0,0:0:0:0:
448,192,34230,1,0,0:0:0:0:
320,192,34290,1,0,0:0:0:0:
192,192,34350,1,0,0:0:0:0:
64,192,34411,1,0,0:0:0:0:
192,192,34471,1,0,0:0:0:0:
320,192,34532,1,0,0:0:0:0:
448,192,34593,1,0,0:0:0:0:
64,192,34653,1,0,0:0:0:0:
192,192,34714,1,0,0:0:0:0:
320,192,34714,1,0,0:0:0:0:
448,192,34775,1,0,0:0:0:0:
64,192,34835,1,0,0:0:0:0:
192,192,34835,1,0,0:0:0:0:
320,192,34896,1,0,0:0:0:0:
64,192,34957,1,0,0:0:0:0:
448,192,34957,1,0,0:0:0:0:
192,192,35017,1,0,0:0:0:0:
320,192,35078,1,0,0:0:0:0:
448,192,35139,1,0,0:0:0:0:
64,192,35199,1,0,0:0:0:0:
192,192,35260,1,0,0:0:0:0:
320,192,35320,1,0,0:0:0:0:
448,192,35320,1,0,0:0:0:0:
192,192,35380,1,0,0:0:0:0:
64,192,35441,1,0,0:0:0:0:
448,192,35502,1,0,0:0:0:0:
320,192,35562,1,0,0:0:0:0:
192,192,35623,1,0,0:0:0:0:
64,192,35684,1,0,0:0:0:0:
320,192,35744,1,0,0:0:0:0:
192,192,35805,1,0,0:0:0:0:
448,192,35866,1,0,0:0:0:0:
320,192,35926,1,0,0:0:0:0:
192,192,35987,1,0,0:0:0:0:
64,192,36048,1,0,0:0:0:0:
192,192,36108,1,0,0:0:0:0:
320,192,36169,1,0,0:0:0:0:
448,192,36230,1,0,0:0:0:0:
64,192,36290,1,0,0:0:0:0:
320,192,36350,1,0,0:0:0:0:
192,192,36411,1,0,0:0:0:0:
448,192,36471,1,0,0:0:0:0:
64,192,36532,1,0,0:0:0:0:
192,192,36593,1,0,0:0:0:0:
320,192,36653,1,0,0:0:0:0:
448,192,36714,1,0,0:0:0:0:
320,192,36775,1,0,0:0:0:0:
192,192,36835,1,0,0:0:0:0:
64,192,36896,1,0,0:0:0:0:
448,192,36896,1,0,0:0:0:0:
192,192,36957,1,0,0:0:0:0:
320,192,37017,1,0,0:0:0:0:
448,192,37078,1,0,0:0:0:0:
64,192,37139,1,0,0:0:0:0:
192,192,37199,1,0,0:0:0:0:
320,192,37260,1,0,0:0:0:0:
448,192,37320,1,0,0:0:0:0:
64,192,37380,1,0,0:0:0:0:
192,192,37380,1,0,0:0:0:0:
320,192,37441,1,0,0:0:0:0:
64,192,37502,1,0,0:0:0:0:
448,192,37502,1,0,0:0:0:0:
320,192,37562,1,0,0:0:0:0:
64,192,37623,1,0,0:0:0:0:
192,192,37623,1,0,0:0:0:0:
448,192,37684,1,0,0:0:0:0:
192,192,37744,1,0,0:0:0:0:
320,192,37744,1,0,0:0:0:0:
64,192,37805,1,0,0:0:0:0:
448,192,37866,1,0,0:0:0:0:
320,192,37926,1,0,0:0:0:0:
192,192,37987,1,0,0:0:0:0:
64,192,38048,1,0,0:0:0:0:
192,192,38108,1,0,0:0:0:0:
320,192,38108,1,0,0:0:0:0:
448,192,38169,1,0,0:0:0:0:
320,192,38230,1,0,0:0:0:0:
192,192,38290,1,0,0:0:0:0:
64,192,38350,1,0,0:0:0:0:
448,192,38350,1,0,0:0:0:0:
192,192,38411,1,0,0:0:0:0:
320,192,38471,1,0,0:0:0:0:
448,192,38532,1,0,0:0:0:0:
64,192,38593,1,0,0:0:0:0:
192,192,38593,1,0,0:0:0:0:
320,192,38653,1,0,0:0:0:0:
64,192,38714,1,0,0:0:0:0:
448,192,38714,1,0,0:0:0:0:
192,192,38775,1,0,0:0:0:0:
320,192,38835,1,0,0:0:0:0:
448,192,38896,1,0,0:0:0:0:
192,192,38957,1,0,0:0:0:0:
320,192,39017,1,0,0:0:0:0:
64,192,39078,1,0,0:0:0:0:
192,192,39139,1,0,0:0:0:0:
320,192,39199,1,0,0:0:0:0:
448,192,39260,1,0,0:0:0:0:
320,192,39320,1,0,0:0:0:0:
192,192,39380,1,0,0:0:0:0:
64,192,39441,1,0,0:0:0:0:
448,192,39502,1,0,0:0:0:0:
192,192,39562,1,0,0:0:0:0:
448,192,39623,1,0,0:0:0:0:
320,192,39684,1,0,0:0:0:0:
64,0,39684,128,0,40048:1:0:0:0:
192,192,39744,1,0,0:0:0:0:
320,192,39805,1,0,0:0:0:0:
448,192,39926,1,0,0:0:0:0:
192,192,40048,1,0,0:0:0:0:
320,192,40048,1,0,0:0:0:0:
448,192,40108,1,0,0:0:0:0:
64,192,40169,1,0,0:0:0:0:
192,192,40230,1,0,0:0:0:0:
320,192,40290,1,0,0:0:0:0:
448,192,40290,1,0,0:0:0:0:
192,192,40411,1,0,0:0:0:0:
320,192,40411,1,0,0:0:0:0:
448,192,40471,1,0,0:0:0:0:
64,192,40532,1,0,0:0:0:0:
320,192,40653,1,0,0:0:0:0:
448,0,40653,128,0,41017:1:0:0:0:
192,192,40714,1,0,0:0:0:0:
64,192,40775,1,0,0:0:0:0:
192,192,40896,1,0,0:0:0:0:
320,192,41017,1,0,0:0:0:0:
64,192,41078,1,0,0:0:0:0:
192,192,41139,1,0,0:0:0:0:
320,192,41199,1,0,0:0:0:0:
64,192,41260,1,0,0:0:0:0:
448,192,41260,1,0,0:0:0:0:
192,192,41320,1,0,0:0:0:0:
320,192,41380,1,0,0:0:0:0:
448,192,41380,1,0,0:0:0:0:
64,192,41441,1,0,0:0:0:0:
192,192,41502,1,0,0:0:0:0:
320,192,41502,1,0,0:0:0:0:
448,192,41562,1,0,0:0:0:0:
64,192,41623,1,0,0:0:0:0:
192,192,41623,1,0,0:0:0:0:
320,192,41684,1,0,0:0:0:0:
192,192,41744,1,0,0:0:0:0:
64,192,41805,1,0,0:0:0:0:
448,192,41866,1,0,0:0:0:0:
320,192,41926,1,0,0:0:0:0:
64,192,41987,1,0,0:0:0:0:
192,192,41987,1,0,0:0:0:0:
320,192,42048,1,0,0:0:0:0:
448,192,42108,1,0,0:0:0:0:
64,192,42169,1,0,0:0:0:0:
192,192,42230,1,0,0:0:0:0:
320,192,42230,1,0,0:0:0:0:
448,192,42290,1,0,0:0:0:0:
64,192,42350,1,0,0:0:0:0:
192,192,42411,1,0,0:0:0:0:
320,192,42471,1,0,0:0:0:0:
448,192,42471,1,0,0:0:0:0:
192,192,42532,1,0,0:0:0:0:
64,192,42593,1,0,0:0:0:0:
448,192,42593,1,0,0:0:0:0:
320,192,42653,1,0,0:0:0:0:
192,192,42714,1,0,0:0:0:0:
64,192,42775,1,0,0:0:0:0:
448,192,42835,1,0,0:0:0:0:
320,192,42896,1,0,0:0:0:0:
192,192,42957,1,0,0:0:0:0:
64,192,43017,1,0,0:0:0:0:
448,192,43078,1,0,0:0:0:0:
320,192,43139,1,0,0:0:0:0:
192,192,43199,1,0,0:0:0:0:
320,192,43260,1,0,0:0:0:0:
192,192,43320,1,0,0:0:0:0:
64,192,43380,1,0,0:0:0:0:
448,192,43441,1,0,0:0:0:0:
320,192,43502,1,0,0:0:0:0:
192,192,43562,1,0,0:0:0:0:
64,0,43562,128,0,43805:1:0:0:0:
320,192,43623,1,0,0:0:0:0:
448,192,43684,1,0,0:0:0:0:
192,192,43805,1,0,0:0:0:0:
320,192,43926,1,0,0:0:0:0:
448,192,43926,1,0,0:0:0:0:
64,192,43987,1,0,0:0:0:0:
192,192,44048,1,0,0:0:0:0:
320,192,44108,1,0,0:0:0:0:
64,192,44169,1,0,0:0:0:0:
448,192,44169,1,0,0:0:0:0:
320,192,44290,1,0,0:0:0:0:
448,192,44290,1,0,0:0:0:0:
192,192,44350,1,0,0:0:0:0:
64,192,44411,1,0,0:0:0:0:
320,192,44532,1,0,0:0:0:0:
448,0,44532,128,0,44775:1:0:0:0:
192,192,44593,1,0,0:0:0:0:
64,192,44653,1,0,0:0:0:0:
320,192,44714,1,0,0:0:0:0:
192,192,44775,1,0,0:0:0:0:
320,192,44835,1,0,0:0:0:0:
448,192,44896,1,0,0:0:0:0:
64,192,44957,1,0,0:0:0:0:
320,192,45017,1,0,0:0:0:0:
192,192,45078,1,0,0:0:0:0:
64,192,45139,1,0,0:0:0:0:
448,192,45139,1,0,0:0:0:0:
320,192,45199,1,0,0:0:0:0:
64,192,45259,1,0,0:0:0:0:
192,192,45259,1,0,0:0:0:0:
320,192,45320,1,0,0:0:0:0:
64,192,45380,1,0,0:0:0:0:
448,192,45380,1,0,0:0:0:0:
192,192,45441,1,0,0:0:0:0:
320,192,45502,1,0,0:0:0:0:
448,192,45502,1,0,0:0:0:0:
64,192,45562,1,0,0:0:0:0:
192,192,45623,1,0,0:0:0:0:
320,192,45684,1,0,0:0:0:0:
448,192,45744,1,0,0:0:0:0:
320,192,45805,1,0,0:0:0:0:
64,192,45866,1,0,0:0:0:0:
192,192,45866,1,0,0:0:0:0:
448,192,45926,1,0,0:0:0:0:
192,192,45987,1,0,0:0:0:0:
320,192,46048,1,0,0:0:0:0:
64,192,46108,1,0,0:0:0:0:
448,192,46108,1,0,0:0:0:0:
192,192,46169,1,0,0:0:0:0:
320,192,46229,1,0,0:0:0:0:
448,192,46289,1,0,0:0:0:0:
64,192,46350,1,0,0:0:0:0:
192,192,46350,1,0,0:0:0:0:
320,192,46411,1,0,0:0:0:0:
64,192,46471,1,0,0:0:0:0:
448,192,46471,1,0,0:0:0:0:
192,192,46532,1,0,0:0:0:0:
320,192,46593,1,0,0:0:0:0:
192,192,46653,1,0,0:0:0:0:
320,192,46714,1,0,0:0:0:0:
448,192,46775,1,0,0:0:0:0:
64,192,46835,1,0,0:0:0:0:
192,192,46835,1,0,0:0:0:0:
320,192,46896,1,0,0:0:0:0:
448,192,46957,1,0,0:0:0:0:
64,192,47017,1,0,0:0:0:0:
192,192,47078,1,0,0:0:0:0:
320,192,47139,1,0,0:0:0:0:
448,192,47199,1,0,0:0:0:0:
320,192,47259,1,0,0:0:0:0:
192,192,47320,1,0,0:0:0:0:
64,192,47380,1,0,0:0:0:0:
320,192,47441,1,0,0:0:0:0:
448,0,47441,128,0,47684:1:0:0:0:
192,192,47502,1,0,0:0:0:0:
64,192,47562,1,0,0:0:0:0:
320,192,47623,1,0,0:0:0:0:
192,192,47684,1,0,0:0:0:0:
320,192,47744,1,0,0:0:0:0:
448,192,47805,1,0,0:0:0:0:
64,0,47805,128,0,47987:1:0:0:0:
192,192,47866,1,0,0:0:0:0:
320,192,47926,1,0,0:0:0:0:
448,192,47987,1,0,0:0:0:0:
192,192,48048,1,0,0:0:0:0:
320,192,48048,1,0,0:0:0:0:
64,192,48108,1,0,0:0:0:0:
192,192,48169,1,0,0:0:0:0:
320,192,48229,1,0,0:0:0:0:
64,192,48289,1,0,0:0:0:0:
448,192,48289,1,0,0:0:0:0:
192,192,48350,1,0,0:0:0:0:
320,192,48411,1,0,0:0:0:0:
448,0,48411,128,0,48775:1:0:0:0:
64,192,48471,1,0,0:0:0:0:
192,192,48532,1,0,0:0:0:0:
320,192,48593,1,0,0:0:0:0:
192,192,48653,1,0,0:0:0:0:
64,192,48714,1,0,0:0:0:0:
192,192,48775,1,0,0:0:0:0:
320,192,48835,1,0,0:0:0:0:
448,192,48896,1,0,0:0:0:0:
64,192,48957,1,0,0:0:0:0:
192,192,49018,1,0,0:0:0:0:
320,192,49078,1,0,0:0:0:0:
192,192,49139,1,0,0:0:0:0:
320,192,49199,1,0,0:0:0:0:
448,192,49259,1,0,0:0:0:0:
64,192,49320,1,0,0:0:0:0:
192,192,49381,1,0,0:0:0:0:
320,192,49381,1,0,0:0:0:0:
448,192,49441,1,0,0:0:0:0:
192,192,49502,1,0,0:0:0:0:
320,192,49563,1,0,0:0:0:0:
64,192,49623,1,0,0:0:0:0:
448,192,49684,1,0,0:0:0:0:
192,192,49745,1,0,0:0:0:0:
320,192,49745,1,0,0:0:0:0:
64,192,49805,1,0,0:0:0:0:
448,192,49866,1,0,0:0:0:0:
192,192,49927,1,0,0:0:0:0:
320,192,49987,1,0,0:0:0:0:
448,192,49987,1,0,0:0:0:0:
64,192,50048,1,0,0:0:0:0:
192,192,50109,1,0,0:0:0:0:
320,192,50169,1,0,0:0:0:0:
64,192,50229,1,0,0:0:0:0:
448,192,50229,1,0,0:0:0:0:
320,192,50290,1,0,0:0:0:0:
64,192,50350,1,0,0:0:0:0:
192,192,50350,1,0,0:0:0:0:
448,192,50411,1,0,0:0:0:0:
320,192,50472,1,0,0:0:0:0:
192,192,50532,1,0,0:0:0:0:
64,192,50593,1,0,0:0:0:0:
320,192,50654,1,0,0:0:0:0:
192,192,50714,1,0,0:0:0:0:
448,192,50775,1,0,0:0:0:0:
64,192,50836,1,0,0:0:0:0:
192,192,50896,1,0,0:0:0:0:
320,192,50957,1,0,0:0:0:0:
448,192,51018,1,0,0:0:0:0:
320,192,51078,1,0,0:0:0:0:
192,192,51139,1,0,0:0:0:0:
64,192,51199,1,0,0:0:0:0:
448,192,51259,1,0,0:0:0:0:
192,192,51320,1,0,0:0:0:0:
448,192,51381,1,0,0:0:0:0:
64,192,51441,1,0,0:0:0:0:
192,192,51502,1,0,0:0:0:0:
320,192,51563,1,0,0:0:0:0:
448,192,51623,1,0,0:0:0:0:
64,192,51684,1,0,0:0:0:0:
320,192,51745,1,0,0:0:0:0:
64,192,51805,1,0,0:0:0:0:
448,192,51866,1,0,0:0:0:0:
320,192,51927,1,0,0:0:0:0:
192,192,51987,1,0,0:0:0:0:
320,192,52048,1,0,0:0:0:0:
448,192,52109,1,0,0:0:0:0:
64,192,52169,1,0,0:0:0:0:
192,192,52229,1,0,0:0:0:0:
320,192,52290,1,0,0:0:0:0:
448,192,52350,1,0,0:0:0:0:
192,192,52411,1,0,0:0:0:0:
64,0,52411,128,0,52654:1:0:0:0:
320,192,52532,1,0,0:0:0:0:
192,192,52654,1,0,0:0:0:0:
448,192,52775,1,0,0:0:0:0:
192,192,52896,1,0,0:0:0:0:
320,192,52896,1,0,0:0:0:0:
64,192,53018,1,0,0:0:0:0:
448,192,53018,1,0,0:0:0:0:
192,192,53139,1,0,0:0:0:0:
448,192,53259,1,0,0:0:0:0:
320,0,53259,128,0,53623:1:0:0:0:
192,192,53381,1,0,0:0:0:0:
64,192,53502,1,0,0:0:0:0:
448,192,53623,1,0,0:0:0:0:
64,192,53745,1,0,0:0:0:0:
192,192,53866,1,0,0:0:0:0:
320,192,53987,1,0,0:0:0:0:
448,192,54109,1,0,0:0:0:0:
192,192,54229,1,0,0:0:0:0:
320,192,54350,1,0,0:0:0:0:
448,0,54350,128,0,54593:1:0:0:0:
64,192,54472,1,0,0:0:0:0:
192,192,54593,1,0,0:0:0:0:
64,192,54714,1,0,0:0:0:0:
320,192,54836,1,0,0:0:0:0:
448,192,54836,1,0,0:0:0:0:
64,192,54957,1,0,0:0:0:0:
192,192,54957,1,0,0:0:0:0:
448,192,55078,1,0,0:0:0:0:
192,192,55199,1,0,0:0:0:0:
320,192,55199,1,0,0:0:0:0:
64,192,55320,1,0,0:0:0:0:
320,192,55441,1,0,0:0:0:0:
448,192,55441,1,0,0:0:0:0:
192,192,55563,1,0,0:0:0:0:
64,192,55684,1,0,0:0:0:0:
448,192,55684,1,0,0:0:0:0:
192,192,55805,1,0,0:0:0:0:
320,192,55927,1,0,0:0:0:0:
192,192,56048,1,0,0:0:0:0:
64,0,56048,128,0,56169:1:0:0:0:
320,192,56169,1,0,0:0:0:0:
192,192,56290,1,0,0:0:0:0:
448,0,56290,128,0,56472:1:0:0:0:
64,192,56411,1,0,0:0:0:0:
320,192,56532,1,0,0:0:0:0:
192,192,56654,1,0,0:0:0:0:
320,192,56775,1,0,0:0:0:0:
448,192,56775,1,0,0:0:0:0:
64,192,56896,1,0,0:0:0:0:
192,192,56896,1,0,0:0:0:0:
448,192,57018,1,0,0:0:0:0:
320,192,57139,1,0,0:0:0:0:
64,0,57139,128,0,57502:1:0:0:0:
448,192,57259,1,0,0:0:0:0:
192,192,57381,1,0,0:0:0:0:
320,192,57502,1,0,0:0:0:0:
448,192,57623,1,0,0:0:0:0:
64,192,57745,1,0,0:0:0:0:
192,192,57866,1,0,0:0:0:0:
320,192,57987,1,0,0:0:0:0:
448,192,58109,1,0,0:0:0:0:
320,192,58229,1,0,0:0:0:0:
64,0,58229,128,0,58472:1:0:0:0:
192,192,58350,1,0,0:0:0:0:
448,192,58472,1,0,0:0:0:0:
192,192,58593,1,0,0:0:0:0:
320,192,58714,1,0,0:0:0:0:
448,192,58714,1,0,0:0:0:0:
64,192,58836,1,0,0:0:0:0:
320,192,58836,1,0,0:0:0:0:
192,192,58957,1,0,0:0:0:0:
64,192,59078,1,0,0:0:0:0:
448,0,59078,128,0,59441:1:0:0:0:
320,192,59139,1,0,0:0:0:0:
192,192,59199,1,0,0:0:0:0:
64,192,59259,1,0,0:0:0:0:
320,192,59320,1,0,0:0:0:0:
192,192,59381,1,0,0:0:0:0:
320,192,59441,1,0,0:0:0:0:
448,192,59502,1,0,0:0:0:0:
192,192,59563,1,0,0:0:0:0:
320,192,59623,1,0,0:0:0:0:
64,192,59684,1,0,0:0:0:0:
192,192,59745,1,0,0:0:0:0:
64,192,59805,1,0,0:0:0:0:
320,192,59805,1,0,0:0:0:0:
448,192,59866,1,0,0:0:0:0:
64,192,59927,1,0,0:0:0:0:
192,192,59927,1,0,0:0:0:0:
320,192,59987,1,0,0:0:0:0:
64,192,60048,1,0,0:0:0:0:
448,192,60048,1,0,0:0:0:0:
192,192,60109,1,0,0:0:0:0:
320,192,60169,1,0,0:0:0:0:
448,192,60169,1,0,0:0:0:0:
64,192,60229,1,0,0:0:0:0:
192,192,60290,1,0,0:0:0:0:
320,192,60350,1,0,0:0:0:0:
448,192,60411,1,0,0:0:0:0:
320,192,60472,1,0,0:0:0:0:
192,192,60532,1,0,0:0:0:0:
64,192,60593,1,0,0:0:0:0:
448,192,60654,1,0,0:0:0:0:
192,192,60714,1,0,0:0:0:0:
320,192,60775,1,0,0:0:0:0:
64,192,60836,1,0,0:0:0:0:
192,192,60896,1,0,0:0:0:0:
320,192,60957,1,0,0:0:0:0:
64,192,61018,1,0,0:0:0:0:
448,192,61018,1,0,0:0:0:0:
320,192,61078,1,0,0:0:0:0:
192,192,61139,1,0,0:0:0:0:
64,192,61199,1,0,0:0:0:0:
192,192,61259,1,0,0:0:0:0:
320,192,61259,1,0,0:0:0:0:
448,192,61320,1,0,0:0:0:0:
64,192,61380,1,0,0:0:0:0:
192,192,61380,1,0,0:0:0:0:
320,192,61441,1,0,0:0:0:0:
64,192,61502,1,0,0:0:0:0:
448,192,61502,1,0,0:0:0:0:
192,192,61562,1,0,0:0:0:0:
320,192,61623,1,0,0:0:0:0:
448,192,61684,1,0,0:0:0:0:
192,192,61744,1,0,0:0:0:0:
320,192,61744,1,0,0:0:0:0:
64,192,61805,1,0,0:0:0:0:
448,192,61866,1,0,0:0:0:0:
192,192,61926,1,0,0:0:0:0:
320,192,61987,1,0,0:0:0:0:
448,192,61987,1,0,0:0:0:0:
64,192,62048,1,0,0:0:0:0:
192,192,62108,1,0,0:0:0:0:
320,192,62169,1,0,0:0:0:0:
192,192,62229,1,0,0:0:0:0:
320,192,62289,1,0,0:0:0:0:
448,192,62350,1,0,0:0:0:0:
192,192,62411,1,0,0:0:0:0:
320,192,62471,1,0,0:0:0:0:
64,192,62532,1,0,0:0:0:0:
192,192,62593,1,0,0:0:0:0:
320,192,62653,1,0,0:0:0:0:
448,192,62714,1,0,0:0:0:0:
320,192,62775,1,0,0:0:0:0:
192,192,62835,1,0,0:0:0:0:
64,192,62896,1,0,0:0:0:0:
320,192,62957,1,0,0:0:0:0:
448,192,62957,1,0,0:0:0:0:
192,192,63017,1,0,0:0:0:0:
448,192,63078,1,0,0:0:0:0:
64,192,63139,1,0,0:0:0:0:
192,192,63199,1,0,0:0:0:0:
320,192,63199,1,0,0:0:0:0:
448,192,63259,1,0,0:0:0:0:
64,192,63320,1,0,0:0:0:0:
192,192,63320,1,0,0:0:0:0:
320,192,63380,1,0,0:0:0:0:
64,192,63441,1,0,0:0:0:0:
448,192,63441,1,0,0:0:0:0:
320,192,63502,1,0,0:0:0:0:
192,192,63562,1,0,0:0:0:0:
64,192,63623,1,0,0:0:0:0:
320,192,63684,1,0,0:0:0:0:
448,192,63684,1,0,0:0:0:0:
192,192,63744,1,0,0:0:0:0:
64,192,63805,1,0,0:0:0:0:
448,192,63866,1,0,0:0:0:0:
192,192,63926,1,0,0:0:0:0:
320,192,63926,1,0,0:0:0:0:
64,192,63987,1,0,0:0:0:0:
320,192,64048,1,0,0:0:0:0:
192,192,64108,1,0,0:0:0:0:
448,192,64169,1,0,0:0:0:0:
64,192,64229,1,0,0:0:0:0:
320,192,64289,1,0,0:0:0:0:
192,192,64350,1,0,0:0:0:0:
320,192,64411,1,0,0:0:0:0:
64,192,64471,1,0,0:0:0:0:
192,192,64532,1,0,0:0:0:0:
320,192,64593,1,0,0:0:0:0:
448,192,64653,1,0,0:0:0:0:
320,192,64714,1,0,0:0:0:0:
192,192,64775,1,0,0:0:0:0:
64,192,64835,1,0,0:0:0:0:
320,192,64896,1,0,0:0:0:0:
448,192,64896,1,0,0:0:0:0:
192,192,64957,1,0,0:0:0:0:
448,192,65017,1,0,0:0:0:0:
320,192,65078,1,0,0:0:0:0:
64,192,65139,1,0,0:0:0:0:
192,192,65139,1,0,0:0:0:0:
448,192,65199,1,0,0:0:0:0:
192,192,65259,1,0,0:0:0:0:
320,192,65259,1,0,0:0:0:0:
64,192,65320,1,0,0:0:0:0:
320,192,65380,1,0,0:0:0:0:
448,192,65380,1,0,0:0:0:0:
192,192,65441,1,0,0:0:0:0:
64,192,65502,1,0,0:0:0:0:
448,192,65562,1,0,0:0:0:0:
192,192,65623,1,0,0:0:0:0:
320,192,65623,1,0,0:0:0:0:
64,192,65684,1,0,0:0:0:0:
320,192,65744,1,0,0:0:0:0:
192,192,65805,1,0,0:0:0:0:
448,192,65866,1,0,0:0:0:0:
64,192,65926,1,0,0:0:0:0:
192,192,65987,1,0,0:0:0:0:
320,192,65987,1,0,0:0:0:0:
448,192,66048,1,0,0:0:0:0:
192,192,66108,1,0,0:0:0:0:
320,192,66169,1,0,0:0:0:0:
64,192,66230,1,0,0:0:0:0:
192,192,66290,1,0,0:0:0:0:
320,192,66350,1,0,0:0:0:0:
448,192,66350,1,0,0:0:0:0:
192,192,66411,1,0,0:0:0:0:
64,192,66471,1,0,0:0:0:0:
448,192,66532,1,0,0:0:0:0:
320,192,66593,1,0,0:0:0:0:
192,192,66653,1,0,0:0:0:0:
64,192,66714,1,0,0:0:0:0:
192,192,66775,1,0,0:0:0:0:
320,192,66835,1,0,0:0:0:0:
448,192,66896,1,0,0:0:0:0:
64,192,66957,1,0,0:0:0:0:
192,192,66957,1,0,0:0:0:0:
320,192,67017,1,0,0:0:0:0:
192,192,67078,1,0,0:0:0:0:
320,192,67139,1,0,0:0:0:0:
64,192,67199,1,0,0:0:0:0:
192,192,67260,1,0,0:0:0:0:
320,192,67320,1,0,0:0:0:0:
448,192,67320,1,0,0:0:0:0:
192,192,67380,1,0,0:0:0:0:
64,192,67441,1,0,0:0:0:0:
448,192,67502,1,0,0:0:0:0:
320,192,67562,1,0,0:0:0:0:
192,192,67623,1,0,0:0:0:0:
64,192,67684,1,0,0:0:0:0:
448,192,67684,1,0,0:0:0:0:
192,192,67744,1,0,0:0:0:0:
320,192,67805,1,0,0:0:0:0:
448,192,67866,1,0,0:0:0:0:
192,192,67926,1,0,0:0:0:0:
64,0,67926,128,0,68411:1:0:0:0:
320,192,68048,1,0,0:0:0:0:
448,192,68169,1,0,0:0:0:0:
192,192,68411,1,0,0:0:0:0:
448,192,68411,1,0,0:0:0:0:
64,192,68532,1,0,0:0:0:0:
320,192,68532,1,0,0:0:0:0:
192,192,68653,1,0,0:0:0:0:
320,192,68775,1,0,0:0:0:0:
448,0,68775,128,0,69380:1:0:0:0:
64,192,69017,1,0,0:0:0:0:
320,192,69139,1,0,0:0:0:0:
192,192,69380,1,0,0:0:0:0:
64,192,69502,1,0,0:0:0:0:
192,192,69623,1,0,0:0:0:0:
320,192,69623,1,0,0:0:0:0:
448,192,69744,1,0,0:0:0:0:
192,192,69866,1,0,0:0:0:0:
64,0,69866,128,0,70108:1:0:0:0:
320,192,69987,1,0,0:0:0:0:
192,192,70108,1,0,0:0:0:0:
448,192,70230,1,0,0:0:0:0:
64,192,70350,1,0,0:0:0:0:
320,192,70350,1,0,0:0:0:0:
192,192,70471,1,0,0:0:0:0:
320,192,70471,1,0,0:0:0:0:
448,192,70593,1,0,0:0:0:0:
192,192,70714,1,0,0:0:0:0:
64,0,70714,128,0,70835:1:0:0:0:
448,192,70957,1,0,0:0:0:0:
192,0,70957,128,0,71078:1:0:0:0:
320,192,71078,1,0,0:0:0:0:
64,192,71199,1,0,0:0:0:0:
448,0,71199,128,0,71320:1:0:0:0:
320,192,71320,1,0,0:0:0:0:
192,192,71441,1,0,0:0:0:0:
320,192,71562,1,0,0:0:0:0:
448,192,71562,1,0,0:0:0:0:
192,192,71684,1,0,0:0:0:0:
64,192,71805,1,0,0:0:0:0:
320,0,71805,128,0,72048:1:0:0:0:
192,192,71926,1,0,0:0:0:0:
448,192,72048,1,0,0:0:0:0:
64,192,72169,1,0,0:0:0:0:
192,192,72230,1,0,0:0:0:0:
320,192,72290,1,0,0:0:0:0:
448,192,72290,1,0,0:0:0:0:
192,192,72411,1,0,0:0:0:0:
320,192,72411,1,0,0:0:0:0:
64,192,72532,1,0,0:0:0:0:
320,192,72653,1,0,0:0:0:0:
448,0,72653,128,0,73017:1:0:0:0:
64,192,72896,1,0,0:0:0:0:
320,192,73017,1,0,0:0:0:0:
192,192,73139,1,0,0:0:0:0:
448,192,73260,1,0,0:0:0:0:
320,192,73380,1,0,0:0:0:0:
192,192,73502,1,0,0:0:0:0:
448,192,73623,1,0,0:0:0:0:
320,192,73744,1,0,0:0:0:0:
64,0,73744,128,0,74108:1:0:0:0:
192,192,73866,1,0,0:0:0:0:
320,192,73987,1,0,0:0:0:0:
64,192,74230,1,0,0:0:0:0:
320,192,74230,1,0,0:0:0:0:
192,192,74350,1,0,0:0:0:0:
448,192,74350,1,0,0:0:0:0:
320,192,74471,1,0,0:0:0:0:
64,192,74593,1,0,0:0:0:0:
448,0,74593,128,0,74957:1:0:0:0:
192,192,74835,1,0,0:0:0:0:
320,192,74957,1,0,0:0:0:0:
64,192,75078,1,0,0:0:0:0:
320,192,75199,1,0,0:0:0:0:
448,192,75199,1,0,0:0:0:0:
192,192,75260,1,0,0:0:0:0:
64,192,75320,1,0,0:0:0:0:
448,192,75320,1,0,0:0:0:0:
192,192,75441,1,0,0:0:0:0:
320,192,75441,1,0,0:0:0:0:
448,192,75502,1,0,0:0:0:0:
64,192,75562,1,0,0:0:0:0:
192,192,75562,1,0,0:0:0:0:
320,192,75623,1,0,0:0:0:0:
64,192,75684,1,0,0:0:0:0:
448,192,75684,1,0,0:0:0:0:
192,192,75744,1,0,0:0:0:0:
320,192,75805,1,0,0:0:0:0:
448,192,75866,1,0,0:0:0:0:
320,192,75926,1,0,0:0:0:0:
192,192,75987,1,0,0:0:0:0:
64,192,76048,1,0,0:0:0:0:
448,192,76108,1,0,0:0:0:0:
192,192,76169,1,0,0:0:0:0:
320,192,76230,1,0,0:0:0:0:
64,192,76290,1,0,0:0:0:0:
192,192,76350,1,0,0:0:0:0:
320,192,76411,1,0,0:0:0:0:
448,192,76411,1,0,0:0:0:0:
192,192,76471,1,0,0:0:0:0:
64,192,76532,1,0,0:0:0:0:
448,192,76593,1,0,0:0:0:0:
192,192,76653,1,0,0:0:0:0:
320,192,76653,1,0,0:0:0:0:
64,192,76714,1,0,0:0:0:0:
448,192,76775,1,0,0:0:0:0:
192,192,76835,1,0,0:0:0:0:
320,192,76896,1,0,0:0:0:0:
64,192,76957,1,0,0:0:0:0:
192,192,77017,1,0,0:0:0:0:
320,192,77017,1,0,0:0:0:0:
448,192,77078,1,0,0:0:0:0:
320,192,77139,1,0,0:0:0:0:
192,192,77199,1,0,0:0:0:0:
64,192,77260,1,0,0:0:0:0:
192,192,77320,1,0,0:0:0:0:
320,192,77380,1,0,0:0:0:0:
448,192,77380,1,0,0:0:0:0:
64,192,77441,1,0,0:0:0:0:
320,192,77502,1,0,0:0:0:0:
192,192,77562,1,0,0:0:0:0:
64,192,77623,1,0,0:0:0:0:
448,192,77623,1,0,0:0:0:0:
320,192,77684,1,0,0:0:0:0:
192,192,77744,1,0,0:0:0:0:
320,192,77805,1,0,0:0:0:0:
448,192,77865,1,0,0:0:0:0:
64,192,77926,1,0,0:0:0:0:
192,192,77987,1,0,0:0:0:0:
320,192,77987,1,0,0:0:0:0:
448,192,78047,1,0,0:0:0:0:
192,192,78108,1,0,0:0:0:0:
320,192,78169,1,0,0:0:0:0:
64,192,78229,1,0,0:0:0:0:
448,192,78290,1,0,0:0:0:0:
192,192,78350,1,0,0:0:0:0:
320,192,78350,1,0,0:0:0:0:
64,192,78410,1,0,0:0:0:0:
448,192,78471,1,0,0:0:0:0:
320,192,78532,1,0,0:0:0:0:
192,192,78592,1,0,0:0:0:0:
320,192,78653,1,0,0:0:0:0:
448,192,78714,1,0,0:0:0:0:
192,192,78774,1,0,0:0:0:0:
320,192,78835,1,0,0:0:0:0:
64,192,78896,1,0,0:0:0:0:
192,192,78956,1,0,0:0:0:0:
320,192,79017,1,0,0:0:0:0:
448,192,79078,1,0,0:0:0:0:
320,192,79138,1,0,0:0:0:0:
192,192,79199,1,0,0:0:0:0:
64,192,79260,1,0,0:0:0:0:
320,192,79320,1,0,0:0:0:0:
448,192,79320,1,0,0:0:0:0:
192,192,79380,1,0,0:0:0:0:
64,192,79441,1,0,0:0:0:0:
448,192,79441,1,0,0:0:0:0:
320,192,79501,1,0,0:0:0:0:
64,192,79562,1,0,0:0:0:0:
192,192,79562,1,0,0:0:0:0:
448,192,79623,1,0,0:0:0:0:
320,192,79683,1,0,0:0:0:0:
192,192,79744,1,0,0:0:0:0:
320,192,79805,1,0,0:0:0:0:
448,192,79865,1,0,0:0:0:0:
64,192,79926,1,0,0:0:0:0:
192,192,79987,1,0,0:0:0:0:
320,192,80047,1,0,0:0:0:0:
448,192,80108,1,0,0:0:0:0:
192,192,80169,1,0,0:0:0:0:
320,192,80229,1,0,0:0:0:0:
64,192,80290,1,0,0:0:0:0:
448,192,80290,1,0,0:0:0:0:
320,192,80350,1,0,0:0:0:0:
192,192,80410,1,0,0:0:0:0:
64,192,80471,1,0,0:0:0:0:
320,192,80532,1,0,0:0:0:0:
448,192,80532,1,0,0:0:0:0:
192,192,80592,1,0,0:0:0:0:
448,192,80653,1,0,0:0:0:0:
64,192,80714,1,0,0:0:0:0:
192,192,80774,1,0,0:0:0:0:
320,192,80774,1,0,0:0:0:0:
448,192,80835,1,0,0:0:0:0:
64,192,80896,1,0,0:0:0:0:
192,192,80956,1,0,0:0:0:0:
320,192,81017,1,0,0:0:0:0:
448,192,81017,1,0,0:0:0:0:
64,192,81078,1,0,0:0:0:0:
192,192,81138,1,0,0:0:0:0:
320,192,81138,1,0,0:0:0:0:
448,192,81199,1,0,0:0:0:0:
320,192,81260,1,0,0:0:0:0:
192,192,81320,1,0,0:0:0:0:
64,192,81380,1,0,0:0:0:0:
448,192,81380,1,0,0:0:0:0:
320,192,81441,1,0,0:0:0:0:
192,192,81501,1,0,0:0:0:0:
320,192,81562,1,0,0:0:0:0:
192,192,81623,1,0,0:0:0:0:
64,192,81683,1,0,0:0:0:0:
448,192,81744,1,0,0:0:0:0:
192,192,81805,1,0,0:0:0:0:
320,192,81865,1,0,0:0:0:0:
64,192,81926,1,0,0:0:0:0:
192,192,81987,1,0,0:0:0:0:
320,192,81987,1,0,0:0:0:0:
448,192,82047,1,0,0:0:0:0:
64,192,82108,1,0,0:0:0:0:
192,192,82108,1,0,0:0:0:0:
320,192,82169,1,0,0:0:0:0:
64,192,82229,1,0,0:0:0:0:
448,192,82229,1,0,0:0:0:0:
192,192,82290,1,0,0:0:0:0:
320,192,82350,1,0,0:0:0:0:
448,192,82350,1,0,0:0:0:0:
64,192,82410,1,0,0:0:0:0:
192,192,82471,1,0,0:0:0:0:
320,192,82532,1,0,0:0:0:0:
192,192,82592,1,0,0:0:0:0:
64,192,82653,1,0,0:0:0:0:
320,192,82714,1,0,0:0:0:0:
448,192,82714,1,0,0:0:0:0:
192,192,82774,1,0,0:0:0:0:
448,192,82835,1,0,0:0:0:0:
64,192,82896,1,0,0:0:0:0:
192,192,82956,1,0,0:0:0:0:
320,192,82956,1,0,0:0:0:0:
448,192,83017,1,0,0:0:0:0:
320,192,83078,1,0,0:0:0:0:
192,192,83138,1,0,0:0:0:0:
64,192,83199,1,0,0:0:0:0:
448,192,83199,1,0,0:0:0:0:
320,192,83260,1,0,0:0:0:0:
64,192,83320,1,0,0:0:0:0:
192,192,83320,1,0,0:0:0:0:
320,192,83380,1,0,0:0:0:0:
448,192,83441,1,0,0:0:0:0:
64,192,83501,1,0,0:0:0:0:
320,192,83562,1,0,0:0:0:0:
192,192,83623,1,0,0:0:0:0:
448,192,83683,1,0,0:0:0:0:
320,192,83744,1,0,0:0:0:0:
192,192,83805,1,0,0:0:0:0:
64,192,83865,1,0,0:0:0:0:
192,192,83926,1,0,0:0:0:0:
320,192,83987,1,0,0:0:0:0:
448,192,84047,1,0,0:0:0:0:
64,192,84108,1,0,0:0:0:0:
192,192,84169,1,0,0:0:0:0:
320,192,84229,1,0,0:0:0:0:
64,192,84290,1,0,0:0:0:0:
192,192,84290,1,0,0:0:0:0:
448,192,84350,1,0,0:0:0:0:
320,192,84410,1,0,0:0:0:0:
192,192,84471,1,0,0:0:0:0:
64,192,84532,1,0,0:0:0:0:
448,192,84592,1,0,0:0:0:0:
192,192,84653,1,0,0:0:0:0:
320,192,84653,1,0,0:0:0:0:
64,192,84714,1,0,0:0:0:0:
448,192,84774,1,0,0:0:0:0:
192,192,84835,1,0,0:0:0:0:
320,192,84896,1,0,0:0:0:0:
448,192,84896,1,0,0:0:0:0:
64,192,84956,1,0,0:0:0:0:
192,192,85017,1,0,0:0:0:0:
320,192,85017,1,0,0:0:0:0:
448,192,85078,1,0,0:0:0:0:
64,192,85138,1,0,0:0:0:0:
192,192,85199,1,0,0:0:0:0:
320,192,85260,1,0,0:0:0:0:
448,192,85260,1,0,0:0:0:0:
192,192,85320,1,0,0:0:0:0:
64,192,85380,1,0,0:0:0:0:
448,192,85441,1,0,0:0:0:0:
192,192,85501,1,0,0:0:0:0:
320,192,85562,1,0,0:0:0:0:
64,192,85622,1,0,0:0:0:0:
192,192,85683,1,0,0:0:0:0:
320,192,85744,1,0,0:0:0:0:
448,192,85804,1,0,0:0:0:0:
64,192,85865,1,0,0:0:0:0:
192,192,85865,1,0,0:0:0:0:
320,192,85926,1,0,0:0:0:0:
64,192,85986,1,0,0:0:0:0:
448,192,85986,1,0,0:0:0:0:
320,192,86047,1,0,0:0:0:0:
64,192,86108,1,0,0:0:0:0:
192,192,86108,1,0,0:0:0:0:
448,192,86168,1,0,0:0:0:0:
192,192,86229,1,0,0:0:0:0:
320,192,86229,1,0,0:0:0:0:
64,192,86290,1,0,0:0:0:0:
448,192,86350,1,0,0:0:0:0:
192,192,86410,1,0,0:0:0:0:
320,192,86471,1,0,0:0:0:0:
64,192,86531,1,0,0:0:0:0:
192,192,86592,1,0,0:0:0:0:
320,192,86592,1,0,0:0:0:0:
448,192,86653,1,0,0:0:0:0:
320,192,86713,1,0,0:0:0:0:
192,192,86774,1,0,0:0:0:0:
64,192,86835,1,0,0:0:0:0:
448,192,86835,1,0,0:0:0:0:
192,192,86895,1,0,0:0:0:0:
320,192,86956,1,0,0:0:0:0:
64,192,87017,1,0,0:0:0:0:
320,192,87077,1,0,0:0:0:0:
448,192,87077,1,0,0:0:0:0:
192,192,87138,1,0,0:0:0:0:
64,192,87199,1,0,0:0:0:0:
448,192,87199,1,0,0:0:0:0:
192,192,87259,1,0,0:0:0:0:
320,192,87320,1,0,0:0:0:0:
448,192,87380,1,0,0:0:0:0:
320,192,87440,1,0,0:0:0:0:
192,192,87501,1,0,0:0:0:0:
64,192,87562,1,0,0:0:0:0:
448,192,87622,1,0,0:0:0:0:
192,192,87683,1,0,0:0:0:0:
320,192,87744,1,0,0:0:0:0:
64,192,87804,1,0,0:0:0:0:
192,192,87865,1,0,0:0:0:0:
320,192,87926,1,0,0:0:0:0:
448,192,87986,1,0,0:0:0:0:
64,192,88047,1,0,0:0:0:0:
192,192,88108,1,0,0:0:0:0:
320,192,88168,1,0,0:0:0:0:
448,192,88168,1,0,0:0:0:0:
192,192,88229,1,0,0:0:0:0:
64,192,88290,1,0,0:0:0:0:
320,192,88350,1,0,0:0:0:0:
192,192,88410,1,0,0:0:0:0:
448,192,88471,1,0,0:0:0:0:
192,192,88531,1,0,0:0:0:0:
320,192,88531,1,0,0:0:0:0:
64,192,88592,1,0,0:0:0:0:
448,192,88653,1,0,0:0:0:0:
192,192,88713,1,0,0:0:0:0:
320,192,88774,1,0,0:0:0:0:
448,192,88774,1,0,0:0:0:0:
64,192,88835,1,0,0:0:0:0:
192,192,88895,1,0,0:0:0:0:
320,192,88895,1,0,0:0:0:0:
448,192,88956,1,0,0:0:0:0:
320,192,89017,1,0,0:0:0:0:
192,192,89077,1,0,0:0:0:0:
64,192,89138,1,0,0:0:0:0:
448,192,89138,1,0,0:0:0:0:
320,192,89199,1,0,0:0:0:0:
192,192,89259,1,0,0:0:0:0:
320,192,89320,1,0,0:0:0:0:
448,192,89380,1,0,0:0:0:0:
64,192,89440,1,0,0:0:0:0:
192,192,89501,1,0,0:0:0:0:
320,192,89562,1,0,0:0:0:0:
192,192,89622,1,0,0:0:0:0:
64,192,89683,1,0,0:0:0:0:
320,192,89744,1,0,0:0:0:0:
448,192,89744,1,0,0:0:0:0:
192,192,89804,1,0,0:0:0:0:
64,192,89865,1,0,0:0:0:0:
448,192,89865,1,0,0:0:0:0:
320,192,89926,1,0,0:0:0:0:
64,192,89986,1,0,0:0:0:0:
192,192,89986,1,0,0:0:0:0:
448,192,90047,1,0,0:0:0:0:
192,192,90108,1,0,0:0:0:0:
320,192,90108,1,0,0:0:0:0:
64,192,90168,1,0,0:0:0:0:
448,192,90229,1,0,0:0:0:0:
192,192,90289,1,0,0:0:0:0:
320,192,90349,1,0,0:0:0:0:
64,192,90410,1,0,0:0:0:0:
192,192,90471,1,0,0:0:0:0:
320,192,90471,1,0,0:0:0:0:
448,192,90531,1,0,0:0:0:0:
320,192,90592,1,0,0:0:0:0:
192,192,90653,1,0,0:0:0:0:
64,192,90713,1,0,0:0:0:0:
448,192,90713,1,0,0:0:0:0:
320,192,90774,1,0,0:0:0:0:
192,192,90835,1,0,0:0:0:0:
64,192,90895,1,0,0:0:0:0:
320,192,90956,1,0,0:0:0:0:
448,192,90956,1,0,0:0:0:0:
192,192,91017,1,0,0:0:0:0:
320,192,91077,1,0,0:0:0:0:
448,192,91077,1,0,0:0:0:0:
64,192,91138,1,0,0:0:0:0:
192,192,91199,1,0,0:0:0:0:
320,192,91259,1,0,0:0:0:0:
448,192,91319,1,0,0:0:0:0:
64,192,91380,1,0,0:0:0:0:
192,192,91440,1,0,0:0:0:0:
320,192,91440,1,0,0:0:0:0:
448,192,91501,1,0,0:0:0:0:
192,192,91562,1,0,0:0:0:0:
320,192,91622,1,0,0:0:0:0:
64,192,91683,1,0,0:0:0:0:
448,192,91744,1,0,0:0:0:0:
320,192,91804,1,0,0:0:0:0:
192,192,91865,1,0,0:0:0:0:
320,192,91926,1,0,0:0:0:0:
192,192,91986,1,0,0:0:0:0:
64,192,92047,1,0,0:0:0:0:
448,192,92047,1,0,0:0:0:0:
320,192,92108,1,0,0:0:0:0:
192,192,92168,1,0,0:0:0:0:
320,192,92229,1,0,0:0:0:0:
448,192,92289,1,0,0:0:0:0:
64,192,92349,1,0,0:0:0:0:
192,192,92410,1,0,0:0:0:0:
320,192,92410,1,0,0:0:0:0:
448,192,92471,1,0,0:0:0:0:
320,192,92531,1,0,0:0:0:0:
192,192,92592,1,0,0:0:0:0:
64,192,92653,1,0,0:0:0:0:
448,192,92653,1,0,0:0:0:0:
192,192,92713,1,0,0:0:0:0:
320,192,92774,1,0,0:0:0:0:
448,192,92835,1,0,0:0:0:0:
64,192,92895,1,0,0:0:0:0:
192,192,92895,1,0,0:0:0:0:
320,192,92956,1,0,0:0:0:0:
64,192,93017,1,0,0:0:0:0:
448,192,93017,1,0,0:0:0:0:
320,192,93077,1,0,0:0:0:0:
192,192,93138,1,0,0:0:0:0:
64,192,93199,1,0,0:0:0:0:
448,192,93259,1,0,0:0:0:0:
192,192,93319,1,0,0:0:0:0:
320,192,93379,1,0,0:0:0:0:
192,192,93440,1,0,0:0:0:0:
320,192,93501,1,0,0:0:0:0:
64,192,93561,1,0,0:0:0:0:
192,192,93622,1,0,0:0:0:0:
320,192,93683,1,0,0:0:0:0:
448,192,93743,1,0,0:0:0:0:
320,192,93804,1,0,0:0:0:0:
192,192,93865,1,0,0:0:0:0:
64,192,93925,1,0,0:0:0:0:
320,192,93986,1,0,0:0:0:0:
448,192,93986,1,0,0:0:0:0:
192,192,94047,1,0,0:0:0:0:
448,192,94107,1,0,0:0:0:0:
64,192,94168,1,0,0:0:0:0:
192,192,94229,1,0,0:0:0:0:
320,192,94289,1,0,0:0:0:0:
64,192,94349,1,0,0:0:0:0:
448,192,94349,1,0,0:0:0:0:
192,192,94410,1,0,0:0:0:0:
320,192,94470,1,0,0:0:0:0:
448,192,94531,1,0,0:0:0:0:
192,192,94592,1,0,0:0:0:0:
320,192,94592,1,0,0:0:0:0:
64,192,94652,1,0,0:0:0:0:
448,192,94713,1,0,0:0:0:0:
192,192,94774,1,0,0:0:0:0:
320,192,94834,1,0,0:0:0:0:
448,192,94834,1,0,0:0:0:0:
64,192,94895,1,0,0:0:0:0:
192,192,94956,1,0,0:0:0:0:
320,192,94956,1,0,0:0:0:0:
448,192,95016,1,0,0:0:0:0:
320,192,95077,1,0,0:0:0:0:
192,192,95138,1,0,0:0:0:0:
64,192,95198,1,0,0:0:0:0:
320,192,95259,1,0,0:0:0:0:
192,192,95319,1,0,0:0:0:0:
448,192,95379,1,0,0:0:0:0:
320,192,95440,1,0,0:0:0:0:
192,192,95501,1,0,0:0:0:0:
64,192,95561,1,0,0:0:0:0:
448,192,95622,1,0,0:0:0:0:
192,192,95683,1,0,0:0:0:0:
448,192,95743,1,0,0:0:0:0:
64,192,95804,1,0,0:0:0:0:
320,192,95865,1,0,0:0:0:0:
64,192,95925,1,0,0:0:0:0:
192,192,95986,1,0,0:0:0:0:
320,192,96047,1,0,0:0:0:0:
448,192,96107,1,0,0:0:0:0:
320,192,96168,1,0,0:0:0:0:
192,192,96229,1,0,0:0:0:0:
64,192,96289,1,0,0:0:0:0:
192,192,96349,1,0,0:0:0:0:
320,192,96410,1,0,0:0:0:0:
448,192,96470,1,0,0:0:0:0:
64,192,96531,1,0,0:0:0:0:
192,192,96592,1,0,0:0:0:0:
320,192,96652,1,0,0:0:0:0:
448,192,96713,1,0,0:0:0:0:
64,192,96774,1,0,0:0:0:0:
192,192,96834,1,0,0:0:0:0:
320,192,96895,1,0,0:0:0:0:
448,192,96956,1,0,0:0:0:0:
320,192,97016,1,0,0:0:0:0:
192,192,97077,1,0,0:0:0:0:
64,192,97138,1,0,0:0:0:0:
320,192,97198,1,0,0:0:0:0:
192,192,97259,1,0,0:0:0:0:
448,192,97319,1,0,0:0:0:0:
64,192,97379,1,0,0:0:0:0:
192,192,97440,1,0,0:0:0:0:
320,192,97501,1,0,0:0:0:0:
448,192,97501,1,0,0:0:0:0:
64,192,97561,1,0,0:0:0:0:
192,192,97622,1,0,0:0:0:0:
320,192,97622,1,0,0:0:0:0:
448,192,97683,1,0,0:0:0:0:
64,192,97743,1,0,0:0:0:0:
192,192,97743,1,0,0:0:0:0:
320,192,97804,1,0,0:0:0:0:
64,192,97865,1,0,0:0:0:0:
448,192,97865,1,0,0:0:0:0:
192,192,97925,1,0,0:0:0:0:
320,192,97986,1,0,0:0:0:0:
192,192,98047,1,0,0:0:0:0:
64,192,98107,1,0,0:0:0:0:
448,192,98168,1,0,0:0:0:0:
192,192,98229,1,0,0:0:0:0:
320,192,98229,1,0,0:0:0:0:
448,192,98289,1,0,0:0:0:0:
64,192,98349,1,0,0:0:0:0:
192,192,98410,1,0,0:0:0:0:
320,192,98470,1,0,0:0:0:0:
448,192,98470,1,0,0:0:0:0:
192,192,98531,1,0,0:0:0:0:
64,192,98592,1,0,0:0:0:0:
320,192,98592,1,0,0:0:0:0:
448,192,98652,1,0,0:0:0:0:
64,192,98713,1,0,0:0:0:0:
192,192,98713,1,0,0:0:0:0:
320,192,98774,1,0,0:0:0:0:
64,192,98834,1,0,0:0:0:0:
448,192,98834,1,0,0:0:0:0:
192,192,98895,1,0,0:0:0:0:
320,192,98956,1,0,0:0:0:0:
448,192,99016,1,0,0:0:0:0:
192,192,99077,1,0,0:0:0:0:
320,192,99138,1,0,0:0:0:0:
64,192,99198,1,0,0:0:0:0:
448,192,99259,1,0,0:0:0:0:
320,192,99319,1,0,0:0:0:0:
192,192,99379,1,0,0:0:0:0:
64,192,99440,1,0,0:0:0:0:
320,192,99501,1,0,0:0:0:0:
192,192,99561,1,0,0:0:0:0:
448,192,99622,1,0,0:0:0:0:
320,192,99683,1,0,0:0:0:0:
192,192,99743,1,0,0:0:0:0:
320,192,99804,1,0,0:0:0:0:
448,192,99804,1,0,0:0:0:0:
64,192,99865,1,0,0:0:0:0:
192,192,99925,1,0,0:0:0:0:
320,192,99986,1,0,0:0:0:0:
192,192,100047,1,0,0:0:0:0:
320,192,100107,1,0,0:0:0:0:
64,192,100168,1,0,0:0:0:0:
448,192,100168,1,0,0:0:0:0:
192,192,100229,1,0,0:0:0:0:
320,192,100289,1,0,0:0:0:0:
448,192,100349,1,0,0:0:0:0:
64,192,100410,1,0,0:0:0:0:
320,192,100410,1,0,0:0:0:0:
192,192,100470,1,0,0:0:0:0:
320,192,100531,1,0,0:0:0:0:
448,192,100531,1,0,0:0:0:0:
64,192,100592,1,0,0:0:0:0:
192,192,100652,1,0,0:0:0:0:
320,192,100713,1,0,0:0:0:0:
64,192,100774,1,0,0:0:0:0:
192,192,100774,1,0,0:0:0:0:
448,192,100834,1,0,0:0:0:0:
320,192,100895,1,0,0:0:0:0:
192,192,100956,1,0,0:0:0:0:
64,192,101016,1,0,0:0:0:0:
448,192,101077,1,0,0:0:0:0:
192,192,101137,1,0,0:0:0:0:
320,192,101198,1,0,0:0:0:0:
64,192,101259,1,0,0:0:0:0:
192,192,101319,1,0,0:0:0:0:
320,192,101379,1,0,0:0:0:0:
448,192,101379,1,0,0:0:0:0:
192,192,101440,1,0,0:0:0:0:
64,192,101500,1,0,0:0:0:0:
320,192,101500,1,0,0:0:0:0:
448,192,101561,1,0,0:0:0:0:
64,192,101622,1,0,0:0:0:0:
192,192,101622,1,0,0:0:0:0:
320,192,101682,1,0,0:0:0:0:
64,192,101743,1,0,0:0:0:0:
448,192,101743,1,0,0:0:0:0:
192,192,101804,1,0,0:0:0:0:
320,192,101864,1,0,0:0:0:0:
448,192,101925,1,0,0:0:0:0:
64,192,101986,1,0,0:0:0:0:
320,192,101986,1,0,0:0:0:0:
192,192,102046,1,0,0:0:0:0:
320,192,102107,1,0,0:0:0:0:
448,192,102107,1,0,0:0:0:0:
64,192,102168,1,0,0:0:0:0:
192,192,102228,1,0,0:0:0:0:
64,192,102289,1,0,0:0:0:0:
320,192,102349,1,0,0:0:0:0:
448,192,102349,1,0,0:0:0:0:
192,192,102409,1,0,0:0:0:0:
64,192,102470,1,0,0:0:0:0:
448,192,102470,1,0,0:0:0:0:
320,192,102531,1,0,0:0:0:0:
64,192,102591,1,0,0:0:0:0:
192,192,102591,1,0,0:0:0:0:
448,192,102652,1,0,0:0:0:0:
192,192,102713,1,0,0:0:0:0:
320,192,102713,1,0,0:0:0:0:
64,192,102773,1,0,0:0:0:0:
320,192,102834,1,0,0:0:0:0:
192,192,102895,1,0,0:0:0:0:
448,192,102955,1,0,0:0:0:0:
64,192,103016,1,0,0:0:0:0:
192,192,103077,1,0,0:0:0:0:
320,192,103137,1,0,0:0:0:0:
448,192,103198,1,0,0:0:0:0:
64,192,103259,1,0,0:0:0:0:
192,192,103319,1,0,0:0:0:0:
320,192,103379,1,0,0:0:0:0:
448,192,103440,1,0,0:0:0:0:
192,192,103500,1,0,0:0:0:0:
320,192,103561,1,0,0:0:0:0:
64,192,103622,1,0,0:0:0:0:
320,192,103682,1,0,0:0:0:0:
448,192,103682,1,0,0:0:0:0:
192,192,103743,1,0,0:0:0:0:
64,192,103804,1,0,0:0:0:0:
448,192,103864,1,0,0:0:0:0:
192,192,103925,1,0,0:0:0:0:
320,192,103986,1,0,0:0:0:0:
64,192,104046,1,0,0:0:0:0:
448,192,104046,1,0,0:0:0:0:
192,192,104107,1,0,0:0:0:0:
320,192,104168,1,0,0:0:0:0:
192,192,104228,1,0,0:0:0:0:
320,192,104289,1,0,0:0:0:0:
448,192,104289,1,0,0:0:0:0:
64,192,104349,1,0,0:0:0:0:
192,192,104409,1,0,0:0:0:0:
320,192,104409,1,0,0:0:0:0:
448,192,104470,1,0,0:0:0:0:
320,192,104531,1,0,0:0:0:0:
192,192,104591,1,0,0:0:0:0:
64,192,104652,1,0,0:0:0:0:
448,192,104652,1,0,0:0:0:0:
320,192,104713,1,0,0:0:0:0:
192,192,104773,1,0,0:0:0:0:
64,192,104834,1,0,0:0:0:0:
320,192,104895,1,0,0:0:0:0:
192,192,104955,1,0,0:0:0:0:
320,192,105016,1,0,0:0:0:0:
192,192,105077,1,0,0:0:0:0:
448,192,105137,1,0,0:0:0:0:
64,192,105198,1,0,0:0:0:0:
192,192,105259,1,0,0:0:0:0:
320,192,105259,1,0,0:0:0:0:
448,192,105319,1,0,0:0:0:0:
64,192,105379,1,0,0:0:0:0:
320,192,105379,1,0,0:0:0:0:
192,192,105440,1,0,0:0:0:0:
320,192,105500,1,0,0:0:0:0:
448,192,105500,1,0,0:0:0:0:
64,192,105561,1,0,0:0:0:0:
192,192,105622,1,0,0:0:0:0:
320,192,105622,1,0,0:0:0:0:
448,192,105682,1,0,0:0:0:0:
320,192,105743,1,0,0:0:0:0:
192,192,105804,1,0,0:0:0:0:
64,192,105864,1,0,0:0:0:0:
448,192,105925,1,0,0:0:0:0:
192,192,105986,1,0,0:0:0:0:
320,192,105986,1,0,0:0:0:0:
64,192,106046,1,0,0:0:0:0:
448,192,106107,1,0,0:0:0:0:
192,192,106168,1,0,0:0:0:0:
320,192,106228,1,0,0:0:0:0:
64,192,106289,1,0,0:0:0:0:
320,192,106349,1,0,0:0:0:0:
192,192,106409,1,0,0:0:0:0:
64,192,106470,1,0,0:0:0:0:
448,192,106470,1,0,0:0:0:0:
192,192,106531,1,0,0:0:0:0:
320,192,106591,1,0,0:0:0:0:
448,192,106591,1,0,0:0:0:0:
64,192,106652,1,0,0:0:0:0:
192,192,106713,1,0,0:0:0:0:
320,192,106773,1,0,0:0:0:0:
448,192,106834,1,0,0:0:0:0:
320,192,106895,1,0,0:0:0:0:
64,192,106955,1,0,0:0:0:0:
192,192,106955,1,0,0:0:0:0:
448,192,107016,1,0,0:0:0:0:
320,192,107077,1,0,0:0:0:0:
192,192,107137,1,0,0:0:0:0:
64,192,107198,1,0,0:0:0:0:
448,192,107259,1,0,0:0:0:0:
320,192,107319,1,0,0:0:0:0:
192,192,107379,1,0,0:0:0:0:
320,192,107440,1,0,0:0:0:0:
192,192,107500,1,0,0:0:0:0:
64,192,107561,1,0,0:0:0:0:
448,192,107561,1,0,0:0:0:0:
320,192,107622,1,0,0:0:0:0:
192,192,107682,1,0,0:0:0:0:
64,192,107743,1,0,0:0:0:0:
448,192,107804,1,0,0:0:0:0:
192,192,107864,1,0,0:0:0:0:
320,192,107925,1,0,0:0:0:0:
448,192,107925,1,0,0:0:0:0:
64,192,107986,1,0,0:0:0:0:
192,192,108046,1,0,0:0:0:0:
320,192,108107,1,0,0:0:0:0:
64,192,108168,1,0,0:0:0:0:
448,192,108168,1,0,0:0:0:0:
192,192,108228,1,0,0:0:0:0:
320,192,108289,1,0,0:0:0:0:
192,192,108349,1,0,0:0:0:0:
320,192,108409,1,0,0:0:0:0:
448,192,108409,1,0,0:0:0:0:
64,192,108470,1,0,0:0:0:0:
192,192,108531,1,0,0:0:0:0:
320,192,108531,1,0,0:0:0:0:
448,192,108591,1,0,0:0:0:0:
320,192,108652,1,0,0:0:0:0:
192,192,108713,1,0,0:0:0:0:
64,192,108773,1,0,0:0:0:0:
448,192,108834,1,0,0:0:0:0:
192,192,108894,1,0,0:0:0:0:
320,192,108955,1,0,0:0:0:0:
64,192,109016,1,0,0:0:0:0:
192,192,109076,1,0,0:0:0:0:
448,192,109137,1,0,0:0:0:0:
320,192,109198,1,0,0:0:0:0:
192,192,109258,1,0,0:0:0:0:
64,192,109319,1,0,0:0:0:0:
448,192,109379,1,0,0:0:0:0:
192,192,109439,1,0,0:0:0:0:
320,192,109500,1,0,0:0:0:0:
448,192,109500,1,0,0:0:0:0:
64,192,109561,1,0,0:0:0:0:
192,192,109621,1,0,0:0:0:0:
320,192,109682,1,0,0:0:0:0:
448,192,109743,1,0,0:0:0:0:
64,192,109803,1,0,0:0:0:0:
192,192,109864,1,0,0:0:0:0:
320,192,109864,1,0,0:0:0:0:
448,192,109925,1,0,0:0:0:0:
192,192,109985,1,0,0:0:0:0:
320,192,110046,1,0,0:0:0:0:
64,192,110107,1,0,0:0:0:0:
448,192,110107,1,0,0:0:0:0:
320,192,110167,1,0,0:0:0:0:
192,192,110228,1,0,0:0:0:0:
64,192,110289,1,0,0:0:0:0:
320,192,110349,1,0,0:0:0:0:
448,192,110349,1,0,0:0:0:0:
192,192,110409,1,0,0:0:0:0:
64,192,110470,1,0,0:0:0:0:
448,192,110470,1,0,0:0:0:0:
192,192,110530,1,0,0:0:0:0:
320,192,110591,1,0,0:0:0:0:
448,192,110652,1,0,0:0:0:0:
320,192,110712,1,0,0:0:0:0:
192,192,110773,1,0,0:0:0:0:
64,192,110834,1,0,0:0:0:0:
448,192,110894,1,0,0:0:0:0:
192,192,110955,1,0,0:0:0:0:
320,192,111016,1,0,0:0:0:0:
64,192,111076,1,0,0:0:0:0:
192,192,111137,1,0,0:0:0:0:
320,192,111198,1,0,0:0:0:0:
448,192,111258,1,0,0:0:0:0:
320,192,111319,1,0,0:0:0:0:
192,192,111379,1,0,0:0:0:0:
64,192,111439,1,0,0:0:0:0:
448,192,111439,1,0,0:0:0:0:
192,192,111682,1,0,0:0:0:0:
64,192,111803,1,0,0:0:0:0:
192,192,111925,1,0,0:0:0:0:
320,192,112046,1,0,0:0:0:0:
448,192,112167,1,0,0:0:0:0:
320,192,112289,1,0,0:0:0:0:
192,192,112409,1,0,0:0:0:0:
64,192,112530,1,0,0:0:0:0:
320,192,112530,1,0,0:0:0:0:
448,192,112530,1,0,0:0:0:0:
192,192,112652,1,0,0:0:0:0:
320,192,112773,1,0,0:0:0:0:
448,192,112894,1,0,0:0:0:0:
64,192,113016,1,0,0:0:0:0:
320,192,113016,1,0,0:0:0:0:
448,192,113076,1,0,0:0:0:0:
192,192,113137,1,0,0:0:0:0:
320,192,113258,1,0,0:0:0:0:
448,192,113379,1,0,0:0:0:0:
64,192,113500,1,0,0:0:0:0:
192,192,113500,1,0,0:0:0:0:
320,192,113500,1,0,0:0:0:0:
192,192,113621,1,0,0:0:0:0:
320,192,113743,1,0,0:0:0:0:
448,192,113864,1,0,0:0:0:0:
320,192,113925,1,0,0:0:0:0:
64,192,113985,1,0,0:0:0:0:
192,192,113985,1,0,0:0:0:0:
448,192,114046,1,0,0:0:0:0:
320,192,114107,1,0,0:0:0:0:
64,192,114228,1,0,0:0:0:0:
192,192,114289,1,0,0:0:0:0:
320,192,114349,1,0,0:0:0:0:
192,192,114409,1,0,0:0:0:0:
64,192,114470,1,0,0:0:0:0:
320,192,114470,1,0,0:0:0:0:
448,192,114470,1,0,0:0:0:0:
192,192,114591,1,0,0:0:0:0:
320,192,114712,1,0,0:0:0:0:
448,192,114834,1,0,0:0:0:0:
192,192,114894,1,0,0:0:0:0:
64,192,114955,1,0,0:0:0:0:
320,192,114955,1,0,0:0:0:0:
192,192,115016,1,0,0:0:0:0:
320,192,115076,1,0,0:0:0:0:
64,192,115198,1,0,0:0:0:0:
192,192,115319,1,0,0:0:0:0:
64,192,115439,1,0,0:0:0:0:
320,192,115439,1,0,0:0:0:0:
448,192,115439,1,0,0:0:0:0:
192,192,115561,1,0,0:0:0:0:
320,192,115682,1,0,0:0:0:0:
448,192,115803,1,0,0:0:0:0:
320,192,115864,1,0,0:0:0:0:
64,192,115925,1,0,0:0:0:0:
192,192,115925,1,0,0:0:0:0:
448,192,115985,1,0,0:0:0:0:
320,192,116046,1,0,0:0:0:0:
64,192,116167,1,0,0:0:0:0:
192,192,116228,1,0,0:0:0:0:
320,192,116289,1,0,0:0:0:0:
192,192,116349,1,0,0:0:0:0:
64,192,116409,1,0,0:0:0:0:
320,192,116409,1,0,0:0:0:0:
448,192,116409,1,0,0:0:0:0:
192,192,116530,1,0,0:0:0:0:
320,192,116652,1,0,0:0:0:0:
448,192,116773,1,0,0:0:0:0:
320,192,116834,1,0,0:0:0:0:
64,192,116894,1,0,0:0:0:0:
192,192,116894,1,0,0:0:0:0:
320,192,116955,1,0,0:0:0:0:
448,192,117016,1,0,0:0:0:0:
192,192,117137,1,0,0:0:0:0:
320,192,117258,1,0,0:0:0:0:
64,192,117379,1,0,0:0:0:0:
192,192,117379,1,0,0:0:0:0:
448,192,117379,1,0,0:0:0:0:
64,192,117500,1,0,0:0:0:0:
320,192,117621,1,0,0:0:0:0:
192,192,117743,1,0,0:0:0:0:
64,192,117803,1,0,0:0:0:0:
320,192,117864,1,0,0:0:0:0:
448,192,117864,1,0,0:0:0:0:
192,192,117925,1,0,0:0:0:0:
64,192,117985,1,0,0:0:0:0:
320,192,118106,1,0,0:0:0:0:
192,192,118167,1,0,0:0:0:0:
448,192,118228,1,0,0:0:0:0:
320,192,118288,1,0,0:0:0:0:
64,192,118349,1,0,0:0:0:0:
192,192,118349,1,0,0:0:0:0:
448,192,118349,1,0,0:0:0:0:
320,192,118469,1,0,0:0:0:0:
192,192,118591,1,0,0:0:0:0:
448,192,118712,1,0,0:0:0:0:
320,192,118773,1,0,0:0:0:0:
64,192,118833,1,0,0:0:0:0:
192,192,118833,1,0,0:0:0:0:
320,192,118894,1,0,0:0:0:0:
448,192,118955,1,0,0:0:0:0:
192,192,119076,1,0,0:0:0:0:
320,192,119197,1,0,0:0:0:0:
64,192,119319,1,0,0:0:0:0:
192,192,119319,1,0,0:0:0:0:
448,192,119319,1,0,0:0:0:0:
320,192,119439,1,0,0:0:0:0:
64,192,119560,1,0,0:0:0:0:
320,192,119682,1,0,0:0:0:0:
192,192,119743,1,0,0:0:0:0:
64,192,119803,1,0,0:0:0:0:
448,192,119803,1,0,0:0:0:0:
192,192,119864,1,0,0:0:0:0:
320,192,119925,1,0,0:0:0:0:
448,192,120046,1,0,0:0:0:0:
320,192,120107,1,0,0:0:0:0:
192,192,120167,1,0,0:0:0:0:
320,192,120228,1,0,0:0:0:0:
64,192,120289,1,0,0:0:0:0:
192,192,120289,1,0,0:0:0:0:
448,192,120289,1,0,0:0:0:0:
320,192,120409,1,0,0:0:0:0:
192,192,120530,1,0,0:0:0:0:
448,192,120652,1,0,0:0:0:0:
192,192,120712,1,0,0:0:0:0:
64,192,120773,1,0,0:0:0:0:
320,192,120773,1,0,0:0:0:0:
192,192,120834,1,0,0:0:0:0:
448,192,120894,1,0,0:0:0:0:
64,192,121016,1,0,0:0:0:0:
192,192,121137,1,0,0:0:0:0:
64,192,121258,1,0,0:0:0:0:
320,192,121258,1,0,0:0:0:0:
448,192,121258,1,0,0:0:0:0:
320,192,121379,1,0,0:0:0:0:
192,192,121500,1,0,0:0:0:0:
448,192,121621,1,0,0:0:0:0:
64,192,121682,1,0,0:0:0:0:
192,192,121743,1,0,0:0:0:0:
320,192,121743,1,0,0:0:0:0:
448,192,121803,1,0,0:0:0:0:
64,192,121864,1,0,0:0:0:0:
448,192,121985,1,0,0:0:0:0:
320,192,122046,1,0,0:0:0:0:
192,192,122107,1,0,0:0:0:0:
320,192,122167,1,0,0:0:0:0:
64,192,122228,1,0,0:0:0:0:
192,192,122228,1,0,0:0:0:0:
448,192,122228,1,0,0:0:0:0:
320,192,122349,1,0,0:0:0:0:
64,192,122470,1,0,0:0:0:0:
448,192,122591,1,0,0:0:0:0:
320,192,122652,1,0,0:0:0:0:
64,192,122712,1,0,0:0:0:0:
192,192,122712,1,0,0:0:0:0:
320,192,122773,1,0,0:0:0:0:
448,192,122834,1,0,0:0:0:0:
64,192,122955,1,0,0:0:0:0:
192,192,123076,1,0,0:0:0:0:
64,192,123198,1,0,0:0:0:0:
320,192,123198,1,0,0:0:0:0:
448,192,123198,1,0,0:0:0:0:
192,192,123258,1,0,0:0:0:0:
320,192,123319,1,0,0:0:0:0:
192,192,123439,1,0,0:0:0:0:
64,192,123561,1,0,0:0:0:0:
192,192,123622,1,0,0:0:0:0:
320,192,123682,1,0,0:0:0:0:
448,192,123682,1,0,0:0:0:0:
64,192,123743,1,0,0:0:0:0:
192,192,123804,1,0,0:0:0:0:
448,192,123925,1,0,0:0:0:0:
320,192,123986,1,0,0:0:0:0:
192,192,124046,1,0,0:0:0:0:
64,192,124107,1,0,0:0:0:0:
192,192,124168,1,0,0:0:0:0:
320,192,124168,1,0,0:0:0:0:
448,192,124168,1,0,0:0:0:0:
64,192,124228,1,0,0:0:0:0:
320,192,124289,1,0,0:0:0:0:
192,192,124409,1,0,0:0:0:0:
320,192,124531,1,0,0:0:0:0:
192,192,124591,1,0,0:0:0:0:
64,192,124652,1,0,0:0:0:0:
448,192,124652,1,0,0:0:0:0:
320,192,124713,1,0,0:0:0:0:
192,192,124773,1,0,0:0:0:0:
64,192,124895,1,0,0:0:0:0:
448,192,125016,1,0,0:0:0:0:
64,192,125137,1,0,0:0:0:0:
192,192,125137,1,0,0:0:0:0:
320,192,125137,1,0,0:0:0:0:
448,192,125259,1,0,0:0:0:0:
192,192,125379,1,0,0:0:0:0:
320,192,125500,1,0,0:0:0:0:
448,192,125561,1,0,0:0:0:0:
64,192,125622,1,0,0:0:0:0:
192,192,125622,1,0,0:0:0:0:
320,192,125682,1,0,0:0:0:0:
448,192,125743,1,0,0:0:0:0:
192,192,125864,1,0,0:0:0:0:
320,192,125925,1,0,0:0:0:0:
64,192,125986,1,0,0:0:0:0:
192,192,126046,1,0,0:0:0:0:
64,192,126107,1,0,0:0:0:0:
320,192,126107,1,0,0:0:0:0:
448,192,126107,1,0,0:0:0:0:
192,192,126228,1,0,0:0:0:0:
320,192,126349,1,0,0:0:0:0:
64,192,126470,1,0,0:0:0:0:
448,192,126470,1,0,0:0:0:0:
192,192,126591,1,0,0:0:0:0:
320,192,126591,1,0,0:0:0:0:
448,192,126652,1,0,0:0:0:0:
64,192,126713,1,0,0:0:0:0:
192,192,126834,1,0,0:0:0:0:
320,192,126955,1,0,0:0:0:0:
64,192,127077,1,0,0:0:0:0:
192,192,127077,1,0,0:0:0:0:
448,192,127077,1,0,0:0:0:0:
320,192,127198,1,0,0:0:0:0:
448,192,127198,1,0,0:0:0:0:
64,192,127440,1,0,0:0:0:0:
448,192,127440,1,0,0:0:0:0:
192,192,127561,1,0,0:0:0:0:
320,192,127561,1,0,0:0:0:0:
64,192,127682,1,0,0:0:0:0:
192,192,127682,1,0,0:0:0:0:
320,192,127804,1,0,0:0:0:0:
192,192,127925,1,0,0:0:0:0:
448,192,127925,1,0,0:0:0:0:
64,192,128046,1,0,0:0:0:0:
320,192,128046,1,0,0:0:0:0:
448,192,128046,1,0,0:0:0:0:
192,192,128168,1,0,0:0:0:0:
64,192,128289,1,0,0:0:0:0:
320,192,128289,1,0,0:0:0:0:
448,192,128409,1,0,0:0:0:0:
320,192,128470,1,0,0:0:0:0:
64,192,128531,1,0,0:0:0:0:
192,192,128531,1,0,0:0:0:0:
448,192,128591,1,0,0:0:0:0:
64,192,128652,1,0,0:0:0:0:
192,192,128652,1,0,0:0:0:0:
320,192,128773,1,0,0:0:0:0:
448,192,128773,1,0,0:0:0:0:
192,192,128895,1,0,0:0:0:0:
64,192,129016,1,0,0:0:0:0:
448,192,129016,1,0,0:0:0:0:
64,192,129138,1,0,0:0:0:0:
192,192,129138,1,0,0:0:0:0:
192,192,129259,1,0,0:0:0:0:
320,192,129259,1,0,0:0:0:0:
448,192,129379,1,0,0:0:0:0:
192,192,129440,1,0,0:0:0:0:
320,192,129501,1,0,0:0:0:0:
448,192,129501,1,0,0:0:0:0:
64,192,129561,1,0,0:0:0:0:
192,192,129622,1,0,0:0:0:0:
320,192,129622,1,0,0:0:0:0:
64,192,129743,1,0,0:0:0:0:
448,192,129743,1,0,0:0:0:0:
192,192,129865,1,0,0:0:0:0:
320,192,129925,1,0,0:0:0:0:
64,192,129986,1,0,0:0:0:0:
448,192,129986,1,0,0:0:0:0:
192,192,130107,1,0,0:0:0:0:
320,192,130107,1,0,0:0:0:0:
64,192,130229,1,0,0:0:0:0:
448,192,130229,1,0,0:0:0:0:
320,192,130349,1,0,0:0:0:0:
192,192,130410,1,0,0:0:0:0:
64,192,130470,1,0,0:0:0:0:
320,192,130470,1,0,0:0:0:0:
192,192,130531,1,0,0:0:0:0:
64,192,130592,1,0,0:0:0:0:
448,192,130592,1,0,0:0:0:0:
192,192,130713,1,0,0:0:0:0:
320,192,130713,1,0,0:0:0:0:
448,192,130834,1,0,0:0:0:0:
64,192,130956,1,0,0:0:0:0:
192,192,130956,1,0,0:0:0:0:
448,192,131016,1,0,0:0:0:0:
192,192,131077,1,0,0:0:0:0:
320,192,131077,1,0,0:0:0:0:
64,192,131198,1,0,0:0:0:0:
448,192,131198,1,0,0:0:0:0:
192,192,131320,1,0,0:0:0:0:
320,192,131380,1,0,0:0:0:0:
64,192,131440,1,0,0:0:0:0:
448,192,131440,1,0,0:0:0:0:
192,192,131501,1,0,0:0:0:0:
320,192,131561,1,0,0:0:0:0:
448,192,131561,1,0,0:0:0:0:
64,192,131683,1,0,0:0:0:0:
192,192,131683,1,0,0:0:0:0:
448,192,131804,1,0,0:0:0:0:
64,192,131865,1,0,0:0:0:0:
192,192,131925,1,0,0:0:0:0:
320,192,131925,1,0,0:0:0:0:
64,192,131986,1,0,0:0:0:0:
320,192,132047,1,0,0:0:0:0:
448,192,132047,1,0,0:0:0:0:
64,192,132168,1,0,0:0:0:0:
192,192,132168,1,0,0:0:0:0:
448,192,132289,1,0,0:0:0:0:
320,192,132350,1,0,0:0:0:0:
64,192,132410,1,0,0:0:0:0:
192,192,132410,1,0,0:0:0:0:
448,192,132470,1,0,0:0:0:0:
64,192,132531,1,0,0:0:0:0:
320,192,132531,1,0,0:0:0:0:
192,192,132652,1,0,0:0:0:0:
448,192,132652,1,0,0:0:0:0:
320,192,132774,1,0,0:0:0:0:
64,192,132895,1,0,0:0:0:0:
448,192,132895,1,0,0:0:0:0:
192,192,132956,1,0,0:0:0:0:
320,192,133017,1,0,0:0:0:0:
448,192,133017,1,0,0:0:0:0:
64,192,133138,1,0,0:0:0:0:
192,192,133138,1,0,0:0:0:0:
448,192,133259,1,0,0:0:0:0:
192,192,133320,1,0,0:0:0:0:
320,192,133380,1,0,0:0:0:0:
448,192,133380,1,0,0:0:0:0:
64,192,133440,1,0,0:0:0:0:
192,192,133501,1,0,0:0:0:0:
320,192,133501,1,0,0:0:0:0:
64,192,133622,1,0,0:0:0:0:
448,192,133622,1,0,0:0:0:0:
192,192,133744,1,0,0:0:0:0:
320,192,133804,1,0,0:0:0:0:
64,192,133865,1,0,0:0:0:0:
192,192,133865,1,0,0:0:0:0:
448,192,133926,1,0,0:0:0:0:
192,192,133986,1,0,0:0:0:0:
320,192,133986,1,0,0:0:0:0:
64,192,134108,1,0,0:0:0:0:
448,192,134108,1,0,0:0:0:0:
192,192,134229,1,0,0:0:0:0:
320,192,134290,1,0,0:0:0:0:
64,192,134350,1,0,0:0:0:0:
192,192,134350,1,0,0:0:0:0:
448,192,134410,1,0,0:0:0:0:
192,192,134471,1,0,0:0:0:0:
320,192,134471,1,0,0:0:0:0:
64,192,134592,1,0,0:0:0:0:
448,192,134592,1,0,0:0:0:0:
192,192,134713,1,0,0:0:0:0:
320,192,134835,1,0,0:0:0:0:
448,192,134835,1,0,0:0:0:0:
64,192,134895,1,0,0:0:0:0:
192,192,134956,1,0,0:0:0:0:
320,192,134956,1,0,0:0:0:0:
448,192,135017,1,0,0:0:0:0:
64,192,135077,1,0,0:0:0:0:
192,192,135077,1,0,0:0:0:0:
320,192,135199,1,0,0:0:0:0:
192,192,135259,1,0,0:0:0:0:
320,192,135320,1,0,0:0:0:0:
448,192,135320,1,0,0:0:0:0:
64,192,135380,1,0,0:0:0:0:
192,192,135440,1,0,0:0:0:0:
320,192,135440,1,0,0:0:0:0:
64,192,135562,1,0,0:0:0:0:
448,192,135562,1,0,0:0:0:0:
192,192,135683,1,0,0:0:0:0:
320,192,135744,1,0,0:0:0:0:
64,192,135804,1,0,0:0:0:0:
192,192,135804,1,0,0:0:0:0:
320,192,135926,1,0,0:0:0:0:
448,192,135926,1,0,0:0:0:0:
192,192,136047,1,0,0:0:0:0:
320,192,136047,1,0,0:0:0:0:
64,192,136168,1,0,0:0:0:0:
448,192,136168,1,0,0:0:0:0:
192,192,136229,1,0,0:0:0:0:
320,192,136290,1,0,0:0:0:0:
448,192,136290,1,0,0:0:0:0:
192,192,136350,1,0,0:0:0:0:
64,192,136410,1,0,0:0:0:0:
448,192,136410,1,0,0:0:0:0:
192,192,136531,1,0,0:0:0:0:
320,192,136531,1,0,0:0:0:0:
320,192,136653,1,0,0:0:0:0:
448,192,136653,1,0,0:0:0:0:
64,192,136774,1,0,0:0:0:0:
192,192,136774,1,0,0:0:0:0:
320,192,136896,1,0,0:0:0:0:
448,192,136896,1,0,0:0:0:0:
64,192,137017,1,0,0:0:0:0:
320,192,137017,1,0,0:0:0:0:
64,192,137138,1,0,0:0:0:0:
192,192,137138,1,0,0:0:0:0:
448,192,137199,1,0,0:0:0:0:
192,192,137260,1,0,0:0:0:0:
320,192,137260,1,0,0:0:0:0:
64,192,137320,1,0,0:0:0:0:
320,192,137380,1,0,0:0:0:0:
448,192,137380,1,0,0:0:0:0:
64,192,137501,1,0,0:0:0:0:
192,192,137501,1,0,0:0:0:0:
320,192,137623,1,0,0:0:0:0:
448,192,137623,1,0,0:0:0:0:
192,192,137683,1,0,0:0:0:0:
320,192,137744,1,0,0:0:0:0:
448,192,137744,1,0,0:0:0:0:
64,192,137805,1,0,0:0:0:0:
192,192,137865,1,0,0:0:0:0:
320,192,137865,1,0,0:0:0:0:
64,192,137987,1,0,0:0:0:0:
448,192,137987,1,0,0:0:0:0:
192,192,138108,1,0,0:0:0:0:
320,192,138108,1,0,0:0:0:0:
448,192,138169,1,0,0:0:0:0:
64,192,138229,1,0,0:0:0:0:
192,192,138229,1,0,0:0:0:0:
320,192,138290,1,0,0:0:0:0:
64,192,138350,1,0,0:0:0:0:
448,192,138350,1,0,0:0:0:0:
192,192,138471,1,0,0:0:0:0:
320,192,138471,1,0,0:0:0:0:
320,192,138592,1,0,0:0:0:0:
448,192,138592,1,0,0:0:0:0:
64,192,138714,1,0,0:0:0:0:
192,192,138714,1,0,0:0:0:0:
448,192,138774,1,0,0:0:0:0:
192,192,138835,1,0,0:0:0:0:
320,192,138835,1,0,0:0:0:0:
320,192,138956,1,0,0:0:0:0:
448,192,138956,1,0,0:0:0:0:
64,192,139078,1,0,0:0:0:0:
192,192,139078,1,0,0:0:0:0:
448,192,139138,1,0,0:0:0:0:
64,192,139199,1,0,0:0:0:0:
320,192,139199,1,0,0:0:0:0:
192,192,139260,1,0,0:0:0:0:
320,192,139320,1,0,0:0:0:0:
448,192,139320,1,0,0:0:0:0:
64,192,139441,1,0,0:0:0:0:
192,192,139441,1,0,0:0:0:0:
320,192,139562,1,0,0:0:0:0:
448,192,139562,1,0,0:0:0:0:
64,192,139683,1,0,0:0:0:0:
192,192,139683,1,0,0:0:0:0:
320,192,139805,1,0,0:0:0:0:
192,192,139926,1,0,0:0:0:0:
448,192,140047,1,0,0:0:0:0:
192,192,140108,1,0,0:0:0:0:
64,192,140169,1,0,0:0:0:0:
320,192,140169,1,0,0:0:0:0:
192,192,140290,1,0,0:0:0:0:
448,192,140410,1,0,0:0:0:0:
64,192,140532,1,0,0:0:0:0:
320,192,140653,1,0,0:0:0:0:
448,192,140653,1,0,0:0:0:0:
192,192,140775,1,0,0:0:0:0:
64,192,140896,1,0,0:0:0:0:
320,192,141017,1,0,0:0:0:0:
192,192,141078,1,0,0:0:0:0:
64,192,141139,1,0,0:0:0:0:
448,192,141139,1,0,0:0:0:0:
192,192,141260,1,0,0:0:0:0:
320,192,141380,1,0,0:0:0:0:
448,192,141502,1,0,0:0:0:0:
64,192,141623,1,0,0:0:0:0:
320,192,141623,1,0,0:0:0:0:
448,192,141684,1,0,0:0:0:0:
192,192,141744,1,0,0:0:0:0:
320,192,141805,1,0,0:0:0:0:
64,192,141866,1,0,0:0:0:0:
192,192,141926,1,0,0:0:0:0:
320,192,141987,1,0,0:0:0:0:
448,192,141987,1,0,0:0:0:0:
192,192,142048,1,0,0:0:0:0:
320,192,142108,1,0,0:0:0:0:
448,192,142169,1,0,0:0:0:0:
64,192,142230,1,0,0:0:0:0:
192,192,142290,1,0,0:0:0:0:
320,192,142350,1,0,0:0:0:0:
448,192,142350,1,0,0:0:0:0:
64,192,142411,1,0,0:0:0:0:
192,192,142471,1,0,0:0:0:0:
320,192,142532,1,0,0:0:0:0:
64,192,142593,1,0,0:0:0:0:
448,192,142593,1,0,0:0:0:0:
192,192,142653,1,0,0:0:0:0:
320,0,142714,128,0,142775:1:0:0:0:
64,192,142775,1,0,0:0:0:0:
448,0,142835,128,0,142896:1:0:0:0:
192,192,142896,1,0,0:0:0:0:
320,192,142957,1,0,0:0:0:0:
192,192,143017,1,0,0:0:0:0:
64,0,143078,128,0,143139:1:0:0:0:
320,192,143139,1,0,0:0:0:0:
192,0,143199,128,0,143260:1:0:0:0:
448,192,143260,1,0,0:0:0:0:
320,0,143320,128,0,143380:1:0:0:0:
64,192,143380,1,0,0:0:0:0:
448,0,143441,128,0,143502:1:0:0:0:
192,192,143502,1,0,0:0:0:0:
320,192,143562,1,0,0:0:0:0:
192,0,143684,128,0,143805:1:0:0:0:
64,192,143805,1,0,0:0:0:0:
448,0,143926,128,0,144048:1:0:0:0:
320,192,144048,1,0,0:0:0:0:
64,0,144169,128,0,144290:1:0:0:0:
192,192,144290,1,0,0:0:0:0:
64,192,144411,1,0,0:0:0:0:
320,0,144411,128,0,144532:1:0:0:0:
448,0,144532,128,0,144653:1:0:0:0:
192,192,144593,1,0,0:0:0:0:
64,0,144653,128,0,144775:1:0:0:0:
192,0,144775,128,0,144896:1:0:0:0:
448,0,144896,128,0,145017:1:0:0:0:
320,192,145017,1,0,0:0:0:0:
192,0,145139,128,0,145260:1:0:0:0:
448,0,145260,128,0,145380:1:0:0:0:
64,0,145380,128,0,145502:1:0:0:0:
192,192,145502,1,0,0:0:0:0:
448,192,145502,1,0,0:0:0:0:
320,0,145623,128,0,145744:1:0:0:0:
192,192,145744,1,0,0:0:0:0:
448,0,145866,128,0,145987:1:0:0:0:
192,192,145987,1,0,0:0:0:0:
64,0,146108,128,0,146230:1:0:0:0:
448,192,146230,1,0,0:0:0:0:
64,192,146350,1,0,0:0:0:0:
320,0,146350,128,0,146471:1:0:0:0:
192,0,146471,128,0,146593:1:0:0:0:
320,0,146593,128,0,146714:1:0:0:0:
448,0,146714,128,0,146835:1:0:0:0:
320,0,146835,128,0,146957:1:0:0:0:
192,0,146957,128,0,147078:1:0:0:0:
64,0,147078,128,0,147199:1:0:0:0:
320,0,147199,128,0,147320:1:0:0:0:
192,0,147320,128,0,147441:1:0:0:0:
64,192,147441,1,0,0:0:0:0:
448,0,147441,128,0,147562:1:0:0:0:
320,0,147562,128,0,147684:1:0:0:0:
64,0,147684,128,0,147805:1:0:0:0:
192,0,147805,128,0,147926:1:0:0:0:
448,192,147926,1,0,0:0:0:0:
320,0,148048,128,0,148169:1:0:0:0:
64,192,148169,1,0,0:0:0:0:
320,192,148290,1,0,0:0:0:0:
448,0,148290,128,0,148411:1:0:0:0:
320,0,148532,128,0,148653:1:0:0:0:
192,0,148653,128,0,148775:1:0:0:0:
64,0,148775,128,0,148896:1:0:0:0:
320,192,148896,1,0,0:0:0:0:
448,0,149017,128,0,149139:1:0:0:0:
320,0,149139,128,0,149260:1:0:0:0:
192,0,149260,128,0,149380:1:0:0:0:
64,192,149380,1,0,0:0:0:0:
448,192,149380,1,0,0:0:0:0:
320,0,149502,128,0,149623:1:0:0:0:
192,192,149623,1,0,0:0:0:0:
320,0,149744,128,0,149866:1:0:0:0:
192,192,149866,1,0,0:0:0:0:
64,0,149987,128,0,150108:1:0:0:0:
320,192,150108,1,0,0:0:0:0:
64,192,150230,1,0,0:0:0:0:
192,0,150230,128,0,150290:1:0:0:0:
320,192,150290,1,0,0:0:0:0:
192,192,150350,1,0,0:0:0:0:
64,192,150411,1,0,0:0:0:0:
448,0,150471,128,0,150532:1:0:0:0:
320,0,150532,128,0,150593:1:0:0:0:
192,0,150593,128,0,150653:1:0:0:0:
64,192,150653,1,0,0:0:0:0:
320,0,150714,128,0,150775:1:0:0:0:
192,192,150775,1,0,0:0:0:0:
448,0,150835,128,0,150896:1:0:0:0:
64,192,150896,1,0,0:0:0:0:
192,0,150957,128,0,151017:1:0:0:0:
320,192,151017,1,0,0:0:0:0:
64,0,151078,128,0,151139:1:0:0:0:
192,192,151139,1,0,0:0:0:0:
320,192,151199,1,0,0:0:0:0:
448,192,151260,1,0,0:0:0:0:
64,192,151320,1,0,0:0:0:0:
192,192,151320,1,0,0:0:0:0:
192,192,151441,1,0,0:0:0:0:
320,0,151562,128,0,151684:1:0:0:0:
448,0,151684,128,0,151805:1:0:0:0:
320,192,151805,1,0,0:0:0:0:
192,0,151926,128,0,152048:1:0:0:0:
448,192,152048,1,0,0:0:0:0:
192,192,152169,1,0,0:0:0:0:
320,0,152169,128,0,152290:1:0:0:0:
64,192,152290,1,0,0:0:0:0:
448,0,152411,128,0,152532:1:0:0:0:
192,0,152532,128,0,152653:1:0:0:0:
64,0,152653,128,0,152775:1:0:0:0:
448,192,152775,1,0,0:0:0:0:
320,0,152896,128,0,153017:1:0:0:0:
192,192,153017,1,0,0:0:0:0:
448,0,153139,128,0,153260:1:0:0:0:
64,192,153260,1,0,0:0:0:0:
192,192,153260,1,0,0:0:0:0:
320,0,153380,128,0,153502:1:0:0:0:
192,0,153502,128,0,153623:1:0:0:0:
64,0,153623,128,0,153744:1:0:0:0:
448,192,153744,1,0,0:0:0:0:
320,0,153866,128,0,153987:1:0:0:0:
64,192,153987,1,0,0:0:0:0:
448,192,153987,1,0,0:0:0:0:
320,192,154108,1,0,0:0:0:0:
192,0,154108,128,0,154230:1:0:0:0:
64,0,154350,128,0,154471:1:0:0:0:
448,0,154471,128,0,154593:1:0:0:0:
192,0,154593,128,0,154714:1:0:0:0:
64,192,154714,1,0,0:0:0:0:
320,0,154835,128,0,154957:1:0:0:0:
192,192,154957,1,0,0:0:0:0:
448,0,155078,128,0,155199:1:0:0:0:
64,192,155199,1,0,0:0:0:0:
192,192,155199,1,0,0:0:0:0:
320,192,155320,1,0,0:0:0:0:
64,0,155441,128,0,155562:1:0:0:0:
192,0,155562,128,0,155684:1:0:0:0:
320,192,155684,1,0,0:0:0:0:
320,0,155805,128,0,155926:1:0:0:0:
64,192,155926,1,0,0:0:0:0:
320,192,156048,1,0,0:0:0:0:
448,0,156048,128,0,156169:1:0:0:0:
192,0,156290,128,0,156411:1:0:0:0:
320,0,156411,128,0,156532:1:0:0:0:
192,0,156532,128,0,156653:1:0:0:0:
448,192,156653,1,0,0:0:0:0:
64,0,156775,128,0,156896:1:0:0:0:
192,0,156896,128,0,157017:1:0:0:0:
320,0,157017,128,0,157139:1:0:0:0:
64,192,157139,1,0,0:0:0:0:
448,0,157139,128,0,157199:1:0:0:0:
320,192,157199,1,0,0:0:0:0:
192,192,157260,1,0,0:0:0:0:
64,192,157320,1,0,0:0:0:0:
320,0,157380,128,0,157441:1:0:0:0:
448,192,157441,1,0,0:0:0:0:
192,0,157502,128,0,157562:1:0:0:0:
64,192,157562,1,0,0:0:0:0:
320,192,157623,1,0,0:0:0:0:
192,192,157684,1,0,0:0:0:0:
64,0,157744,128,0,157805:1:0:0:0:
448,192,157805,1,0,0:0:0:0:
320,192,157866,1,0,0:0:0:0:
192,192,157926,1,0,0:0:0:0:
448,0,157987,128,0,158108:1:0:0:0:
64,192,158048,1,0,0:0:0:0:
192,192,158108,1,0,0:0:0:0:
448,192,158169,1,0,0:0:0:0:
320,0,158230,128,0,158290:1:0:0:0:
192,192,158290,1,0,0:0:0:0:
320,0,158350,128,0,158411:1:0:0:0:
192,192,158411,1,0,0:0:0:0:
64,192,158471,1,0,0:0:0:0:
448,192,158532,1,0,0:0:0:0:
320,0,158593,128,0,158653:1:0:0:0:
192,192,158653,1,0,0:0:0:0:
64,192,158714,1,0,0:0:0:0:
320,192,158775,1,0,0:0:0:0:
192,192,158835,1,0,0:0:0:0:
448,192,158896,1,0,0:0:0:0:
320,192,158957,1,0,0:0:0:0:
192,192,159017,1,0,0:0:0:0:
448,192,159078,1,0,0:0:0:0:
64,0,159078,128,0,159139:1:0:0:0:
320,0,159199,128,0,159260:1:0:0:0:
192,0,159320,128,0,159380:1:0:0:0:
448,0,159441,128,0,159502:1:0:0:0:
64,0,159562,128,0,159623:1:0:0:0:
192,0,159684,128,0,159744:1:0:0:0:
320,0,159805,128,0,159866:1:0:0:0:
64,192,159926,1,0,0:0:0:0:
448,0,159926,128,0,160048:1:0:0:0:
448,0,160169,128,0,160230:1:0:0:0:
320,0,160290,128,0,160350:1:0:0:0:
192,0,160411,128,0,160472:1:0:0:0:
320,0,160532,128,0,160593:1:0:0:0:
448,0,160654,128,0,160714:1:0:0:0:
320,0,160714,128,0,160775:1:0:0:0:
192,0,160775,128,0,160836:1:0:0:0:
320,0,160896,128,0,160957:1:0:0:0:
192,192,161018,1,0,0:0:0:0:
448,0,161018,128,0,161078:1:0:0:0:
64,0,161139,128,0,161200:1:0:0:0:
192,0,161260,128,0,161320:1:0:0:0:
320,0,161381,128,0,161441:1:0:0:0:
448,0,161502,128,0,161563:1:0:0:0:
320,0,161623,128,0,161684:1:0:0:0:
192,0,161745,128,0,161805:1:0:0:0:
320,192,161866,1,0,0:0:0:0:
64,0,161866,128,0,161927:1:0:0:0:
448,0,161987,128,0,162048:1:0:0:0:
320,0,162109,128,0,162169:1:0:0:0:
192,0,162230,128,0,162290:1:0:0:0:
64,0,162350,128,0,162411:1:0:0:0:
192,0,162472,128,0,162532:1:0:0:0:
320,0,162532,128,0,162654:1:0:0:0:
64,0,162836,128,0,162896:1:0:0:0:
320,0,162896,128,0,162957:1:0:0:0:
448,192,162957,1,0,0:0:0:0:
192,0,162957,128,0,163078:1:0:0:0:
192,0,163200,128,0,163320:1:0:0:0:
192,0,163441,128,0,163502:1:0:0:0:
320,0,163563,128,0,163684:1:0:0:0:
64,192,163805,1,0,0:0:0:0:
448,0,163805,128,0,163927:1:0:0:0:
320,0,164048,128,0,164169:1:0:0:0:
192,0,164290,128,0,164411:1:0:0:0:
320,0,164532,128,0,164654:1:0:0:0:
64,0,164775,128,0,164896:1:0:0:0:
192,192,164896,1,0,0:0:0:0:
320,192,164896,1,0,0:0:0:0:
448,0,165018,128,0,165139:1:0:0:0:
448,0,165260,128,0,165381:1:0:0:0:
320,0,165502,128,0,165563:1:0:0:0:
192,0,165623,128,0,165684:1:0:0:0:
448,192,165745,1,0,0:0:0:0:
64,0,165745,128,0,165806:1:0:0:0:
320,0,165866,128,0,165927:1:0:0:0:
448,0,165988,128,0,166048:1:0:0:0:
320,0,166109,128,0,166170:1:0:0:0:
192,0,166230,128,0,166290:1:0:0:0:
320,0,166351,128,0,166472:1:0:0:0:
64,0,166593,128,0,166654:1:0:0:0:
192,0,166715,128,0,166775:1:0:0:0:
448,192,166836,1,0,0:0:0:0:
320,0,166836,128,0,166957:1:0:0:0:
192,192,166897,1,0,0:0:0:0:
64,192,166957,1,0,0:0:0:0:
448,192,167018,1,0,0:0:0:0:
320,192,167079,1,0,0:0:0:0:
192,192,167139,1,0,0:0:0:0:
320,0,167200,128,0,167320:1:0:0:0:
192,192,167260,1,0,0:0:0:0:
64,192,167320,1,0,0:0:0:0:
320,192,167381,1,0,0:0:0:0:
448,0,167442,128,0,167502:1:0:0:0:
192,192,167502,1,0,0:0:0:0:
320,0,167563,128,0,167624:1:0:0:0:
64,192,167624,1,0,0:0:0:0:
320,0,167684,128,0,167745:1:0:0:0:
192,192,167745,1,0,0:0:0:0:
448,192,167806,1,0,0:0:0:0:
320,192,167866,1,0,0:0:0:0:
192,0,167927,128,0,167988:1:0:0:0:
64,192,167988,1,0,0:0:0:0:
320,0,168048,128,0,168109:1:0:0:0:
192,192,168109,1,0,0:0:0:0:
448,0,168170,128,0,168290:1:0:0:0:
320,192,168230,1,0,0:0:0:0:
192,192,168290,1,0,0:0:0:0:
64,192,168351,1,0,0:0:0:0:
320,192,168411,1,0,0:0:0:0:
192,192,168472,1,0,0:0:0:0:
64,0,168533,128,0,168654:1:0:0:0:
320,192,168593,1,0,0:0:0:0:
448,192,168654,1,0,0:0:0:0:
64,192,168715,1,0,0:0:0:0:
192,192,168775,1,0,0:0:0:0:
320,0,168775,128,0,168897:1:0:0:0:
320,0,169139,128,0,169260:1:0:0:0:
192,0,169381,128,0,169442:1:0:0:0:
320,0,169502,128,0,169563:1:0:0:0:
64,192,169624,1,0,0:0:0:0:
448,0,169624,128,0,170230:1:0:0:0:
192,192,169867,1,0,0:0:0:0:
64,192,169988,1,0,0:0:0:0:
320,192,169988,1,0,0:0:0:0:
320,192,170230,1,0,0:0:0:0:
320,192,170351,1,0,0:0:0:0:
64,0,170472,128,0,170533:1:0:0:0:
192,0,170594,128,0,170654:1:0:0:0:
448,192,170715,1,0,0:0:0:0:
320,0,170715,128,0,170836:1:0:0:0:
448,0,170958,128,0,171018:1:0:0:0:
320,0,171079,128,0,171200:1:0:0:0:
192,0,171321,128,0,171442:1:0:0:0:
320,192,171563,1,0,0:0:0:0:
64,0,171563,128,0,171685:1:0:0:0:
448,0,171806,128,0,171927:1:0:0:0:
320,192,171927,1,0,0:0:0:0:
192,192,171988,1,0,0:0:0:0:
320,0,172049,128,0,172170:1:0:0:0:
192,192,172109,1,0,0:0:0:0:
64,192,172170,1,0,0:0:0:0:
192,0,172290,128,0,172351:1:0:0:0:
64,0,172412,128,0,172533:1:0:0:0:
320,192,172654,1,0,0:0:0:0:
448,0,172654,128,0,172897:1:0:0:0:
192,192,172715,1,0,0:0:0:0:
64,192,172776,1,0,0:0:0:0:
192,192,172836,1,0,0:0:0:0:
320,192,172897,1,0,0:0:0:0:
448,192,172958,1,0,0:0:0:0:
64,192,173018,1,0,0:0:0:0:
192,192,173079,1,0,0:0:0:0:
320,192,173140,1,0,0:0:0:0:
448,192,173140,1,0,0:0:0:0:
64,192,173200,1,0,0:0:0:0:
192,192,173260,1,0,0:0:0:0:
320,192,173260,1,0,0:0:0:0:
448,192,173321,1,0,0:0:0:0:
64,192,173381,1,0,0:0:0:0:
192,192,173381,1,0,0:0:0:0:
320,192,173442,1,0,0:0:0:0:
64,192,173503,1,0,0:0:0:0:
448,192,173503,1,0,0:0:0:0:
192,192,173564,1,0,0:0:0:0:
320,192,173624,1,0,0:0:0:0:
192,192,173685,1,0,0:0:0:0:
64,192,173746,1,0,0:0:0:0:
448,192,173806,1,0,0:0:0:0:
192,192,173867,1,0,0:0:0:0:
320,192,173867,1,0,0:0:0:0:
64,192,173928,1,0,0:0:0:0:
448,192,173988,1,0,0:0:0:0:
192,192,174049,1,0,0:0:0:0:
320,192,174110,1,0,0:0:0:0:
448,192,174110,1,0,0:0:0:0:
64,192,174170,1,0,0:0:0:0:
192,192,174230,1,0,0:0:0:0:
320,192,174291,1,0,0:0:0:0:
64,192,174351,1,0,0:0:0:0:
448,192,174351,1,0,0:0:0:0:
192,192,174412,1,0,0:0:0:0:
320,192,174473,1,0,0:0:0:0:
448,192,174473,1,0,0:0:0:0:
192,192,174533,1,0,0:0:0:0:
64,192,174594,1,0,0:0:0:0:
448,192,174655,1,0,0:0:0:0:
192,192,174715,1,0,0:0:0:0:
320,192,174776,1,0,0:0:0:0:
64,192,174837,1,0,0:0:0:0:
192,192,174897,1,0,0:0:0:0:
320,192,174958,1,0,0:0:0:0:
448,192,175019,1,0,0:0:0:0:
320,192,175079,1,0,0:0:0:0:
192,192,175140,1,0,0:0:0:0:
64,192,175200,1,0,0:0:0:0:
448,192,175260,1,0,0:0:0:0:
192,192,175321,1,0,0:0:0:0:
448,192,175382,1,0,0:0:0:0:
192,192,175442,1,0,0:0:0:0:
320,192,175442,1,0,0:0:0:0:
64,192,175503,1,0,0:0:0:0:
192,192,175564,1,0,0:0:0:0:
320,192,175624,1,0,0:0:0:0:
448,192,175685,1,0,0:0:0:0:
64,192,175746,1,0,0:0:0:0:
192,192,175806,1,0,0:0:0:0:
320,192,175806,1,0,0:0:0:0:
448,192,175867,1,0,0:0:0:0:
192,192,175928,1,0,0:0:0:0:
320,192,175988,1,0,0:0:0:0:
64,192,176049,1,0,0:0:0:0:
448,192,176049,1,0,0:0:0:0:
320,192,176110,1,0,0:0:0:0:
64,192,176170,1,0,0:0:0:0:
192,192,176170,1,0,0:0:0:0:
448,192,176230,1,0,0:0:0:0:
192,192,176291,1,0,0:0:0:0:
320,192,176351,1,0,0:0:0:0:
64,192,176412,1,0,0:0:0:0:
448,192,176412,1,0,0:0:0:0:
192,192,176473,1,0,0:0:0:0:
320,192,176533,1,0,0:0:0:0:
192,192,176594,1,0,0:0:0:0:
64,192,176655,1,0,0:0:0:0:
448,192,176715,1,0,0:0:0:0:
320,192,176776,1,0,0:0:0:0:
192,192,176837,1,0,0:0:0:0:
64,192,176897,1,0,0:0:0:0:
320,192,176958,1,0,0:0:0:0:
64,192,177019,1,0,0:0:0:0:
192,192,177019,1,0,0:0:0:0:
448,192,177079,1,0,0:0:0:0:
192,192,177140,1,0,0:0:0:0:
320,192,177140,1,0,0:0:0:0:
64,192,177200,1,0,0:0:0:0:
320,192,177260,1,0,0:0:0:0:
448,192,177260,1,0,0:0:0:0:
192,192,177321,1,0,0:0:0:0:
64,192,177382,1,0,0:0:0:0:
448,192,177382,1,0,0:0:0:0:
192,192,177443,1,0,0:0:0:0:
320,192,177503,1,0,0:0:0:0:
448,192,177564,1,0,0:0:0:0:
64,192,177625,1,0,0:0:0:0:
192,192,177685,1,0,0:0:0:0:
320,192,177746,1,0,0:0:0:0:
448,192,177746,1,0,0:0:0:0:
192,192,177807,1,0,0:0:0:0:
64,192,177867,1,0,0:0:0:0:
448,192,177928,1,0,0:0:0:0:
192,192,177989,1,0,0:0:0:0:
320,192,177989,1,0,0:0:0:0:
448,192,178049,1,0,0:0:0:0:
64,192,178110,1,0,0:0:0:0:
192,192,178170,1,0,0:0:0:0:
320,192,178230,1,0,0:0:0:0:
448,192,178230,1,0,0:0:0:0:
64,192,178291,1,0,0:0:0:0:
192,192,178352,1,0,0:0:0:0:
320,192,178352,1,0,0:0:0:0:
448,192,178412,1,0,0:0:0:0:
320,192,178473,1,0,0:0:0:0:
192,192,178534,1,0,0:0:0:0:
64,192,178594,1,0,0:0:0:0:
448,192,178655,1,0,0:0:0:0:
192,192,178716,1,0,0:0:0:0:
320,192,178776,1,0,0:0:0:0:
64,192,178837,1,0,0:0:0:0:
192,192,178898,1,0,0:0:0:0:
320,192,178958,1,0,0:0:0:0:
448,192,179019,1,0,0:0:0:0:
64,192,179080,1,0,0:0:0:0:
192,192,179140,1,0,0:0:0:0:
320,192,179200,1,0,0:0:0:0:
192,192,179261,1,0,0:0:0:0:
320,192,179321,1,0,0:0:0:0:
448,192,179321,1,0,0:0:0:0:
64,192,179382,1,0,0:0:0:0:
448,192,179443,1,0,0:0:0:0:
320,192,179503,1,0,0:0:0:0:
192,192,179564,1,0,0:0:0:0:
64,192,179625,1,0,0:0:0:0:
320,192,179685,1,0,0:0:0:0:
448,192,179685,1,0,0:0:0:0:
192,192,179746,1,0,0:0:0:0:
448,192,179807,1,0,0:0:0:0:
64,192,179867,1,0,0:0:0:0:
192,192,179928,1,0,0:0:0:0:
320,192,179928,1,0,0:0:0:0:
448,192,179989,1,0,0:0:0:0:
64,192,180049,1,0,0:0:0:0:
192,192,180049,1,0,0:0:0:0:
320,192,180110,1,0,0:0:0:0:
64,192,180170,1,0,0:0:0:0:
448,192,180230,1,0,0:0:0:0:
192,192,180291,1,0,0:0:0:0:
320,192,180291,1,0,0:0:0:0:
64,192,180352,1,0,0:0:0:0:
448,192,180412,1,0,0:0:0:0:
320,192,180473,1,0,0:0:0:0:
192,192,180534,1,0,0:0:0:0:
64,192,180594,1,0,0:0:0:0:
192,192,180655,1,0,0:0:0:0:
320,192,180716,1,0,0:0:0:0:
448,192,180776,1,0,0:0:0:0:
192,192,180837,1,0,0:0:0:0:
320,192,180898,1,0,0:0:0:0:
448,192,180898,1,0,0:0:0:0:
64,192,180958,1,0,0:0:0:0:
192,192,181019,1,0,0:0:0:0:
320,192,181019,1,0,0:0:0:0:
448,192,181079,1,0,0:0:0:0:
64,192,181139,1,0,0:0:0:0:
192,192,181139,1,0,0:0:0:0:
320,192,181200,1,0,0:0:0:0:
192,192,181261,1,0,0:0:0:0:
448,192,181261,1,0,0:0:0:0:
64,192,181322,1,0,0:0:0:0:
320,192,181382,1,0,0:0:0:0:
192,192,181443,1,0,0:0:0:0:
448,192,181504,1,0,0:0:0:0:
320,192,181564,1,0,0:0:0:0:
64,192,181625,1,0,0:0:0:0:
192,192,181625,1,0,0:0:0:0:
448,192,181686,1,0,0:0:0:0:
192,192,181746,1,0,0:0:0:0:
320,192,181807,1,0,0:0:0:0:
64,192,181868,1,0,0:0:0:0:
448,192,181868,1,0,0:0:0:0:
192,192,181928,1,0,0:0:0:0:
320,192,181989,1,0,0:0:0:0:
448,192,182049,1,0,0:0:0:0:
192,192,182109,1,0,0:0:0:0:
320,192,182109,1,0,0:0:0:0:
64,192,182170,1,0,0:0:0:0:
320,192,182231,1,0,0:0:0:0:
448,192,182231,1,0,0:0:0:0:
192,192,182291,1,0,0:0:0:0:
320,192,182352,1,0,0:0:0:0:
64,192,182413,1,0,0:0:0:0:
192,192,182473,1,0,0:0:0:0:
320,192,182534,1,0,0:0:0:0:
64,192,182595,1,0,0:0:0:0:
448,192,182595,1,0,0:0:0:0:
320,192,182655,1,0,0:0:0:0:
192,192,182716,1,0,0:0:0:0:
64,192,182777,1,0,0:0:0:0:
448,192,182837,1,0,0:0:0:0:
192,192,182898,1,0,0:0:0:0:
320,192,182959,1,0,0:0:0:0:
64,192,183019,1,0,0:0:0:0:
192,192,183079,1,0,0:0:0:0:
320,192,183140,1,0,0:0:0:0:
64,192,183200,1,0,0:0:0:0:
448,192,183200,1,0,0:0:0:0:
192,192,183261,1,0,0:0:0:0:
320,192,183322,1,0,0:0:0:0:
192,192,183382,1,0,0:0:0:0:
64,192,183443,1,0,0:0:0:0:
448,192,183504,1,0,0:0:0:0:
192,192,183564,1,0,0:0:0:0:
320,192,183564,1,0,0:0:0:0:
64,192,183625,1,0,0:0:0:0:
192,192,183686,1,0,0:0:0:0:
320,192,183746,1,0,0:0:0:0:
64,192,183807,1,0,0:0:0:0:
448,192,183807,1,0,0:0:0:0:
192,192,183868,1,0,0:0:0:0:
320,192,183928,1,0,0:0:0:0:
448,192,183989,1,0,0:0:0:0:
192,192,184049,1,0,0:0:0:0:
320,192,184049,1,0,0:0:0:0:
64,192,184109,1,0,0:0:0:0:
320,192,184170,1,0,0:0:0:0:
448,192,184170,1,0,0:0:0:0:
192,192,184231,1,0,0:0:0:0:
320,192,184291,1,0,0:0:0:0:
64,192,184352,1,0,0:0:0:0:
192,192,184413,1,0,0:0:0:0:
320,192,184473,1,0,0:0:0:0:
448,192,184534,1,0,0:0:0:0:
320,192,184595,1,0,0:0:0:0:
192,192,184655,1,0,0:0:0:0:
64,192,184716,1,0,0:0:0:0:
448,192,184777,1,0,0:0:0:0:
192,192,184837,1,0,0:0:0:0:
448,192,184898,1,0,0:0:0:0:
320,192,184959,1,0,0:0:0:0:
192,192,185019,1,0,0:0:0:0:
64,192,185079,1,0,0:0:0:0:
320,192,185140,1,0,0:0:0:0:
448,192,185140,1,0,0:0:0:0:
192,192,185201,1,0,0:0:0:0:
320,192,185261,1,0,0:0:0:0:
192,192,185322,1,0,0:0:0:0:
448,192,185383,1,0,0:0:0:0:
64,192,185443,1,0,0:0:0:0:
192,192,185504,1,0,0:0:0:0:
320,192,185504,1,0,0:0:0:0:
448,192,185565,1,0,0:0:0:0:
64,192,185625,1,0,0:0:0:0:
192,192,185686,1,0,0:0:0:0:
320,192,185747,1,0,0:0:0:0:
448,192,185747,1,0,0:0:0:0:
192,192,185807,1,0,0:0:0:0:
64,192,185868,1,0,0:0:0:0:
448,192,185929,1,0,0:0:0:0:
192,192,185989,1,0,0:0:0:0:
320,192,185989,1,0,0:0:0:0:
448,192,186049,1,0,0:0:0:0:
64,192,186110,1,0,0:0:0:0:
192,192,186110,1,0,0:0:0:0:
320,192,186170,1,0,0:0:0:0:
192,192,186231,1,0,0:0:0:0:
320,192,186292,1,0,0:0:0:0:
448,192,186352,1,0,0:0:0:0:
64,192,186413,1,0,0:0:0:0:
192,192,186474,1,0,0:0:0:0:
320,192,186534,1,0,0:0:0:0:
192,192,186595,1,0,0:0:0:0:
64,192,186656,1,0,0:0:0:0:
448,192,186716,1,0,0:0:0:0:
320,192,186777,1,0,0:0:0:0:
192,192,186838,1,0,0:0:0:0:
64,192,186898,1,0,0:0:0:0:
448,192,186959,1,0,0:0:0:0:
192,192,187019,1,0,0:0:0:0:
320,192,187079,1,0,0:0:0:0:
64,192,187140,1,0,0:0:0:0:
192,192,187201,1,0,0:0:0:0:
320,192,187261,1,0,0:0:0:0:
448,192,187322,1,0,0:0:0:0:
192,192,187383,1,0,0:0:0:0:
320,192,187443,1,0,0:0:0:0:
64,192,187504,1,0,0:0:0:0:
192,192,187565,1,0,0:0:0:0:
320,192,187625,1,0,0:0:0:0:
448,192,187686,1,0,0:0:0:0:
320,192,187747,1,0,0:0:0:0:
192,192,187807,1,0,0:0:0:0:
64,192,187868,1,0,0:0:0:0:
448,192,187929,1,0,0:0:0:0:
320,192,187989,1,0,0:0:0:0:
192,192,188049,1,0,0:0:0:0:
64,192,188110,1,0,0:0:0:0:
448,192,188170,1,0,0:0:0:0:
320,192,188231,1,0,0:0:0:0:
192,192,188292,1,0,0:0:0:0:
320,192,188352,1,0,0:0:0:0:
448,192,188413,1,0,0:0:0:0:
64,192,188474,1,0,0:0:0:0:
192,192,188534,1,0,0:0:0:0:
320,192,188595,1,0,0:0:0:0:
64,192,188656,1,0,0:0:0:0:
448,192,188656,1,0,0:0:0:0:
192,192,188716,1,0,0:0:0:0:
320,192,188777,1,0,0:0:0:0:
448,192,188777,1,0,0:0:0:0:
192,192,188838,1,0,0:0:0:0:
64,192,188898,1,0,0:0:0:0:
320,192,188898,1,0,0:0:0:0:
448,192,188959,1,0,0:0:0:0:
64,192,189019,1,0,0:0:0:0:
192,192,189019,1,0,0:0:0:0:
320,192,189080,1,0,0:0:0:0:
192,192,189140,1,0,0:0:0:0:
448,192,189201,1,0,0:0:0:0:
320,192,189262,1,0,0:0:0:0:
192,192,189322,1,0,0:0:0:0:
64,192,189383,1,0,0:0:0:0:
448,192,189383,1,0,0:0:0:0:
320,192,189444,1,0,0:0:0:0:
192,192,189504,1,0,0:0:0:0:
64,192,189565,1,0,0:0:0:0:
320,192,189626,1,0,0:0:0:0:
448,192,189626,1,0,0:0:0:0:
192,192,189686,1,0,0:0:0:0:
448,192,189747,1,0,0:0:0:0:
64,192,189808,1,0,0:0:0:0:
192,192,189868,1,0,0:0:0:0:
320,192,189868,1,0,0:0:0:0:
448,192,189929,1,0,0:0:0:0:
64,192,189989,1,0,0:0:0:0:
192,192,189989,1,0,0:0:0:0:
320,192,190049,1,0,0:0:0:0:
192,192,190110,1,0,0:0:0:0:
448,192,190171,1,0,0:0:0:0:
320,192,190231,1,0,0:0:0:0:
192,192,190292,1,0,0:0:0:0:
64,192,190353,1,0,0:0:0:0:
448,192,190413,1,0,0:0:0:0:
192,192,190474,1,0,0:0:0:0:
320,192,190535,1,0,0:0:0:0:
64,192,190595,1,0,0:0:0:0:
192,192,190656,1,0,0:0:0:0:
320,192,190717,1,0,0:0:0:0:
448,192,190777,1,0,0:0:0:0:
192,192,190838,1,0,0:0:0:0:
320,192,190899,1,0,0:0:0:0:
64,192,190959,1,0,0:0:0:0:
448,192,190959,1,0,0:0:0:0:
192,192,191019,1,0,0:0:0:0:
320,192,191080,1,0,0:0:0:0:
192,192,191140,1,0,0:0:0:0:
64,192,191201,1,0,0:0:0:0:
448,192,191262,1,0,0:0:0:0:
192,192,191322,1,0,0:0:0:0:
320,192,191322,1,0,0:0:0:0:
64,192,191383,1,0,0:0:0:0:
448,192,191444,1,0,0:0:0:0:
192,192,191504,1,0,0:0:0:0:
320,192,191565,1,0,0:0:0:0:
448,192,191565,1,0,0:0:0:0:
192,192,191626,1,0,0:0:0:0:
64,192,191686,1,0,0:0:0:0:
320,192,191686,1,0,0:0:0:0:
448,192,191747,1,0,0:0:0:0:
64,192,191808,1,0,0:0:0:0:
192,192,191868,1,0,0:0:0:0:
320,192,191929,1,0,0:0:0:0:
448,192,191929,1,0,0:0:0:0:
64,192,191989,1,0,0:0:0:0:
192,192,192049,1,0,0:0:0:0:
320,192,192110,1,0,0:0:0:0:
448,192,192171,1,0,0:0:0:0:
320,192,192231,1,0,0:0:0:0:
192,192,192292,1,0,0:0:0:0:
64,192,192353,1,0,0:0:0:0:
448,192,192413,1,0,0:0:0:0:
192,192,192474,1,0,0:0:0:0:
320,192,192535,1,0,0:0:0:0:
448,192,192535,1,0,0:0:0:0:
64,192,192595,1,0,0:0:0:0:
192,192,192656,1,0,0:0:0:0:
320,192,192656,1,0,0:0:0:0:
448,192,192717,1,0,0:0:0:0:
64,192,192777,1,0,0:0:0:0:
192,192,192777,1,0,0:0:0:0:
320,192,192838,1,0,0:0:0:0:
64,192,192899,1,0,0:0:0:0:
448,192,192899,1,0,0:0:0:0:
320,192,192959,1,0,0:0:0:0:
192,192,193019,1,0,0:0:0:0:
64,192,193080,1,0,0:0:0:0:
320,192,193141,1,0,0:0:0:0:
448,192,193141,1,0,0:0:0:0:
192,192,193201,1,0,0:0:0:0:
64,192,193262,1,0,0:0:0:0:
320,192,193262,1,0,0:0:0:0:
448,192,193323,1,0,0:0:0:0:
192,192,193383,1,0,0:0:0:0:
320,192,193444,1,0,0:0:0:0:
64,192,193505,1,0,0:0:0:0:
448,192,193505,1,0,0:0:0:0:
192,192,193565,1,0,0:0:0:0:
320,192,193626,1,0,0:0:0:0:
192,192,193687,1,0,0:0:0:0:
64,192,193747,1,0,0:0:0:0:
320,192,193747,1,0,0:0:0:0:
448,192,193808,1,0,0:0:0:0:
64,192,193869,1,0,0:0:0:0:
192,192,193869,1,0,0:0:0:0:
320,192,193929,1,0,0:0:0:0:
448,192,193989,1,0,0:0:0:0:
320,192,194050,1,0,0:0:0:0:
192,192,194110,1,0,0:0:0:0:
64,192,194171,1,0,0:0:0:0:
448,192,194232,1,0,0:0:0:0:
320,192,194292,1,0,0:0:0:0:
192,192,194353,1,0,0:0:0:0:
320,192,194414,1,0,0:0:0:0:
192,192,194474,1,0,0:0:0:0:
64,192,194535,1,0,0:0:0:0:
448,192,194596,1,0,0:0:0:0:
192,192,194656,1,0,0:0:0:0:
320,192,194717,1,0,0:0:0:0:
64,192,194778,1,0,0:0:0:0:
192,192,194838,1,0,0:0:0:0:
320,192,194838,1,0,0:0:0:0:
448,192,194899,1,0,0:0:0:0:
64,192,194959,1,0,0:0:0:0:
192,192,195019,1,0,0:0:0:0:
320,192,195080,1,0,0:0:0:0:
448,192,195141,1,0,0:0:0:0:
192,192,195201,1,0,0:0:0:0:
320,192,195201,1,0,0:0:0:0:
64,192,195262,1,0,0:0:0:0:
448,192,195323,1,0,0:0:0:0:
192,192,195383,1,0,0:0:0:0:
320,192,195444,1,0,0:0:0:0:
448,192,195444,1,0,0:0:0:0:
64,192,195505,1,0,0:0:0:0:
192,192,195565,1,0,0:0:0:0:
320,192,195565,1,0,0:0:0:0:
448,192,195626,1,0,0:0:0:0:
320,192,195687,1,0,0:0:0:0:
192,192,195747,1,0,0:0:0:0:
64,192,195808,1,0,0:0:0:0:
448,192,195808,1,0,0:0:0:0:
192,192,195869,1,0,0:0:0:0:
320,192,195929,1,0,0:0:0:0:
448,192,195989,1,0,0:0:0:0:
192,192,196050,1,0,0:0:0:0:
448,192,196110,1,0,0:0:0:0:
320,192,196171,1,0,0:0:0:0:
192,192,196232,1,0,0:0:0:0:
64,192,196292,1,0,0:0:0:0:
192,192,196353,1,0,0:0:0:0:
320,192,196414,1,0,0:0:0:0:
448,192,196414,1,0,0:0:0:0:
64,192,196474,1,0,0:0:0:0:
192,192,196535,1,0,0:0:0:0:
320,192,196535,1,0,0:0:0:0:
448,192,196596,1,0,0:0:0:0:
64,192,196656,1,0,0:0:0:0:
192,192,196656,1,0,0:0:0:0:
320,192,196717,1,0,0:0:0:0:
64,192,196778,1,0,0:0:0:0:
448,192,196778,1,0,0:0:0:0:
320,192,196839,1,0,0:0:0:0:
192,192,196899,1,0,0:0:0:0:
64,192,196959,1,0,0:0:0:0:
448,192,197020,1,0,0:0:0:0:
192,192,197080,1,0,0:0:0:0:
320,192,197141,1,0,0:0:0:0:
448,192,197141,1,0,0:0:0:0:
64,192,197202,1,0,0:0:0:0:
192,192,197262,1,0,0:0:0:0:
320,192,197323,1,0,0:0:0:0:
64,192,197384,1,0,0:0:0:0:
448,192,197384,1,0,0:0:0:0:
192,192,197444,1,0,0:0:0:0:
320,192,197505,1,0,0:0:0:0:
192,192,197566,1,0,0:0:0:0:
320,192,197626,1,0,0:0:0:0:
448,192,197626,1,0,0:0:0:0:
64,192,197687,1,0,0:0:0:0:
192,192,197748,1,0,0:0:0:0:
320,192,197748,1,0,0:0:0:0:
64,192,197808,1,0,0:0:0:0:
448,192,197869,1,0,0:0:0:0:
320,192,197929,1,0,0:0:0:0:
192,192,197989,1,0,0:0:0:0:
64,192,198050,1,0,0:0:0:0:
320,192,198111,1,0,0:0:0:0:
448,192,198111,1,0,0:0:0:0:
192,192,198171,1,0,0:0:0:0:
448,192,198232,1,0,0:0:0:0:
64,192,198293,1,0,0:0:0:0:
192,192,198353,1,0,0:0:0:0:
320,192,198414,1,0,0:0:0:0:
448,192,198475,1,0,0:0:0:0:
