osu file format v14

[General]
AudioFilename: Noise Channel Radio - Noisechan & Nugget- Adventures in Chiptunes - 01 Noise Channel Theme (Full Mix)_1,3.mp3
AudioLeadIn: 2
PreviewTime: 73250
Countdown: 0
SampleSet: None
StackLeniency: 0.7
Mode: 3
LetterboxInBreaks: 0
SpecialStyle: 0
WidescreenStoryboard: 0

[Editor]
DistanceSpacing: 0.8
BeatDivisor: 4
GridSize: 8
TimelineZoom: 1

[Metadata]
Title:Send My Love to Mars
TitleUnicode:Send My Love to Mars
Artist:Virt
ArtistUnicode:Virt
Creator:Sonny737
Version:Hard x1,3
Source:Nuclear Blast JS Awesome Bomb Filez 5
Tags:Stepmania nb5
BeatmapID:1487444
BeatmapSetID:702404

[Difficulty]
HPDrainRate:7
CircleSize:4
OverallDifficulty:8
ApproachRate:10
SliderMultiplier:1.4
SliderTickRate:1

[Events]
//Background and Video events
0,0,"mars_bg.png",0,0
//Break Periods
//Storyboard Layer 0 (Background)
//Storyboard Layer 1 (Fail)
//Storyboard Layer 2 (Pass)
//Storyboard Layer 3 (Foreground)
//Storyboard Sound Samples

[TimingPoints]
860,266.666666666667,4,4,0,100,1,0

[HitObjects]
448,192,860,5,0,0:0:0:0:
192,192,1066,1,0,0:0:0:0:
320,192,1168,1,0,0:0:0:0:
64,192,1373,1,0,0:0:0:0:
192,192,1476,1,0,0:0:0:0:
320,192,1578,1,0,0:0:0:0:
448,192,1681,1,0,0:0:0:0:
64,0,1681,128,0,1989:1:0:0:0:
192,0,1989,128,0,2296:1:0:0:0:
448,192,2296,1,0,0:0:0:0:
320,0,2296,128,0,2604:1:0:0:0:
448,0,2604,128,0,2912:1:0:0:0:
192,0,2912,128,0,3116:1:0:0:0:
64,0,3116,128,0,3322:1:0:0:0:
448,192,3322,1,0,0:0:0:0:
320,0,3322,128,0,3630:1:0:0:0:
64,192,3630,1,0,0:0:0:0:
192,0,3630,128,0,3937:1:0:0:0:
64,192,3937,1,0,0:0:0:0:
320,0,3937,128,0,4245:1:0:0:0:
64,192,4245,1,0,0:0:0:0:
448,0,4245,128,0,4553:1:0:0:0:
64,192,4758,1,0,0:0:0:0:
192,192,4809,1,0,0:0:0:0:
320,192,4860,1,0,0:0:0:0:
448,192,4912,1,0,0:0:0:0:
320,0,5168,128,0,5373:1:0:0:0:
192,0,5373,128,0,5578:1:0:0:0:
64,0,5578,128,0,5783:1:0:0:0:
448,192,5783,1,0,0:0:0:0:
320,192,5886,1,0,0:0:0:0:
448,192,5989,1,0,0:0:0:0:
64,192,6091,1,0,0:0:0:0:
192,192,6193,1,0,0:0:0:0:
64,192,6330,1,0,0:0:0:0:
320,192,6399,1,0,0:0:0:0:
448,192,6399,1,0,0:0:0:0:
192,192,6501,1,0,0:0:0:0:
320,192,6553,1,0,0:0:0:0:
64,192,6604,1,0,0:0:0:0:
448,192,6604,1,0,0:0:0:0:
192,192,6655,1,0,0:0:0:0:
320,192,6706,1,0,0:0:0:0:
192,192,6758,1,0,0:0:0:0:
64,192,6809,1,0,0:0:0:0:
320,192,6860,1,0,0:0:0:0:
192,192,6912,1,0,0:0:0:0:
64,192,7014,1,0,0:0:0:0:
448,192,7014,1,0,0:0:0:0:
320,192,7066,1,0,0:0:0:0:
192,192,7116,1,0,0:0:0:0:
448,192,7116,1,0,0:0:0:0:
64,192,7168,1,0,0:0:0:0:
320,192,7220,1,0,0:0:0:0:
64,192,7322,1,0,0:0:0:0:
448,192,7322,1,0,0:0:0:0:
192,192,7373,1,0,0:0:0:0:
320,192,7424,1,0,0:0:0:0:
64,192,7476,1,0,0:0:0:0:
192,192,7527,1,0,0:0:0:0:
320,192,7578,1,0,0:0:0:0:
448,192,7630,1,0,0:0:0:0:
192,192,7681,1,0,0:0:0:0:
320,192,7732,1,0,0:0:0:0:
192,192,7783,1,0,0:0:0:0:
64,192,7835,1,0,0:0:0:0:
448,192,7886,1,0,0:0:0:0:
320,192,7937,1,0,0:0:0:0:
64,192,7989,1,0,0:0:0:0:
192,192,8040,1,0,0:0:0:0:
64,192,8245,1,0,0:0:0:0:
320,192,8245,1,0,0:0:0:0:
192,192,8296,1,0,0:0:0:0:
448,192,8347,1,0,0:0:0:0:
192,192,8399,1,0,0:0:0:0:
320,192,8450,1,0,0:0:0:0:
64,192,8501,1,0,0:0:0:0:
448,192,8553,1,0,0:0:0:0:
320,192,8604,1,0,0:0:0:0:
64,192,8655,1,0,0:0:0:0:
192,192,8655,1,0,0:0:0:0:
64,192,8758,1,0,0:0:0:0:
320,192,8758,1,0,0:0:0:0:
448,192,8809,1,0,0:0:0:0:
192,192,8860,1,0,0:0:0:0:
320,192,8963,1,0,0:0:0:0:
448,192,8963,1,0,0:0:0:0:
192,192,9014,1,0,0:0:0:0:
448,192,9066,1,0,0:0:0:0:
64,192,9168,1,0,0:0:0:0:
192,192,9168,1,0,0:0:0:0:
448,192,9220,1,0,0:0:0:0:
320,192,9270,1,0,0:0:0:0:
320,192,9373,1,0,0:0:0:0:
448,192,9373,1,0,0:0:0:0:
192,192,9424,1,0,0:0:0:0:
64,192,9476,1,0,0:0:0:0:
192,192,9527,1,0,0:0:0:0:
320,192,9578,1,0,0:0:0:0:
64,192,9681,1,0,0:0:0:0:
192,192,9681,1,0,0:0:0:0:
320,192,9732,1,0,0:0:0:0:
192,192,9783,1,0,0:0:0:0:
320,192,9886,1,0,0:0:0:0:
448,192,9886,1,0,0:0:0:0:
64,192,9937,1,0,0:0:0:0:
192,192,9989,1,0,0:0:0:0:
320,192,10040,1,0,0:0:0:0:
448,192,10091,1,0,0:0:0:0:
320,192,10143,1,0,0:0:0:0:
192,192,10193,1,0,0:0:0:0:
64,192,10245,1,0,0:0:0:0:
320,192,10296,1,0,0:0:0:0:
448,192,10296,1,0,0:0:0:0:
64,192,10347,1,0,0:0:0:0:
192,192,10399,1,0,0:0:0:0:
320,192,10399,1,0,0:0:0:0:
448,192,10450,1,0,0:0:0:0:
192,192,10501,1,0,0:0:0:0:
64,192,10604,1,0,0:0:0:0:
320,192,10604,1,0,0:0:0:0:
448,192,10655,1,0,0:0:0:0:
64,192,10706,1,0,0:0:0:0:
192,192,10758,1,0,0:0:0:0:
320,192,10809,1,0,0:0:0:0:
448,192,10860,1,0,0:0:0:0:
320,192,10912,1,0,0:0:0:0:
192,192,10963,1,0,0:0:0:0:
64,192,11014,1,0,0:0:0:0:
320,192,11066,1,0,0:0:0:0:
192,192,11116,1,0,0:0:0:0:
448,192,11168,1,0,0:0:0:0:
320,192,11220,1,0,0:0:0:0:
192,192,11270,1,0,0:0:0:0:
64,192,11322,1,0,0:0:0:0:
192,192,11527,1,0,0:0:0:0:
320,192,11527,1,0,0:0:0:0:
64,192,11578,1,0,0:0:0:0:
192,192,11630,1,0,0:0:0:0:
320,192,11681,1,0,0:0:0:0:
448,192,11732,1,0,0:0:0:0:
320,192,11783,1,0,0:0:0:0:
192,192,11835,1,0,0:0:0:0:
64,192,11886,1,0,0:0:0:0:
320,192,11937,1,0,0:0:0:0:
448,192,11937,1,0,0:0:0:0:
192,192,12040,1,0,0:0:0:0:
320,192,12040,1,0,0:0:0:0:
64,192,12143,1,0,0:0:0:0:
320,192,12245,1,0,0:0:0:0:
448,192,12245,1,0,0:0:0:0:
192,192,12296,1,0,0:0:0:0:
64,192,12348,1,0,0:0:0:0:
448,192,12399,1,0,0:0:0:0:
320,192,12450,1,0,0:0:0:0:
192,192,12502,1,0,0:0:0:0:
320,192,12553,1,0,0:0:0:0:
192,192,12604,1,0,0:0:0:0:
64,192,12656,1,0,0:0:0:0:
448,192,12706,1,0,0:0:0:0:
192,192,12758,1,0,0:0:0:0:
448,192,12810,1,0,0:0:0:0:
64,192,12860,1,0,0:0:0:0:
320,192,12860,1,0,0:0:0:0:
320,192,12963,1,0,0:0:0:0:
448,192,12963,1,0,0:0:0:0:
64,192,13066,1,0,0:0:0:0:
192,192,13066,1,0,0:0:0:0:
320,192,13116,1,0,0:0:0:0:
64,192,13168,1,0,0:0:0:0:
448,192,13168,1,0,0:0:0:0:
192,192,13270,1,0,0:0:0:0:
320,192,13373,1,0,0:0:0:0:
320,192,13476,1,0,0:0:0:0:
64,192,13578,1,0,0:0:0:0:
192,192,13681,1,0,0:0:0:0:
320,192,13783,1,0,0:0:0:0:
192,192,13886,1,0,0:0:0:0:
448,192,13886,1,0,0:0:0:0:
320,192,13937,1,0,0:0:0:0:
192,192,13989,1,0,0:0:0:0:
64,192,14091,1,0,0:0:0:0:
448,192,14091,1,0,0:0:0:0:
192,192,14193,1,0,0:0:0:0:
320,192,14193,1,0,0:0:0:0:
64,192,14296,1,0,0:0:0:0:
448,192,14296,1,0,0:0:0:0:
320,192,14399,1,0,0:0:0:0:
192,192,14501,1,0,0:0:0:0:
320,192,14501,1,0,0:0:0:0:
64,192,14604,1,0,0:0:0:0:
320,192,14706,1,0,0:0:0:0:
448,192,14706,1,0,0:0:0:0:
192,192,14758,1,0,0:0:0:0:
64,192,14809,1,0,0:0:0:0:
448,192,14860,1,0,0:0:0:0:
320,192,14912,1,0,0:0:0:0:
192,192,14963,1,0,0:0:0:0:
64,192,15014,1,0,0:0:0:0:
192,192,15066,1,0,0:0:0:0:
320,192,15116,1,0,0:0:0:0:
448,192,15168,1,0,0:0:0:0:
192,192,15220,1,0,0:0:0:0:
320,192,15270,1,0,0:0:0:0:
64,192,15322,1,0,0:0:0:0:
192,192,15373,1,0,0:0:0:0:
320,192,15424,1,0,0:0:0:0:
64,192,15527,1,0,0:0:0:0:
448,192,15527,1,0,0:0:0:0:
320,192,15578,1,0,0:0:0:0:
192,192,15630,1,0,0:0:0:0:
64,192,15732,1,0,0:0:0:0:
448,192,15732,1,0,0:0:0:0:
192,192,15783,1,0,0:0:0:0:
320,192,15835,1,0,0:0:0:0:
448,192,15835,1,0,0:0:0:0:
192,192,15886,1,0,0:0:0:0:
64,192,15937,1,0,0:0:0:0:
448,192,15937,1,0,0:0:0:0:
320,192,15989,1,0,0:0:0:0:
192,192,16040,1,0,0:0:0:0:
320,192,16143,1,0,0:0:0:0:
448,192,16143,1,0,0:0:0:0:
64,192,16193,1,0,0:0:0:0:
448,192,16245,1,0,0:0:0:0:
64,192,16347,1,0,0:0:0:0:
320,192,16347,1,0,0:0:0:0:
192,192,16399,1,0,0:0:0:0:
320,192,16450,1,0,0:0:0:0:
64,192,16501,1,0,0:0:0:0:
192,192,16553,1,0,0:0:0:0:
320,192,16604,1,0,0:0:0:0:
448,192,16655,1,0,0:0:0:0:
64,192,16706,1,0,0:0:0:0:
192,192,16758,1,0,0:0:0:0:
320,192,16809,1,0,0:0:0:0:
192,192,16860,1,0,0:0:0:0:
64,192,16963,1,0,0:0:0:0:
448,192,17066,1,0,0:0:0:0:
64,192,17168,1,0,0:0:0:0:
320,192,17168,1,0,0:0:0:0:
448,192,17220,1,0,0:0:0:0:
192,192,17270,1,0,0:0:0:0:
64,192,17322,1,0,0:0:0:0:
320,192,17373,1,0,0:0:0:0:
448,192,17373,1,0,0:0:0:0:
192,192,17424,1,0,0:0:0:0:
64,192,17476,1,0,0:0:0:0:
448,192,17476,1,0,0:0:0:0:
320,192,17527,1,0,0:0:0:0:
64,192,17578,1,0,0:0:0:0:
192,192,17578,1,0,0:0:0:0:
448,192,17630,1,0,0:0:0:0:
64,192,17681,1,0,0:0:0:0:
192,192,17732,1,0,0:0:0:0:
320,192,17783,1,0,0:0:0:0:
448,192,17783,1,0,0:0:0:0:
192,192,17835,1,0,0:0:0:0:
64,192,17886,1,0,0:0:0:0:
320,192,17937,1,0,0:0:0:0:
192,192,17989,1,0,0:0:0:0:
448,192,18040,1,0,0:0:0:0:
64,192,18091,1,0,0:0:0:0:
320,192,18091,1,0,0:0:0:0:
192,192,18143,1,0,0:0:0:0:
448,192,18193,1,0,0:0:0:0:
320,192,18245,1,0,0:0:0:0:
192,192,18296,1,0,0:0:0:0:
64,192,18347,1,0,0:0:0:0:
320,192,18399,1,0,0:0:0:0:
448,192,18399,1,0,0:0:0:0:
192,192,18450,1,0,0:0:0:0:
320,192,18501,1,0,0:0:0:0:
64,192,18553,1,0,0:0:0:0:
448,192,18604,1,0,0:0:0:0:
320,192,18655,1,0,0:0:0:0:
192,192,18706,1,0,0:0:0:0:
64,192,18758,1,0,0:0:0:0:
192,192,18809,1,0,0:0:0:0:
320,192,18860,1,0,0:0:0:0:
64,192,18912,1,0,0:0:0:0:
448,192,18912,1,0,0:0:0:0:
192,192,18963,1,0,0:0:0:0:
320,192,19014,1,0,0:0:0:0:
448,192,19066,1,0,0:0:0:0:
192,192,19116,1,0,0:0:0:0:
320,192,19168,1,0,0:0:0:0:
64,192,19220,1,0,0:0:0:0:
192,192,19220,1,0,0:0:0:0:
448,192,19270,1,0,0:0:0:0:
320,192,19322,1,0,0:0:0:0:
192,192,19373,1,0,0:0:0:0:
64,192,19424,1,0,0:0:0:0:
192,192,19476,1,0,0:0:0:0:
320,192,19527,1,0,0:0:0:0:
448,192,19527,1,0,0:0:0:0:
64,192,19578,1,0,0:0:0:0:
192,192,19630,1,0,0:0:0:0:
320,192,19681,1,0,0:0:0:0:
64,192,19732,1,0,0:0:0:0:
448,0,19732,128,0,20040:1:0:0:0:
192,192,19835,1,0,0:0:0:0:
192,192,19937,1,0,0:0:0:0:
192,192,20143,1,0,0:0:0:0:
448,192,20143,1,0,0:0:0:0:
64,192,20245,1,0,0:0:0:0:
320,192,20245,1,0,0:0:0:0:
192,192,20347,1,0,0:0:0:0:
448,192,20450,1,0,0:0:0:0:
320,0,20450,128,0,20758:1:0:0:0:
192,192,20655,1,0,0:0:0:0:
448,192,20758,1,0,0:0:0:0:
64,192,20963,1,0,0:0:0:0:
192,192,21066,1,0,0:0:0:0:
320,192,21168,1,0,0:0:0:0:
448,192,21168,1,0,0:0:0:0:
192,192,21270,1,0,0:0:0:0:
320,192,21373,1,0,0:0:0:0:
64,0,21373,128,0,21578:1:0:0:0:
192,192,21476,1,0,0:0:0:0:
448,192,21578,1,0,0:0:0:0:
64,192,21681,1,0,0:0:0:0:
192,192,21681,1,0,0:0:0:0:
320,192,21783,1,0,0:0:0:0:
448,192,21783,1,0,0:0:0:0:
64,192,21886,1,0,0:0:0:0:
192,192,21886,1,0,0:0:0:0:
320,192,21989,1,0,0:0:0:0:
448,192,22091,1,0,0:0:0:0:
192,0,22091,128,0,22193:1:0:0:0:
64,192,22296,1,0,0:0:0:0:
320,0,22296,128,0,22399:1:0:0:0:
192,192,22399,1,0,0:0:0:0:
320,192,22501,1,0,0:0:0:0:
448,0,22501,128,0,22604:1:0:0:0:
192,192,22604,1,0,0:0:0:0:
448,192,22706,1,0,0:0:0:0:
64,0,22706,128,0,22809:1:0:0:0:
320,192,22809,1,0,0:0:0:0:
192,192,22912,1,0,0:0:0:0:
64,192,23014,1,0,0:0:0:0:
320,192,23014,1,0,0:0:0:0:
192,192,23066,1,0,0:0:0:0:
320,192,23116,1,0,0:0:0:0:
448,192,23168,1,0,0:0:0:0:
64,192,23220,1,0,0:0:0:0:
192,192,23270,1,0,0:0:0:0:
320,192,23322,1,0,0:0:0:0:
448,192,23373,1,0,0:0:0:0:
64,192,23424,1,0,0:0:0:0:
192,192,23424,1,0,0:0:0:0:
320,192,23527,1,0,0:0:0:0:
448,192,23527,1,0,0:0:0:0:
192,192,23630,1,0,0:0:0:0:
320,192,23732,1,0,0:0:0:0:
64,0,23732,128,0,24450:1:0:0:0:
192,192,23937,1,0,0:0:0:0:
448,192,24040,1,0,0:0:0:0:
320,192,24245,1,0,0:0:0:0:
192,192,24347,1,0,0:0:0:0:
448,192,24450,1,0,0:0:0:0:
320,192,24553,1,0,0:0:0:0:
64,192,24655,1,0,0:0:0:0:
448,0,24655,128,0,24860:1:0:0:0:
192,192,24758,1,0,0:0:0:0:
320,192,24860,1,0,0:0:0:0:
64,192,25066,1,0,0:0:0:0:
320,192,25066,1,0,0:0:0:0:
192,192,25168,1,0,0:0:0:0:
448,192,25168,1,0,0:0:0:0:
64,192,25270,1,0,0:0:0:0:
448,192,25373,1,0,0:0:0:0:
320,0,25373,128,0,25681:1:0:0:0:
64,192,25424,1,0,0:0:0:0:
192,192,25476,1,0,0:0:0:0:
64,192,25578,1,0,0:0:0:0:
448,192,25681,1,0,0:0:0:0:
192,192,25783,1,0,0:0:0:0:
448,192,25886,1,0,0:0:0:0:
320,192,25937,1,0,0:0:0:0:
64,192,25989,1,0,0:0:0:0:
192,192,25989,1,0,0:0:0:0:
320,192,26091,1,0,0:0:0:0:
448,192,26091,1,0,0:0:0:0:
64,192,26193,1,0,0:0:0:0:
192,192,26193,1,0,0:0:0:0:
320,192,26245,1,0,0:0:0:0:
64,192,26296,1,0,0:0:0:0:
448,192,26296,1,0,0:0:0:0:
192,192,26347,1,0,0:0:0:0:
320,192,26399,1,0,0:0:0:0:
448,192,26450,1,0,0:0:0:0:
192,192,26501,1,0,0:0:0:0:
320,192,26553,1,0,0:0:0:0:
64,192,26604,1,0,0:0:0:0:
448,192,26655,1,0,0:0:0:0:
64,192,26706,1,0,0:0:0:0:
192,192,26758,1,0,0:0:0:0:
320,192,26809,1,0,0:0:0:0:
448,192,26860,1,0,0:0:0:0:
64,192,26912,1,0,0:0:0:0:
192,192,26912,1,0,0:0:0:0:
320,192,26963,1,0,0:0:0:0:
448,192,27014,1,0,0:0:0:0:
320,192,27066,1,0,0:0:0:0:
64,192,27116,1,0,0:0:0:0:
192,192,27116,1,0,0:0:0:0:
448,192,27168,1,0,0:0:0:0:
320,192,27220,1,0,0:0:0:0:
192,192,27270,1,0,0:0:0:0:
64,192,27322,1,0,0:0:0:0:
192,192,27373,1,0,0:0:0:0:
320,192,27424,1,0,0:0:0:0:
448,192,27424,1,0,0:0:0:0:
192,192,27476,1,0,0:0:0:0:
64,192,27527,1,0,0:0:0:0:
448,192,27578,1,0,0:0:0:0:
320,192,27630,1,0,0:0:0:0:
192,192,27681,1,0,0:0:0:0:
64,192,27732,1,0,0:0:0:0:
448,192,27732,1,0,0:0:0:0:
192,192,27783,1,0,0:0:0:0:
320,192,27835,1,0,0:0:0:0:
448,192,27886,1,0,0:0:0:0:
192,192,27937,1,0,0:0:0:0:
320,192,27937,1,0,0:0:0:0:
64,192,27989,1,0,0:0:0:0:
448,192,28040,1,0,0:0:0:0:
320,192,28091,1,0,0:0:0:0:
192,192,28143,1,0,0:0:0:0:
320,192,28193,1,0,0:0:0:0:
64,192,28245,1,0,0:0:0:0:
192,192,28245,1,0,0:0:0:0:
448,192,28296,1,0,0:0:0:0:
320,192,28348,1,0,0:0:0:0:
192,192,28399,1,0,0:0:0:0:
64,192,28450,1,0,0:0:0:0:
192,192,28502,1,0,0:0:0:0:
320,192,28553,1,0,0:0:0:0:
448,192,28553,1,0,0:0:0:0:
64,192,28604,1,0,0:0:0:0:
192,192,28656,1,0,0:0:0:0:
320,192,28706,1,0,0:0:0:0:
448,192,28758,1,0,0:0:0:0:
320,192,28810,1,0,0:0:0:0:
192,192,28860,1,0,0:0:0:0:
64,192,28912,1,0,0:0:0:0:
448,192,28963,1,0,0:0:0:0:
320,192,29014,1,0,0:0:0:0:
192,192,29066,1,0,0:0:0:0:
64,192,29117,1,0,0:0:0:0:
192,192,29168,1,0,0:0:0:0:
320,192,29220,1,0,0:0:0:0:
448,192,29271,1,0,0:0:0:0:
64,192,29322,1,0,0:0:0:0:
192,192,29373,1,0,0:0:0:0:
320,192,29373,1,0,0:0:0:0:
448,192,29425,1,0,0:0:0:0:
64,192,29476,1,0,0:0:0:0:
192,192,29476,1,0,0:0:0:0:
320,192,29527,1,0,0:0:0:0:
64,192,29579,1,0,0:0:0:0:
448,192,29579,1,0,0:0:0:0:
192,192,29630,1,0,0:0:0:0:
320,192,29681,1,0,0:0:0:0:
448,192,29733,1,0,0:0:0:0:
64,192,29783,1,0,0:0:0:0:
192,192,29835,1,0,0:0:0:0:
320,192,29886,1,0,0:0:0:0:
448,192,29886,1,0,0:0:0:0:
192,192,29937,1,0,0:0:0:0:
64,192,29989,1,0,0:0:0:0:
448,192,30040,1,0,0:0:0:0:
320,192,30091,1,0,0:0:0:0:
192,192,30143,1,0,0:0:0:0:
64,192,30194,1,0,0:0:0:0:
320,192,30245,1,0,0:0:0:0:
192,192,30296,1,0,0:0:0:0:
448,192,30348,1,0,0:0:0:0:
320,192,30399,1,0,0:0:0:0:
192,192,30450,1,0,0:0:0:0:
64,192,30502,1,0,0:0:0:0:
192,192,30553,1,0,0:0:0:0:
320,192,30604,1,0,0:0:0:0:
448,192,30656,1,0,0:0:0:0:
64,192,30706,1,0,0:0:0:0:
320,192,30758,1,0,0:0:0:0:
192,192,30810,1,0,0:0:0:0:
448,192,30860,1,0,0:0:0:0:
64,192,30912,1,0,0:0:0:0:
192,192,30963,1,0,0:0:0:0:
320,192,31014,1,0,0:0:0:0:
448,192,31066,1,0,0:0:0:0:
320,192,31117,1,0,0:0:0:0:
192,192,31168,1,0,0:0:0:0:
64,192,31220,1,0,0:0:0:0:
448,192,31220,1,0,0:0:0:0:
192,192,31271,1,0,0:0:0:0:
320,192,31322,1,0,0:0:0:0:
448,192,31373,1,0,0:0:0:0:
64,192,31425,1,0,0:0:0:0:
192,192,31476,1,0,0:0:0:0:
320,192,31527,1,0,0:0:0:0:
448,192,31579,1,0,0:0:0:0:
64,192,31630,1,0,0:0:0:0:
192,192,31630,1,0,0:0:0:0:
320,192,31681,1,0,0:0:0:0:
64,192,31733,1,0,0:0:0:0:
448,192,31733,1,0,0:0:0:0:
320,192,31783,1,0,0:0:0:0:
64,192,31835,1,0,0:0:0:0:
192,192,31835,1,0,0:0:0:0:
448,192,31886,1,0,0:0:0:0:
192,192,31937,1,0,0:0:0:0:
320,192,31937,1,0,0:0:0:0:
64,192,31989,1,0,0:0:0:0:
448,192,32040,1,0,0:0:0:0:
320,192,32091,1,0,0:0:0:0:
192,192,32143,1,0,0:0:0:0:
64,192,32194,1,0,0:0:0:0:
192,192,32245,1,0,0:0:0:0:
320,192,32245,1,0,0:0:0:0:
448,192,32296,1,0,0:0:0:0:
320,192,32348,1,0,0:0:0:0:
192,192,32399,1,0,0:0:0:0:
64,192,32450,1,0,0:0:0:0:
448,192,32450,1,0,0:0:0:0:
192,192,32502,1,0,0:0:0:0:
320,192,32553,1,0,0:0:0:0:
448,192,32604,1,0,0:0:0:0:
64,192,32656,1,0,0:0:0:0:
192,192,32656,1,0,0:0:0:0:
320,192,32706,1,0,0:0:0:0:
64,192,32758,1,0,0:0:0:0:
448,192,32758,1,0,0:0:0:0:
192,192,32810,1,0,0:0:0:0:
320,192,32860,1,0,0:0:0:0:
448,192,32912,1,0,0:0:0:0:
192,192,32963,1,0,0:0:0:0:
320,192,33014,1,0,0:0:0:0:
64,192,33066,1,0,0:0:0:0:
192,192,33117,1,0,0:0:0:0:
320,192,33168,1,0,0:0:0:0:
448,192,33220,1,0,0:0:0:0:
320,192,33271,1,0,0:0:0:0:
192,192,33322,1,0,0:0:0:0:
64,192,33373,1,0,0:0:0:0:
448,192,33425,1,0,0:0:0:0:
192,192,33476,1,0,0:0:0:0:
448,192,33527,1,0,0:0:0:0:
320,192,33579,1,0,0:0:0:0:
64,0,33579,128,0,33886:1:0:0:0:
192,192,33630,1,0,0:0:0:0:
320,192,33681,1,0,0:0:0:0:
448,192,33783,1,0,0:0:0:0:
192,192,33886,1,0,0:0:0:0:
320,192,33886,1,0,0:0:0:0:
448,192,33937,1,0,0:0:0:0:
64,192,33989,1,0,0:0:0:0:
192,192,34040,1,0,0:0:0:0:
320,192,34091,1,0,0:0:0:0:
448,192,34091,1,0,0:0:0:0:
192,192,34194,1,0,0:0:0:0:
320,192,34194,1,0,0:0:0:0:
448,192,34245,1,0,0:0:0:0:
64,192,34296,1,0,0:0:0:0:
320,192,34399,1,0,0:0:0:0:
448,0,34399,128,0,34706:1:0:0:0:
192,192,34450,1,0,0:0:0:0:
64,192,34502,1,0,0:0:0:0:
192,192,34604,1,0,0:0:0:0:
320,192,34706,1,0,0:0:0:0:
64,192,34758,1,0,0:0:0:0:
192,192,34810,1,0,0:0:0:0:
320,192,34860,1,0,0:0:0:0:
64,192,34912,1,0,0:0:0:0:
448,192,34912,1,0,0:0:0:0:
192,192,34963,1,0,0:0:0:0:
320,192,35014,1,0,0:0:0:0:
448,192,35014,1,0,0:0:0:0:
64,192,35066,1,0,0:0:0:0:
192,192,35117,1,0,0:0:0:0:
320,192,35117,1,0,0:0:0:0:
448,192,35168,1,0,0:0:0:0:
64,192,35220,1,0,0:0:0:0:
192,192,35220,1,0,0:0:0:0:
320,192,35271,1,0,0:0:0:0:
192,192,35322,1,0,0:0:0:0:
64,192,35373,1,0,0:0:0:0:
448,192,35425,1,0,0:0:0:0:
320,192,35476,1,0,0:0:0:0:
64,192,35527,1,0,0:0:0:0:
192,192,35527,1,0,0:0:0:0:
320,192,35579,1,0,0:0:0:0:
448,192,35630,1,0,0:0:0:0:
64,192,35681,1,0,0:0:0:0:
192,192,35733,1,0,0:0:0:0:
320,192,35733,1,0,0:0:0:0:
448,192,35783,1,0,0:0:0:0:
64,192,35835,1,0,0:0:0:0:
192,192,35886,1,0,0:0:0:0:
320,192,35937,1,0,0:0:0:0:
448,192,35937,1,0,0:0:0:0:
192,192,35989,1,0,0:0:0:0:
64,192,36040,1,0,0:0:0:0:
448,192,36040,1,0,0:0:0:0:
320,192,36091,1,0,0:0:0:0:
192,192,36143,1,0,0:0:0:0:
64,192,36194,1,0,0:0:0:0:
448,192,36245,1,0,0:0:0:0:
320,192,36296,1,0,0:0:0:0:
192,192,36348,1,0,0:0:0:0:
64,192,36399,1,0,0:0:0:0:
448,192,36450,1,0,0:0:0:0:
320,192,36502,1,0,0:0:0:0:
192,192,36553,1,0,0:0:0:0:
320,192,36604,1,0,0:0:0:0:
192,192,36656,1,0,0:0:0:0:
64,192,36706,1,0,0:0:0:0:
448,192,36758,1,0,0:0:0:0:
320,192,36810,1,0,0:0:0:0:
192,192,36860,1,0,0:0:0:0:
64,0,36860,128,0,37066:1:0:0:0:
320,192,36912,1,0,0:0:0:0:
448,192,36963,1,0,0:0:0:0:
192,192,37066,1,0,0:0:0:0:
320,192,37168,1,0,0:0:0:0:
448,192,37168,1,0,0:0:0:0:
64,192,37220,1,0,0:0:0:0:
192,192,37271,1,0,0:0:0:0:
320,192,37322,1,0,0:0:0:0:
64,192,37373,1,0,0:0:0:0:
448,192,37373,1,0,0:0:0:0:
320,192,37476,1,0,0:0:0:0:
448,192,37476,1,0,0:0:0:0:
192,192,37527,1,0,0:0:0:0:
64,192,37579,1,0,0:0:0:0:
320,192,37681,1,0,0:0:0:0:
448,0,37681,128,0,37886:1:0:0:0:
192,192,37733,1,0,0:0:0:0:
64,192,37783,1,0,0:0:0:0:
320,192,37835,1,0,0:0:0:0:
192,192,37886,1,0,0:0:0:0:
320,192,37937,1,0,0:0:0:0:
448,192,37989,1,0,0:0:0:0:
64,192,38040,1,0,0:0:0:0:
320,192,38091,1,0,0:0:0:0:
192,192,38143,1,0,0:0:0:0:
64,192,38194,1,0,0:0:0:0:
448,192,38194,1,0,0:0:0:0:
320,192,38245,1,0,0:0:0:0:
64,192,38296,1,0,0:0:0:0:
192,192,38296,1,0,0:0:0:0:
320,192,38348,1,0,0:0:0:0:
64,192,38399,1,0,0:0:0:0:
448,192,38399,1,0,0:0:0:0:
192,192,38450,1,0,0:0:0:0:
320,192,38502,1,0,0:0:0:0:
448,192,38502,1,0,0:0:0:0:
64,192,38553,1,0,0:0:0:0:
192,192,38604,1,0,0:0:0:0:
320,192,38656,1,0,0:0:0:0:
448,192,38706,1,0,0:0:0:0:
320,192,38758,1,0,0:0:0:0:
64,192,38810,1,0,0:0:0:0:
192,192,38810,1,0,0:0:0:0:
448,192,38860,1,0,0:0:0:0:
192,192,38912,1,0,0:0:0:0:
320,192,38963,1,0,0:0:0:0:
64,192,39014,1,0,0:0:0:0:
448,192,39014,1,0,0:0:0:0:
192,192,39066,1,0,0:0:0:0:
320,192,39117,1,0,0:0:0:0:
448,192,39168,1,0,0:0:0:0:
64,192,39220,1,0,0:0:0:0:
192,192,39220,1,0,0:0:0:0:
320,192,39271,1,0,0:0:0:0:
64,192,39322,1,0,0:0:0:0:
448,192,39322,1,0,0:0:0:0:
192,192,39373,1,0,0:0:0:0:
320,192,39425,1,0,0:0:0:0:
192,192,39476,1,0,0:0:0:0:
320,192,39527,1,0,0:0:0:0:
448,192,39579,1,0,0:0:0:0:
64,192,39630,1,0,0:0:0:0:
192,192,39630,1,0,0:0:0:0:
320,192,39681,1,0,0:0:0:0:
448,192,39733,1,0,0:0:0:0:
64,192,39783,1,0,0:0:0:0:
192,192,39835,1,0,0:0:0:0:
320,192,39886,1,0,0:0:0:0:
448,192,39937,1,0,0:0:0:0:
320,192,39989,1,0,0:0:0:0:
192,192,40040,1,0,0:0:0:0:
64,192,40091,1,0,0:0:0:0:
320,192,40143,1,0,0:0:0:0:
448,0,40143,128,0,40348:1:0:0:0:
192,192,40194,1,0,0:0:0:0:
64,192,40245,1,0,0:0:0:0:
320,192,40296,1,0,0:0:0:0:
192,192,40348,1,0,0:0:0:0:
320,192,40399,1,0,0:0:0:0:
448,192,40450,1,0,0:0:0:0:
64,0,40450,128,0,40604:1:0:0:0:
192,192,40502,1,0,0:0:0:0:
320,192,40553,1,0,0:0:0:0:
448,192,40604,1,0,0:0:0:0:
192,192,40656,1,0,0:0:0:0:
320,192,40656,1,0,0:0:0:0:
64,192,40706,1,0,0:0:0:0:
192,192,40758,1,0,0:0:0:0:
320,192,40810,1,0,0:0:0:0:
64,192,40860,1,0,0:0:0:0:
448,192,40860,1,0,0:0:0:0:
192,192,40912,1,0,0:0:0:0:
320,192,40963,1,0,0:0:0:0:
448,0,40963,128,0,41271:1:0:0:0:
64,192,41014,1,0,0:0:0:0:
192,192,41066,1,0,0:0:0:0:
320,192,41117,1,0,0:0:0:0:
192,192,41168,1,0,0:0:0:0:
64,192,41220,1,0,0:0:0:0:
192,192,41271,1,0,0:0:0:0:
320,192,41322,1,0,0:0:0:0:
448,192,41373,1,0,0:0:0:0:
64,192,41425,1,0,0:0:0:0:
192,192,41476,1,0,0:0:0:0:
320,192,41527,1,0,0:0:0:0:
192,192,41579,1,0,0:0:0:0:
320,192,41630,1,0,0:0:0:0:
448,192,41681,1,0,0:0:0:0:
64,192,41733,1,0,0:0:0:0:
192,192,41784,1,0,0:0:0:0:
320,192,41784,1,0,0:0:0:0:
448,192,41835,1,0,0:0:0:0:
192,192,41886,1,0,0:0:0:0:
320,192,41938,1,0,0:0:0:0:
64,192,41989,1,0,0:0:0:0:
448,192,42040,1,0,0:0:0:0:
192,192,42092,1,0,0:0:0:0:
320,192,42092,1,0,0:0:0:0:
64,192,42143,1,0,0:0:0:0:
448,192,42194,1,0,0:0:0:0:
192,192,42246,1,0,0:0:0:0:
320,192,42296,1,0,0:0:0:0:
448,192,42296,1,0,0:0:0:0:
64,192,42348,1,0,0:0:0:0:
192,192,42400,1,0,0:0:0:0:
320,192,42450,1,0,0:0:0:0:
64,192,42502,1,0,0:0:0:0:
448,192,42502,1,0,0:0:0:0:
320,192,42553,1,0,0:0:0:0:
64,192,42604,1,0,0:0:0:0:
192,192,42604,1,0,0:0:0:0:
448,192,42656,1,0,0:0:0:0:
320,192,42707,1,0,0:0:0:0:
192,192,42758,1,0,0:0:0:0:
64,192,42810,1,0,0:0:0:0:
320,192,42861,1,0,0:0:0:0:
192,192,42912,1,0,0:0:0:0:
448,192,42963,1,0,0:0:0:0:
64,192,43015,1,0,0:0:0:0:
192,192,43066,1,0,0:0:0:0:
320,192,43117,1,0,0:0:0:0:
448,192,43169,1,0,0:0:0:0:
320,192,43220,1,0,0:0:0:0:
192,192,43271,1,0,0:0:0:0:
64,192,43323,1,0,0:0:0:0:
448,192,43373,1,0,0:0:0:0:
192,192,43425,1,0,0:0:0:0:
448,192,43476,1,0,0:0:0:0:
64,192,43527,1,0,0:0:0:0:
192,192,43579,1,0,0:0:0:0:
320,192,43630,1,0,0:0:0:0:
448,192,43681,1,0,0:0:0:0:
64,192,43733,1,0,0:0:0:0:
320,192,43784,1,0,0:0:0:0:
64,192,43835,1,0,0:0:0:0:
448,192,43886,1,0,0:0:0:0:
320,192,43938,1,0,0:0:0:0:
192,192,43989,1,0,0:0:0:0:
320,192,44040,1,0,0:0:0:0:
448,192,44092,1,0,0:0:0:0:
64,192,44143,1,0,0:0:0:0:
192,192,44194,1,0,0:0:0:0:
320,192,44246,1,0,0:0:0:0:
448,192,44296,1,0,0:0:0:0:
192,192,44348,1,0,0:0:0:0:
64,0,44348,128,0,44553:1:0:0:0:
320,192,44450,1,0,0:0:0:0:
192,192,44553,1,0,0:0:0:0:
448,192,44656,1,0,0:0:0:0:
192,192,44758,1,0,0:0:0:0:
320,192,44758,1,0,0:0:0:0:
64,192,44861,1,0,0:0:0:0:
448,192,44861,1,0,0:0:0:0:
192,192,44963,1,0,0:0:0:0:
448,192,45066,1,0,0:0:0:0:
320,0,45066,128,0,45373:1:0:0:0:
192,192,45169,1,0,0:0:0:0:
64,192,45271,1,0,0:0:0:0:
448,192,45373,1,0,0:0:0:0:
64,192,45476,1,0,0:0:0:0:
192,192,45579,1,0,0:0:0:0:
320,192,45681,1,0,0:0:0:0:
448,192,45784,1,0,0:0:0:0:
192,192,45886,1,0,0:0:0:0:
320,192,45989,1,0,0:0:0:0:
448,0,45989,128,0,46194:1:0:0:0:
64,192,46092,1,0,0:0:0:0:
192,192,46194,1,0,0:0:0:0:
64,192,46296,1,0,0:0:0:0:
320,192,46400,1,0,0:0:0:0:
448,192,46400,1,0,0:0:0:0:
64,192,46502,1,0,0:0:0:0:
192,192,46502,1,0,0:0:0:0:
448,192,46604,1,0,0:0:0:0:
192,192,46707,1,0,0:0:0:0:
320,192,46707,1,0,0:0:0:0:
64,192,46810,1,0,0:0:0:0:
320,192,46912,1,0,0:0:0:0:
448,192,46912,1,0,0:0:0:0:
192,192,47015,1,0,0:0:0:0:
64,192,47117,1,0,0:0:0:0:
448,192,47117,1,0,0:0:0:0:
192,192,47220,1,0,0:0:0:0:
320,192,47323,1,0,0:0:0:0:
192,192,47425,1,0,0:0:0:0:
64,0,47425,128,0,47527:1:0:0:0:
320,192,47527,1,0,0:0:0:0:
192,192,47630,1,0,0:0:0:0:
448,0,47630,128,0,47784:1:0:0:0:
64,192,47733,1,0,0:0:0:0:
320,192,47835,1,0,0:0:0:0:
192,192,47938,1,0,0:0:0:0:
320,192,48040,1,0,0:0:0:0:
448,192,48040,1,0,0:0:0:0:
64,192,48143,1,0,0:0:0:0:
192,192,48143,1,0,0:0:0:0:
448,192,48246,1,0,0:0:0:0:
320,192,48348,1,0,0:0:0:0:
64,0,48348,128,0,48656:1:0:0:0:
448,192,48450,1,0,0:0:0:0:
192,192,48553,1,0,0:0:0:0:
320,192,48656,1,0,0:0:0:0:
448,192,48758,1,0,0:0:0:0:
64,192,48861,1,0,0:0:0:0:
192,192,48963,1,0,0:0:0:0:
320,192,49066,1,0,0:0:0:0:
448,192,49169,1,0,0:0:0:0:
320,192,49271,1,0,0:0:0:0:
64,0,49271,128,0,49476:1:0:0:0:
192,192,49373,1,0,0:0:0:0:
448,192,49476,1,0,0:0:0:0:
192,192,49579,1,0,0:0:0:0:
320,192,49681,1,0,0:0:0:0:
448,192,49681,1,0,0:0:0:0:
64,192,49784,1,0,0:0:0:0:
320,192,49784,1,0,0:0:0:0:
192,192,49886,1,0,0:0:0:0:
64,192,49989,1,0,0:0:0:0:
448,0,49989,128,0,50296:1:0:0:0:
320,192,50040,1,0,0:0:0:0:
192,192,50092,1,0,0:0:0:0:
64,192,50143,1,0,0:0:0:0:
320,192,50194,1,0,0:0:0:0:
192,192,50246,1,0,0:0:0:0:
320,192,50296,1,0,0:0:0:0:
448,192,50348,1,0,0:0:0:0:
192,192,50400,1,0,0:0:0:0:
320,192,50450,1,0,0:0:0:0:
64,192,50502,1,0,0:0:0:0:
192,192,50553,1,0,0:0:0:0:
64,192,50604,1,0,0:0:0:0:
320,192,50604,1,0,0:0:0:0:
448,192,50656,1,0,0:0:0:0:
64,192,50707,1,0,0:0:0:0:
192,192,50707,1,0,0:0:0:0:
320,192,50758,1,0,0:0:0:0:
64,192,50810,1,0,0:0:0:0:
448,192,50810,1,0,0:0:0:0:
192,192,50861,1,0,0:0:0:0:
320,192,50912,1,0,0:0:0:0:
448,192,50912,1,0,0:0:0:0:
64,192,50963,1,0,0:0:0:0:
192,192,51015,1,0,0:0:0:0:
320,192,51066,1,0,0:0:0:0:
448,192,51117,1,0,0:0:0:0:
320,192,51169,1,0,0:0:0:0:
192,192,51220,1,0,0:0:0:0:
64,192,51271,1,0,0:0:0:0:
448,192,51323,1,0,0:0:0:0:
192,192,51373,1,0,0:0:0:0:
320,192,51425,1,0,0:0:0:0:
64,192,51476,1,0,0:0:0:0:
192,192,51527,1,0,0:0:0:0:
320,192,51579,1,0,0:0:0:0:
64,192,51630,1,0,0:0:0:0:
448,192,51630,1,0,0:0:0:0:
320,192,51681,1,0,0:0:0:0:
192,192,51733,1,0,0:0:0:0:
64,192,51784,1,0,0:0:0:0:
192,192,51835,1,0,0:0:0:0:
320,192,51835,1,0,0:0:0:0:
448,192,51886,1,0,0:0:0:0:
64,192,51937,1,0,0:0:0:0:
192,192,51937,1,0,0:0:0:0:
320,192,51989,1,0,0:0:0:0:
64,192,52040,1,0,0:0:0:0:
448,192,52040,1,0,0:0:0:0:
192,192,52091,1,0,0:0:0:0:
320,192,52143,1,0,0:0:0:0:
448,192,52194,1,0,0:0:0:0:
192,192,52245,1,0,0:0:0:0:
320,192,52245,1,0,0:0:0:0:
64,192,52296,1,0,0:0:0:0:
448,192,52348,1,0,0:0:0:0:
192,192,52399,1,0,0:0:0:0:
320,192,52450,1,0,0:0:0:0:
448,192,52450,1,0,0:0:0:0:
64,192,52502,1,0,0:0:0:0:
192,192,52553,1,0,0:0:0:0:
320,192,52604,1,0,0:0:0:0:
192,192,52656,1,0,0:0:0:0:
320,192,52706,1,0,0:0:0:0:
448,192,52758,1,0,0:0:0:0:
192,192,52810,1,0,0:0:0:0:
320,192,52860,1,0,0:0:0:0:
64,192,52912,1,0,0:0:0:0:
192,192,52963,1,0,0:0:0:0:
320,192,53014,1,0,0:0:0:0:
448,192,53066,1,0,0:0:0:0:
320,192,53117,1,0,0:0:0:0:
192,192,53168,1,0,0:0:0:0:
64,192,53220,1,0,0:0:0:0:
320,192,53271,1,0,0:0:0:0:
448,192,53271,1,0,0:0:0:0:
192,192,53322,1,0,0:0:0:0:
448,192,53373,1,0,0:0:0:0:
64,192,53425,1,0,0:0:0:0:
192,192,53476,1,0,0:0:0:0:
320,192,53476,1,0,0:0:0:0:
448,192,53527,1,0,0:0:0:0:
64,192,53579,1,0,0:0:0:0:
192,192,53579,1,0,0:0:0:0:
320,192,53630,1,0,0:0:0:0:
64,192,53681,1,0,0:0:0:0:
448,192,53681,1,0,0:0:0:0:
320,192,53733,1,0,0:0:0:0:
192,192,53783,1,0,0:0:0:0:
64,192,53835,1,0,0:0:0:0:
320,192,53886,1,0,0:0:0:0:
448,192,53886,1,0,0:0:0:0:
192,192,53937,1,0,0:0:0:0:
64,192,53989,1,0,0:0:0:0:
448,192,54040,1,0,0:0:0:0:
192,192,54091,1,0,0:0:0:0:
320,192,54091,1,0,0:0:0:0:
64,192,54143,1,0,0:0:0:0:
320,192,54194,1,0,0:0:0:0:
192,192,54245,1,0,0:0:0:0:
448,192,54296,1,0,0:0:0:0:
64,192,54348,1,0,0:0:0:0:
320,192,54399,1,0,0:0:0:0:
192,192,54450,1,0,0:0:0:0:
320,192,54502,1,0,0:0:0:0:
64,192,54553,1,0,0:0:0:0:
192,192,54604,1,0,0:0:0:0:
320,192,54656,1,0,0:0:0:0:
448,192,54706,1,0,0:0:0:0:
320,192,54758,1,0,0:0:0:0:
192,192,54810,1,0,0:0:0:0:
64,192,54860,1,0,0:0:0:0:
320,192,54912,1,0,0:0:0:0:
448,192,54912,1,0,0:0:0:0:
192,192,54963,1,0,0:0:0:0:
448,192,55014,1,0,0:0:0:0:
320,192,55066,1,0,0:0:0:0:
64,192,55117,1,0,0:0:0:0:
192,192,55117,1,0,0:0:0:0:
448,192,55168,1,0,0:0:0:0:
192,192,55220,1,0,0:0:0:0:
320,192,55220,1,0,0:0:0:0:
64,192,55271,1,0,0:0:0:0:
320,192,55322,1,0,0:0:0:0:
448,192,55322,1,0,0:0:0:0:
192,192,55373,1,0,0:0:0:0:
64,192,55425,1,0,0:0:0:0:
448,192,55476,1,0,0:0:0:0:
192,192,55527,1,0,0:0:0:0:
320,192,55527,1,0,0:0:0:0:
64,192,55579,1,0,0:0:0:0:
320,192,55630,1,0,0:0:0:0:
192,192,55681,1,0,0:0:0:0:
448,192,55733,1,0,0:0:0:0:
64,192,55783,1,0,0:0:0:0:
192,192,55835,1,0,0:0:0:0:
320,192,55835,1,0,0:0:0:0:
448,192,55886,1,0,0:0:0:0:
192,192,55937,1,0,0:0:0:0:
320,192,55989,1,0,0:0:0:0:
64,192,56040,1,0,0:0:0:0:
192,192,56091,1,0,0:0:0:0:
320,192,56143,1,0,0:0:0:0:
448,192,56143,1,0,0:0:0:0:
192,192,56194,1,0,0:0:0:0:
64,192,56245,1,0,0:0:0:0:
448,192,56296,1,0,0:0:0:0:
320,192,56348,1,0,0:0:0:0:
192,192,56399,1,0,0:0:0:0:
64,192,56450,1,0,0:0:0:0:
192,192,56502,1,0,0:0:0:0:
320,192,56553,1,0,0:0:0:0:
448,192,56604,1,0,0:0:0:0:
64,192,56656,1,0,0:0:0:0:
192,192,56656,1,0,0:0:0:0:
320,192,56706,1,0,0:0:0:0:
192,192,56758,1,0,0:0:0:0:
320,192,56810,1,0,0:0:0:0:
64,192,56860,1,0,0:0:0:0:
192,192,56912,1,0,0:0:0:0:
320,192,56963,1,0,0:0:0:0:
448,192,56963,1,0,0:0:0:0:
192,192,57014,1,0,0:0:0:0:
64,192,57066,1,0,0:0:0:0:
448,192,57117,1,0,0:0:0:0:
320,192,57168,1,0,0:0:0:0:
192,192,57220,1,0,0:0:0:0:
64,192,57271,1,0,0:0:0:0:
448,192,57271,1,0,0:0:0:0:
192,192,57322,1,0,0:0:0:0:
320,192,57373,1,0,0:0:0:0:
448,192,57425,1,0,0:0:0:0:
192,192,57476,1,0,0:0:0:0:
64,0,57476,128,0,57886:1:0:0:0:
320,192,57579,1,0,0:0:0:0:
448,192,57681,1,0,0:0:0:0:
192,192,57886,1,0,0:0:0:0:
448,192,57886,1,0,0:0:0:0:
64,192,57989,1,0,0:0:0:0:
320,192,57989,1,0,0:0:0:0:
192,192,58091,1,0,0:0:0:0:
320,192,58194,1,0,0:0:0:0:
448,0,58194,128,0,58706:1:0:0:0:
64,192,58399,1,0,0:0:0:0:
320,192,58502,1,0,0:0:0:0:
192,192,58706,1,0,0:0:0:0:
64,192,58810,1,0,0:0:0:0:
192,192,58912,1,0,0:0:0:0:
320,192,58912,1,0,0:0:0:0:
448,192,59014,1,0,0:0:0:0:
192,192,59117,1,0,0:0:0:0:
64,0,59117,128,0,59322:1:0:0:0:
320,192,59220,1,0,0:0:0:0:
192,192,59322,1,0,0:0:0:0:
448,192,59425,1,0,0:0:0:0:
64,192,59527,1,0,0:0:0:0:
320,192,59527,1,0,0:0:0:0:
192,192,59630,1,0,0:0:0:0:
320,192,59630,1,0,0:0:0:0:
448,192,59733,1,0,0:0:0:0:
192,192,59835,1,0,0:0:0:0:
64,0,59835,128,0,59937:1:0:0:0:
448,192,60040,1,0,0:0:0:0:
192,0,60040,128,0,60143:1:0:0:0:
320,192,60143,1,0,0:0:0:0:
64,192,60245,1,0,0:0:0:0:
448,0,60245,128,0,60348:1:0:0:0:
320,192,60348,1,0,0:0:0:0:
192,192,60450,1,0,0:0:0:0:
320,192,60553,1,0,0:0:0:0:
448,192,60553,1,0,0:0:0:0:
192,192,60656,1,0,0:0:0:0:
64,192,60758,1,0,0:0:0:0:
320,0,60758,128,0,60963:1:0:0:0:
192,192,60860,1,0,0:0:0:0:
448,192,60963,1,0,0:0:0:0:
64,192,61066,1,0,0:0:0:0:
192,192,61117,1,0,0:0:0:0:
320,192,61168,1,0,0:0:0:0:
448,192,61168,1,0,0:0:0:0:
192,192,61271,1,0,0:0:0:0:
320,192,61271,1,0,0:0:0:0:
64,192,61373,1,0,0:0:0:0:
320,192,61476,1,0,0:0:0:0:
448,0,61476,128,0,61783:1:0:0:0:
64,192,61681,1,0,0:0:0:0:
320,192,61783,1,0,0:0:0:0:
192,192,61886,1,0,0:0:0:0:
448,192,61989,1,0,0:0:0:0:
320,192,62091,1,0,0:0:0:0:
192,192,62194,1,0,0:0:0:0:
448,192,62296,1,0,0:0:0:0:
320,192,62399,1,0,0:0:0:0:
64,0,62399,128,0,62706:1:0:0:0:
192,192,62502,1,0,0:0:0:0:
320,192,62604,1,0,0:0:0:0:
64,192,62810,1,0,0:0:0:0:
320,192,62810,1,0,0:0:0:0:
192,192,62912,1,0,0:0:0:0:
448,192,62912,1,0,0:0:0:0:
320,192,63014,1,0,0:0:0:0:
64,192,63117,1,0,0:0:0:0:
448,0,63117,128,0,63425:1:0:0:0:
192,192,63322,1,0,0:0:0:0:
320,192,63425,1,0,0:0:0:0:
64,192,63527,1,0,0:0:0:0:
320,192,63630,1,0,0:0:0:0:
448,192,63630,1,0,0:0:0:0:
192,192,63681,1,0,0:0:0:0:
64,192,63733,1,0,0:0:0:0:
448,192,63733,1,0,0:0:0:0:
192,192,63835,1,0,0:0:0:0:
320,192,63835,1,0,0:0:0:0:
448,192,63886,1,0,0:0:0:0:
64,192,63937,1,0,0:0:0:0:
192,192,63937,1,0,0:0:0:0:
320,192,63989,1,0,0:0:0:0:
64,192,64040,1,0,0:0:0:0:
448,192,64040,1,0,0:0:0:0:
192,192,64091,1,0,0:0:0:0:
320,192,64143,1,0,0:0:0:0:
448,192,64194,1,0,0:0:0:0:
320,192,64245,1,0,0:0:0:0:
192,192,64296,1,0,0:0:0:0:
64,192,64348,1,0,0:0:0:0:
448,192,64399,1,0,0:0:0:0:
192,192,64450,1,0,0:0:0:0:
320,192,64502,1,0,0:0:0:0:
64,192,64553,1,0,0:0:0:0:
192,192,64604,1,0,0:0:0:0:
320,192,64656,1,0,0:0:0:0:
448,192,64656,1,0,0:0:0:0:
192,192,64706,1,0,0:0:0:0:
64,192,64758,1,0,0:0:0:0:
448,192,64810,1,0,0:0:0:0:
192,192,64860,1,0,0:0:0:0:
320,192,64860,1,0,0:0:0:0:
64,192,64912,1,0,0:0:0:0:
448,192,64963,1,0,0:0:0:0:
192,192,65014,1,0,0:0:0:0:
320,192,65066,1,0,0:0:0:0:
64,192,65117,1,0,0:0:0:0:
192,192,65168,1,0,0:0:0:0:
320,192,65168,1,0,0:0:0:0:
448,192,65220,1,0,0:0:0:0:
320,192,65271,1,0,0:0:0:0:
192,192,65322,1,0,0:0:0:0:
64,192,65373,1,0,0:0:0:0:
192,192,65425,1,0,0:0:0:0:
320,192,65476,1,0,0:0:0:0:
448,192,65476,1,0,0:0:0:0:
64,192,65527,1,0,0:0:0:0:
320,192,65579,1,0,0:0:0:0:
192,192,65630,1,0,0:0:0:0:
64,192,65681,1,0,0:0:0:0:
448,192,65681,1,0,0:0:0:0:
320,192,65733,1,0,0:0:0:0:
192,192,65783,1,0,0:0:0:0:
320,192,65835,1,0,0:0:0:0:
448,192,65886,1,0,0:0:0:0:
64,192,65937,1,0,0:0:0:0:
192,192,65989,1,0,0:0:0:0:
320,192,65989,1,0,0:0:0:0:
448,192,66040,1,0,0:0:0:0:
192,192,66091,1,0,0:0:0:0:
320,192,66143,1,0,0:0:0:0:
64,192,66193,1,0,0:0:0:0:
448,192,66245,1,0,0:0:0:0:
192,192,66296,1,0,0:0:0:0:
320,192,66296,1,0,0:0:0:0:
64,192,66347,1,0,0:0:0:0:
448,192,66399,1,0,0:0:0:0:
320,192,66450,1,0,0:0:0:0:
192,192,66501,1,0,0:0:0:0:
320,192,66553,1,0,0:0:0:0:
448,192,66604,1,0,0:0:0:0:
192,192,66655,1,0,0:0:0:0:
320,192,66706,1,0,0:0:0:0:
64,192,66758,1,0,0:0:0:0:
192,192,66809,1,0,0:0:0:0:
320,192,66860,1,0,0:0:0:0:
448,192,66912,1,0,0:0:0:0:
320,192,66963,1,0,0:0:0:0:
192,192,67014,1,0,0:0:0:0:
64,192,67066,1,0,0:0:0:0:
320,192,67116,1,0,0:0:0:0:
448,192,67116,1,0,0:0:0:0:
192,192,67168,1,0,0:0:0:0:
64,192,67220,1,0,0:0:0:0:
448,192,67220,1,0,0:0:0:0:
320,192,67270,1,0,0:0:0:0:
64,192,67322,1,0,0:0:0:0:
192,192,67322,1,0,0:0:0:0:
448,192,67373,1,0,0:0:0:0:
320,192,67424,1,0,0:0:0:0:
192,192,67476,1,0,0:0:0:0:
320,192,67527,1,0,0:0:0:0:
448,192,67578,1,0,0:0:0:0:
64,192,67630,1,0,0:0:0:0:
192,192,67681,1,0,0:0:0:0:
320,192,67732,1,0,0:0:0:0:
448,192,67783,1,0,0:0:0:0:
192,192,67835,1,0,0:0:0:0:
320,192,67886,1,0,0:0:0:0:
64,192,67937,1,0,0:0:0:0:
448,192,67937,1,0,0:0:0:0:
320,192,67989,1,0,0:0:0:0:
192,192,68040,1,0,0:0:0:0:
64,192,68091,1,0,0:0:0:0:
320,192,68143,1,0,0:0:0:0:
448,192,68143,1,0,0:0:0:0:
192,192,68193,1,0,0:0:0:0:
448,192,68245,1,0,0:0:0:0:
64,192,68296,1,0,0:0:0:0:
192,192,68347,1,0,0:0:0:0:
320,192,68347,1,0,0:0:0:0:
448,192,68399,1,0,0:0:0:0:
64,192,68450,1,0,0:0:0:0:
192,192,68501,1,0,0:0:0:0:
320,192,68553,1,0,0:0:0:0:
448,192,68553,1,0,0:0:0:0:
64,192,68604,1,0,0:0:0:0:
192,192,68655,1,0,0:0:0:0:
320,192,68655,1,0,0:0:0:0:
448,192,68706,1,0,0:0:0:0:
320,192,68758,1,0,0:0:0:0:
192,192,68809,1,0,0:0:0:0:
64,192,68860,1,0,0:0:0:0:
448,192,68860,1,0,0:0:0:0:
320,192,68912,1,0,0:0:0:0:
192,192,68963,1,0,0:0:0:0:
320,192,69014,1,0,0:0:0:0:
192,192,69066,1,0,0:0:0:0:
64,192,69116,1,0,0:0:0:0:
448,192,69168,1,0,0:0:0:0:
192,192,69220,1,0,0:0:0:0:
320,192,69270,1,0,0:0:0:0:
64,192,69322,1,0,0:0:0:0:
192,192,69373,1,0,0:0:0:0:
320,192,69373,1,0,0:0:0:0:
448,192,69424,1,0,0:0:0:0:
64,192,69476,1,0,0:0:0:0:
192,192,69476,1,0,0:0:0:0:
320,192,69527,1,0,0:0:0:0:
64,192,69578,1,0,0:0:0:0:
448,192,69578,1,0,0:0:0:0:
192,192,69630,1,0,0:0:0:0:
320,192,69681,1,0,0:0:0:0:
448,192,69681,1,0,0:0:0:0:
64,192,69732,1,0,0:0:0:0:
192,192,69783,1,0,0:0:0:0:
320,192,69835,1,0,0:0:0:0:
192,192,69886,1,0,0:0:0:0:
64,192,69937,1,0,0:0:0:0:
320,192,69989,1,0,0:0:0:0:
448,192,69989,1,0,0:0:0:0:
192,192,70040,1,0,0:0:0:0:
448,192,70091,1,0,0:0:0:0:
64,192,70143,1,0,0:0:0:0:
192,192,70193,1,0,0:0:0:0:
320,192,70193,1,0,0:0:0:0:
448,192,70245,1,0,0:0:0:0:
320,192,70296,1,0,0:0:0:0:
192,192,70347,1,0,0:0:0:0:
64,192,70399,1,0,0:0:0:0:
448,192,70399,1,0,0:0:0:0:
320,192,70450,1,0,0:0:0:0:
64,192,70501,1,0,0:0:0:0:
192,192,70501,1,0,0:0:0:0:
320,192,70553,1,0,0:0:0:0:
448,192,70604,1,0,0:0:0:0:
64,192,70655,1,0,0:0:0:0:
320,192,70706,1,0,0:0:0:0:
192,192,70758,1,0,0:0:0:0:
448,192,70809,1,0,0:0:0:0:
320,192,70860,1,0,0:0:0:0:
192,192,70912,1,0,0:0:0:0:
64,192,70963,1,0,0:0:0:0:
192,192,71014,1,0,0:0:0:0:
320,192,71066,1,0,0:0:0:0:
448,192,71116,1,0,0:0:0:0:
64,192,71168,1,0,0:0:0:0:
192,192,71220,1,0,0:0:0:0:
320,192,71270,1,0,0:0:0:0:
64,192,71322,1,0,0:0:0:0:
192,192,71322,1,0,0:0:0:0:
448,192,71373,1,0,0:0:0:0:
320,192,71424,1,0,0:0:0:0:
192,192,71476,1,0,0:0:0:0:
64,192,71527,1,0,0:0:0:0:
448,192,71578,1,0,0:0:0:0:
192,192,71630,1,0,0:0:0:0:
320,192,71630,1,0,0:0:0:0:
64,192,71681,1,0,0:0:0:0:
448,192,71732,1,0,0:0:0:0:
192,192,71783,1,0,0:0:0:0:
320,192,71835,1,0,0:0:0:0:
448,192,71835,1,0,0:0:0:0:
64,192,71886,1,0,0:0:0:0:
192,192,71937,1,0,0:0:0:0:
320,192,71937,1,0,0:0:0:0:
448,192,71989,1,0,0:0:0:0:
64,192,72040,1,0,0:0:0:0:
192,192,72091,1,0,0:0:0:0:
320,192,72143,1,0,0:0:0:0:
448,192,72143,1,0,0:0:0:0:
192,192,72193,1,0,0:0:0:0:
64,192,72245,1,0,0:0:0:0:
448,192,72296,1,0,0:0:0:0:
192,192,72347,1,0,0:0:0:0:
320,192,72399,1,0,0:0:0:0:
64,192,72450,1,0,0:0:0:0:
192,192,72501,1,0,0:0:0:0:
320,192,72553,1,0,0:0:0:0:
448,192,72603,1,0,0:0:0:0:
64,192,72655,1,0,0:0:0:0:
192,192,72655,1,0,0:0:0:0:
320,192,72706,1,0,0:0:0:0:
64,192,72757,1,0,0:0:0:0:
448,192,72757,1,0,0:0:0:0:
320,192,72809,1,0,0:0:0:0:
64,192,72860,1,0,0:0:0:0:
192,192,72860,1,0,0:0:0:0:
448,192,72911,1,0,0:0:0:0:
192,192,72963,1,0,0:0:0:0:
320,192,72963,1,0,0:0:0:0:
64,192,73014,1,0,0:0:0:0:
448,192,73065,1,0,0:0:0:0:
192,192,73116,1,0,0:0:0:0:
320,192,73168,1,0,0:0:0:0:
64,192,73219,1,0,0:0:0:0:
192,192,73270,1,0,0:0:0:0:
320,192,73270,1,0,0:0:0:0:
448,192,73322,1,0,0:0:0:0:
320,192,73373,1,0,0:0:0:0:
192,192,73424,1,0,0:0:0:0:
64,192,73476,1,0,0:0:0:0:
448,192,73476,1,0,0:0:0:0:
192,192,73526,1,0,0:0:0:0:
320,192,73578,1,0,0:0:0:0:
64,192,73630,1,0,0:0:0:0:
320,192,73680,1,0,0:0:0:0:
448,192,73680,1,0,0:0:0:0:
192,192,73732,1,0,0:0:0:0:
64,192,73783,1,0,0:0:0:0:
448,192,73783,1,0,0:0:0:0:
192,192,73834,1,0,0:0:0:0:
320,192,73886,1,0,0:0:0:0:
448,192,73937,1,0,0:0:0:0:
320,192,73988,1,0,0:0:0:0:
192,192,74040,1,0,0:0:0:0:
64,192,74091,1,0,0:0:0:0:
448,192,74142,1,0,0:0:0:0:
192,192,74193,1,0,0:0:0:0:
320,192,74245,1,0,0:0:0:0:
64,192,74296,1,0,0:0:0:0:
192,192,74347,1,0,0:0:0:0:
320,192,74399,1,0,0:0:0:0:
448,192,74450,1,0,0:0:0:0:
64,192,74501,1,0,0:0:0:0:
192,192,74553,1,0,0:0:0:0:
320,192,74603,1,0,0:0:0:0:
448,192,74603,1,0,0:0:0:0:
192,192,74655,1,0,0:0:0:0:
64,192,74706,1,0,0:0:0:0:
320,192,74757,1,0,0:0:0:0:
192,192,74809,1,0,0:0:0:0:
448,192,74860,1,0,0:0:0:0:
192,192,74911,1,0,0:0:0:0:
320,192,74911,1,0,0:0:0:0:
64,192,74963,1,0,0:0:0:0:
448,192,75014,1,0,0:0:0:0:
192,192,75065,1,0,0:0:0:0:
320,192,75116,1,0,0:0:0:0:
448,192,75116,1,0,0:0:0:0:
64,192,75168,1,0,0:0:0:0:
192,192,75219,1,0,0:0:0:0:
320,192,75219,1,0,0:0:0:0:
448,192,75270,1,0,0:0:0:0:
320,192,75322,1,0,0:0:0:0:
192,192,75373,1,0,0:0:0:0:
64,192,75424,1,0,0:0:0:0:
448,192,75424,1,0,0:0:0:0:
320,192,75476,1,0,0:0:0:0:
192,192,75526,1,0,0:0:0:0:
320,192,75578,1,0,0:0:0:0:
448,192,75630,1,0,0:0:0:0:
64,192,75680,1,0,0:0:0:0:
192,192,75732,1,0,0:0:0:0:
320,192,75783,1,0,0:0:0:0:
192,192,75834,1,0,0:0:0:0:
64,192,75886,1,0,0:0:0:0:
320,192,75937,1,0,0:0:0:0:
448,192,75937,1,0,0:0:0:0:
192,192,75988,1,0,0:0:0:0:
64,192,76040,1,0,0:0:0:0:
448,192,76040,1,0,0:0:0:0:
320,192,76091,1,0,0:0:0:0:
64,192,76142,1,0,0:0:0:0:
192,192,76142,1,0,0:0:0:0:
448,192,76193,1,0,0:0:0:0:
192,192,76245,1,0,0:0:0:0:
320,192,76245,1,0,0:0:0:0:
64,192,76296,1,0,0:0:0:0:
448,192,76347,1,0,0:0:0:0:
192,192,76399,1,0,0:0:0:0:
320,192,76450,1,0,0:0:0:0:
64,192,76501,1,0,0:0:0:0:
192,192,76553,1,0,0:0:0:0:
320,192,76553,1,0,0:0:0:0:
448,192,76603,1,0,0:0:0:0:
320,192,76655,1,0,0:0:0:0:
192,192,76706,1,0,0:0:0:0:
64,192,76757,1,0,0:0:0:0:
448,192,76757,1,0,0:0:0:0:
320,192,76809,1,0,0:0:0:0:
192,192,76860,1,0,0:0:0:0:
64,192,76911,1,0,0:0:0:0:
320,192,76963,1,0,0:0:0:0:
448,192,76963,1,0,0:0:0:0:
192,192,77014,1,0,0:0:0:0:
320,192,77065,1,0,0:0:0:0:
448,192,77065,1,0,0:0:0:0:
64,192,77116,1,0,0:0:0:0:
192,192,77168,1,0,0:0:0:0:
320,192,77219,1,0,0:0:0:0:
448,192,77270,1,0,0:0:0:0:
64,192,77322,1,0,0:0:0:0:
192,192,77373,1,0,0:0:0:0:
320,192,77373,1,0,0:0:0:0:
448,192,77424,1,0,0:0:0:0:
192,192,77476,1,0,0:0:0:0:
320,192,77526,1,0,0:0:0:0:
64,192,77578,1,0,0:0:0:0:
448,192,77630,1,0,0:0:0:0:
320,192,77680,1,0,0:0:0:0:
192,192,77732,1,0,0:0:0:0:
320,192,77783,1,0,0:0:0:0:
192,192,77834,1,0,0:0:0:0:
64,192,77886,1,0,0:0:0:0:
448,192,77886,1,0,0:0:0:0:
320,192,77937,1,0,0:0:0:0:
192,192,77988,1,0,0:0:0:0:
320,192,78040,1,0,0:0:0:0:
448,192,78091,1,0,0:0:0:0:
64,192,78142,1,0,0:0:0:0:
192,192,78193,1,0,0:0:0:0:
320,192,78193,1,0,0:0:0:0:
448,192,78245,1,0,0:0:0:0:
320,192,78296,1,0,0:0:0:0:
192,192,78347,1,0,0:0:0:0:
64,192,78399,1,0,0:0:0:0:
448,192,78399,1,0,0:0:0:0:
192,192,78450,1,0,0:0:0:0:
320,192,78501,1,0,0:0:0:0:
448,192,78553,1,0,0:0:0:0:
64,192,78603,1,0,0:0:0:0:
192,192,78603,1,0,0:0:0:0:
320,192,78655,1,0,0:0:0:0:
64,192,78706,1,0,0:0:0:0:
448,192,78706,1,0,0:0:0:0:
320,192,78757,1,0,0:0:0:0:
192,192,78809,1,0,0:0:0:0:
64,192,78860,1,0,0:0:0:0:
448,192,78911,1,0,0:0:0:0:
192,192,78963,1,0,0:0:0:0:
320,192,79013,1,0,0:0:0:0:
192,192,79065,1,0,0:0:0:0:
320,192,79116,1,0,0:0:0:0:
64,192,79167,1,0,0:0:0:0:
192,192,79219,1,0,0:0:0:0:
320,192,79270,1,0,0:0:0:0:
448,192,79321,1,0,0:0:0:0:
320,192,79373,1,0,0:0:0:0:
192,192,79424,1,0,0:0:0:0:
64,192,79475,1,0,0:0:0:0:
320,192,79526,1,0,0:0:0:0:
448,192,79526,1,0,0:0:0:0:
192,192,79578,1,0,0:0:0:0:
448,192,79629,1,0,0:0:0:0:
64,192,79680,1,0,0:0:0:0:
192,192,79732,1,0,0:0:0:0:
320,192,79783,1,0,0:0:0:0:
64,192,79834,1,0,0:0:0:0:
448,192,79834,1,0,0:0:0:0:
192,192,79886,1,0,0:0:0:0:
320,192,79936,1,0,0:0:0:0:
448,192,79988,1,0,0:0:0:0:
192,192,80040,1,0,0:0:0:0:
320,192,80040,1,0,0:0:0:0:
64,192,80090,1,0,0:0:0:0:
448,192,80142,1,0,0:0:0:0:
192,192,80193,1,0,0:0:0:0:
320,192,80244,1,0,0:0:0:0:
448,192,80244,1,0,0:0:0:0:
64,192,80296,1,0,0:0:0:0:
192,192,80347,1,0,0:0:0:0:
320,192,80347,1,0,0:0:0:0:
448,192,80398,1,0,0:0:0:0:
320,192,80450,1,0,0:0:0:0:
192,192,80501,1,0,0:0:0:0:
64,192,80552,1,0,0:0:0:0:
320,192,80603,1,0,0:0:0:0:
192,192,80655,1,0,0:0:0:0:
448,192,80706,1,0,0:0:0:0:
320,192,80757,1,0,0:0:0:0:
192,192,80809,1,0,0:0:0:0:
64,192,80860,1,0,0:0:0:0:
448,192,80911,1,0,0:0:0:0:
192,192,80963,1,0,0:0:0:0:
448,192,81013,1,0,0:0:0:0:
64,192,81065,1,0,0:0:0:0:
320,192,81116,1,0,0:0:0:0:
64,192,81167,1,0,0:0:0:0:
192,192,81219,1,0,0:0:0:0:
320,192,81270,1,0,0:0:0:0:
448,192,81321,1,0,0:0:0:0:
320,192,81373,1,0,0:0:0:0:
192,192,81424,1,0,0:0:0:0:
64,192,81475,1,0,0:0:0:0:
192,192,81526,1,0,0:0:0:0:
320,192,81578,1,0,0:0:0:0:
448,192,81629,1,0,0:0:0:0:
64,192,81680,1,0,0:0:0:0:
192,192,81732,1,0,0:0:0:0:
320,192,81783,1,0,0:0:0:0:
448,192,81834,1,0,0:0:0:0:
64,192,81886,1,0,0:0:0:0:
192,192,81936,1,0,0:0:0:0:
320,192,81988,1,0,0:0:0:0:
448,192,82040,1,0,0:0:0:0:
320,192,82090,1,0,0:0:0:0:
192,192,82142,1,0,0:0:0:0:
64,192,82193,1,0,0:0:0:0:
320,192,82244,1,0,0:0:0:0:
192,192,82296,1,0,0:0:0:0:
448,192,82347,1,0,0:0:0:0:
64,192,82398,1,0,0:0:0:0:
192,192,82450,1,0,0:0:0:0:
320,192,82501,1,0,0:0:0:0:
448,192,82501,1,0,0:0:0:0:
64,192,82552,1,0,0:0:0:0:
192,192,82603,1,0,0:0:0:0:
320,192,82603,1,0,0:0:0:0:
448,192,82655,1,0,0:0:0:0:
64,192,82706,1,0,0:0:0:0:
192,192,82706,1,0,0:0:0:0:
320,192,82757,1,0,0:0:0:0:
64,192,82809,1,0,0:0:0:0:
448,192,82809,1,0,0:0:0:0:
192,192,82860,1,0,0:0:0:0:
320,192,82911,1,0,0:0:0:0:
192,192,82963,1,0,0:0:0:0:
64,192,83013,1,0,0:0:0:0:
448,192,83065,1,0,0:0:0:0:
192,192,83116,1,0,0:0:0:0:
320,192,83116,1,0,0:0:0:0:
448,192,83167,1,0,0:0:0:0:
64,192,83219,1,0,0:0:0:0:
192,192,83270,1,0,0:0:0:0:
320,192,83321,1,0,0:0:0:0:
448,192,83321,1,0,0:0:0:0:
192,192,83373,1,0,0:0:0:0:
64,192,83424,1,0,0:0:0:0:
320,192,83424,1,0,0:0:0:0:
448,192,83475,1,0,0:0:0:0:
64,192,83526,1,0,0:0:0:0:
192,192,83526,1,0,0:0:0:0:
320,192,83578,1,0,0:0:0:0:
64,192,83629,1,0,0:0:0:0:
448,192,83629,1,0,0:0:0:0:
192,192,83680,1,0,0:0:0:0:
320,192,83732,1,0,0:0:0:0:
448,192,83783,1,0,0:0:0:0:
192,192,83834,1,0,0:0:0:0:
320,192,83886,1,0,0:0:0:0:
64,192,83936,1,0,0:0:0:0:
448,192,83988,1,0,0:0:0:0:
320,192,84040,1,0,0:0:0:0:
192,192,84090,1,0,0:0:0:0:
64,192,84142,1,0,0:0:0:0:
320,192,84193,1,0,0:0:0:0:
192,192,84244,1,0,0:0:0:0:
448,192,84296,1,0,0:0:0:0:
320,192,84347,1,0,0:0:0:0:
192,192,84398,1,0,0:0:0:0:
320,192,84450,1,0,0:0:0:0:
448,192,84450,1,0,0:0:0:0:
64,192,84501,1,0,0:0:0:0:
192,192,84552,1,0,0:0:0:0:
320,192,84603,1,0,0:0:0:0:
192,192,84655,1,0,0:0:0:0:
320,192,84706,1,0,0:0:0:0:
64,192,84757,1,0,0:0:0:0:
448,192,84757,1,0,0:0:0:0:
192,192,84809,1,0,0:0:0:0:
320,192,84860,1,0,0:0:0:0:
448,192,84911,1,0,0:0:0:0:
64,192,84963,1,0,0:0:0:0:
320,192,84963,1,0,0:0:0:0:
192,192,85013,1,0,0:0:0:0:
320,192,85065,1,0,0:0:0:0:
448,192,85065,1,0,0:0:0:0:
64,192,85116,1,0,0:0:0:0:
192,192,85167,1,0,0:0:0:0:
320,192,85219,1,0,0:0:0:0:
64,192,85270,1,0,0:0:0:0:
192,192,85270,1,0,0:0:0:0:
448,192,85321,1,0,0:0:0:0:
320,192,85373,1,0,0:0:0:0:
192,192,85424,1,0,0:0:0:0:
64,192,85475,1,0,0:0:0:0:
448,192,85526,1,0,0:0:0:0:
192,192,85577,1,0,0:0:0:0:
320,192,85629,1,0,0:0:0:0:
64,192,85680,1,0,0:0:0:0:
192,192,85731,1,0,0:0:0:0:
320,192,85783,1,0,0:0:0:0:
448,192,85783,1,0,0:0:0:0:
192,192,85834,1,0,0:0:0:0:
64,192,85885,1,0,0:0:0:0:
320,192,85885,1,0,0:0:0:0:
448,192,85936,1,0,0:0:0:0:
64,192,85988,1,0,0:0:0:0:
192,192,85988,1,0,0:0:0:0:
320,192,86039,1,0,0:0:0:0:
64,192,86090,1,0,0:0:0:0:
448,192,86090,1,0,0:0:0:0:
192,192,86142,1,0,0:0:0:0:
320,192,86193,1,0,0:0:0:0:
448,192,86244,1,0,0:0:0:0:
64,192,86296,1,0,0:0:0:0:
320,192,86296,1,0,0:0:0:0:
192,192,86346,1,0,0:0:0:0:
320,192,86398,1,0,0:0:0:0:
448,192,86398,1,0,0:0:0:0:
64,192,86450,1,0,0:0:0:0:
192,192,86500,1,0,0:0:0:0:
64,192,86552,1,0,0:0:0:0:
320,192,86603,1,0,0:0:0:0:
448,192,86603,1,0,0:0:0:0:
192,192,86654,1,0,0:0:0:0:
64,192,86706,1,0,0:0:0:0:
448,192,86706,1,0,0:0:0:0:
320,192,86757,1,0,0:0:0:0:
64,192,86808,1,0,0:0:0:0:
192,192,86808,1,0,0:0:0:0:
448,192,86860,1,0,0:0:0:0:
192,192,86911,1,0,0:0:0:0:
320,192,86911,1,0,0:0:0:0:
64,192,86962,1,0,0:0:0:0:
320,192,87013,1,0,0:0:0:0:
192,192,87065,1,0,0:0:0:0:
448,192,87116,1,0,0:0:0:0:
64,192,87167,1,0,0:0:0:0:
192,192,87219,1,0,0:0:0:0:
320,192,87270,1,0,0:0:0:0:
448,192,87321,1,0,0:0:0:0:
64,192,87373,1,0,0:0:0:0:
192,192,87423,1,0,0:0:0:0:
320,192,87475,1,0,0:0:0:0:
448,192,87526,1,0,0:0:0:0:
192,192,87577,1,0,0:0:0:0:
320,192,87629,1,0,0:0:0:0:
64,192,87680,1,0,0:0:0:0:
320,192,87731,1,0,0:0:0:0:
448,192,87731,1,0,0:0:0:0:
192,192,87783,1,0,0:0:0:0:
64,192,87834,1,0,0:0:0:0:
448,192,87885,1,0,0:0:0:0:
192,192,87936,1,0,0:0:0:0:
320,192,87988,1,0,0:0:0:0:
64,192,88039,1,0,0:0:0:0:
448,192,88039,1,0,0:0:0:0:
192,192,88090,1,0,0:0:0:0:
320,192,88142,1,0,0:0:0:0:
192,192,88193,1,0,0:0:0:0:
320,192,88244,1,0,0:0:0:0:
448,192,88244,1,0,0:0:0:0:
64,192,88296,1,0,0:0:0:0:
192,192,88346,1,0,0:0:0:0:
320,192,88346,1,0,0:0:0:0:
448,192,88398,1,0,0:0:0:0:
320,192,88450,1,0,0:0:0:0:
192,192,88500,1,0,0:0:0:0:
64,192,88552,1,0,0:0:0:0:
448,192,88552,1,0,0:0:0:0:
320,192,88603,1,0,0:0:0:0:
192,192,88654,1,0,0:0:0:0:
64,192,88706,1,0,0:0:0:0:
320,192,88757,1,0,0:0:0:0:
192,192,88808,1,0,0:0:0:0:
320,192,88860,1,0,0:0:0:0:
192,192,88911,1,0,0:0:0:0:
448,192,88962,1,0,0:0:0:0:
64,192,89013,1,0,0:0:0:0:
192,192,89065,1,0,0:0:0:0:
320,192,89065,1,0,0:0:0:0:
448,192,89116,1,0,0:0:0:0:
64,192,89167,1,0,0:0:0:0:
320,192,89167,1,0,0:0:0:0:
192,192,89219,1,0,0:0:0:0:
320,192,89270,1,0,0:0:0:0:
448,192,89270,1,0,0:0:0:0:
64,192,89321,1,0,0:0:0:0:
192,192,89373,1,0,0:0:0:0:
320,192,89373,1,0,0:0:0:0:
448,192,89423,1,0,0:0:0:0:
320,192,89475,1,0,0:0:0:0:
192,192,89526,1,0,0:0:0:0:
64,192,89577,1,0,0:0:0:0:
448,192,89629,1,0,0:0:0:0:
192,192,89680,1,0,0:0:0:0:
320,192,89680,1,0,0:0:0:0:
64,192,89731,1,0,0:0:0:0:
448,192,89783,1,0,0:0:0:0:
192,192,89834,1,0,0:0:0:0:
320,192,89885,1,0,0:0:0:0:
64,192,89936,1,0,0:0:0:0:
320,192,89988,1,0,0:0:0:0:
192,192,90039,1,0,0:0:0:0:
64,192,90090,1,0,0:0:0:0:
448,192,90090,1,0,0:0:0:0:
192,192,90142,1,0,0:0:0:0:
320,192,90193,1,0,0:0:0:0:
448,192,90193,1,0,0:0:0:0:
64,192,90244,1,0,0:0:0:0:
192,192,90296,1,0,0:0:0:0:
320,192,90346,1,0,0:0:0:0:
448,192,90398,1,0,0:0:0:0:
320,192,90450,1,0,0:0:0:0:
64,192,90500,1,0,0:0:0:0:
192,192,90500,1,0,0:0:0:0:
448,192,90552,1,0,0:0:0:0:
320,192,90603,1,0,0:0:0:0:
192,192,90654,1,0,0:0:0:0:
64,192,90706,1,0,0:0:0:0:
448,192,90757,1,0,0:0:0:0:
320,192,90808,1,0,0:0:0:0:
192,192,90860,1,0,0:0:0:0:
320,192,90911,1,0,0:0:0:0:
192,192,90962,1,0,0:0:0:0:
64,192,91013,1,0,0:0:0:0:
448,192,91013,1,0,0:0:0:0:
320,192,91065,1,0,0:0:0:0:
192,192,91116,1,0,0:0:0:0:
64,192,91167,1,0,0:0:0:0:
448,192,91219,1,0,0:0:0:0:
192,192,91270,1,0,0:0:0:0:
320,192,91321,1,0,0:0:0:0:
448,192,91321,1,0,0:0:0:0:
64,192,91373,1,0,0:0:0:0:
192,192,91423,1,0,0:0:0:0:
320,192,91475,1,0,0:0:0:0:
64,192,91526,1,0,0:0:0:0:
448,192,91526,1,0,0:0:0:0:
192,192,91577,1,0,0:0:0:0:
320,192,91629,1,0,0:0:0:0:
192,192,91680,1,0,0:0:0:0:
320,192,91731,1,0,0:0:0:0:
448,192,91731,1,0,0:0:0:0:
64,192,91783,1,0,0:0:0:0:
192,192,91834,1,0,0:0:0:0:
320,192,91834,1,0,0:0:0:0:
448,192,91885,1,0,0:0:0:0:
320,192,91936,1,0,0:0:0:0:
192,192,91988,1,0,0:0:0:0:
64,192,92039,1,0,0:0:0:0:
448,192,92090,1,0,0:0:0:0:
192,192,92141,1,0,0:0:0:0:
320,192,92193,1,0,0:0:0:0:
64,192,92244,1,0,0:0:0:0:
192,192,92295,1,0,0:0:0:0:
448,192,92346,1,0,0:0:0:0:
320,192,92398,1,0,0:0:0:0:
192,192,92449,1,0,0:0:0:0:
64,192,92500,1,0,0:0:0:0:
448,192,92552,1,0,0:0:0:0:
192,192,92603,1,0,0:0:0:0:
320,192,92654,1,0,0:0:0:0:
448,192,92654,1,0,0:0:0:0:
64,192,92706,1,0,0:0:0:0:
192,192,92756,1,0,0:0:0:0:
320,192,92808,1,0,0:0:0:0:
448,192,92860,1,0,0:0:0:0:
64,192,92910,1,0,0:0:0:0:
192,192,92962,1,0,0:0:0:0:
320,192,92962,1,0,0:0:0:0:
448,192,93013,1,0,0:0:0:0:
192,192,93064,1,0,0:0:0:0:
320,192,93116,1,0,0:0:0:0:
64,192,93167,1,0,0:0:0:0:
448,192,93167,1,0,0:0:0:0:
320,192,93218,1,0,0:0:0:0:
192,192,93270,1,0,0:0:0:0:
64,192,93321,1,0,0:0:0:0:
320,192,93372,1,0,0:0:0:0:
448,192,93372,1,0,0:0:0:0:
192,192,93423,1,0,0:0:0:0:
64,192,93475,1,0,0:0:0:0:
448,192,93475,1,0,0:0:0:0:
192,192,93526,1,0,0:0:0:0:
320,192,93577,1,0,0:0:0:0:
448,192,93629,1,0,0:0:0:0:
320,192,93680,1,0,0:0:0:0:
192,192,93731,1,0,0:0:0:0:
64,192,93783,1,0,0:0:0:0:
448,192,93833,1,0,0:0:0:0:
192,192,93885,1,0,0:0:0:0:
320,192,93936,1,0,0:0:0:0:
64,192,93987,1,0,0:0:0:0:
192,192,94039,1,0,0:0:0:0:
320,192,94090,1,0,0:0:0:0:
448,192,94141,1,0,0:0:0:0:
320,192,94193,1,0,0:0:0:0:
192,192,94244,1,0,0:0:0:0:
64,192,94295,1,0,0:0:0:0:
448,192,94295,1,0,0:0:0:0:
192,192,94500,1,0,0:0:0:0:
64,192,94603,1,0,0:0:0:0:
192,192,94706,1,0,0:0:0:0:
320,192,94808,1,0,0:0:0:0:
448,192,94910,1,0,0:0:0:0:
320,192,95013,1,0,0:0:0:0:
192,192,95116,1,0,0:0:0:0:
64,192,95218,1,0,0:0:0:0:
320,192,95218,1,0,0:0:0:0:
448,192,95218,1,0,0:0:0:0:
192,192,95321,1,0,0:0:0:0:
320,192,95423,1,0,0:0:0:0:
448,192,95526,1,0,0:0:0:0:
64,192,95629,1,0,0:0:0:0:
320,192,95629,1,0,0:0:0:0:
448,192,95680,1,0,0:0:0:0:
192,192,95731,1,0,0:0:0:0:
320,192,95833,1,0,0:0:0:0:
448,192,95936,1,0,0:0:0:0:
64,192,96039,1,0,0:0:0:0:
192,192,96039,1,0,0:0:0:0:
320,192,96039,1,0,0:0:0:0:
192,192,96141,1,0,0:0:0:0:
320,192,96244,1,0,0:0:0:0:
448,192,96346,1,0,0:0:0:0:
320,192,96398,1,0,0:0:0:0:
64,192,96449,1,0,0:0:0:0:
192,192,96449,1,0,0:0:0:0:
448,192,96500,1,0,0:0:0:0:
320,192,96552,1,0,0:0:0:0:
64,192,96654,1,0,0:0:0:0:
192,192,96706,1,0,0:0:0:0:
320,192,96756,1,0,0:0:0:0:
192,192,96808,1,0,0:0:0:0:
64,192,96860,1,0,0:0:0:0:
320,192,96860,1,0,0:0:0:0:
448,192,96860,1,0,0:0:0:0:
192,192,96962,1,0,0:0:0:0:
320,192,97064,1,0,0:0:0:0:
448,192,97167,1,0,0:0:0:0:
192,192,97218,1,0,0:0:0:0:
64,192,97270,1,0,0:0:0:0:
320,192,97270,1,0,0:0:0:0:
192,192,97321,1,0,0:0:0:0:
320,192,97372,1,0,0:0:0:0:
64,192,97475,1,0,0:0:0:0:
192,192,97577,1,0,0:0:0:0:
64,192,97680,1,0,0:0:0:0:
320,192,97680,1,0,0:0:0:0:
448,192,97680,1,0,0:0:0:0:
192,192,97783,1,0,0:0:0:0:
320,192,97885,1,0,0:0:0:0:
448,192,97987,1,0,0:0:0:0:
320,192,98039,1,0,0:0:0:0:
64,192,98090,1,0,0:0:0:0:
192,192,98090,1,0,0:0:0:0:
448,192,98141,1,0,0:0:0:0:
320,192,98193,1,0,0:0:0:0:
64,192,98295,1,0,0:0:0:0:
192,192,98346,1,0,0:0:0:0:
320,192,98398,1,0,0:0:0:0:
192,192,98449,1,0,0:0:0:0:
64,192,98500,1,0,0:0:0:0:
320,192,98500,1,0,0:0:0:0:
448,192,98500,1,0,0:0:0:0:
192,192,98603,1,0,0:0:0:0:
320,192,98706,1,0,0:0:0:0:
448,192,98808,1,0,0:0:0:0:
320,192,98860,1,0,0:0:0:0:
64,192,98910,1,0,0:0:0:0:
192,192,98910,1,0,0:0:0:0:
320,192,98962,1,0,0:0:0:0:
448,192,99013,1,0,0:0:0:0:
192,192,99116,1,0,0:0:0:0:
320,192,99218,1,0,0:0:0:0:
64,192,99321,1,0,0:0:0:0:
192,192,99321,1,0,0:0:0:0:
448,192,99321,1,0,0:0:0:0:
64,192,99423,1,0,0:0:0:0:
320,192,99526,1,0,0:0:0:0:
192,192,99629,1,0,0:0:0:0:
64,192,99680,1,0,0:0:0:0:
320,192,99731,1,0,0:0:0:0:
448,192,99731,1,0,0:0:0:0:
192,192,99783,1,0,0:0:0:0:
64,192,99833,1,0,0:0:0:0:
320,192,99936,1,0,0:0:0:0:
192,192,99987,1,0,0:0:0:0:
448,192,100039,1,0,0:0:0:0:
320,192,100090,1,0,0:0:0:0:
64,192,100141,1,0,0:0:0:0:
192,192,100141,1,0,0:0:0:0:
448,192,100141,1,0,0:0:0:0:
320,192,100243,1,0,0:0:0:0:
192,192,100346,1,0,0:0:0:0:
448,192,100449,1,0,0:0:0:0:
320,192,100500,1,0,0:0:0:0:
64,192,100551,1,0,0:0:0:0:
192,192,100551,1,0,0:0:0:0:
320,192,100603,1,0,0:0:0:0:
448,192,100654,1,0,0:0:0:0:
192,192,100756,1,0,0:0:0:0:
320,192,100859,1,0,0:0:0:0:
64,192,100962,1,0,0:0:0:0:
192,192,100962,1,0,0:0:0:0:
448,192,100962,1,0,0:0:0:0:
320,192,101064,1,0,0:0:0:0:
64,192,101166,1,0,0:0:0:0:
320,192,101270,1,0,0:0:0:0:
192,192,101321,1,0,0:0:0:0:
64,192,101372,1,0,0:0:0:0:
448,192,101372,1,0,0:0:0:0:
192,192,101423,1,0,0:0:0:0:
320,192,101475,1,0,0:0:0:0:
448,192,101577,1,0,0:0:0:0:
320,192,101629,1,0,0:0:0:0:
192,192,101680,1,0,0:0:0:0:
320,192,101731,1,0,0:0:0:0:
64,192,101783,1,0,0:0:0:0:
192,192,101783,1,0,0:0:0:0:
448,192,101783,1,0,0:0:0:0:
320,192,101885,1,0,0:0:0:0:
192,192,101987,1,0,0:0:0:0:
448,192,102090,1,0,0:0:0:0:
192,192,102141,1,0,0:0:0:0:
64,192,102193,1,0,0:0:0:0:
320,192,102193,1,0,0:0:0:0:
192,192,102244,1,0,0:0:0:0:
448,192,102295,1,0,0:0:0:0:
64,192,102398,1,0,0:0:0:0:
192,192,102500,1,0,0:0:0:0:
64,192,102603,1,0,0:0:0:0:
320,192,102603,1,0,0:0:0:0:
448,192,102603,1,0,0:0:0:0:
320,192,102706,1,0,0:0:0:0:
192,192,102808,1,0,0:0:0:0:
448,192,102910,1,0,0:0:0:0:
64,192,102962,1,0,0:0:0:0:
192,192,103013,1,0,0:0:0:0:
320,192,103013,1,0,0:0:0:0:
448,192,103064,1,0,0:0:0:0:
64,192,103116,1,0,0:0:0:0:
448,192,103218,1,0,0:0:0:0:
320,192,103270,1,0,0:0:0:0:
192,192,103321,1,0,0:0:0:0:
320,192,103372,1,0,0:0:0:0:
64,192,103423,1,0,0:0:0:0:
192,192,103423,1,0,0:0:0:0:
448,192,103423,1,0,0:0:0:0:
320,192,103526,1,0,0:0:0:0:
64,192,103629,1,0,0:0:0:0:
448,192,103731,1,0,0:0:0:0:
320,192,103783,1,0,0:0:0:0:
64,192,103833,1,0,0:0:0:0:
192,192,103833,1,0,0:0:0:0:
320,192,103885,1,0,0:0:0:0:
448,192,103936,1,0,0:0:0:0:
64,192,104039,1,0,0:0:0:0:
192,192,104141,1,0,0:0:0:0:
64,192,104244,1,0,0:0:0:0:
320,192,104244,1,0,0:0:0:0:
448,192,104244,1,0,0:0:0:0:
192,192,104295,1,0,0:0:0:0:
320,192,104346,1,0,0:0:0:0:
192,192,104449,1,0,0:0:0:0:
64,192,104552,1,0,0:0:0:0:
192,192,104603,1,0,0:0:0:0:
320,192,104654,1,0,0:0:0:0:
448,192,104654,1,0,0:0:0:0:
64,192,104706,1,0,0:0:0:0:
192,192,104757,1,0,0:0:0:0:
448,192,104860,1,0,0:0:0:0:
320,192,104911,1,0,0:0:0:0:
192,192,104962,1,0,0:0:0:0:
64,192,105013,1,0,0:0:0:0:
192,192,105065,1,0,0:0:0:0:
320,192,105065,1,0,0:0:0:0:
448,192,105065,1,0,0:0:0:0:
64,192,105116,1,0,0:0:0:0:
320,192,105167,1,0,0:0:0:0:
192,192,105270,1,0,0:0:0:0:
320,192,105373,1,0,0:0:0:0:
192,192,105423,1,0,0:0:0:0:
64,192,105475,1,0,0:0:0:0:
448,192,105475,1,0,0:0:0:0:
320,192,105526,1,0,0:0:0:0:
192,192,105577,1,0,0:0:0:0:
64,192,105680,1,0,0:0:0:0:
448,192,105783,1,0,0:0:0:0:
64,192,105885,1,0,0:0:0:0:
192,192,105885,1,0,0:0:0:0:
320,192,105885,1,0,0:0:0:0:
448,192,105988,1,0,0:0:0:0:
192,192,106090,1,0,0:0:0:0:
320,192,106193,1,0,0:0:0:0:
448,192,106244,1,0,0:0:0:0:
64,192,106296,1,0,0:0:0:0:
192,192,106296,1,0,0:0:0:0:
320,192,106346,1,0,0:0:0:0:
448,192,106398,1,0,0:0:0:0:
192,192,106500,1,0,0:0:0:0:
320,192,106552,1,0,0:0:0:0:
64,192,106603,1,0,0:0:0:0:
192,192,106654,1,0,0:0:0:0:
64,192,106706,1,0,0:0:0:0:
320,192,106706,1,0,0:0:0:0:
448,192,106706,1,0,0:0:0:0:
192,192,106808,1,0,0:0:0:0:
320,192,106911,1,0,0:0:0:0:
64,192,107013,1,0,0:0:0:0:
448,192,107013,1,0,0:0:0:0:
192,192,107116,1,0,0:0:0:0:
320,192,107116,1,0,0:0:0:0:
448,192,107167,1,0,0:0:0:0:
64,192,107219,1,0,0:0:0:0:
192,192,107321,1,0,0:0:0:0:
320,192,107423,1,0,0:0:0:0:
64,192,107526,1,0,0:0:0:0:
192,192,107526,1,0,0:0:0:0:
448,192,107526,1,0,0:0:0:0:
320,192,107629,1,0,0:0:0:0:
448,192,107629,1,0,0:0:0:0:
64,192,107834,1,0,0:0:0:0:
448,192,107834,1,0,0:0:0:0:
192,192,107936,1,0,0:0:0:0:
320,192,107936,1,0,0:0:0:0:
64,192,108039,1,0,0:0:0:0:
192,192,108039,1,0,0:0:0:0:
320,192,108142,1,0,0:0:0:0:
192,192,108244,1,0,0:0:0:0:
448,192,108244,1,0,0:0:0:0:
64,192,108346,1,0,0:0:0:0:
320,192,108346,1,0,0:0:0:0:
448,192,108346,1,0,0:0:0:0:
192,192,108450,1,0,0:0:0:0:
64,192,108552,1,0,0:0:0:0:
320,192,108552,1,0,0:0:0:0:
448,192,108654,1,0,0:0:0:0:
320,192,108706,1,0,0:0:0:0:
64,192,108757,1,0,0:0:0:0:
192,192,108757,1,0,0:0:0:0:
448,192,108808,1,0,0:0:0:0:
64,192,108860,1,0,0:0:0:0:
192,192,108860,1,0,0:0:0:0:
320,192,108962,1,0,0:0:0:0:
448,192,108962,1,0,0:0:0:0:
192,192,109065,1,0,0:0:0:0:
64,192,109167,1,0,0:0:0:0:
448,192,109167,1,0,0:0:0:0:
64,192,109270,1,0,0:0:0:0:
192,192,109270,1,0,0:0:0:0:
192,192,109373,1,0,0:0:0:0:
320,192,109373,1,0,0:0:0:0:
448,192,109475,1,0,0:0:0:0:
192,192,109526,1,0,0:0:0:0:
320,192,109578,1,0,0:0:0:0:
448,192,109578,1,0,0:0:0:0:
64,192,109629,1,0,0:0:0:0:
192,192,109680,1,0,0:0:0:0:
320,192,109680,1,0,0:0:0:0:
64,192,109783,1,0,0:0:0:0:
448,192,109783,1,0,0:0:0:0:
192,192,109886,1,0,0:0:0:0:
320,192,109936,1,0,0:0:0:0:
64,192,109988,1,0,0:0:0:0:
448,192,109988,1,0,0:0:0:0:
192,192,110090,1,0,0:0:0:0:
320,192,110090,1,0,0:0:0:0:
64,192,110193,1,0,0:0:0:0:
448,192,110193,1,0,0:0:0:0:
320,192,110296,1,0,0:0:0:0:
192,192,110347,1,0,0:0:0:0:
64,192,110398,1,0,0:0:0:0:
320,192,110398,1,0,0:0:0:0:
192,192,110450,1,0,0:0:0:0:
64,192,110501,1,0,0:0:0:0:
448,192,110501,1,0,0:0:0:0:
192,192,110603,1,0,0:0:0:0:
320,192,110603,1,0,0:0:0:0:
448,192,110706,1,0,0:0:0:0:
64,192,110809,1,0,0:0:0:0:
192,192,110809,1,0,0:0:0:0:
448,192,110860,1,0,0:0:0:0:
192,192,110911,1,0,0:0:0:0:
320,192,110911,1,0,0:0:0:0:
64,192,111013,1,0,0:0:0:0:
448,192,111013,1,0,0:0:0:0:
192,192,111116,1,0,0:0:0:0:
320,192,111167,1,0,0:0:0:0:
64,192,111219,1,0,0:0:0:0:
448,192,111219,1,0,0:0:0:0:
192,192,111270,1,0,0:0:0:0:
320,192,111321,1,0,0:0:0:0:
448,192,111321,1,0,0:0:0:0:
64,192,111424,1,0,0:0:0:0:
192,192,111424,1,0,0:0:0:0:
448,192,111526,1,0,0:0:0:0:
64,192,111578,1,0,0:0:0:0:
192,192,111629,1,0,0:0:0:0:
320,192,111629,1,0,0:0:0:0:
64,192,111680,1,0,0:0:0:0:
320,192,111732,1,0,0:0:0:0:
448,192,111732,1,0,0:0:0:0:
64,192,111834,1,0,0:0:0:0:
192,192,111834,1,0,0:0:0:0:
448,192,111936,1,0,0:0:0:0:
320,192,111988,1,0,0:0:0:0:
64,192,112040,1,0,0:0:0:0:
192,192,112040,1,0,0:0:0:0:
448,192,112090,1,0,0:0:0:0:
64,192,112142,1,0,0:0:0:0:
320,192,112142,1,0,0:0:0:0:
192,192,112244,1,0,0:0:0:0:
448,192,112244,1,0,0:0:0:0:
320,192,112347,1,0,0:0:0:0:
64,192,112450,1,0,0:0:0:0:
448,192,112450,1,0,0:0:0:0:
192,192,112501,1,0,0:0:0:0:
320,192,112553,1,0,0:0:0:0:
448,192,112553,1,0,0:0:0:0:
64,192,112655,1,0,0:0:0:0:
192,192,112655,1,0,0:0:0:0:
448,192,112757,1,0,0:0:0:0:
192,192,112809,1,0,0:0:0:0:
320,192,112860,1,0,0:0:0:0:
448,192,112860,1,0,0:0:0:0:
64,192,112911,1,0,0:0:0:0:
192,192,112963,1,0,0:0:0:0:
320,192,112963,1,0,0:0:0:0:
64,192,113065,1,0,0:0:0:0:
448,192,113065,1,0,0:0:0:0:
192,192,113168,1,0,0:0:0:0:
320,192,113219,1,0,0:0:0:0:
64,192,113270,1,0,0:0:0:0:
192,192,113270,1,0,0:0:0:0:
448,192,113322,1,0,0:0:0:0:
192,192,113373,1,0,0:0:0:0:
320,192,113373,1,0,0:0:0:0:
64,192,113476,1,0,0:0:0:0:
448,192,113476,1,0,0:0:0:0:
192,192,113578,1,0,0:0:0:0:
320,192,113630,1,0,0:0:0:0:
64,192,113680,1,0,0:0:0:0:
192,192,113680,1,0,0:0:0:0:
448,192,113732,1,0,0:0:0:0:
192,192,113783,1,0,0:0:0:0:
320,192,113783,1,0,0:0:0:0:
64,192,113886,1,0,0:0:0:0:
448,192,113886,1,0,0:0:0:0:
192,192,113988,1,0,0:0:0:0:
320,192,114091,1,0,0:0:0:0:
448,192,114091,1,0,0:0:0:0:
64,192,114142,1,0,0:0:0:0:
192,192,114193,1,0,0:0:0:0:
320,192,114193,1,0,0:0:0:0:
448,192,114245,1,0,0:0:0:0:
64,192,114296,1,0,0:0:0:0:
192,192,114296,1,0,0:0:0:0:
320,192,114399,1,0,0:0:0:0:
192,192,114450,1,0,0:0:0:0:
320,192,114501,1,0,0:0:0:0:
448,192,114501,1,0,0:0:0:0:
64,192,114553,1,0,0:0:0:0:
192,192,114603,1,0,0:0:0:0:
320,192,114603,1,0,0:0:0:0:
64,192,114706,1,0,0:0:0:0:
448,192,114706,1,0,0:0:0:0:
192,192,114809,1,0,0:0:0:0:
320,192,114860,1,0,0:0:0:0:
64,192,114911,1,0,0:0:0:0:
192,192,114911,1,0,0:0:0:0:
320,192,115014,1,0,0:0:0:0:
448,192,115014,1,0,0:0:0:0:
192,192,115116,1,0,0:0:0:0:
320,192,115116,1,0,0:0:0:0:
64,192,115219,1,0,0:0:0:0:
448,192,115219,1,0,0:0:0:0:
192,192,115270,1,0,0:0:0:0:
320,192,115322,1,0,0:0:0:0:
448,192,115322,1,0,0:0:0:0:
192,192,115373,1,0,0:0:0:0:
64,192,115424,1,0,0:0:0:0:
448,192,115424,1,0,0:0:0:0:
192,192,115526,1,0,0:0:0:0:
320,192,115526,1,0,0:0:0:0:
320,192,115630,1,0,0:0:0:0:
448,192,115630,1,0,0:0:0:0:
64,192,115732,1,0,0:0:0:0:
192,192,115732,1,0,0:0:0:0:
320,192,115835,1,0,0:0:0:0:
448,192,115835,1,0,0:0:0:0:
64,192,115937,1,0,0:0:0:0:
320,192,115937,1,0,0:0:0:0:
64,192,116040,1,0,0:0:0:0:
192,192,116040,1,0,0:0:0:0:
448,192,116091,1,0,0:0:0:0:
192,192,116143,1,0,0:0:0:0:
320,192,116143,1,0,0:0:0:0:
64,192,116193,1,0,0:0:0:0:
320,192,116245,1,0,0:0:0:0:
448,192,116245,1,0,0:0:0:0:
64,192,116347,1,0,0:0:0:0:
192,192,116347,1,0,0:0:0:0:
320,192,116450,1,0,0:0:0:0:
448,192,116450,1,0,0:0:0:0:
192,192,116501,1,0,0:0:0:0:
320,192,116553,1,0,0:0:0:0:
448,192,116553,1,0,0:0:0:0:
64,192,116604,1,0,0:0:0:0:
192,192,116655,1,0,0:0:0:0:
320,192,116655,1,0,0:0:0:0:
64,192,116758,1,0,0:0:0:0:
448,192,116758,1,0,0:0:0:0:
192,192,116860,1,0,0:0:0:0:
320,192,116860,1,0,0:0:0:0:
448,192,116912,1,0,0:0:0:0:
64,192,116963,1,0,0:0:0:0:
192,192,116963,1,0,0:0:0:0:
320,192,117014,1,0,0:0:0:0:
64,192,117066,1,0,0:0:0:0:
448,192,117066,1,0,0:0:0:0:
192,192,117168,1,0,0:0:0:0:
320,192,117168,1,0,0:0:0:0:
320,192,117270,1,0,0:0:0:0:
448,192,117270,1,0,0:0:0:0:
64,192,117373,1,0,0:0:0:0:
192,192,117373,1,0,0:0:0:0:
448,192,117424,1,0,0:0:0:0:
192,192,117476,1,0,0:0:0:0:
320,192,117476,1,0,0:0:0:0:
320,192,117578,1,0,0:0:0:0:
448,192,117578,1,0,0:0:0:0:
64,192,117681,1,0,0:0:0:0:
192,192,117681,1,0,0:0:0:0:
448,192,117732,1,0,0:0:0:0:
64,192,117783,1,0,0:0:0:0:
320,192,117783,1,0,0:0:0:0:
192,192,117835,1,0,0:0:0:0:
320,192,117886,1,0,0:0:0:0:
448,192,117886,1,0,0:0:0:0:
64,192,117989,1,0,0:0:0:0:
192,192,117989,1,0,0:0:0:0:
320,192,118091,1,0,0:0:0:0:
448,192,118091,1,0,0:0:0:0:
64,192,118193,1,0,0:0:0:0:
192,192,118193,1,0,0:0:0:0:
320,192,118296,1,0,0:0:0:0:
192,192,118399,1,0,0:0:0:0:
448,192,118501,1,0,0:0:0:0:
192,192,118553,1,0,0:0:0:0:
64,192,118604,1,0,0:0:0:0:
320,192,118604,1,0,0:0:0:0:
192,192,118706,1,0,0:0:0:0:
448,192,118809,1,0,0:0:0:0:
64,192,118912,1,0,0:0:0:0:
320,192,119014,1,0,0:0:0:0:
448,192,119014,1,0,0:0:0:0:
192,192,119117,1,0,0:0:0:0:
64,192,119220,1,0,0:0:0:0:
320,192,119322,1,0,0:0:0:0:
192,192,119373,1,0,0:0:0:0:
64,192,119425,1,0,0:0:0:0:
448,192,119425,1,0,0:0:0:0:
192,192,119527,1,0,0:0:0:0:
320,192,119630,1,0,0:0:0:0:
448,192,119733,1,0,0:0:0:0:
64,192,119835,1,0,0:0:0:0:
320,192,119835,1,0,0:0:0:0:
448,192,119886,1,0,0:0:0:0:
192,192,119937,1,0,0:0:0:0:
320,192,119989,1,0,0:0:0:0:
64,192,120040,1,0,0:0:0:0:
192,192,120091,1,0,0:0:0:0:
320,192,120143,1,0,0:0:0:0:
448,192,120143,1,0,0:0:0:0:
192,192,120194,1,0,0:0:0:0:
320,192,120245,1,0,0:0:0:0:
448,192,120296,1,0,0:0:0:0:
64,192,120348,1,0,0:0:0:0:
192,192,120399,1,0,0:0:0:0:
320,192,120450,1,0,0:0:0:0:
448,192,120450,1,0,0:0:0:0:
64,192,120502,1,0,0:0:0:0:
192,192,120553,1,0,0:0:0:0:
320,192,120604,1,0,0:0:0:0:
64,192,120656,1,0,0:0:0:0:
448,192,120656,1,0,0:0:0:0:
192,192,120706,1,0,0:0:0:0:
320,0,120758,128,0,120810:1:0:0:0:
64,192,120810,1,0,0:0:0:0:
448,0,120860,128,0,120912:1:0:0:0:
192,192,120912,1,0,0:0:0:0:
320,192,120963,1,0,0:0:0:0:
192,192,121014,1,0,0:0:0:0:
64,0,121066,128,0,121117:1:0:0:0:
320,192,121117,1,0,0:0:0:0:
192,0,121168,128,0,121220:1:0:0:0:
448,192,121220,1,0,0:0:0:0:
320,0,121271,128,0,121322:1:0:0:0:
64,192,121322,1,0,0:0:0:0:
448,0,121373,128,0,121425:1:0:0:0:
192,192,121425,1,0,0:0:0:0:
320,192,121476,1,0,0:0:0:0:
192,0,121579,128,0,121681:1:0:0:0:
64,192,121681,1,0,0:0:0:0:
448,0,121783,128,0,121886:1:0:0:0:
320,192,121886,1,0,0:0:0:0:
64,0,121989,128,0,122091:1:0:0:0:
192,192,122091,1,0,0:0:0:0:
64,192,122194,1,0,0:0:0:0:
320,0,122194,128,0,122296:1:0:0:0:
448,0,122296,128,0,122399:1:0:0:0:
192,192,122348,1,0,0:0:0:0:
64,0,122399,128,0,122502:1:0:0:0:
192,0,122502,128,0,122604:1:0:0:0:
448,0,122604,128,0,122706:1:0:0:0:
320,192,122706,1,0,0:0:0:0:
192,0,122810,128,0,122912:1:0:0:0:
448,0,122912,128,0,123014:1:0:0:0:
64,0,123014,128,0,123117:1:0:0:0:
192,192,123117,1,0,0:0:0:0:
448,192,123117,1,0,0:0:0:0:
320,0,123220,128,0,123322:1:0:0:0:
192,192,123322,1,0,0:0:0:0:
448,0,123425,128,0,123527:1:0:0:0:
192,192,123527,1,0,0:0:0:0:
64,0,123630,128,0,123733:1:0:0:0:
448,192,123733,1,0,0:0:0:0:
64,192,123835,1,0,0:0:0:0:
320,0,123835,128,0,123937:1:0:0:0:
192,0,123937,128,0,124040:1:0:0:0:
320,0,124040,128,0,124143:1:0:0:0:
448,0,124143,128,0,124245:1:0:0:0:
320,0,124245,128,0,124348:1:0:0:0:
192,0,124348,128,0,124450:1:0:0:0:
64,0,124450,128,0,124553:1:0:0:0:
320,0,124553,128,0,124656:1:0:0:0:
192,0,124656,128,0,124758:1:0:0:0:
64,192,124758,1,0,0:0:0:0:
448,0,124758,128,0,124860:1:0:0:0:
320,0,124860,128,0,124963:1:0:0:0:
64,0,124963,128,0,125066:1:0:0:0:
192,0,125066,128,0,125168:1:0:0:0:
448,192,125168,1,0,0:0:0:0:
320,0,125271,128,0,125373:1:0:0:0:
64,192,125373,1,0,0:0:0:0:
320,192,125476,1,0,0:0:0:0:
448,0,125476,128,0,125579:1:0:0:0:
320,0,125681,128,0,125783:1:0:0:0:
192,0,125783,128,0,125886:1:0:0:0:
64,0,125886,128,0,125989:1:0:0:0:
320,192,125989,1,0,0:0:0:0:
448,0,126091,128,0,126194:1:0:0:0:
320,0,126194,128,0,126296:1:0:0:0:
192,0,126296,128,0,126399:1:0:0:0:
64,192,126399,1,0,0:0:0:0:
448,192,126399,1,0,0:0:0:0:
320,0,126502,128,0,126604:1:0:0:0:
192,192,126604,1,0,0:0:0:0:
320,0,126706,128,0,126810:1:0:0:0:
192,192,126810,1,0,0:0:0:0:
64,0,126912,128,0,127014:1:0:0:0:
320,192,127014,1,0,0:0:0:0:
64,192,127117,1,0,0:0:0:0:
192,0,127117,128,0,127168:1:0:0:0:
320,192,127168,1,0,0:0:0:0:
192,192,127220,1,0,0:0:0:0:
64,192,127271,1,0,0:0:0:0:
448,0,127322,128,0,127373:1:0:0:0:
320,0,127373,128,0,127425:1:0:0:0:
192,0,127425,128,0,127476:1:0:0:0:
64,192,127476,1,0,0:0:0:0:
320,0,127527,128,0,127579:1:0:0:0:
192,192,127579,1,0,0:0:0:0:
448,0,127630,128,0,127681:1:0:0:0:
64,192,127681,1,0,0:0:0:0:
192,0,127733,128,0,127783:1:0:0:0:
320,192,127783,1,0,0:0:0:0:
64,0,127835,128,0,127886:1:0:0:0:
192,192,127886,1,0,0:0:0:0:
320,192,127937,1,0,0:0:0:0:
448,192,127989,1,0,0:0:0:0:
64,192,128040,1,0,0:0:0:0:
192,192,128040,1,0,0:0:0:0:
192,192,128143,1,0,0:0:0:0:
320,0,128245,128,0,128348:1:0:0:0:
448,0,128348,128,0,128450:1:0:0:0:
320,192,128450,1,0,0:0:0:0:
192,0,128553,128,0,128656:1:0:0:0:
448,192,128656,1,0,0:0:0:0:
192,192,128758,1,0,0:0:0:0:
320,0,128758,128,0,128860:1:0:0:0:
64,192,128860,1,0,0:0:0:0:
448,0,128963,128,0,129066:1:0:0:0:
192,0,129066,128,0,129168:1:0:0:0:
64,0,129168,128,0,129271:1:0:0:0:
448,192,129271,1,0,0:0:0:0:
320,0,129373,128,0,129476:1:0:0:0:
192,192,129476,1,0,0:0:0:0:
448,0,129579,128,0,129681:1:0:0:0:
64,192,129681,1,0,0:0:0:0:
192,192,129681,1,0,0:0:0:0:
320,0,129783,128,0,129886:1:0:0:0:
192,0,129886,128,0,129989:1:0:0:0:
64,0,129989,128,0,130091:1:0:0:0:
448,192,130091,1,0,0:0:0:0:
320,0,130194,128,0,130296:1:0:0:0:
64,192,130296,1,0,0:0:0:0:
448,192,130296,1,0,0:0:0:0:
320,192,130399,1,0,0:0:0:0:
192,0,130399,128,0,130502:1:0:0:0:
64,0,130604,128,0,130706:1:0:0:0:
448,0,130706,128,0,130810:1:0:0:0:
192,0,130810,128,0,130912:1:0:0:0:
64,192,130912,1,0,0:0:0:0:
320,0,131014,128,0,131117:1:0:0:0:
192,192,131117,1,0,0:0:0:0:
448,0,131220,128,0,131322:1:0:0:0:
64,192,131322,1,0,0:0:0:0:
192,192,131322,1,0,0:0:0:0:
320,192,131425,1,0,0:0:0:0:
64,0,131527,128,0,131630:1:0:0:0:
192,0,131630,128,0,131733:1:0:0:0:
320,192,131733,1,0,0:0:0:0:
320,0,131835,128,0,131937:1:0:0:0:
64,192,131937,1,0,0:0:0:0:
320,192,132040,1,0,0:0:0:0:
448,0,132040,128,0,132143:1:0:0:0:
192,0,132245,128,0,132348:1:0:0:0:
320,0,132348,128,0,132450:1:0:0:0:
192,0,132450,128,0,132553:1:0:0:0:
448,192,132553,1,0,0:0:0:0:
64,0,132656,128,0,132758:1:0:0:0:
192,0,132758,128,0,132860:1:0:0:0:
320,0,132860,128,0,132963:1:0:0:0:
64,192,132963,1,0,0:0:0:0:
448,0,132963,128,0,133014:1:0:0:0:
320,192,133014,1,0,0:0:0:0:
192,192,133066,1,0,0:0:0:0:
64,192,133117,1,0,0:0:0:0:
320,0,133168,128,0,133220:1:0:0:0:
448,192,133220,1,0,0:0:0:0:
192,0,133271,128,0,133322:1:0:0:0:
64,192,133322,1,0,0:0:0:0:
320,192,133373,1,0,0:0:0:0:
192,192,133425,1,0,0:0:0:0:
64,0,133476,128,0,133527:1:0:0:0:
448,192,133527,1,0,0:0:0:0:
320,192,133579,1,0,0:0:0:0:
192,192,133630,1,0,0:0:0:0:
448,0,133681,128,0,133783:1:0:0:0:
64,192,133733,1,0,0:0:0:0:
192,192,133783,1,0,0:0:0:0:
448,192,133835,1,0,0:0:0:0:
320,0,133886,128,0,133937:1:0:0:0:
192,192,133937,1,0,0:0:0:0:
320,0,133989,128,0,134040:1:0:0:0:
192,192,134040,1,0,0:0:0:0:
64,192,134091,1,0,0:0:0:0:
448,192,134143,1,0,0:0:0:0:
320,0,134194,128,0,134245:1:0:0:0:
192,192,134245,1,0,0:0:0:0:
64,192,134296,1,0,0:0:0:0:
320,192,134348,1,0,0:0:0:0:
192,192,134399,1,0,0:0:0:0:
448,192,134450,1,0,0:0:0:0:
320,192,134502,1,0,0:0:0:0:
192,192,134553,1,0,0:0:0:0:
448,192,134604,1,0,0:0:0:0:
64,0,134604,128,0,134656:1:0:0:0:
320,0,134706,128,0,134758:1:0:0:0:
192,0,134810,128,0,134860:1:0:0:0:
448,0,134912,128,0,134963:1:0:0:0:
64,0,135014,128,0,135066:1:0:0:0:
192,0,135117,128,0,135168:1:0:0:0:
320,0,135220,128,0,135271:1:0:0:0:
64,192,135322,1,0,0:0:0:0:
448,0,135322,128,0,135425:1:0:0:0:
448,0,135527,128,0,135579:1:0:0:0:
320,0,135630,128,0,135681:1:0:0:0:
192,0,135733,128,0,135784:1:0:0:0:
320,0,135835,128,0,135886:1:0:0:0:
448,0,135938,128,0,135989:1:0:0:0:
320,0,135989,128,0,136040:1:0:0:0:
192,0,136040,128,0,136092:1:0:0:0:
320,0,136143,128,0,136194:1:0:0:0:
192,192,136246,1,0,0:0:0:0:
448,0,136246,128,0,136296:1:0:0:0:
64,0,136348,128,0,136400:1:0:0:0:
192,0,136450,128,0,136502:1:0:0:0:
320,0,136553,128,0,136604:1:0:0:0:
448,0,136656,128,0,136707:1:0:0:0:
320,0,136758,128,0,136810:1:0:0:0:
192,0,136861,128,0,136912:1:0:0:0:
320,192,136963,1,0,0:0:0:0:
64,0,136963,128,0,137015:1:0:0:0:
448,0,137066,128,0,137117:1:0:0:0:
320,0,137169,128,0,137220:1:0:0:0:
192,0,137271,128,0,137323:1:0:0:0:
64,0,137373,128,0,137425:1:0:0:0:
192,0,137476,128,0,137527:1:0:0:0:
320,0,137527,128,0,137630:1:0:0:0:
64,0,137784,128,0,137835:1:0:0:0:
320,0,137835,128,0,137886:1:0:0:0:
448,192,137886,1,0,0:0:0:0:
192,0,137886,128,0,137989:1:0:0:0:
192,0,138092,128,0,138194:1:0:0:0:
192,0,138296,128,0,138348:1:0:0:0:
320,0,138400,128,0,138502:1:0:0:0:
64,192,138604,1,0,0:0:0:0:
448,0,138604,128,0,138707:1:0:0:0:
320,0,138810,128,0,138912:1:0:0:0:
192,0,139015,128,0,139117:1:0:0:0:
320,0,139220,128,0,139323:1:0:0:0:
64,0,139425,128,0,139527:1:0:0:0:
192,192,139527,1,0,0:0:0:0:
320,192,139527,1,0,0:0:0:0:
448,0,139630,128,0,139733:1:0:0:0:
448,0,139835,128,0,139938:1:0:0:0:
320,0,140040,128,0,140092:1:0:0:0:
192,0,140143,128,0,140194:1:0:0:0:
448,192,140246,1,0,0:0:0:0:
64,0,140246,128,0,140297:1:0:0:0:
320,0,140348,128,0,140400:1:0:0:0:
448,0,140451,128,0,140502:1:0:0:0:
320,0,140553,128,0,140605:1:0:0:0:
192,0,140656,128,0,140707:1:0:0:0:
320,0,140759,128,0,140861:1:0:0:0:
64,0,140963,128,0,141015:1:0:0:0:
192,0,141066,128,0,141117:1:0:0:0:
448,192,141169,1,0,0:0:0:0:
320,0,141169,128,0,141271:1:0:0:0:
192,192,141220,1,0,0:0:0:0:
64,192,141271,1,0,0:0:0:0:
448,192,141323,1,0,0:0:0:0:
320,192,141374,1,0,0:0:0:0:
192,192,141425,1,0,0:0:0:0:
320,0,141476,128,0,141579:1:0:0:0:
192,192,141528,1,0,0:0:0:0:
64,192,141579,1,0,0:0:0:0:
320,192,141630,1,0,0:0:0:0:
448,0,141682,128,0,141733:1:0:0:0:
192,192,141733,1,0,0:0:0:0:
320,0,141784,128,0,141836:1:0:0:0:
64,192,141836,1,0,0:0:0:0:
320,0,141886,128,0,141938:1:0:0:0:
192,192,141938,1,0,0:0:0:0:
448,192,141990,1,0,0:0:0:0:
320,192,142040,1,0,0:0:0:0:
192,0,142092,128,0,142143:1:0:0:0:
64,192,142143,1,0,0:0:0:0:
320,0,142194,128,0,142246:1:0:0:0:
192,192,142246,1,0,0:0:0:0:
448,0,142297,128,0,142400:1:0:0:0:
320,192,142348,1,0,0:0:0:0:
192,192,142400,1,0,0:0:0:0:
64,192,142451,1,0,0:0:0:0:
320,192,142502,1,0,0:0:0:0:
192,192,142553,1,0,0:0:0:0:
64,0,142605,128,0,142707:1:0:0:0:
320,192,142656,1,0,0:0:0:0:
448,192,142707,1,0,0:0:0:0:
64,192,142759,1,0,0:0:0:0:
192,192,142810,1,0,0:0:0:0:
320,0,142810,128,0,142913:1:0:0:0:
320,0,143117,128,0,143220:1:0:0:0:
192,0,143323,128,0,143374:1:0:0:0:
320,0,143425,128,0,143476:1:0:0:0:
64,192,143528,1,0,0:0:0:0:
448,0,143528,128,0,144041:1:0:0:0:
192,192,143733,1,0,0:0:0:0:
64,192,143836,1,0,0:0:0:0:
320,192,143836,1,0,0:0:0:0:
320,192,144041,1,0,0:0:0:0:
320,192,144143,1,0,0:0:0:0:
64,0,144246,128,0,144297:1:0:0:0:
192,0,144349,128,0,144400:1:0:0:0:
448,192,144451,1,0,0:0:0:0:
320,0,144451,128,0,144553:1:0:0:0:
448,0,144656,128,0,144707:1:0:0:0:
320,0,144759,128,0,144861:1:0:0:0:
192,0,144964,128,0,145066:1:0:0:0:
320,192,145169,1,0,0:0:0:0:
64,0,145169,128,0,145272:1:0:0:0:
448,0,145374,128,0,145476:1:0:0:0:
320,192,145476,1,0,0:0:0:0:
192,192,145528,1,0,0:0:0:0:
320,0,145580,128,0,145682:1:0:0:0:
192,192,145630,1,0,0:0:0:0:
64,192,145682,1,0,0:0:0:0:
192,0,145784,128,0,145836:1:0:0:0:
64,0,145887,128,0,145990:1:0:0:0:
320,192,146092,1,0,0:0:0:0:
448,0,146092,128,0,146297:1:0:0:0:
192,192,146143,1,0,0:0:0:0:
64,192,146195,1,0,0:0:0:0:
192,192,146246,1,0,0:0:0:0:
320,192,146297,1,0,0:0:0:0:
448,192,146349,1,0,0:0:0:0:
64,192,146400,1,0,0:0:0:0:
192,192,146451,1,0,0:0:0:0:
320,192,146503,1,0,0:0:0:0:
448,192,146503,1,0,0:0:0:0:
64,192,146553,1,0,0:0:0:0:
192,192,146605,1,0,0:0:0:0:
320,192,146605,1,0,0:0:0:0:
448,192,146656,1,0,0:0:0:0:
64,192,146707,1,0,0:0:0:0:
192,192,146707,1,0,0:0:0:0:
320,192,146759,1,0,0:0:0:0:
64,192,146810,1,0,0:0:0:0:
448,192,146810,1,0,0:0:0:0:
192,192,146862,1,0,0:0:0:0:
320,192,146913,1,0,0:0:0:0:
192,192,146964,1,0,0:0:0:0:
64,192,147016,1,0,0:0:0:0:
448,192,147066,1,0,0:0:0:0:
192,192,147118,1,0,0:0:0:0:
320,192,147118,1,0,0:0:0:0:
64,192,147170,1,0,0:0:0:0:
448,192,147220,1,0,0:0:0:0:
192,192,147272,1,0,0:0:0:0:
320,192,147323,1,0,0:0:0:0:
448,192,147323,1,0,0:0:0:0:
64,192,147374,1,0,0:0:0:0:
192,192,147426,1,0,0:0:0:0:
320,192,147477,1,0,0:0:0:0:
64,192,147528,1,0,0:0:0:0:
448,192,147528,1,0,0:0:0:0:
192,192,147580,1,0,0:0:0:0:
320,192,147631,1,0,0:0:0:0:
448,192,147631,1,0,0:0:0:0:
192,192,147682,1,0,0:0:0:0:
64,192,147733,1,0,0:0:0:0:
448,192,147785,1,0,0:0:0:0:
192,192,147836,1,0,0:0:0:0:
320,192,147887,1,0,0:0:0:0:
64,192,147939,1,0,0:0:0:0:
192,192,147990,1,0,0:0:0:0:
320,192,148041,1,0,0:0:0:0:
448,192,148093,1,0,0:0:0:0:
320,192,148143,1,0,0:0:0:0:
192,192,148195,1,0,0:0:0:0:
64,192,148246,1,0,0:0:0:0:
448,192,148297,1,0,0:0:0:0:
192,192,148349,1,0,0:0:0:0:
448,192,148400,1,0,0:0:0:0:
192,192,148451,1,0,0:0:0:0:
320,192,148451,1,0,0:0:0:0:
64,192,148503,1,0,0:0:0:0:
192,192,148554,1,0,0:0:0:0:
320,192,148605,1,0,0:0:0:0:
448,192,148656,1,0,0:0:0:0:
64,192,148708,1,0,0:0:0:0:
192,192,148759,1,0,0:0:0:0:
320,192,148759,1,0,0:0:0:0:
448,192,148810,1,0,0:0:0:0:
192,192,148862,1,0,0:0:0:0:
320,192,148913,1,0,0:0:0:0:
64,192,148964,1,0,0:0:0:0:
448,192,148964,1,0,0:0:0:0:
320,192,149016,1,0,0:0:0:0:
64,192,149066,1,0,0:0:0:0:
192,192,149066,1,0,0:0:0:0:
448,192,149118,1,0,0:0:0:0:
192,192,149170,1,0,0:0:0:0:
320,192,149220,1,0,0:0:0:0:
64,192,149272,1,0,0:0:0:0:
448,192,149272,1,0,0:0:0:0:
192,192,149323,1,0,0:0:0:0:
320,192,149374,1,0,0:0:0:0:
192,192,149426,1,0,0:0:0:0:
64,192,149477,1,0,0:0:0:0:
448,192,149528,1,0,0:0:0:0:
320,192,149580,1,0,0:0:0:0:
192,192,149631,1,0,0:0:0:0:
64,192,149682,1,0,0:0:0:0:
320,192,149733,1,0,0:0:0:0:
64,192,149785,1,0,0:0:0:0:
192,192,149785,1,0,0:0:0:0:
448,192,149836,1,0,0:0:0:0:
192,192,149887,1,0,0:0:0:0:
320,192,149887,1,0,0:0:0:0:
64,192,149939,1,0,0:0:0:0:
320,192,149990,1,0,0:0:0:0:
448,192,149990,1,0,0:0:0:0:
192,192,150041,1,0,0:0:0:0:
64,192,150093,1,0,0:0:0:0:
448,192,150093,1,0,0:0:0:0:
192,192,150144,1,0,0:0:0:0:
320,192,150195,1,0,0:0:0:0:
448,192,150246,1,0,0:0:0:0:
64,192,150298,1,0,0:0:0:0:
192,192,150349,1,0,0:0:0:0:
320,192,150400,1,0,0:0:0:0:
448,192,150400,1,0,0:0:0:0:
192,192,150452,1,0,0:0:0:0:
64,192,150503,1,0,0:0:0:0:
448,192,150554,1,0,0:0:0:0:
192,192,150606,1,0,0:0:0:0:
320,192,150606,1,0,0:0:0:0:
448,192,150656,1,0,0:0:0:0:
64,192,150708,1,0,0:0:0:0:
192,192,150760,1,0,0:0:0:0:
320,192,150810,1,0,0:0:0:0:
448,192,150810,1,0,0:0:0:0:
64,192,150862,1,0,0:0:0:0:
192,192,150913,1,0,0:0:0:0:
320,192,150913,1,0,0:0:0:0:
448,192,150964,1,0,0:0:0:0:
320,192,151016,1,0,0:0:0:0:
192,192,151067,1,0,0:0:0:0:
64,192,151118,1,0,0:0:0:0:
448,192,151170,1,0,0:0:0:0:
192,192,151221,1,0,0:0:0:0:
320,192,151272,1,0,0:0:0:0:
64,192,151323,1,0,0:0:0:0:
192,192,151375,1,0,0:0:0:0:
320,192,151426,1,0,0:0:0:0:
448,192,151477,1,0,0:0:0:0:
64,192,151529,1,0,0:0:0:0:
192,192,151580,1,0,0:0:0:0:
320,192,151631,1,0,0:0:0:0:
192,192,151683,1,0,0:0:0:0:
320,192,151733,1,0,0:0:0:0:
448,192,151733,1,0,0:0:0:0:
64,192,151785,1,0,0:0:0:0:
448,192,151836,1,0,0:0:0:0:
320,192,151887,1,0,0:0:0:0:
192,192,151939,1,0,0:0:0:0:
64,192,151990,1,0,0:0:0:0:
320,192,152041,1,0,0:0:0:0:
448,192,152041,1,0,0:0:0:0:
192,192,152093,1,0,0:0:0:0:
448,192,152144,1,0,0:0:0:0:
64,192,152195,1,0,0:0:0:0:
192,192,152246,1,0,0:0:0:0:
320,192,152246,1,0,0:0:0:0:
448,192,152298,1,0,0:0:0:0:
64,192,152349,1,0,0:0:0:0:
192,192,152349,1,0,0:0:0:0:
320,192,152400,1,0,0:0:0:0:
64,192,152452,1,0,0:0:0:0:
448,192,152503,1,0,0:0:0:0:
192,192,152554,1,0,0:0:0:0:
320,192,152554,1,0,0:0:0:0:
64,192,152606,1,0,0:0:0:0:
448,192,152656,1,0,0:0:0:0:
320,192,152708,1,0,0:0:0:0:
192,192,152760,1,0,0:0:0:0:
64,192,152810,1,0,0:0:0:0:
192,192,152862,1,0,0:0:0:0:
320,192,152913,1,0,0:0:0:0:
448,192,152964,1,0,0:0:0:0:
192,192,153016,1,0,0:0:0:0:
320,192,153067,1,0,0:0:0:0:
448,192,153067,1,0,0:0:0:0:
64,192,153118,1,0,0:0:0:0:
192,192,153170,1,0,0:0:0:0:
320,192,153170,1,0,0:0:0:0:
448,192,153221,1,0,0:0:0:0:
64,192,153272,1,0,0:0:0:0:
192,192,153272,1,0,0:0:0:0:
320,192,153323,1,0,0:0:0:0:
192,192,153375,1,0,0:0:0:0:
448,192,153375,1,0,0:0:0:0:
64,192,153426,1,0,0:0:0:0:
320,192,153477,1,0,0:0:0:0:
192,192,153529,1,0,0:0:0:0:
448,192,153580,1,0,0:0:0:0:
320,192,153631,1,0,0:0:0:0:
64,192,153683,1,0,0:0:0:0:
192,192,153683,1,0,0:0:0:0:
448,192,153734,1,0,0:0:0:0:
192,192,153785,1,0,0:0:0:0:
320,192,153836,1,0,0:0:0:0:
64,192,153888,1,0,0:0:0:0:
448,192,153888,1,0,0:0:0:0:
192,192,153939,1,0,0:0:0:0:
320,192,153990,1,0,0:0:0:0:
448,192,154042,1,0,0:0:0:0:
192,192,154093,1,0,0:0:0:0:
320,192,154093,1,0,0:0:0:0:
64,192,154144,1,0,0:0:0:0:
320,192,154196,1,0,0:0:0:0:
448,192,154196,1,0,0:0:0:0:
192,192,154246,1,0,0:0:0:0:
320,192,154298,1,0,0:0:0:0:
64,192,154350,1,0,0:0:0:0:
192,192,154400,1,0,0:0:0:0:
320,192,154452,1,0,0:0:0:0:
64,192,154503,1,0,0:0:0:0:
448,192,154503,1,0,0:0:0:0:
320,192,154554,1,0,0:0:0:0:
192,192,154606,1,0,0:0:0:0:
64,192,154657,1,0,0:0:0:0:
448,192,154708,1,0,0:0:0:0:
192,192,154760,1,0,0:0:0:0:
320,192,154811,1,0,0:0:0:0:
64,192,154862,1,0,0:0:0:0:
192,192,154913,1,0,0:0:0:0:
320,192,154965,1,0,0:0:0:0:
64,192,155016,1,0,0:0:0:0:
448,192,155016,1,0,0:0:0:0:
192,192,155067,1,0,0:0:0:0:
320,192,155119,1,0,0:0:0:0:
192,192,155170,1,0,0:0:0:0:
64,192,155221,1,0,0:0:0:0:
448,192,155273,1,0,0:0:0:0:
192,192,155323,1,0,0:0:0:0:
320,192,155323,1,0,0:0:0:0:
64,192,155375,1,0,0:0:0:0:
192,192,155426,1,0,0:0:0:0:
320,192,155477,1,0,0:0:0:0:
64,192,155529,1,0,0:0:0:0:
448,192,155529,1,0,0:0:0:0:
192,192,155580,1,0,0:0:0:0:
320,192,155631,1,0,0:0:0:0:
448,192,155683,1,0,0:0:0:0:
192,192,155734,1,0,0:0:0:0:
320,192,155734,1,0,0:0:0:0:
64,192,155785,1,0,0:0:0:0:
320,192,155836,1,0,0:0:0:0:
448,192,155836,1,0,0:0:0:0:
192,192,155888,1,0,0:0:0:0:
320,192,155939,1,0,0:0:0:0:
64,192,155990,1,0,0:0:0:0:
192,192,156042,1,0,0:0:0:0:
320,192,156093,1,0,0:0:0:0:
448,192,156144,1,0,0:0:0:0:
320,192,156196,1,0,0:0:0:0:
192,192,156246,1,0,0:0:0:0:
64,192,156298,1,0,0:0:0:0:
448,192,156350,1,0,0:0:0:0:
192,192,156400,1,0,0:0:0:0:
448,192,156452,1,0,0:0:0:0:
320,192,156503,1,0,0:0:0:0:
192,192,156554,1,0,0:0:0:0:
64,192,156606,1,0,0:0:0:0:
320,192,156657,1,0,0:0:0:0:
448,192,156657,1,0,0:0:0:0:
192,192,156709,1,0,0:0:0:0:
320,192,156760,1,0,0:0:0:0:
192,192,156811,1,0,0:0:0:0:
448,192,156863,1,0,0:0:0:0:
64,192,156913,1,0,0:0:0:0:
192,192,156965,1,0,0:0:0:0:
320,192,156965,1,0,0:0:0:0:
448,192,157016,1,0,0:0:0:0:
64,192,157067,1,0,0:0:0:0:
192,192,157119,1,0,0:0:0:0:
320,192,157170,1,0,0:0:0:0:
448,192,157170,1,0,0:0:0:0:
192,192,157221,1,0,0:0:0:0:
64,192,157273,1,0,0:0:0:0:
448,192,157324,1,0,0:0:0:0:
192,192,157375,1,0,0:0:0:0:
320,192,157375,1,0,0:0:0:0:
448,192,157426,1,0,0:0:0:0:
64,192,157478,1,0,0:0:0:0:
192,192,157478,1,0,0:0:0:0:
320,192,157529,1,0,0:0:0:0:
192,192,157580,1,0,0:0:0:0:
320,192,157632,1,0,0:0:0:0:
448,192,157683,1,0,0:0:0:0:
64,192,157734,1,0,0:0:0:0:
192,192,157786,1,0,0:0:0:0:
320,192,157836,1,0,0:0:0:0:
192,192,157888,1,0,0:0:0:0:
64,192,157940,1,0,0:0:0:0:
448,192,157990,1,0,0:0:0:0:
320,192,158042,1,0,0:0:0:0:
192,192,158093,1,0,0:0:0:0:
64,192,158144,1,0,0:0:0:0:
448,192,158196,1,0,0:0:0:0:
192,192,158247,1,0,0:0:0:0:
320,192,158298,1,0,0:0:0:0:
64,192,158350,1,0,0:0:0:0:
192,192,158401,1,0,0:0:0:0:
320,192,158452,1,0,0:0:0:0:
448,192,158503,1,0,0:0:0:0:
192,192,158555,1,0,0:0:0:0:
320,192,158606,1,0,0:0:0:0:
64,192,158657,1,0,0:0:0:0:
192,192,158709,1,0,0:0:0:0:
320,192,158760,1,0,0:0:0:0:
448,192,158811,1,0,0:0:0:0:
320,192,158863,1,0,0:0:0:0:
192,192,158913,1,0,0:0:0:0:
64,192,158965,1,0,0:0:0:0:
448,192,159016,1,0,0:0:0:0:
320,192,159067,1,0,0:0:0:0:
192,192,159119,1,0,0:0:0:0:
64,192,159170,1,0,0:0:0:0:
448,192,159221,1,0,0:0:0:0:
320,192,159273,1,0,0:0:0:0:
192,192,159324,1,0,0:0:0:0:
320,192,159375,1,0,0:0:0:0:
448,192,159426,1,0,0:0:0:0:
64,192,159478,1,0,0:0:0:0:
192,192,159529,1,0,0:0:0:0:
320,192,159580,1,0,0:0:0:0:
64,192,159632,1,0,0:0:0:0:
448,192,159632,1,0,0:0:0:0:
192,192,159683,1,0,0:0:0:0:
320,192,159734,1,0,0:0:0:0:
448,192,159734,1,0,0:0:0:0:
192,192,159786,1,0,0:0:0:0:
64,192,159836,1,0,0:0:0:0:
320,192,159836,1,0,0:0:0:0:
448,192,159888,1,0,0:0:0:0:
64,192,159940,1,0,0:0:0:0:
192,192,159940,1,0,0:0:0:0:
320,192,159991,1,0,0:0:0:0:
192,192,160042,1,0,0:0:0:0:
448,192,160093,1,0,0:0:0:0:
320,192,160145,1,0,0:0:0:0:
192,192,160196,1,0,0:0:0:0:
64,192,160247,1,0,0:0:0:0:
448,192,160247,1,0,0:0:0:0:
320,192,160299,1,0,0:0:0:0:
192,192,160350,1,0,0:0:0:0:
64,192,160401,1,0,0:0:0:0:
320,192,160453,1,0,0:0:0:0:
448,192,160453,1,0,0:0:0:0:
192,192,160503,1,0,0:0:0:0:
448,192,160555,1,0,0:0:0:0:
64,192,160606,1,0,0:0:0:0:
192,192,160657,1,0,0:0:0:0:
320,192,160657,1,0,0:0:0:0:
448,192,160709,1,0,0:0:0:0:
64,192,160760,1,0,0:0:0:0:
192,192,160760,1,0,0:0:0:0:
320,192,160811,1,0,0:0:0:0:
192,192,160863,1,0,0:0:0:0:
448,192,160914,1,0,0:0:0:0:
320,192,160965,1,0,0:0:0:0:
192,192,161016,1,0,0:0:0:0:
64,192,161068,1,0,0:0:0:0:
448,192,161119,1,0,0:0:0:0:
192,192,161170,1,0,0:0:0:0:
320,192,161222,1,0,0:0:0:0:
64,192,161273,1,0,0:0:0:0:
192,192,161324,1,0,0:0:0:0:
320,192,161376,1,0,0:0:0:0:
448,192,161426,1,0,0:0:0:0:
192,192,161478,1,0,0:0:0:0:
320,192,161530,1,0,0:0:0:0:
64,192,161580,1,0,0:0:0:0:
448,192,161580,1,0,0:0:0:0:
192,192,161632,1,0,0:0:0:0:
320,192,161683,1,0,0:0:0:0:
192,192,161734,1,0,0:0:0:0:
64,192,161786,1,0,0:0:0:0:
448,192,161837,1,0,0:0:0:0:
192,192,161888,1,0,0:0:0:0:
320,192,161888,1,0,0:0:0:0:
64,192,161940,1,0,0:0:0:0:
448,192,161991,1,0,0:0:0:0:
192,192,162042,1,0,0:0:0:0:
320,192,162093,1,0,0:0:0:0:
448,192,162093,1,0,0:0:0:0:
192,192,162145,1,0,0:0:0:0:
64,192,162196,1,0,0:0:0:0:
320,192,162196,1,0,0:0:0:0:
448,192,162247,1,0,0:0:0:0:
64,192,162299,1,0,0:0:0:0:
192,192,162350,1,0,0:0:0:0:
320,192,162401,1,0,0:0:0:0:
448,192,162401,1,0,0:0:0:0:
64,192,162453,1,0,0:0:0:0:
192,192,162503,1,0,0:0:0:0:
320,192,162555,1,0,0:0:0:0:
448,192,162606,1,0,0:0:0:0:
320,192,162657,1,0,0:0:0:0:
192,192,162709,1,0,0:0:0:0:
64,192,162760,1,0,0:0:0:0:
448,192,162811,1,0,0:0:0:0:
192,192,162863,1,0,0:0:0:0:
320,192,162914,1,0,0:0:0:0:
448,192,162914,1,0,0:0:0:0:
64,192,162965,1,0,0:0:0:0:
192,192,163016,1,0,0:0:0:0:
320,192,163016,1,0,0:0:0:0:
448,192,163068,1,0,0:0:0:0:
64,192,163119,1,0,0:0:0:0:
192,192,163119,1,0,0:0:0:0:
320,192,163170,1,0,0:0:0:0:
64,192,163222,1,0,0:0:0:0:
448,192,163222,1,0,0:0:0:0:
320,192,163273,1,0,0:0:0:0:
192,192,163324,1,0,0:0:0:0:
64,192,163376,1,0,0:0:0:0:
320,192,163427,1,0,0:0:0:0:
448,192,163427,1,0,0:0:0:0:
192,192,163478,1,0,0:0:0:0:
64,192,163530,1,0,0:0:0:0:
320,192,163530,1,0,0:0:0:0:
448,192,163581,1,0,0:0:0:0:
192,192,163632,1,0,0:0:0:0:
320,192,163683,1,0,0:0:0:0:
64,192,163735,1,0,0:0:0:0:
448,192,163735,1,0,0:0:0:0:
192,192,163786,1,0,0:0:0:0:
320,192,163837,1,0,0:0:0:0:
192,192,163889,1,0,0:0:0:0:
64,192,163940,1,0,0:0:0:0:
320,192,163940,1,0,0:0:0:0:
448,192,163991,1,0,0:0:0:0:
64,192,164043,1,0,0:0:0:0:
192,192,164043,1,0,0:0:0:0:
320,192,164093,1,0,0:0:0:0:
448,192,164145,1,0,0:0:0:0:
320,192,164196,1,0,0:0:0:0:
192,192,164247,1,0,0:0:0:0:
64,192,164299,1,0,0:0:0:0:
448,192,164350,1,0,0:0:0:0:
320,192,164401,1,0,0:0:0:0:
192,192,164453,1,0,0:0:0:0:
320,192,164504,1,0,0:0:0:0:
192,192,164555,1,0,0:0:0:0:
64,192,164606,1,0,0:0:0:0:
448,192,164658,1,0,0:0:0:0:
192,192,164709,1,0,0:0:0:0:
320,192,164760,1,0,0:0:0:0:
64,192,164812,1,0,0:0:0:0:
192,192,164863,1,0,0:0:0:0:
320,192,164863,1,0,0:0:0:0:
448,192,164914,1,0,0:0:0:0:
64,192,164966,1,0,0:0:0:0:
192,192,165016,1,0,0:0:0:0:
320,192,165068,1,0,0:0:0:0:
448,192,165120,1,0,0:0:0:0:
192,192,165170,1,0,0:0:0:0:
320,192,165170,1,0,0:0:0:0:
64,192,165222,1,0,0:0:0:0:
448,192,165273,1,0,0:0:0:0:
192,192,165324,1,0,0:0:0:0:
320,192,165376,1,0,0:0:0:0:
448,192,165376,1,0,0:0:0:0:
64,192,165427,1,0,0:0:0:0:
192,192,165478,1,0,0:0:0:0:
320,192,165478,1,0,0:0:0:0:
448,192,165530,1,0,0:0:0:0:
320,192,165581,1,0,0:0:0:0:
192,192,165632,1,0,0:0:0:0:
64,192,165683,1,0,0:0:0:0:
448,192,165683,1,0,0:0:0:0:
192,192,165735,1,0,0:0:0:0:
320,192,165786,1,0,0:0:0:0:
448,192,165837,1,0,0:0:0:0:
192,192,165889,1,0,0:0:0:0:
448,192,165940,1,0,0:0:0:0:
320,192,165991,1,0,0:0:0:0:
192,192,166043,1,0,0:0:0:0:
64,192,166093,1,0,0:0:0:0:
192,192,166145,1,0,0:0:0:0:
320,192,166196,1,0,0:0:0:0:
448,192,166196,1,0,0:0:0:0:
64,192,166247,1,0,0:0:0:0:
192,192,166299,1,0,0:0:0:0:
320,192,166299,1,0,0:0:0:0:
448,192,166350,1,0,0:0:0:0:
64,192,166401,1,0,0:0:0:0:
192,192,166401,1,0,0:0:0:0:
320,192,166453,1,0,0:0:0:0:
64,192,166504,1,0,0:0:0:0:
448,192,166504,1,0,0:0:0:0:
320,192,166556,1,0,0:0:0:0:
192,192,166606,1,0,0:0:0:0:
64,192,166658,1,0,0:0:0:0:
448,192,166710,1,0,0:0:0:0:
192,192,166760,1,0,0:0:0:0:
320,192,166812,1,0,0:0:0:0:
448,192,166812,1,0,0:0:0:0:
64,192,166863,1,0,0:0:0:0:
192,192,166914,1,0,0:0:0:0:
320,192,166966,1,0,0:0:0:0:
64,192,167017,1,0,0:0:0:0:
448,192,167017,1,0,0:0:0:0:
192,192,167068,1,0,0:0:0:0:
320,192,167120,1,0,0:0:0:0:
192,192,167171,1,0,0:0:0:0:
320,192,167222,1,0,0:0:0:0:
448,192,167222,1,0,0:0:0:0:
64,192,167273,1,0,0:0:0:0:
192,192,167325,1,0,0:0:0:0:
320,192,167325,1,0,0:0:0:0:
64,192,167376,1,0,0:0:0:0:
448,192,167427,1,0,0:0:0:0:
320,192,167479,1,0,0:0:0:0:
192,192,167530,1,0,0:0:0:0:
64,192,167581,1,0,0:0:0:0:
320,192,167633,1,0,0:0:0:0:
448,192,167633,1,0,0:0:0:0:
192,192,167683,1,0,0:0:0:0:
448,192,167735,1,0,0:0:0:0:
64,192,167786,1,0,0:0:0:0:
192,192,167837,1,0,0:0:0:0:
320,192,167889,1,0,0:0:0:0:
448,192,167940,1,0,0:0:0:0:
192,192,167991,1,0,0:0:0:0:
320,192,168043,1,0,0:0:0:0:
64,192,168094,1,0,0:0:0:0:
192,192,168145,1,0,0:0:0:0:
320,192,168145,1,0,0:0:0:0:
448,192,168196,1,0,0:0:0:0:
320,192,168248,1,0,0:0:0:0:
192,192,168299,1,0,0:0:0:0:
64,192,168350,1,0,0:0:0:0:
448,192,168402,1,0,0:0:0:0:
192,192,168453,1,0,0:0:0:0:
320,192,168453,1,0,0:0:0:0:
64,192,168504,1,0,0:0:0:0:
192,192,168556,1,0,0:0:0:0:
320,192,168606,1,0,0:0:0:0:
64,192,168658,1,0,0:0:0:0:
448,192,168658,1,0,0:0:0:0:
192,192,168710,1,0,0:0:0:0:
320,192,168760,1,0,0:0:0:0:
448,192,168812,1,0,0:0:0:0:
192,192,168863,1,0,0:0:0:0:
320,192,168863,1,0,0:0:0:0:
64,192,168914,1,0,0:0:0:0:
320,192,168966,1,0,0:0:0:0:
448,192,168966,1,0,0:0:0:0:
192,192,169017,1,0,0:0:0:0:
320,192,169068,1,0,0:0:0:0:
64,192,169120,1,0,0:0:0:0:
192,192,169171,1,0,0:0:0:0:
320,192,169222,1,0,0:0:0:0:
448,192,169273,1,0,0:0:0:0:
320,192,169325,1,0,0:0:0:0:
192,192,169376,1,0,0:0:0:0:
64,192,169427,1,0,0:0:0:0:
448,192,169479,1,0,0:0:0:0:
192,192,169530,1,0,0:0:0:0:
320,192,169581,1,0,0:0:0:0:
64,192,169633,1,0,0:0:0:0:
192,192,169683,1,0,0:0:0:0:
320,192,169735,1,0,0:0:0:0:
64,192,169786,1,0,0:0:0:0:
448,192,169786,1,0,0:0:0:0:
192,192,169838,1,0,0:0:0:0:
320,192,169889,1,0,0:0:0:0:
448,192,169940,1,0,0:0:0:0:
192,192,169992,1,0,0:0:0:0:
320,192,170043,1,0,0:0:0:0:
64,192,170094,1,0,0:0:0:0:
448,192,170094,1,0,0:0:0:0:
320,192,170146,1,0,0:0:0:0:
192,192,170196,1,0,0:0:0:0:
64,192,170248,1,0,0:0:0:0:
320,192,170300,1,0,0:0:0:0:
448,192,170300,1,0,0:0:0:0:
192,192,170350,1,0,0:0:0:0:
64,192,170402,1,0,0:0:0:0:
448,192,170402,1,0,0:0:0:0:
192,192,170453,1,0,0:0:0:0:
320,192,170504,1,0,0:0:0:0:
448,192,170556,1,0,0:0:0:0:
64,192,170607,1,0,0:0:0:0:
192,192,170607,1,0,0:0:0:0:
320,192,170658,1,0,0:0:0:0:
64,192,170710,1,0,0:0:0:0:
448,192,170710,1,0,0:0:0:0:
320,192,170761,1,0,0:0:0:0:
192,192,170812,1,0,0:0:0:0:
64,192,170863,1,0,0:0:0:0:
448,192,170915,1,0,0:0:0:0:
320,192,170966,1,0,0:0:0:0:
192,192,171017,1,0,0:0:0:0:
320,192,171069,1,0,0:0:0:0:
64,192,171120,1,0,0:0:0:0:
192,192,171120,1,0,0:0:0:0:
320,192,171223,1,0,0:0:0:0:
64,192,171325,1,0,0:0:0:0:
192,192,171427,1,0,0:0:0:0:
320,192,171427,1,0,0:0:0:0:
64,192,171735,1,0,0:0:0:0:
448,192,171735,1,0,0:0:0:0:
192,192,171786,1,0,0:0:0:0:
320,192,171838,1,0,0:0:0:0:
448,192,171889,1,0,0:0:0:0:
64,192,171940,1,0,0:0:0:0:
192,192,171940,1,0,0:0:0:0:
320,192,172043,1,0,0:0:0:0:
448,192,172146,1,0,0:0:0:0:
64,192,172248,1,0,0:0:0:0:
192,192,172248,1,0,0:0:0:0:
320,192,172453,1,0,0:0:0:0:
64,192,172556,1,0,0:0:0:0:
192,192,172556,1,0,0:0:0:0:
448,192,172607,1,0,0:0:0:0:
320,192,172658,1,0,0:0:0:0:
192,192,172710,1,0,0:0:0:0:
64,192,172761,1,0,0:0:0:0:
448,192,172761,1,0,0:0:0:0:
192,192,172812,1,0,0:0:0:0:
320,192,172863,1,0,0:0:0:0:
448,192,172915,1,0,0:0:0:0:
64,192,172966,1,0,0:0:0:0:
192,192,173017,1,0,0:0:0:0:
320,192,173069,1,0,0:0:0:0:
448,0,173069,128,0,173376:1:0:0:0:
64,192,173376,1,0,0:0:0:0:
192,192,173376,1,0,0:0:0:0:
320,192,173428,1,0,0:0:0:0:
448,192,173479,1,0,0:0:0:0:
192,192,173530,1,0,0:0:0:0:
64,192,173582,1,0,0:0:0:0:
448,192,173582,1,0,0:0:0:0:
192,192,173684,1,0,0:0:0:0:
64,192,173786,1,0,0:0:0:0:
320,192,173786,1,0,0:0:0:0:
448,192,173890,1,0,0:0:0:0:
192,0,173890,128,0,174197:1:0:0:0:
320,192,174197,1,0,0:0:0:0:
448,192,174197,1,0,0:0:0:0:
192,192,174248,1,0,0:0:0:0:
64,192,174300,1,0,0:0:0:0:
448,192,174351,1,0,0:0:0:0:
192,192,174402,1,0,0:0:0:0:
320,192,174402,1,0,0:0:0:0:
448,192,174453,1,0,0:0:0:0:
64,192,174505,1,0,0:0:0:0:
192,192,174556,1,0,0:0:0:0:
320,192,174607,1,0,0:0:0:0:
448,192,174659,1,0,0:0:0:0:
64,192,174710,1,0,0:0:0:0:
192,192,174710,1,0,0:0:0:0:
448,192,174915,1,0,0:0:0:0:
192,192,175017,1,0,0:0:0:0:
320,192,175069,1,0,0:0:0:0:
64,192,175120,1,0,0:0:0:0:
192,192,175171,1,0,0:0:0:0:
320,192,175223,1,0,0:0:0:0:
448,192,175223,1,0,0:0:0:0:
192,192,175325,1,0,0:0:0:0:
64,192,175428,1,0,0:0:0:0:
320,192,175530,1,0,0:0:0:0:
448,192,175530,1,0,0:0:0:0:
64,192,175736,1,0,0:0:0:0:
320,192,175838,1,0,0:0:0:0:
192,192,175890,1,0,0:0:0:0:
448,192,175940,1,0,0:0:0:0:
64,192,175992,1,0,0:0:0:0:
192,192,176043,1,0,0:0:0:0:
320,192,176043,1,0,0:0:0:0:
448,192,176094,1,0,0:0:0:0:
320,192,176146,1,0,0:0:0:0:
192,192,176197,1,0,0:0:0:0:
64,192,176248,1,0,0:0:0:0:
448,192,176300,1,0,0:0:0:0:
320,192,176351,1,0,0:0:0:0:
192,0,176351,128,0,176659:1:0:0:0:
320,192,176556,1,0,0:0:0:0:
64,192,176659,1,0,0:0:0:0:
448,192,176659,1,0,0:0:0:0:
192,192,176710,1,0,0:0:0:0:
320,192,176761,1,0,0:0:0:0:
448,192,176813,1,0,0:0:0:0:
64,192,176864,1,0,0:0:0:0:
192,192,176864,1,0,0:0:0:0:
320,192,176966,1,0,0:0:0:0:
192,192,177069,1,0,0:0:0:0:
448,192,177069,1,0,0:0:0:0:
64,0,177172,128,0,180095:1:0:0:0:
320,0,177172,128,0,180095:1:0:0:0:
