osu file format v14

[General]
AudioFilename: Noise Channel Radio - Noisechan & Nugget- Adventures in Chiptunes - 01 Noise Channel Theme (Full Mix)_1,2.mp3
AudioLeadIn: 2
PreviewTime: 79354
Countdown: 0
SampleSet: None
StackLeniency: 0.7
Mode: 3
LetterboxInBreaks: 0
SpecialStyle: 0
WidescreenStoryboard: 0

[Editor]
DistanceSpacing: 0.8
BeatDivisor: 4
GridSize: 8
TimelineZoom: 1

[Metadata]
Title:Send My Love to Mars
TitleUnicode:Send My Love to Mars
Artist:Virt
ArtistUnicode:Virt
Creator:Sonny737
Version:Hard x1,2
Source:Nuclear Blast JS Awesome Bomb Filez 5
Tags:Stepmania nb5
BeatmapID:1487443
BeatmapSetID:702404

[Difficulty]
HPDrainRate:7
CircleSize:4
OverallDifficulty:8
ApproachRate:10
SliderMultiplier:1.4
SliderTickRate:1

[Events]
//Background and Video events
0,0,"mars_bg.png",0,0
//Break Periods
//Storyboard Layer 0 (Background)
//Storyboard Layer 1 (Fail)
//Storyboard Layer 2 (Pass)
//Storyboard Layer 3 (Foreground)
//Storyboard Sound Samples

[TimingPoints]
932,266.666666666667,4,4,0,100,1,0

[HitObjects]
448,192,932,5,0,0:0:0:0:
192,192,1155,1,0,0:0:0:0:
320,192,1265,1,0,0:0:0:0:
64,192,1488,1,0,0:0:0:0:
192,192,1599,1,0,0:0:0:0:
320,192,1710,1,0,0:0:0:0:
448,192,1821,1,0,0:0:0:0:
64,0,1821,128,0,2155:1:0:0:0:
192,0,2155,128,0,2488:1:0:0:0:
448,192,2488,1,0,0:0:0:0:
320,0,2488,128,0,2821:1:0:0:0:
448,0,2821,128,0,3155:1:0:0:0:
192,0,3155,128,0,3376:1:0:0:0:
64,0,3376,128,0,3599:1:0:0:0:
448,192,3599,1,0,0:0:0:0:
320,0,3599,128,0,3932:1:0:0:0:
64,192,3932,1,0,0:0:0:0:
192,0,3932,128,0,4265:1:0:0:0:
64,192,4265,1,0,0:0:0:0:
320,0,4265,128,0,4599:1:0:0:0:
64,192,4599,1,0,0:0:0:0:
448,0,4599,128,0,4932:1:0:0:0:
64,192,5155,1,0,0:0:0:0:
192,192,5210,1,0,0:0:0:0:
320,192,5265,1,0,0:0:0:0:
448,192,5321,1,0,0:0:0:0:
320,0,5599,128,0,5821:1:0:0:0:
192,0,5821,128,0,6043:1:0:0:0:
64,0,6043,128,0,6265:1:0:0:0:
448,192,6265,1,0,0:0:0:0:
320,192,6376,1,0,0:0:0:0:
448,192,6488,1,0,0:0:0:0:
64,192,6599,1,0,0:0:0:0:
192,192,6710,1,0,0:0:0:0:
64,192,6858,1,0,0:0:0:0:
320,192,6932,1,0,0:0:0:0:
448,192,6932,1,0,0:0:0:0:
192,192,7043,1,0,0:0:0:0:
320,192,7099,1,0,0:0:0:0:
64,192,7155,1,0,0:0:0:0:
448,192,7155,1,0,0:0:0:0:
192,192,7210,1,0,0:0:0:0:
320,192,7265,1,0,0:0:0:0:
192,192,7321,1,0,0:0:0:0:
64,192,7376,1,0,0:0:0:0:
320,192,7432,1,0,0:0:0:0:
192,192,7488,1,0,0:0:0:0:
64,192,7599,1,0,0:0:0:0:
448,192,7599,1,0,0:0:0:0:
320,192,7655,1,0,0:0:0:0:
192,192,7710,1,0,0:0:0:0:
448,192,7710,1,0,0:0:0:0:
64,192,7765,1,0,0:0:0:0:
320,192,7821,1,0,0:0:0:0:
64,192,7932,1,0,0:0:0:0:
448,192,7932,1,0,0:0:0:0:
192,192,7988,1,0,0:0:0:0:
320,192,8043,1,0,0:0:0:0:
64,192,8099,1,0,0:0:0:0:
192,192,8155,1,0,0:0:0:0:
320,192,8210,1,0,0:0:0:0:
448,192,8265,1,0,0:0:0:0:
192,192,8321,1,0,0:0:0:0:
320,192,8376,1,0,0:0:0:0:
192,192,8432,1,0,0:0:0:0:
64,192,8488,1,0,0:0:0:0:
448,192,8543,1,0,0:0:0:0:
320,192,8599,1,0,0:0:0:0:
64,192,8655,1,0,0:0:0:0:
192,192,8710,1,0,0:0:0:0:
64,192,8932,1,0,0:0:0:0:
320,192,8932,1,0,0:0:0:0:
192,192,8988,1,0,0:0:0:0:
448,192,9043,1,0,0:0:0:0:
192,192,9099,1,0,0:0:0:0:
320,192,9155,1,0,0:0:0:0:
64,192,9210,1,0,0:0:0:0:
448,192,9265,1,0,0:0:0:0:
320,192,9321,1,0,0:0:0:0:
64,192,9376,1,0,0:0:0:0:
192,192,9376,1,0,0:0:0:0:
64,192,9488,1,0,0:0:0:0:
320,192,9488,1,0,0:0:0:0:
448,192,9543,1,0,0:0:0:0:
192,192,9599,1,0,0:0:0:0:
320,192,9710,1,0,0:0:0:0:
448,192,9710,1,0,0:0:0:0:
192,192,9765,1,0,0:0:0:0:
448,192,9821,1,0,0:0:0:0:
64,192,9932,1,0,0:0:0:0:
192,192,9932,1,0,0:0:0:0:
448,192,9988,1,0,0:0:0:0:
320,192,10043,1,0,0:0:0:0:
320,192,10155,1,0,0:0:0:0:
448,192,10155,1,0,0:0:0:0:
192,192,10210,1,0,0:0:0:0:
64,192,10265,1,0,0:0:0:0:
192,192,10321,1,0,0:0:0:0:
320,192,10376,1,0,0:0:0:0:
64,192,10488,1,0,0:0:0:0:
192,192,10488,1,0,0:0:0:0:
320,192,10543,1,0,0:0:0:0:
192,192,10599,1,0,0:0:0:0:
320,192,10710,1,0,0:0:0:0:
448,192,10710,1,0,0:0:0:0:
64,192,10765,1,0,0:0:0:0:
192,192,10821,1,0,0:0:0:0:
320,192,10876,1,0,0:0:0:0:
448,192,10932,1,0,0:0:0:0:
320,192,10988,1,0,0:0:0:0:
192,192,11043,1,0,0:0:0:0:
64,192,11099,1,0,0:0:0:0:
320,192,11155,1,0,0:0:0:0:
448,192,11155,1,0,0:0:0:0:
64,192,11210,1,0,0:0:0:0:
192,192,11265,1,0,0:0:0:0:
320,192,11265,1,0,0:0:0:0:
448,192,11321,1,0,0:0:0:0:
192,192,11376,1,0,0:0:0:0:
64,192,11488,1,0,0:0:0:0:
320,192,11488,1,0,0:0:0:0:
448,192,11543,1,0,0:0:0:0:
64,192,11599,1,0,0:0:0:0:
192,192,11655,1,0,0:0:0:0:
320,192,11710,1,0,0:0:0:0:
448,192,11765,1,0,0:0:0:0:
320,192,11821,1,0,0:0:0:0:
192,192,11876,1,0,0:0:0:0:
64,192,11932,1,0,0:0:0:0:
320,192,11988,1,0,0:0:0:0:
192,192,12043,1,0,0:0:0:0:
448,192,12099,1,0,0:0:0:0:
320,192,12155,1,0,0:0:0:0:
192,192,12210,1,0,0:0:0:0:
64,192,12265,1,0,0:0:0:0:
192,192,12488,1,0,0:0:0:0:
320,192,12488,1,0,0:0:0:0:
64,192,12543,1,0,0:0:0:0:
192,192,12599,1,0,0:0:0:0:
320,192,12655,1,0,0:0:0:0:
448,192,12710,1,0,0:0:0:0:
320,192,12765,1,0,0:0:0:0:
192,192,12821,1,0,0:0:0:0:
64,192,12876,1,0,0:0:0:0:
320,192,12932,1,0,0:0:0:0:
448,192,12932,1,0,0:0:0:0:
192,192,13043,1,0,0:0:0:0:
320,192,13043,1,0,0:0:0:0:
64,192,13155,1,0,0:0:0:0:
320,192,13265,1,0,0:0:0:0:
448,192,13265,1,0,0:0:0:0:
192,192,13321,1,0,0:0:0:0:
64,192,13377,1,0,0:0:0:0:
448,192,13432,1,0,0:0:0:0:
320,192,13488,1,0,0:0:0:0:
192,192,13544,1,0,0:0:0:0:
320,192,13599,1,0,0:0:0:0:
192,192,13655,1,0,0:0:0:0:
64,192,13710,1,0,0:0:0:0:
448,192,13765,1,0,0:0:0:0:
192,192,13821,1,0,0:0:0:0:
448,192,13877,1,0,0:0:0:0:
64,192,13932,1,0,0:0:0:0:
320,192,13932,1,0,0:0:0:0:
320,192,14043,1,0,0:0:0:0:
448,192,14043,1,0,0:0:0:0:
64,192,14155,1,0,0:0:0:0:
192,192,14155,1,0,0:0:0:0:
320,192,14210,1,0,0:0:0:0:
64,192,14265,1,0,0:0:0:0:
448,192,14265,1,0,0:0:0:0:
192,192,14376,1,0,0:0:0:0:
320,192,14488,1,0,0:0:0:0:
320,192,14599,1,0,0:0:0:0:
64,192,14710,1,0,0:0:0:0:
192,192,14821,1,0,0:0:0:0:
320,192,14932,1,0,0:0:0:0:
192,192,15043,1,0,0:0:0:0:
448,192,15043,1,0,0:0:0:0:
320,192,15099,1,0,0:0:0:0:
192,192,15155,1,0,0:0:0:0:
64,192,15265,1,0,0:0:0:0:
448,192,15265,1,0,0:0:0:0:
192,192,15376,1,0,0:0:0:0:
320,192,15376,1,0,0:0:0:0:
64,192,15488,1,0,0:0:0:0:
448,192,15488,1,0,0:0:0:0:
320,192,15599,1,0,0:0:0:0:
192,192,15710,1,0,0:0:0:0:
320,192,15710,1,0,0:0:0:0:
64,192,15821,1,0,0:0:0:0:
320,192,15932,1,0,0:0:0:0:
448,192,15932,1,0,0:0:0:0:
192,192,15988,1,0,0:0:0:0:
64,192,16043,1,0,0:0:0:0:
448,192,16099,1,0,0:0:0:0:
320,192,16155,1,0,0:0:0:0:
192,192,16210,1,0,0:0:0:0:
64,192,16265,1,0,0:0:0:0:
192,192,16321,1,0,0:0:0:0:
320,192,16376,1,0,0:0:0:0:
448,192,16432,1,0,0:0:0:0:
192,192,16488,1,0,0:0:0:0:
320,192,16543,1,0,0:0:0:0:
64,192,16599,1,0,0:0:0:0:
192,192,16655,1,0,0:0:0:0:
320,192,16710,1,0,0:0:0:0:
64,192,16821,1,0,0:0:0:0:
448,192,16821,1,0,0:0:0:0:
320,192,16876,1,0,0:0:0:0:
192,192,16932,1,0,0:0:0:0:
64,192,17043,1,0,0:0:0:0:
448,192,17043,1,0,0:0:0:0:
192,192,17099,1,0,0:0:0:0:
320,192,17155,1,0,0:0:0:0:
448,192,17155,1,0,0:0:0:0:
192,192,17210,1,0,0:0:0:0:
64,192,17265,1,0,0:0:0:0:
448,192,17265,1,0,0:0:0:0:
320,192,17321,1,0,0:0:0:0:
192,192,17376,1,0,0:0:0:0:
320,192,17488,1,0,0:0:0:0:
448,192,17488,1,0,0:0:0:0:
64,192,17543,1,0,0:0:0:0:
448,192,17599,1,0,0:0:0:0:
64,192,17710,1,0,0:0:0:0:
320,192,17710,1,0,0:0:0:0:
192,192,17765,1,0,0:0:0:0:
320,192,17821,1,0,0:0:0:0:
64,192,17876,1,0,0:0:0:0:
192,192,17932,1,0,0:0:0:0:
320,192,17988,1,0,0:0:0:0:
448,192,18043,1,0,0:0:0:0:
64,192,18099,1,0,0:0:0:0:
192,192,18155,1,0,0:0:0:0:
320,192,18210,1,0,0:0:0:0:
192,192,18265,1,0,0:0:0:0:
64,192,18376,1,0,0:0:0:0:
448,192,18488,1,0,0:0:0:0:
64,192,18599,1,0,0:0:0:0:
320,192,18599,1,0,0:0:0:0:
448,192,18655,1,0,0:0:0:0:
192,192,18710,1,0,0:0:0:0:
64,192,18765,1,0,0:0:0:0:
320,192,18821,1,0,0:0:0:0:
448,192,18821,1,0,0:0:0:0:
192,192,18876,1,0,0:0:0:0:
64,192,18932,1,0,0:0:0:0:
448,192,18932,1,0,0:0:0:0:
320,192,18988,1,0,0:0:0:0:
64,192,19043,1,0,0:0:0:0:
192,192,19043,1,0,0:0:0:0:
448,192,19099,1,0,0:0:0:0:
64,192,19155,1,0,0:0:0:0:
192,192,19210,1,0,0:0:0:0:
320,192,19265,1,0,0:0:0:0:
448,192,19265,1,0,0:0:0:0:
192,192,19321,1,0,0:0:0:0:
64,192,19376,1,0,0:0:0:0:
320,192,19432,1,0,0:0:0:0:
192,192,19488,1,0,0:0:0:0:
448,192,19543,1,0,0:0:0:0:
64,192,19599,1,0,0:0:0:0:
320,192,19599,1,0,0:0:0:0:
192,192,19655,1,0,0:0:0:0:
448,192,19710,1,0,0:0:0:0:
320,192,19765,1,0,0:0:0:0:
192,192,19821,1,0,0:0:0:0:
64,192,19876,1,0,0:0:0:0:
320,192,19932,1,0,0:0:0:0:
448,192,19932,1,0,0:0:0:0:
192,192,19988,1,0,0:0:0:0:
320,192,20043,1,0,0:0:0:0:
64,192,20099,1,0,0:0:0:0:
448,192,20155,1,0,0:0:0:0:
320,192,20210,1,0,0:0:0:0:
192,192,20265,1,0,0:0:0:0:
64,192,20321,1,0,0:0:0:0:
192,192,20376,1,0,0:0:0:0:
320,192,20432,1,0,0:0:0:0:
64,192,20488,1,0,0:0:0:0:
448,192,20488,1,0,0:0:0:0:
192,192,20543,1,0,0:0:0:0:
320,192,20599,1,0,0:0:0:0:
448,192,20655,1,0,0:0:0:0:
192,192,20710,1,0,0:0:0:0:
320,192,20765,1,0,0:0:0:0:
64,192,20821,1,0,0:0:0:0:
192,192,20821,1,0,0:0:0:0:
448,192,20876,1,0,0:0:0:0:
320,192,20932,1,0,0:0:0:0:
192,192,20988,1,0,0:0:0:0:
64,192,21043,1,0,0:0:0:0:
192,192,21099,1,0,0:0:0:0:
320,192,21155,1,0,0:0:0:0:
448,192,21155,1,0,0:0:0:0:
64,192,21210,1,0,0:0:0:0:
192,192,21265,1,0,0:0:0:0:
320,192,21321,1,0,0:0:0:0:
64,192,21376,1,0,0:0:0:0:
448,0,21376,128,0,21710:1:0:0:0:
192,192,21488,1,0,0:0:0:0:
192,192,21599,1,0,0:0:0:0:
192,192,21821,1,0,0:0:0:0:
448,192,21821,1,0,0:0:0:0:
64,192,21932,1,0,0:0:0:0:
320,192,21932,1,0,0:0:0:0:
192,192,22043,1,0,0:0:0:0:
448,192,22155,1,0,0:0:0:0:
320,0,22155,128,0,22488:1:0:0:0:
192,192,22376,1,0,0:0:0:0:
448,192,22488,1,0,0:0:0:0:
64,192,22710,1,0,0:0:0:0:
192,192,22821,1,0,0:0:0:0:
320,192,22932,1,0,0:0:0:0:
448,192,22932,1,0,0:0:0:0:
192,192,23043,1,0,0:0:0:0:
320,192,23155,1,0,0:0:0:0:
64,0,23155,128,0,23376:1:0:0:0:
192,192,23265,1,0,0:0:0:0:
448,192,23376,1,0,0:0:0:0:
64,192,23488,1,0,0:0:0:0:
192,192,23488,1,0,0:0:0:0:
320,192,23599,1,0,0:0:0:0:
448,192,23599,1,0,0:0:0:0:
64,192,23710,1,0,0:0:0:0:
192,192,23710,1,0,0:0:0:0:
320,192,23821,1,0,0:0:0:0:
448,192,23932,1,0,0:0:0:0:
192,0,23932,128,0,24043:1:0:0:0:
64,192,24155,1,0,0:0:0:0:
320,0,24155,128,0,24265:1:0:0:0:
192,192,24265,1,0,0:0:0:0:
320,192,24376,1,0,0:0:0:0:
448,0,24376,128,0,24488:1:0:0:0:
192,192,24488,1,0,0:0:0:0:
448,192,24599,1,0,0:0:0:0:
64,0,24599,128,0,24710:1:0:0:0:
320,192,24710,1,0,0:0:0:0:
192,192,24821,1,0,0:0:0:0:
64,192,24932,1,0,0:0:0:0:
320,192,24932,1,0,0:0:0:0:
192,192,24988,1,0,0:0:0:0:
320,192,25043,1,0,0:0:0:0:
448,192,25099,1,0,0:0:0:0:
64,192,25155,1,0,0:0:0:0:
192,192,25210,1,0,0:0:0:0:
320,192,25265,1,0,0:0:0:0:
448,192,25321,1,0,0:0:0:0:
64,192,25376,1,0,0:0:0:0:
192,192,25376,1,0,0:0:0:0:
320,192,25488,1,0,0:0:0:0:
448,192,25488,1,0,0:0:0:0:
192,192,25599,1,0,0:0:0:0:
320,192,25710,1,0,0:0:0:0:
64,0,25710,128,0,26488:1:0:0:0:
192,192,25932,1,0,0:0:0:0:
448,192,26043,1,0,0:0:0:0:
320,192,26265,1,0,0:0:0:0:
192,192,26376,1,0,0:0:0:0:
448,192,26488,1,0,0:0:0:0:
320,192,26599,1,0,0:0:0:0:
64,192,26710,1,0,0:0:0:0:
448,0,26710,128,0,26932:1:0:0:0:
192,192,26821,1,0,0:0:0:0:
320,192,26932,1,0,0:0:0:0:
64,192,27155,1,0,0:0:0:0:
320,192,27155,1,0,0:0:0:0:
192,192,27265,1,0,0:0:0:0:
448,192,27265,1,0,0:0:0:0:
64,192,27376,1,0,0:0:0:0:
448,192,27488,1,0,0:0:0:0:
320,0,27488,128,0,27821:1:0:0:0:
64,192,27543,1,0,0:0:0:0:
192,192,27599,1,0,0:0:0:0:
64,192,27710,1,0,0:0:0:0:
448,192,27821,1,0,0:0:0:0:
192,192,27932,1,0,0:0:0:0:
448,192,28043,1,0,0:0:0:0:
320,192,28099,1,0,0:0:0:0:
64,192,28155,1,0,0:0:0:0:
192,192,28155,1,0,0:0:0:0:
320,192,28265,1,0,0:0:0:0:
448,192,28265,1,0,0:0:0:0:
64,192,28376,1,0,0:0:0:0:
192,192,28376,1,0,0:0:0:0:
320,192,28432,1,0,0:0:0:0:
64,192,28488,1,0,0:0:0:0:
448,192,28488,1,0,0:0:0:0:
192,192,28543,1,0,0:0:0:0:
320,192,28599,1,0,0:0:0:0:
448,192,28655,1,0,0:0:0:0:
192,192,28710,1,0,0:0:0:0:
320,192,28765,1,0,0:0:0:0:
64,192,28821,1,0,0:0:0:0:
448,192,28876,1,0,0:0:0:0:
64,192,28932,1,0,0:0:0:0:
192,192,28988,1,0,0:0:0:0:
320,192,29043,1,0,0:0:0:0:
448,192,29099,1,0,0:0:0:0:
64,192,29155,1,0,0:0:0:0:
192,192,29155,1,0,0:0:0:0:
320,192,29210,1,0,0:0:0:0:
448,192,29265,1,0,0:0:0:0:
320,192,29321,1,0,0:0:0:0:
64,192,29376,1,0,0:0:0:0:
192,192,29376,1,0,0:0:0:0:
448,192,29432,1,0,0:0:0:0:
320,192,29488,1,0,0:0:0:0:
192,192,29543,1,0,0:0:0:0:
64,192,29599,1,0,0:0:0:0:
192,192,29655,1,0,0:0:0:0:
320,192,29710,1,0,0:0:0:0:
448,192,29710,1,0,0:0:0:0:
192,192,29765,1,0,0:0:0:0:
64,192,29821,1,0,0:0:0:0:
448,192,29876,1,0,0:0:0:0:
320,192,29932,1,0,0:0:0:0:
192,192,29988,1,0,0:0:0:0:
64,192,30043,1,0,0:0:0:0:
448,192,30043,1,0,0:0:0:0:
192,192,30099,1,0,0:0:0:0:
320,192,30155,1,0,0:0:0:0:
448,192,30210,1,0,0:0:0:0:
192,192,30265,1,0,0:0:0:0:
320,192,30265,1,0,0:0:0:0:
64,192,30321,1,0,0:0:0:0:
448,192,30376,1,0,0:0:0:0:
320,192,30432,1,0,0:0:0:0:
192,192,30488,1,0,0:0:0:0:
320,192,30543,1,0,0:0:0:0:
64,192,30599,1,0,0:0:0:0:
192,192,30599,1,0,0:0:0:0:
448,192,30655,1,0,0:0:0:0:
320,192,30710,1,0,0:0:0:0:
192,192,30765,1,0,0:0:0:0:
64,192,30821,1,0,0:0:0:0:
192,192,30877,1,0,0:0:0:0:
320,192,30932,1,0,0:0:0:0:
448,192,30932,1,0,0:0:0:0:
64,192,30988,1,0,0:0:0:0:
192,192,31044,1,0,0:0:0:0:
320,192,31099,1,0,0:0:0:0:
448,192,31155,1,0,0:0:0:0:
320,192,31210,1,0,0:0:0:0:
192,192,31265,1,0,0:0:0:0:
64,192,31321,1,0,0:0:0:0:
448,192,31377,1,0,0:0:0:0:
320,192,31432,1,0,0:0:0:0:
192,192,31488,1,0,0:0:0:0:
64,192,31544,1,0,0:0:0:0:
192,192,31599,1,0,0:0:0:0:
320,192,31655,1,0,0:0:0:0:
448,192,31710,1,0,0:0:0:0:
64,192,31765,1,0,0:0:0:0:
192,192,31821,1,0,0:0:0:0:
320,192,31821,1,0,0:0:0:0:
448,192,31877,1,0,0:0:0:0:
64,192,31932,1,0,0:0:0:0:
192,192,31932,1,0,0:0:0:0:
320,192,31988,1,0,0:0:0:0:
64,192,32044,1,0,0:0:0:0:
448,192,32044,1,0,0:0:0:0:
192,192,32099,1,0,0:0:0:0:
320,192,32155,1,0,0:0:0:0:
448,192,32210,1,0,0:0:0:0:
64,192,32265,1,0,0:0:0:0:
192,192,32321,1,0,0:0:0:0:
320,192,32377,1,0,0:0:0:0:
448,192,32377,1,0,0:0:0:0:
192,192,32432,1,0,0:0:0:0:
64,192,32488,1,0,0:0:0:0:
448,192,32544,1,0,0:0:0:0:
320,192,32599,1,0,0:0:0:0:
192,192,32655,1,0,0:0:0:0:
64,192,32710,1,0,0:0:0:0:
320,192,32765,1,0,0:0:0:0:
192,192,32821,1,0,0:0:0:0:
448,192,32877,1,0,0:0:0:0:
320,192,32932,1,0,0:0:0:0:
192,192,32988,1,0,0:0:0:0:
64,192,33044,1,0,0:0:0:0:
192,192,33099,1,0,0:0:0:0:
320,192,33155,1,0,0:0:0:0:
448,192,33210,1,0,0:0:0:0:
64,192,33265,1,0,0:0:0:0:
320,192,33321,1,0,0:0:0:0:
192,192,33377,1,0,0:0:0:0:
448,192,33432,1,0,0:0:0:0:
64,192,33488,1,0,0:0:0:0:
192,192,33544,1,0,0:0:0:0:
320,192,33599,1,0,0:0:0:0:
448,192,33655,1,0,0:0:0:0:
320,192,33710,1,0,0:0:0:0:
192,192,33765,1,0,0:0:0:0:
64,192,33821,1,0,0:0:0:0:
448,192,33821,1,0,0:0:0:0:
192,192,33877,1,0,0:0:0:0:
320,192,33932,1,0,0:0:0:0:
448,192,33988,1,0,0:0:0:0:
64,192,34044,1,0,0:0:0:0:
192,192,34099,1,0,0:0:0:0:
320,192,34155,1,0,0:0:0:0:
448,192,34210,1,0,0:0:0:0:
64,192,34265,1,0,0:0:0:0:
192,192,34265,1,0,0:0:0:0:
320,192,34321,1,0,0:0:0:0:
64,192,34377,1,0,0:0:0:0:
448,192,34377,1,0,0:0:0:0:
320,192,34432,1,0,0:0:0:0:
64,192,34488,1,0,0:0:0:0:
192,192,34488,1,0,0:0:0:0:
448,192,34544,1,0,0:0:0:0:
192,192,34599,1,0,0:0:0:0:
320,192,34599,1,0,0:0:0:0:
64,192,34655,1,0,0:0:0:0:
448,192,34710,1,0,0:0:0:0:
320,192,34765,1,0,0:0:0:0:
192,192,34821,1,0,0:0:0:0:
64,192,34877,1,0,0:0:0:0:
192,192,34932,1,0,0:0:0:0:
320,192,34932,1,0,0:0:0:0:
448,192,34988,1,0,0:0:0:0:
320,192,35044,1,0,0:0:0:0:
192,192,35099,1,0,0:0:0:0:
64,192,35155,1,0,0:0:0:0:
448,192,35155,1,0,0:0:0:0:
192,192,35210,1,0,0:0:0:0:
320,192,35265,1,0,0:0:0:0:
448,192,35321,1,0,0:0:0:0:
64,192,35377,1,0,0:0:0:0:
192,192,35377,1,0,0:0:0:0:
320,192,35432,1,0,0:0:0:0:
64,192,35488,1,0,0:0:0:0:
448,192,35488,1,0,0:0:0:0:
192,192,35544,1,0,0:0:0:0:
320,192,35599,1,0,0:0:0:0:
448,192,35655,1,0,0:0:0:0:
192,192,35710,1,0,0:0:0:0:
320,192,35765,1,0,0:0:0:0:
64,192,35821,1,0,0:0:0:0:
192,192,35877,1,0,0:0:0:0:
320,192,35932,1,0,0:0:0:0:
448,192,35988,1,0,0:0:0:0:
320,192,36044,1,0,0:0:0:0:
192,192,36099,1,0,0:0:0:0:
64,192,36155,1,0,0:0:0:0:
448,192,36210,1,0,0:0:0:0:
192,192,36265,1,0,0:0:0:0:
448,192,36321,1,0,0:0:0:0:
320,192,36377,1,0,0:0:0:0:
64,0,36377,128,0,36710:1:0:0:0:
192,192,36432,1,0,0:0:0:0:
320,192,36488,1,0,0:0:0:0:
448,192,36599,1,0,0:0:0:0:
192,192,36710,1,0,0:0:0:0:
320,192,36710,1,0,0:0:0:0:
448,192,36765,1,0,0:0:0:0:
64,192,36821,1,0,0:0:0:0:
192,192,36877,1,0,0:0:0:0:
320,192,36932,1,0,0:0:0:0:
448,192,36932,1,0,0:0:0:0:
192,192,37044,1,0,0:0:0:0:
320,192,37044,1,0,0:0:0:0:
448,192,37099,1,0,0:0:0:0:
64,192,37155,1,0,0:0:0:0:
320,192,37265,1,0,0:0:0:0:
448,0,37265,128,0,37599:1:0:0:0:
192,192,37321,1,0,0:0:0:0:
64,192,37377,1,0,0:0:0:0:
192,192,37488,1,0,0:0:0:0:
320,192,37599,1,0,0:0:0:0:
64,192,37655,1,0,0:0:0:0:
192,192,37710,1,0,0:0:0:0:
320,192,37765,1,0,0:0:0:0:
64,192,37821,1,0,0:0:0:0:
448,192,37821,1,0,0:0:0:0:
192,192,37877,1,0,0:0:0:0:
320,192,37932,1,0,0:0:0:0:
448,192,37932,1,0,0:0:0:0:
64,192,37988,1,0,0:0:0:0:
192,192,38044,1,0,0:0:0:0:
320,192,38044,1,0,0:0:0:0:
448,192,38099,1,0,0:0:0:0:
64,192,38155,1,0,0:0:0:0:
192,192,38155,1,0,0:0:0:0:
320,192,38210,1,0,0:0:0:0:
192,192,38265,1,0,0:0:0:0:
64,192,38321,1,0,0:0:0:0:
448,192,38377,1,0,0:0:0:0:
320,192,38432,1,0,0:0:0:0:
64,192,38488,1,0,0:0:0:0:
192,192,38488,1,0,0:0:0:0:
320,192,38544,1,0,0:0:0:0:
448,192,38599,1,0,0:0:0:0:
64,192,38655,1,0,0:0:0:0:
192,192,38710,1,0,0:0:0:0:
320,192,38710,1,0,0:0:0:0:
448,192,38765,1,0,0:0:0:0:
64,192,38821,1,0,0:0:0:0:
192,192,38877,1,0,0:0:0:0:
320,192,38932,1,0,0:0:0:0:
448,192,38932,1,0,0:0:0:0:
192,192,38988,1,0,0:0:0:0:
64,192,39044,1,0,0:0:0:0:
448,192,39044,1,0,0:0:0:0:
320,192,39099,1,0,0:0:0:0:
192,192,39155,1,0,0:0:0:0:
64,192,39210,1,0,0:0:0:0:
448,192,39265,1,0,0:0:0:0:
320,192,39321,1,0,0:0:0:0:
192,192,39377,1,0,0:0:0:0:
64,192,39432,1,0,0:0:0:0:
448,192,39488,1,0,0:0:0:0:
320,192,39544,1,0,0:0:0:0:
192,192,39599,1,0,0:0:0:0:
320,192,39655,1,0,0:0:0:0:
192,192,39710,1,0,0:0:0:0:
64,192,39765,1,0,0:0:0:0:
448,192,39821,1,0,0:0:0:0:
320,192,39877,1,0,0:0:0:0:
192,192,39932,1,0,0:0:0:0:
64,0,39932,128,0,40155:1:0:0:0:
320,192,39988,1,0,0:0:0:0:
448,192,40044,1,0,0:0:0:0:
192,192,40155,1,0,0:0:0:0:
320,192,40265,1,0,0:0:0:0:
448,192,40265,1,0,0:0:0:0:
64,192,40321,1,0,0:0:0:0:
192,192,40377,1,0,0:0:0:0:
320,192,40432,1,0,0:0:0:0:
64,192,40488,1,0,0:0:0:0:
448,192,40488,1,0,0:0:0:0:
320,192,40599,1,0,0:0:0:0:
448,192,40599,1,0,0:0:0:0:
192,192,40655,1,0,0:0:0:0:
64,192,40710,1,0,0:0:0:0:
320,192,40821,1,0,0:0:0:0:
448,0,40821,128,0,41044:1:0:0:0:
192,192,40877,1,0,0:0:0:0:
64,192,40932,1,0,0:0:0:0:
320,192,40988,1,0,0:0:0:0:
192,192,41044,1,0,0:0:0:0:
320,192,41099,1,0,0:0:0:0:
448,192,41155,1,0,0:0:0:0:
64,192,41210,1,0,0:0:0:0:
320,192,41265,1,0,0:0:0:0:
192,192,41321,1,0,0:0:0:0:
64,192,41377,1,0,0:0:0:0:
448,192,41377,1,0,0:0:0:0:
320,192,41432,1,0,0:0:0:0:
64,192,41488,1,0,0:0:0:0:
192,192,41488,1,0,0:0:0:0:
320,192,41544,1,0,0:0:0:0:
64,192,41599,1,0,0:0:0:0:
448,192,41599,1,0,0:0:0:0:
192,192,41655,1,0,0:0:0:0:
320,192,41710,1,0,0:0:0:0:
448,192,41710,1,0,0:0:0:0:
64,192,41765,1,0,0:0:0:0:
192,192,41821,1,0,0:0:0:0:
320,192,41877,1,0,0:0:0:0:
448,192,41932,1,0,0:0:0:0:
320,192,41988,1,0,0:0:0:0:
64,192,42044,1,0,0:0:0:0:
192,192,42044,1,0,0:0:0:0:
448,192,42099,1,0,0:0:0:0:
192,192,42155,1,0,0:0:0:0:
320,192,42210,1,0,0:0:0:0:
64,192,42265,1,0,0:0:0:0:
448,192,42265,1,0,0:0:0:0:
192,192,42321,1,0,0:0:0:0:
320,192,42377,1,0,0:0:0:0:
448,192,42432,1,0,0:0:0:0:
64,192,42488,1,0,0:0:0:0:
192,192,42488,1,0,0:0:0:0:
320,192,42544,1,0,0:0:0:0:
64,192,42599,1,0,0:0:0:0:
448,192,42599,1,0,0:0:0:0:
192,192,42655,1,0,0:0:0:0:
320,192,42710,1,0,0:0:0:0:
192,192,42765,1,0,0:0:0:0:
320,192,42821,1,0,0:0:0:0:
448,192,42877,1,0,0:0:0:0:
64,192,42932,1,0,0:0:0:0:
192,192,42932,1,0,0:0:0:0:
320,192,42988,1,0,0:0:0:0:
448,192,43044,1,0,0:0:0:0:
64,192,43099,1,0,0:0:0:0:
192,192,43155,1,0,0:0:0:0:
320,192,43210,1,0,0:0:0:0:
448,192,43265,1,0,0:0:0:0:
320,192,43321,1,0,0:0:0:0:
192,192,43377,1,0,0:0:0:0:
64,192,43432,1,0,0:0:0:0:
320,192,43488,1,0,0:0:0:0:
448,0,43488,128,0,43710:1:0:0:0:
192,192,43544,1,0,0:0:0:0:
64,192,43599,1,0,0:0:0:0:
320,192,43655,1,0,0:0:0:0:
192,192,43710,1,0,0:0:0:0:
320,192,43765,1,0,0:0:0:0:
448,192,43821,1,0,0:0:0:0:
64,0,43821,128,0,43988:1:0:0:0:
192,192,43877,1,0,0:0:0:0:
320,192,43932,1,0,0:0:0:0:
448,192,43988,1,0,0:0:0:0:
192,192,44044,1,0,0:0:0:0:
320,192,44044,1,0,0:0:0:0:
64,192,44099,1,0,0:0:0:0:
192,192,44155,1,0,0:0:0:0:
320,192,44210,1,0,0:0:0:0:
64,192,44265,1,0,0:0:0:0:
448,192,44265,1,0,0:0:0:0:
192,192,44321,1,0,0:0:0:0:
320,192,44377,1,0,0:0:0:0:
448,0,44377,128,0,44710:1:0:0:0:
64,192,44432,1,0,0:0:0:0:
192,192,44488,1,0,0:0:0:0:
320,192,44544,1,0,0:0:0:0:
192,192,44599,1,0,0:0:0:0:
64,192,44655,1,0,0:0:0:0:
192,192,44710,1,0,0:0:0:0:
320,192,44765,1,0,0:0:0:0:
448,192,44821,1,0,0:0:0:0:
64,192,44877,1,0,0:0:0:0:
192,192,44933,1,0,0:0:0:0:
320,192,44988,1,0,0:0:0:0:
192,192,45044,1,0,0:0:0:0:
320,192,45100,1,0,0:0:0:0:
448,192,45155,1,0,0:0:0:0:
64,192,45210,1,0,0:0:0:0:
192,192,45266,1,0,0:0:0:0:
320,192,45266,1,0,0:0:0:0:
448,192,45321,1,0,0:0:0:0:
192,192,45377,1,0,0:0:0:0:
320,192,45433,1,0,0:0:0:0:
64,192,45488,1,0,0:0:0:0:
448,192,45544,1,0,0:0:0:0:
192,192,45600,1,0,0:0:0:0:
320,192,45600,1,0,0:0:0:0:
64,192,45655,1,0,0:0:0:0:
448,192,45710,1,0,0:0:0:0:
192,192,45766,1,0,0:0:0:0:
320,192,45821,1,0,0:0:0:0:
448,192,45821,1,0,0:0:0:0:
64,192,45877,1,0,0:0:0:0:
192,192,45933,1,0,0:0:0:0:
320,192,45988,1,0,0:0:0:0:
64,192,46044,1,0,0:0:0:0:
448,192,46044,1,0,0:0:0:0:
320,192,46100,1,0,0:0:0:0:
64,192,46155,1,0,0:0:0:0:
192,192,46155,1,0,0:0:0:0:
448,192,46210,1,0,0:0:0:0:
320,192,46266,1,0,0:0:0:0:
192,192,46321,1,0,0:0:0:0:
64,192,46377,1,0,0:0:0:0:
320,192,46433,1,0,0:0:0:0:
192,192,46488,1,0,0:0:0:0:
448,192,46544,1,0,0:0:0:0:
64,192,46600,1,0,0:0:0:0:
192,192,46655,1,0,0:0:0:0:
320,192,46710,1,0,0:0:0:0:
448,192,46766,1,0,0:0:0:0:
320,192,46821,1,0,0:0:0:0:
192,192,46877,1,0,0:0:0:0:
64,192,46933,1,0,0:0:0:0:
448,192,46988,1,0,0:0:0:0:
192,192,47044,1,0,0:0:0:0:
448,192,47100,1,0,0:0:0:0:
64,192,47155,1,0,0:0:0:0:
192,192,47210,1,0,0:0:0:0:
320,192,47266,1,0,0:0:0:0:
448,192,47321,1,0,0:0:0:0:
64,192,47377,1,0,0:0:0:0:
320,192,47433,1,0,0:0:0:0:
64,192,47488,1,0,0:0:0:0:
448,192,47544,1,0,0:0:0:0:
320,192,47600,1,0,0:0:0:0:
192,192,47655,1,0,0:0:0:0:
320,192,47710,1,0,0:0:0:0:
448,192,47766,1,0,0:0:0:0:
64,192,47821,1,0,0:0:0:0:
192,192,47877,1,0,0:0:0:0:
320,192,47933,1,0,0:0:0:0:
448,192,47988,1,0,0:0:0:0:
192,192,48044,1,0,0:0:0:0:
64,0,48044,128,0,48266:1:0:0:0:
320,192,48155,1,0,0:0:0:0:
192,192,48266,1,0,0:0:0:0:
448,192,48377,1,0,0:0:0:0:
192,192,48488,1,0,0:0:0:0:
320,192,48488,1,0,0:0:0:0:
64,192,48600,1,0,0:0:0:0:
448,192,48600,1,0,0:0:0:0:
192,192,48710,1,0,0:0:0:0:
448,192,48821,1,0,0:0:0:0:
320,0,48821,128,0,49155:1:0:0:0:
192,192,48933,1,0,0:0:0:0:
64,192,49044,1,0,0:0:0:0:
448,192,49155,1,0,0:0:0:0:
64,192,49266,1,0,0:0:0:0:
192,192,49377,1,0,0:0:0:0:
320,192,49488,1,0,0:0:0:0:
448,192,49600,1,0,0:0:0:0:
192,192,49710,1,0,0:0:0:0:
320,192,49821,1,0,0:0:0:0:
448,0,49821,128,0,50044:1:0:0:0:
64,192,49933,1,0,0:0:0:0:
192,192,50044,1,0,0:0:0:0:
64,192,50155,1,0,0:0:0:0:
320,192,50266,1,0,0:0:0:0:
448,192,50266,1,0,0:0:0:0:
64,192,50377,1,0,0:0:0:0:
192,192,50377,1,0,0:0:0:0:
448,192,50488,1,0,0:0:0:0:
192,192,50600,1,0,0:0:0:0:
320,192,50600,1,0,0:0:0:0:
64,192,50710,1,0,0:0:0:0:
320,192,50821,1,0,0:0:0:0:
448,192,50821,1,0,0:0:0:0:
192,192,50933,1,0,0:0:0:0:
64,192,51044,1,0,0:0:0:0:
448,192,51044,1,0,0:0:0:0:
192,192,51155,1,0,0:0:0:0:
320,192,51266,1,0,0:0:0:0:
192,192,51377,1,0,0:0:0:0:
64,0,51377,128,0,51488:1:0:0:0:
320,192,51488,1,0,0:0:0:0:
192,192,51600,1,0,0:0:0:0:
448,0,51600,128,0,51766:1:0:0:0:
64,192,51710,1,0,0:0:0:0:
320,192,51821,1,0,0:0:0:0:
192,192,51933,1,0,0:0:0:0:
320,192,52044,1,0,0:0:0:0:
448,192,52044,1,0,0:0:0:0:
64,192,52155,1,0,0:0:0:0:
192,192,52155,1,0,0:0:0:0:
448,192,52266,1,0,0:0:0:0:
320,192,52377,1,0,0:0:0:0:
64,0,52377,128,0,52710:1:0:0:0:
448,192,52488,1,0,0:0:0:0:
192,192,52600,1,0,0:0:0:0:
320,192,52710,1,0,0:0:0:0:
448,192,52821,1,0,0:0:0:0:
64,192,52933,1,0,0:0:0:0:
192,192,53044,1,0,0:0:0:0:
320,192,53155,1,0,0:0:0:0:
448,192,53266,1,0,0:0:0:0:
320,192,53377,1,0,0:0:0:0:
64,0,53377,128,0,53600:1:0:0:0:
192,192,53488,1,0,0:0:0:0:
448,192,53600,1,0,0:0:0:0:
192,192,53710,1,0,0:0:0:0:
320,192,53821,1,0,0:0:0:0:
448,192,53821,1,0,0:0:0:0:
64,192,53933,1,0,0:0:0:0:
320,192,53933,1,0,0:0:0:0:
192,192,54044,1,0,0:0:0:0:
64,192,54155,1,0,0:0:0:0:
448,0,54155,128,0,54488:1:0:0:0:
320,192,54210,1,0,0:0:0:0:
192,192,54266,1,0,0:0:0:0:
64,192,54321,1,0,0:0:0:0:
320,192,54377,1,0,0:0:0:0:
192,192,54433,1,0,0:0:0:0:
320,192,54488,1,0,0:0:0:0:
448,192,54544,1,0,0:0:0:0:
192,192,54600,1,0,0:0:0:0:
320,192,54655,1,0,0:0:0:0:
64,192,54710,1,0,0:0:0:0:
192,192,54766,1,0,0:0:0:0:
64,192,54821,1,0,0:0:0:0:
320,192,54821,1,0,0:0:0:0:
448,192,54877,1,0,0:0:0:0:
64,192,54933,1,0,0:0:0:0:
192,192,54933,1,0,0:0:0:0:
320,192,54988,1,0,0:0:0:0:
64,192,55044,1,0,0:0:0:0:
448,192,55044,1,0,0:0:0:0:
192,192,55100,1,0,0:0:0:0:
320,192,55155,1,0,0:0:0:0:
448,192,55155,1,0,0:0:0:0:
64,192,55210,1,0,0:0:0:0:
192,192,55266,1,0,0:0:0:0:
320,192,55321,1,0,0:0:0:0:
448,192,55377,1,0,0:0:0:0:
320,192,55433,1,0,0:0:0:0:
192,192,55488,1,0,0:0:0:0:
64,192,55544,1,0,0:0:0:0:
448,192,55600,1,0,0:0:0:0:
192,192,55655,1,0,0:0:0:0:
320,192,55710,1,0,0:0:0:0:
64,192,55766,1,0,0:0:0:0:
192,192,55821,1,0,0:0:0:0:
320,192,55877,1,0,0:0:0:0:
64,192,55933,1,0,0:0:0:0:
448,192,55933,1,0,0:0:0:0:
320,192,55988,1,0,0:0:0:0:
192,192,56044,1,0,0:0:0:0:
64,192,56100,1,0,0:0:0:0:
192,192,56155,1,0,0:0:0:0:
320,192,56155,1,0,0:0:0:0:
448,192,56210,1,0,0:0:0:0:
64,192,56265,1,0,0:0:0:0:
192,192,56265,1,0,0:0:0:0:
320,192,56321,1,0,0:0:0:0:
64,192,56377,1,0,0:0:0:0:
448,192,56377,1,0,0:0:0:0:
192,192,56432,1,0,0:0:0:0:
320,192,56488,1,0,0:0:0:0:
448,192,56544,1,0,0:0:0:0:
192,192,56599,1,0,0:0:0:0:
320,192,56599,1,0,0:0:0:0:
64,192,56655,1,0,0:0:0:0:
448,192,56710,1,0,0:0:0:0:
192,192,56765,1,0,0:0:0:0:
320,192,56821,1,0,0:0:0:0:
448,192,56821,1,0,0:0:0:0:
64,192,56877,1,0,0:0:0:0:
192,192,56932,1,0,0:0:0:0:
320,192,56988,1,0,0:0:0:0:
192,192,57044,1,0,0:0:0:0:
320,192,57099,1,0,0:0:0:0:
448,192,57155,1,0,0:0:0:0:
192,192,57210,1,0,0:0:0:0:
320,192,57265,1,0,0:0:0:0:
64,192,57321,1,0,0:0:0:0:
192,192,57377,1,0,0:0:0:0:
320,192,57432,1,0,0:0:0:0:
448,192,57488,1,0,0:0:0:0:
320,192,57544,1,0,0:0:0:0:
192,192,57599,1,0,0:0:0:0:
64,192,57655,1,0,0:0:0:0:
320,192,57710,1,0,0:0:0:0:
448,192,57710,1,0,0:0:0:0:
192,192,57765,1,0,0:0:0:0:
448,192,57821,1,0,0:0:0:0:
64,192,57877,1,0,0:0:0:0:
192,192,57932,1,0,0:0:0:0:
320,192,57932,1,0,0:0:0:0:
448,192,57988,1,0,0:0:0:0:
64,192,58044,1,0,0:0:0:0:
192,192,58044,1,0,0:0:0:0:
320,192,58099,1,0,0:0:0:0:
64,192,58155,1,0,0:0:0:0:
448,192,58155,1,0,0:0:0:0:
320,192,58210,1,0,0:0:0:0:
192,192,58265,1,0,0:0:0:0:
64,192,58321,1,0,0:0:0:0:
320,192,58377,1,0,0:0:0:0:
448,192,58377,1,0,0:0:0:0:
192,192,58432,1,0,0:0:0:0:
64,192,58488,1,0,0:0:0:0:
448,192,58544,1,0,0:0:0:0:
192,192,58599,1,0,0:0:0:0:
320,192,58599,1,0,0:0:0:0:
64,192,58655,1,0,0:0:0:0:
320,192,58710,1,0,0:0:0:0:
192,192,58765,1,0,0:0:0:0:
448,192,58821,1,0,0:0:0:0:
64,192,58877,1,0,0:0:0:0:
320,192,58932,1,0,0:0:0:0:
192,192,58988,1,0,0:0:0:0:
320,192,59044,1,0,0:0:0:0:
64,192,59099,1,0,0:0:0:0:
192,192,59155,1,0,0:0:0:0:
320,192,59210,1,0,0:0:0:0:
448,192,59265,1,0,0:0:0:0:
320,192,59321,1,0,0:0:0:0:
192,192,59377,1,0,0:0:0:0:
64,192,59432,1,0,0:0:0:0:
320,192,59488,1,0,0:0:0:0:
448,192,59488,1,0,0:0:0:0:
192,192,59544,1,0,0:0:0:0:
448,192,59599,1,0,0:0:0:0:
320,192,59655,1,0,0:0:0:0:
64,192,59710,1,0,0:0:0:0:
192,192,59710,1,0,0:0:0:0:
448,192,59765,1,0,0:0:0:0:
192,192,59821,1,0,0:0:0:0:
320,192,59821,1,0,0:0:0:0:
64,192,59877,1,0,0:0:0:0:
320,192,59932,1,0,0:0:0:0:
448,192,59932,1,0,0:0:0:0:
192,192,59988,1,0,0:0:0:0:
64,192,60044,1,0,0:0:0:0:
448,192,60099,1,0,0:0:0:0:
192,192,60155,1,0,0:0:0:0:
320,192,60155,1,0,0:0:0:0:
64,192,60210,1,0,0:0:0:0:
320,192,60265,1,0,0:0:0:0:
192,192,60321,1,0,0:0:0:0:
448,192,60377,1,0,0:0:0:0:
64,192,60432,1,0,0:0:0:0:
192,192,60488,1,0,0:0:0:0:
320,192,60488,1,0,0:0:0:0:
448,192,60544,1,0,0:0:0:0:
192,192,60599,1,0,0:0:0:0:
320,192,60655,1,0,0:0:0:0:
64,192,60710,1,0,0:0:0:0:
192,192,60765,1,0,0:0:0:0:
320,192,60821,1,0,0:0:0:0:
448,192,60821,1,0,0:0:0:0:
192,192,60877,1,0,0:0:0:0:
64,192,60932,1,0,0:0:0:0:
448,192,60988,1,0,0:0:0:0:
320,192,61044,1,0,0:0:0:0:
192,192,61099,1,0,0:0:0:0:
64,192,61155,1,0,0:0:0:0:
192,192,61210,1,0,0:0:0:0:
320,192,61265,1,0,0:0:0:0:
448,192,61321,1,0,0:0:0:0:
64,192,61377,1,0,0:0:0:0:
192,192,61377,1,0,0:0:0:0:
320,192,61432,1,0,0:0:0:0:
192,192,61488,1,0,0:0:0:0:
320,192,61544,1,0,0:0:0:0:
64,192,61599,1,0,0:0:0:0:
192,192,61655,1,0,0:0:0:0:
320,192,61710,1,0,0:0:0:0:
448,192,61710,1,0,0:0:0:0:
192,192,61765,1,0,0:0:0:0:
64,192,61821,1,0,0:0:0:0:
448,192,61877,1,0,0:0:0:0:
320,192,61932,1,0,0:0:0:0:
192,192,61988,1,0,0:0:0:0:
64,192,62044,1,0,0:0:0:0:
448,192,62044,1,0,0:0:0:0:
192,192,62099,1,0,0:0:0:0:
320,192,62155,1,0,0:0:0:0:
448,192,62210,1,0,0:0:0:0:
192,192,62265,1,0,0:0:0:0:
64,0,62265,128,0,62710:1:0:0:0:
320,192,62377,1,0,0:0:0:0:
448,192,62488,1,0,0:0:0:0:
192,192,62710,1,0,0:0:0:0:
448,192,62710,1,0,0:0:0:0:
64,192,62821,1,0,0:0:0:0:
320,192,62821,1,0,0:0:0:0:
192,192,62932,1,0,0:0:0:0:
320,192,63044,1,0,0:0:0:0:
448,0,63044,128,0,63599:1:0:0:0:
64,192,63265,1,0,0:0:0:0:
320,192,63377,1,0,0:0:0:0:
192,192,63599,1,0,0:0:0:0:
64,192,63710,1,0,0:0:0:0:
192,192,63821,1,0,0:0:0:0:
320,192,63821,1,0,0:0:0:0:
448,192,63932,1,0,0:0:0:0:
192,192,64044,1,0,0:0:0:0:
64,0,64044,128,0,64265:1:0:0:0:
320,192,64155,1,0,0:0:0:0:
192,192,64265,1,0,0:0:0:0:
448,192,64377,1,0,0:0:0:0:
64,192,64488,1,0,0:0:0:0:
320,192,64488,1,0,0:0:0:0:
192,192,64599,1,0,0:0:0:0:
320,192,64599,1,0,0:0:0:0:
448,192,64710,1,0,0:0:0:0:
192,192,64821,1,0,0:0:0:0:
64,0,64821,128,0,64932:1:0:0:0:
448,192,65044,1,0,0:0:0:0:
192,0,65044,128,0,65155:1:0:0:0:
320,192,65155,1,0,0:0:0:0:
64,192,65265,1,0,0:0:0:0:
448,0,65265,128,0,65377:1:0:0:0:
320,192,65377,1,0,0:0:0:0:
192,192,65488,1,0,0:0:0:0:
320,192,65599,1,0,0:0:0:0:
448,192,65599,1,0,0:0:0:0:
192,192,65710,1,0,0:0:0:0:
64,192,65821,1,0,0:0:0:0:
320,0,65821,128,0,66044:1:0:0:0:
192,192,65932,1,0,0:0:0:0:
448,192,66044,1,0,0:0:0:0:
64,192,66155,1,0,0:0:0:0:
192,192,66210,1,0,0:0:0:0:
320,192,66265,1,0,0:0:0:0:
448,192,66265,1,0,0:0:0:0:
192,192,66377,1,0,0:0:0:0:
320,192,66377,1,0,0:0:0:0:
64,192,66488,1,0,0:0:0:0:
320,192,66599,1,0,0:0:0:0:
448,0,66599,128,0,66932:1:0:0:0:
64,192,66821,1,0,0:0:0:0:
320,192,66932,1,0,0:0:0:0:
192,192,67044,1,0,0:0:0:0:
448,192,67155,1,0,0:0:0:0:
320,192,67265,1,0,0:0:0:0:
192,192,67377,1,0,0:0:0:0:
448,192,67488,1,0,0:0:0:0:
320,192,67599,1,0,0:0:0:0:
64,0,67599,128,0,67932:1:0:0:0:
192,192,67710,1,0,0:0:0:0:
320,192,67821,1,0,0:0:0:0:
64,192,68044,1,0,0:0:0:0:
320,192,68044,1,0,0:0:0:0:
192,192,68155,1,0,0:0:0:0:
448,192,68155,1,0,0:0:0:0:
320,192,68265,1,0,0:0:0:0:
64,192,68377,1,0,0:0:0:0:
448,0,68377,128,0,68710:1:0:0:0:
192,192,68599,1,0,0:0:0:0:
320,192,68710,1,0,0:0:0:0:
64,192,68821,1,0,0:0:0:0:
320,192,68932,1,0,0:0:0:0:
448,192,68932,1,0,0:0:0:0:
192,192,68988,1,0,0:0:0:0:
64,192,69044,1,0,0:0:0:0:
448,192,69044,1,0,0:0:0:0:
192,192,69155,1,0,0:0:0:0:
320,192,69155,1,0,0:0:0:0:
448,192,69210,1,0,0:0:0:0:
64,192,69265,1,0,0:0:0:0:
192,192,69265,1,0,0:0:0:0:
320,192,69321,1,0,0:0:0:0:
64,192,69377,1,0,0:0:0:0:
448,192,69377,1,0,0:0:0:0:
192,192,69432,1,0,0:0:0:0:
320,192,69488,1,0,0:0:0:0:
448,192,69544,1,0,0:0:0:0:
320,192,69599,1,0,0:0:0:0:
192,192,69655,1,0,0:0:0:0:
64,192,69710,1,0,0:0:0:0:
448,192,69765,1,0,0:0:0:0:
192,192,69821,1,0,0:0:0:0:
320,192,69877,1,0,0:0:0:0:
64,192,69932,1,0,0:0:0:0:
192,192,69988,1,0,0:0:0:0:
320,192,70044,1,0,0:0:0:0:
448,192,70044,1,0,0:0:0:0:
192,192,70099,1,0,0:0:0:0:
64,192,70155,1,0,0:0:0:0:
448,192,70210,1,0,0:0:0:0:
192,192,70265,1,0,0:0:0:0:
320,192,70265,1,0,0:0:0:0:
64,192,70321,1,0,0:0:0:0:
448,192,70377,1,0,0:0:0:0:
192,192,70432,1,0,0:0:0:0:
320,192,70488,1,0,0:0:0:0:
64,192,70544,1,0,0:0:0:0:
192,192,70599,1,0,0:0:0:0:
320,192,70599,1,0,0:0:0:0:
448,192,70655,1,0,0:0:0:0:
320,192,70710,1,0,0:0:0:0:
192,192,70765,1,0,0:0:0:0:
64,192,70821,1,0,0:0:0:0:
192,192,70877,1,0,0:0:0:0:
320,192,70932,1,0,0:0:0:0:
448,192,70932,1,0,0:0:0:0:
64,192,70988,1,0,0:0:0:0:
320,192,71044,1,0,0:0:0:0:
192,192,71099,1,0,0:0:0:0:
64,192,71155,1,0,0:0:0:0:
448,192,71155,1,0,0:0:0:0:
320,192,71210,1,0,0:0:0:0:
192,192,71265,1,0,0:0:0:0:
320,192,71321,1,0,0:0:0:0:
448,192,71376,1,0,0:0:0:0:
64,192,71432,1,0,0:0:0:0:
192,192,71488,1,0,0:0:0:0:
320,192,71488,1,0,0:0:0:0:
448,192,71543,1,0,0:0:0:0:
192,192,71599,1,0,0:0:0:0:
320,192,71655,1,0,0:0:0:0:
64,192,71710,1,0,0:0:0:0:
448,192,71765,1,0,0:0:0:0:
192,192,71821,1,0,0:0:0:0:
320,192,71821,1,0,0:0:0:0:
64,192,71876,1,0,0:0:0:0:
448,192,71932,1,0,0:0:0:0:
320,192,71988,1,0,0:0:0:0:
192,192,72043,1,0,0:0:0:0:
320,192,72099,1,0,0:0:0:0:
448,192,72155,1,0,0:0:0:0:
192,192,72210,1,0,0:0:0:0:
320,192,72265,1,0,0:0:0:0:
64,192,72321,1,0,0:0:0:0:
192,192,72376,1,0,0:0:0:0:
320,192,72432,1,0,0:0:0:0:
448,192,72488,1,0,0:0:0:0:
320,192,72543,1,0,0:0:0:0:
192,192,72599,1,0,0:0:0:0:
64,192,72655,1,0,0:0:0:0:
320,192,72710,1,0,0:0:0:0:
448,192,72710,1,0,0:0:0:0:
192,192,72765,1,0,0:0:0:0:
64,192,72821,1,0,0:0:0:0:
448,192,72821,1,0,0:0:0:0:
320,192,72876,1,0,0:0:0:0:
64,192,72932,1,0,0:0:0:0:
192,192,72932,1,0,0:0:0:0:
448,192,72988,1,0,0:0:0:0:
320,192,73043,1,0,0:0:0:0:
192,192,73099,1,0,0:0:0:0:
320,192,73155,1,0,0:0:0:0:
448,192,73210,1,0,0:0:0:0:
64,192,73265,1,0,0:0:0:0:
192,192,73321,1,0,0:0:0:0:
320,192,73376,1,0,0:0:0:0:
448,192,73432,1,0,0:0:0:0:
192,192,73488,1,0,0:0:0:0:
320,192,73543,1,0,0:0:0:0:
64,192,73599,1,0,0:0:0:0:
448,192,73599,1,0,0:0:0:0:
320,192,73655,1,0,0:0:0:0:
192,192,73710,1,0,0:0:0:0:
64,192,73765,1,0,0:0:0:0:
320,192,73821,1,0,0:0:0:0:
448,192,73821,1,0,0:0:0:0:
192,192,73876,1,0,0:0:0:0:
448,192,73932,1,0,0:0:0:0:
64,192,73988,1,0,0:0:0:0:
192,192,74043,1,0,0:0:0:0:
320,192,74043,1,0,0:0:0:0:
448,192,74099,1,0,0:0:0:0:
64,192,74155,1,0,0:0:0:0:
192,192,74210,1,0,0:0:0:0:
320,192,74265,1,0,0:0:0:0:
448,192,74265,1,0,0:0:0:0:
64,192,74321,1,0,0:0:0:0:
192,192,74376,1,0,0:0:0:0:
320,192,74376,1,0,0:0:0:0:
448,192,74432,1,0,0:0:0:0:
320,192,74488,1,0,0:0:0:0:
192,192,74543,1,0,0:0:0:0:
64,192,74599,1,0,0:0:0:0:
448,192,74599,1,0,0:0:0:0:
320,192,74655,1,0,0:0:0:0:
192,192,74710,1,0,0:0:0:0:
320,192,74765,1,0,0:0:0:0:
192,192,74821,1,0,0:0:0:0:
64,192,74876,1,0,0:0:0:0:
448,192,74932,1,0,0:0:0:0:
192,192,74988,1,0,0:0:0:0:
320,192,75043,1,0,0:0:0:0:
64,192,75099,1,0,0:0:0:0:
192,192,75155,1,0,0:0:0:0:
320,192,75155,1,0,0:0:0:0:
448,192,75210,1,0,0:0:0:0:
64,192,75265,1,0,0:0:0:0:
192,192,75265,1,0,0:0:0:0:
320,192,75321,1,0,0:0:0:0:
64,192,75376,1,0,0:0:0:0:
448,192,75376,1,0,0:0:0:0:
192,192,75432,1,0,0:0:0:0:
320,192,75488,1,0,0:0:0:0:
448,192,75488,1,0,0:0:0:0:
64,192,75543,1,0,0:0:0:0:
192,192,75599,1,0,0:0:0:0:
320,192,75655,1,0,0:0:0:0:
192,192,75710,1,0,0:0:0:0:
64,192,75765,1,0,0:0:0:0:
320,192,75821,1,0,0:0:0:0:
448,192,75821,1,0,0:0:0:0:
192,192,75876,1,0,0:0:0:0:
448,192,75932,1,0,0:0:0:0:
64,192,75988,1,0,0:0:0:0:
192,192,76043,1,0,0:0:0:0:
320,192,76043,1,0,0:0:0:0:
448,192,76099,1,0,0:0:0:0:
320,192,76155,1,0,0:0:0:0:
192,192,76210,1,0,0:0:0:0:
64,192,76265,1,0,0:0:0:0:
448,192,76265,1,0,0:0:0:0:
320,192,76321,1,0,0:0:0:0:
64,192,76376,1,0,0:0:0:0:
192,192,76376,1,0,0:0:0:0:
320,192,76432,1,0,0:0:0:0:
448,192,76488,1,0,0:0:0:0:
64,192,76543,1,0,0:0:0:0:
320,192,76599,1,0,0:0:0:0:
192,192,76655,1,0,0:0:0:0:
448,192,76710,1,0,0:0:0:0:
320,192,76765,1,0,0:0:0:0:
192,192,76821,1,0,0:0:0:0:
64,192,76876,1,0,0:0:0:0:
192,192,76932,1,0,0:0:0:0:
320,192,76988,1,0,0:0:0:0:
448,192,77043,1,0,0:0:0:0:
64,192,77099,1,0,0:0:0:0:
192,192,77155,1,0,0:0:0:0:
320,192,77210,1,0,0:0:0:0:
64,192,77265,1,0,0:0:0:0:
192,192,77265,1,0,0:0:0:0:
448,192,77321,1,0,0:0:0:0:
320,192,77376,1,0,0:0:0:0:
192,192,77432,1,0,0:0:0:0:
64,192,77488,1,0,0:0:0:0:
448,192,77543,1,0,0:0:0:0:
192,192,77599,1,0,0:0:0:0:
320,192,77599,1,0,0:0:0:0:
64,192,77655,1,0,0:0:0:0:
448,192,77710,1,0,0:0:0:0:
192,192,77765,1,0,0:0:0:0:
320,192,77821,1,0,0:0:0:0:
448,192,77821,1,0,0:0:0:0:
64,192,77876,1,0,0:0:0:0:
192,192,77932,1,0,0:0:0:0:
320,192,77932,1,0,0:0:0:0:
448,192,77988,1,0,0:0:0:0:
64,192,78043,1,0,0:0:0:0:
192,192,78099,1,0,0:0:0:0:
320,192,78155,1,0,0:0:0:0:
448,192,78155,1,0,0:0:0:0:
192,192,78210,1,0,0:0:0:0:
64,192,78265,1,0,0:0:0:0:
448,192,78321,1,0,0:0:0:0:
192,192,78376,1,0,0:0:0:0:
320,192,78432,1,0,0:0:0:0:
64,192,78487,1,0,0:0:0:0:
192,192,78543,1,0,0:0:0:0:
320,192,78599,1,0,0:0:0:0:
448,192,78654,1,0,0:0:0:0:
64,192,78710,1,0,0:0:0:0:
192,192,78710,1,0,0:0:0:0:
320,192,78765,1,0,0:0:0:0:
64,192,78820,1,0,0:0:0:0:
448,192,78820,1,0,0:0:0:0:
320,192,78876,1,0,0:0:0:0:
64,192,78932,1,0,0:0:0:0:
192,192,78932,1,0,0:0:0:0:
448,192,78987,1,0,0:0:0:0:
192,192,79043,1,0,0:0:0:0:
320,192,79043,1,0,0:0:0:0:
64,192,79099,1,0,0:0:0:0:
448,192,79154,1,0,0:0:0:0:
192,192,79210,1,0,0:0:0:0:
320,192,79265,1,0,0:0:0:0:
64,192,79320,1,0,0:0:0:0:
192,192,79376,1,0,0:0:0:0:
320,192,79376,1,0,0:0:0:0:
448,192,79432,1,0,0:0:0:0:
320,192,79487,1,0,0:0:0:0:
192,192,79543,1,0,0:0:0:0:
64,192,79599,1,0,0:0:0:0:
448,192,79599,1,0,0:0:0:0:
192,192,79654,1,0,0:0:0:0:
320,192,79710,1,0,0:0:0:0:
64,192,79765,1,0,0:0:0:0:
320,192,79820,1,0,0:0:0:0:
448,192,79820,1,0,0:0:0:0:
192,192,79876,1,0,0:0:0:0:
64,192,79932,1,0,0:0:0:0:
448,192,79932,1,0,0:0:0:0:
192,192,79987,1,0,0:0:0:0:
320,192,80043,1,0,0:0:0:0:
448,192,80099,1,0,0:0:0:0:
320,192,80154,1,0,0:0:0:0:
192,192,80210,1,0,0:0:0:0:
64,192,80265,1,0,0:0:0:0:
448,192,80320,1,0,0:0:0:0:
192,192,80376,1,0,0:0:0:0:
320,192,80432,1,0,0:0:0:0:
64,192,80487,1,0,0:0:0:0:
192,192,80543,1,0,0:0:0:0:
320,192,80599,1,0,0:0:0:0:
448,192,80654,1,0,0:0:0:0:
64,192,80710,1,0,0:0:0:0:
192,192,80765,1,0,0:0:0:0:
320,192,80820,1,0,0:0:0:0:
448,192,80820,1,0,0:0:0:0:
192,192,80876,1,0,0:0:0:0:
64,192,80932,1,0,0:0:0:0:
320,192,80987,1,0,0:0:0:0:
192,192,81043,1,0,0:0:0:0:
448,192,81099,1,0,0:0:0:0:
192,192,81154,1,0,0:0:0:0:
320,192,81154,1,0,0:0:0:0:
64,192,81210,1,0,0:0:0:0:
448,192,81265,1,0,0:0:0:0:
192,192,81320,1,0,0:0:0:0:
320,192,81376,1,0,0:0:0:0:
448,192,81376,1,0,0:0:0:0:
64,192,81432,1,0,0:0:0:0:
192,192,81487,1,0,0:0:0:0:
320,192,81487,1,0,0:0:0:0:
448,192,81543,1,0,0:0:0:0:
320,192,81599,1,0,0:0:0:0:
192,192,81654,1,0,0:0:0:0:
64,192,81710,1,0,0:0:0:0:
448,192,81710,1,0,0:0:0:0:
320,192,81765,1,0,0:0:0:0:
192,192,81820,1,0,0:0:0:0:
320,192,81876,1,0,0:0:0:0:
448,192,81932,1,0,0:0:0:0:
64,192,81987,1,0,0:0:0:0:
192,192,82043,1,0,0:0:0:0:
320,192,82099,1,0,0:0:0:0:
192,192,82154,1,0,0:0:0:0:
64,192,82210,1,0,0:0:0:0:
320,192,82265,1,0,0:0:0:0:
448,192,82265,1,0,0:0:0:0:
192,192,82320,1,0,0:0:0:0:
64,192,82376,1,0,0:0:0:0:
448,192,82376,1,0,0:0:0:0:
320,192,82432,1,0,0:0:0:0:
64,192,82487,1,0,0:0:0:0:
192,192,82487,1,0,0:0:0:0:
448,192,82543,1,0,0:0:0:0:
192,192,82599,1,0,0:0:0:0:
320,192,82599,1,0,0:0:0:0:
64,192,82654,1,0,0:0:0:0:
448,192,82710,1,0,0:0:0:0:
192,192,82765,1,0,0:0:0:0:
320,192,82820,1,0,0:0:0:0:
64,192,82876,1,0,0:0:0:0:
192,192,82932,1,0,0:0:0:0:
320,192,82932,1,0,0:0:0:0:
448,192,82987,1,0,0:0:0:0:
320,192,83043,1,0,0:0:0:0:
192,192,83099,1,0,0:0:0:0:
64,192,83154,1,0,0:0:0:0:
448,192,83154,1,0,0:0:0:0:
320,192,83210,1,0,0:0:0:0:
192,192,83265,1,0,0:0:0:0:
64,192,83320,1,0,0:0:0:0:
320,192,83376,1,0,0:0:0:0:
448,192,83376,1,0,0:0:0:0:
192,192,83432,1,0,0:0:0:0:
320,192,83487,1,0,0:0:0:0:
448,192,83487,1,0,0:0:0:0:
64,192,83543,1,0,0:0:0:0:
192,192,83599,1,0,0:0:0:0:
320,192,83654,1,0,0:0:0:0:
448,192,83710,1,0,0:0:0:0:
64,192,83765,1,0,0:0:0:0:
192,192,83820,1,0,0:0:0:0:
320,192,83820,1,0,0:0:0:0:
448,192,83876,1,0,0:0:0:0:
192,192,83932,1,0,0:0:0:0:
320,192,83987,1,0,0:0:0:0:
64,192,84043,1,0,0:0:0:0:
448,192,84099,1,0,0:0:0:0:
320,192,84154,1,0,0:0:0:0:
192,192,84210,1,0,0:0:0:0:
320,192,84265,1,0,0:0:0:0:
192,192,84320,1,0,0:0:0:0:
64,192,84376,1,0,0:0:0:0:
448,192,84376,1,0,0:0:0:0:
320,192,84432,1,0,0:0:0:0:
192,192,84487,1,0,0:0:0:0:
320,192,84543,1,0,0:0:0:0:
448,192,84599,1,0,0:0:0:0:
64,192,84654,1,0,0:0:0:0:
192,192,84710,1,0,0:0:0:0:
320,192,84710,1,0,0:0:0:0:
448,192,84765,1,0,0:0:0:0:
320,192,84820,1,0,0:0:0:0:
192,192,84876,1,0,0:0:0:0:
64,192,84932,1,0,0:0:0:0:
448,192,84932,1,0,0:0:0:0:
192,192,84987,1,0,0:0:0:0:
320,192,85043,1,0,0:0:0:0:
448,192,85099,1,0,0:0:0:0:
64,192,85154,1,0,0:0:0:0:
192,192,85154,1,0,0:0:0:0:
320,192,85210,1,0,0:0:0:0:
64,192,85265,1,0,0:0:0:0:
448,192,85265,1,0,0:0:0:0:
320,192,85320,1,0,0:0:0:0:
192,192,85376,1,0,0:0:0:0:
64,192,85432,1,0,0:0:0:0:
448,192,85487,1,0,0:0:0:0:
192,192,85543,1,0,0:0:0:0:
320,192,85598,1,0,0:0:0:0:
192,192,85654,1,0,0:0:0:0:
320,192,85710,1,0,0:0:0:0:
64,192,85765,1,0,0:0:0:0:
192,192,85820,1,0,0:0:0:0:
320,192,85876,1,0,0:0:0:0:
448,192,85931,1,0,0:0:0:0:
320,192,85987,1,0,0:0:0:0:
192,192,86043,1,0,0:0:0:0:
64,192,86098,1,0,0:0:0:0:
320,192,86154,1,0,0:0:0:0:
448,192,86154,1,0,0:0:0:0:
192,192,86210,1,0,0:0:0:0:
448,192,86265,1,0,0:0:0:0:
64,192,86320,1,0,0:0:0:0:
192,192,86376,1,0,0:0:0:0:
320,192,86431,1,0,0:0:0:0:
64,192,86487,1,0,0:0:0:0:
448,192,86487,1,0,0:0:0:0:
192,192,86543,1,0,0:0:0:0:
320,192,86598,1,0,0:0:0:0:
448,192,86654,1,0,0:0:0:0:
192,192,86710,1,0,0:0:0:0:
320,192,86710,1,0,0:0:0:0:
64,192,86765,1,0,0:0:0:0:
448,192,86820,1,0,0:0:0:0:
192,192,86876,1,0,0:0:0:0:
320,192,86931,1,0,0:0:0:0:
448,192,86931,1,0,0:0:0:0:
64,192,86987,1,0,0:0:0:0:
192,192,87043,1,0,0:0:0:0:
320,192,87043,1,0,0:0:0:0:
448,192,87098,1,0,0:0:0:0:
320,192,87154,1,0,0:0:0:0:
192,192,87210,1,0,0:0:0:0:
64,192,87265,1,0,0:0:0:0:
320,192,87320,1,0,0:0:0:0:
192,192,87376,1,0,0:0:0:0:
448,192,87431,1,0,0:0:0:0:
320,192,87487,1,0,0:0:0:0:
192,192,87543,1,0,0:0:0:0:
64,192,87598,1,0,0:0:0:0:
448,192,87654,1,0,0:0:0:0:
192,192,87710,1,0,0:0:0:0:
448,192,87765,1,0,0:0:0:0:
64,192,87820,1,0,0:0:0:0:
320,192,87876,1,0,0:0:0:0:
64,192,87931,1,0,0:0:0:0:
192,192,87987,1,0,0:0:0:0:
320,192,88043,1,0,0:0:0:0:
448,192,88098,1,0,0:0:0:0:
320,192,88154,1,0,0:0:0:0:
192,192,88210,1,0,0:0:0:0:
64,192,88265,1,0,0:0:0:0:
192,192,88320,1,0,0:0:0:0:
320,192,88376,1,0,0:0:0:0:
448,192,88431,1,0,0:0:0:0:
64,192,88487,1,0,0:0:0:0:
192,192,88543,1,0,0:0:0:0:
320,192,88598,1,0,0:0:0:0:
448,192,88654,1,0,0:0:0:0:
64,192,88710,1,0,0:0:0:0:
192,192,88765,1,0,0:0:0:0:
320,192,88820,1,0,0:0:0:0:
448,192,88876,1,0,0:0:0:0:
320,192,88931,1,0,0:0:0:0:
192,192,88987,1,0,0:0:0:0:
64,192,89043,1,0,0:0:0:0:
320,192,89098,1,0,0:0:0:0:
192,192,89154,1,0,0:0:0:0:
448,192,89210,1,0,0:0:0:0:
64,192,89265,1,0,0:0:0:0:
192,192,89320,1,0,0:0:0:0:
320,192,89376,1,0,0:0:0:0:
448,192,89376,1,0,0:0:0:0:
64,192,89431,1,0,0:0:0:0:
192,192,89487,1,0,0:0:0:0:
320,192,89487,1,0,0:0:0:0:
448,192,89543,1,0,0:0:0:0:
64,192,89598,1,0,0:0:0:0:
192,192,89598,1,0,0:0:0:0:
320,192,89654,1,0,0:0:0:0:
64,192,89710,1,0,0:0:0:0:
448,192,89710,1,0,0:0:0:0:
192,192,89765,1,0,0:0:0:0:
320,192,89820,1,0,0:0:0:0:
192,192,89876,1,0,0:0:0:0:
64,192,89931,1,0,0:0:0:0:
448,192,89987,1,0,0:0:0:0:
192,192,90043,1,0,0:0:0:0:
320,192,90043,1,0,0:0:0:0:
448,192,90098,1,0,0:0:0:0:
64,192,90154,1,0,0:0:0:0:
192,192,90210,1,0,0:0:0:0:
320,192,90265,1,0,0:0:0:0:
448,192,90265,1,0,0:0:0:0:
192,192,90320,1,0,0:0:0:0:
64,192,90376,1,0,0:0:0:0:
320,192,90376,1,0,0:0:0:0:
448,192,90431,1,0,0:0:0:0:
64,192,90487,1,0,0:0:0:0:
192,192,90487,1,0,0:0:0:0:
320,192,90543,1,0,0:0:0:0:
64,192,90598,1,0,0:0:0:0:
448,192,90598,1,0,0:0:0:0:
192,192,90654,1,0,0:0:0:0:
320,192,90710,1,0,0:0:0:0:
448,192,90765,1,0,0:0:0:0:
192,192,90820,1,0,0:0:0:0:
320,192,90876,1,0,0:0:0:0:
64,192,90931,1,0,0:0:0:0:
448,192,90987,1,0,0:0:0:0:
320,192,91043,1,0,0:0:0:0:
192,192,91098,1,0,0:0:0:0:
64,192,91154,1,0,0:0:0:0:
320,192,91210,1,0,0:0:0:0:
192,192,91265,1,0,0:0:0:0:
448,192,91320,1,0,0:0:0:0:
320,192,91376,1,0,0:0:0:0:
192,192,91431,1,0,0:0:0:0:
320,192,91487,1,0,0:0:0:0:
448,192,91487,1,0,0:0:0:0:
64,192,91543,1,0,0:0:0:0:
192,192,91598,1,0,0:0:0:0:
320,192,91654,1,0,0:0:0:0:
192,192,91710,1,0,0:0:0:0:
320,192,91765,1,0,0:0:0:0:
64,192,91820,1,0,0:0:0:0:
448,192,91820,1,0,0:0:0:0:
192,192,91876,1,0,0:0:0:0:
320,192,91931,1,0,0:0:0:0:
448,192,91987,1,0,0:0:0:0:
64,192,92043,1,0,0:0:0:0:
320,192,92043,1,0,0:0:0:0:
192,192,92098,1,0,0:0:0:0:
320,192,92154,1,0,0:0:0:0:
448,192,92154,1,0,0:0:0:0:
64,192,92210,1,0,0:0:0:0:
192,192,92265,1,0,0:0:0:0:
320,192,92320,1,0,0:0:0:0:
64,192,92376,1,0,0:0:0:0:
192,192,92376,1,0,0:0:0:0:
448,192,92431,1,0,0:0:0:0:
320,192,92487,1,0,0:0:0:0:
192,192,92543,1,0,0:0:0:0:
64,192,92598,1,0,0:0:0:0:
448,192,92654,1,0,0:0:0:0:
192,192,92709,1,0,0:0:0:0:
320,192,92765,1,0,0:0:0:0:
64,192,92820,1,0,0:0:0:0:
192,192,92875,1,0,0:0:0:0:
320,192,92931,1,0,0:0:0:0:
448,192,92931,1,0,0:0:0:0:
192,192,92987,1,0,0:0:0:0:
64,192,93042,1,0,0:0:0:0:
320,192,93042,1,0,0:0:0:0:
448,192,93098,1,0,0:0:0:0:
64,192,93154,1,0,0:0:0:0:
192,192,93154,1,0,0:0:0:0:
320,192,93209,1,0,0:0:0:0:
64,192,93265,1,0,0:0:0:0:
448,192,93265,1,0,0:0:0:0:
192,192,93320,1,0,0:0:0:0:
320,192,93375,1,0,0:0:0:0:
448,192,93431,1,0,0:0:0:0:
64,192,93487,1,0,0:0:0:0:
320,192,93487,1,0,0:0:0:0:
192,192,93542,1,0,0:0:0:0:
320,192,93598,1,0,0:0:0:0:
448,192,93598,1,0,0:0:0:0:
64,192,93654,1,0,0:0:0:0:
192,192,93709,1,0,0:0:0:0:
64,192,93765,1,0,0:0:0:0:
320,192,93820,1,0,0:0:0:0:
448,192,93820,1,0,0:0:0:0:
192,192,93875,1,0,0:0:0:0:
64,192,93931,1,0,0:0:0:0:
448,192,93931,1,0,0:0:0:0:
320,192,93987,1,0,0:0:0:0:
64,192,94042,1,0,0:0:0:0:
192,192,94042,1,0,0:0:0:0:
448,192,94098,1,0,0:0:0:0:
192,192,94154,1,0,0:0:0:0:
320,192,94154,1,0,0:0:0:0:
64,192,94209,1,0,0:0:0:0:
320,192,94265,1,0,0:0:0:0:
192,192,94320,1,0,0:0:0:0:
448,192,94375,1,0,0:0:0:0:
64,192,94431,1,0,0:0:0:0:
192,192,94487,1,0,0:0:0:0:
320,192,94542,1,0,0:0:0:0:
448,192,94598,1,0,0:0:0:0:
64,192,94654,1,0,0:0:0:0:
192,192,94709,1,0,0:0:0:0:
320,192,94765,1,0,0:0:0:0:
448,192,94820,1,0,0:0:0:0:
192,192,94875,1,0,0:0:0:0:
320,192,94931,1,0,0:0:0:0:
64,192,94987,1,0,0:0:0:0:
320,192,95042,1,0,0:0:0:0:
448,192,95042,1,0,0:0:0:0:
192,192,95098,1,0,0:0:0:0:
64,192,95154,1,0,0:0:0:0:
448,192,95209,1,0,0:0:0:0:
192,192,95265,1,0,0:0:0:0:
320,192,95320,1,0,0:0:0:0:
64,192,95375,1,0,0:0:0:0:
448,192,95375,1,0,0:0:0:0:
192,192,95431,1,0,0:0:0:0:
320,192,95487,1,0,0:0:0:0:
192,192,95542,1,0,0:0:0:0:
320,192,95598,1,0,0:0:0:0:
448,192,95598,1,0,0:0:0:0:
64,192,95654,1,0,0:0:0:0:
192,192,95709,1,0,0:0:0:0:
320,192,95709,1,0,0:0:0:0:
448,192,95765,1,0,0:0:0:0:
320,192,95820,1,0,0:0:0:0:
192,192,95875,1,0,0:0:0:0:
64,192,95931,1,0,0:0:0:0:
448,192,95931,1,0,0:0:0:0:
320,192,95987,1,0,0:0:0:0:
192,192,96042,1,0,0:0:0:0:
64,192,96098,1,0,0:0:0:0:
320,192,96154,1,0,0:0:0:0:
192,192,96209,1,0,0:0:0:0:
320,192,96265,1,0,0:0:0:0:
192,192,96320,1,0,0:0:0:0:
448,192,96375,1,0,0:0:0:0:
64,192,96431,1,0,0:0:0:0:
192,192,96487,1,0,0:0:0:0:
320,192,96487,1,0,0:0:0:0:
448,192,96542,1,0,0:0:0:0:
64,192,96598,1,0,0:0:0:0:
320,192,96598,1,0,0:0:0:0:
192,192,96654,1,0,0:0:0:0:
320,192,96709,1,0,0:0:0:0:
448,192,96709,1,0,0:0:0:0:
64,192,96765,1,0,0:0:0:0:
192,192,96820,1,0,0:0:0:0:
320,192,96820,1,0,0:0:0:0:
448,192,96875,1,0,0:0:0:0:
320,192,96931,1,0,0:0:0:0:
192,192,96987,1,0,0:0:0:0:
64,192,97042,1,0,0:0:0:0:
448,192,97098,1,0,0:0:0:0:
192,192,97154,1,0,0:0:0:0:
320,192,97154,1,0,0:0:0:0:
64,192,97209,1,0,0:0:0:0:
448,192,97265,1,0,0:0:0:0:
192,192,97320,1,0,0:0:0:0:
320,192,97375,1,0,0:0:0:0:
64,192,97431,1,0,0:0:0:0:
320,192,97487,1,0,0:0:0:0:
192,192,97542,1,0,0:0:0:0:
64,192,97598,1,0,0:0:0:0:
448,192,97598,1,0,0:0:0:0:
192,192,97654,1,0,0:0:0:0:
320,192,97709,1,0,0:0:0:0:
448,192,97709,1,0,0:0:0:0:
64,192,97765,1,0,0:0:0:0:
192,192,97820,1,0,0:0:0:0:
320,192,97875,1,0,0:0:0:0:
448,192,97931,1,0,0:0:0:0:
320,192,97987,1,0,0:0:0:0:
64,192,98042,1,0,0:0:0:0:
192,192,98042,1,0,0:0:0:0:
448,192,98098,1,0,0:0:0:0:
320,192,98154,1,0,0:0:0:0:
192,192,98209,1,0,0:0:0:0:
64,192,98265,1,0,0:0:0:0:
448,192,98320,1,0,0:0:0:0:
320,192,98375,1,0,0:0:0:0:
192,192,98431,1,0,0:0:0:0:
320,192,98487,1,0,0:0:0:0:
192,192,98542,1,0,0:0:0:0:
64,192,98598,1,0,0:0:0:0:
448,192,98598,1,0,0:0:0:0:
320,192,98654,1,0,0:0:0:0:
192,192,98709,1,0,0:0:0:0:
64,192,98765,1,0,0:0:0:0:
448,192,98820,1,0,0:0:0:0:
192,192,98875,1,0,0:0:0:0:
320,192,98931,1,0,0:0:0:0:
448,192,98931,1,0,0:0:0:0:
64,192,98987,1,0,0:0:0:0:
192,192,99042,1,0,0:0:0:0:
320,192,99098,1,0,0:0:0:0:
64,192,99154,1,0,0:0:0:0:
448,192,99154,1,0,0:0:0:0:
192,192,99209,1,0,0:0:0:0:
320,192,99265,1,0,0:0:0:0:
192,192,99320,1,0,0:0:0:0:
320,192,99375,1,0,0:0:0:0:
448,192,99375,1,0,0:0:0:0:
64,192,99431,1,0,0:0:0:0:
192,192,99487,1,0,0:0:0:0:
320,192,99487,1,0,0:0:0:0:
448,192,99542,1,0,0:0:0:0:
320,192,99598,1,0,0:0:0:0:
192,192,99654,1,0,0:0:0:0:
64,192,99709,1,0,0:0:0:0:
448,192,99765,1,0,0:0:0:0:
192,192,99820,1,0,0:0:0:0:
320,192,99875,1,0,0:0:0:0:
64,192,99931,1,0,0:0:0:0:
192,192,99986,1,0,0:0:0:0:
448,192,100042,1,0,0:0:0:0:
320,192,100098,1,0,0:0:0:0:
192,192,100153,1,0,0:0:0:0:
64,192,100209,1,0,0:0:0:0:
448,192,100265,1,0,0:0:0:0:
192,192,100320,1,0,0:0:0:0:
320,192,100375,1,0,0:0:0:0:
448,192,100375,1,0,0:0:0:0:
64,192,100431,1,0,0:0:0:0:
192,192,100486,1,0,0:0:0:0:
320,192,100542,1,0,0:0:0:0:
448,192,100598,1,0,0:0:0:0:
64,192,100653,1,0,0:0:0:0:
192,192,100709,1,0,0:0:0:0:
320,192,100709,1,0,0:0:0:0:
448,192,100765,1,0,0:0:0:0:
192,192,100820,1,0,0:0:0:0:
320,192,100875,1,0,0:0:0:0:
64,192,100931,1,0,0:0:0:0:
448,192,100931,1,0,0:0:0:0:
320,192,100986,1,0,0:0:0:0:
192,192,101042,1,0,0:0:0:0:
64,192,101098,1,0,0:0:0:0:
320,192,101153,1,0,0:0:0:0:
448,192,101153,1,0,0:0:0:0:
192,192,101209,1,0,0:0:0:0:
64,192,101265,1,0,0:0:0:0:
448,192,101265,1,0,0:0:0:0:
192,192,101320,1,0,0:0:0:0:
320,192,101375,1,0,0:0:0:0:
448,192,101431,1,0,0:0:0:0:
320,192,101486,1,0,0:0:0:0:
192,192,101542,1,0,0:0:0:0:
64,192,101598,1,0,0:0:0:0:
448,192,101653,1,0,0:0:0:0:
192,192,101709,1,0,0:0:0:0:
320,192,101765,1,0,0:0:0:0:
64,192,101820,1,0,0:0:0:0:
192,192,101875,1,0,0:0:0:0:
320,192,101931,1,0,0:0:0:0:
448,192,101986,1,0,0:0:0:0:
320,192,102042,1,0,0:0:0:0:
192,192,102098,1,0,0:0:0:0:
64,192,102153,1,0,0:0:0:0:
448,192,102153,1,0,0:0:0:0:
192,192,102375,1,0,0:0:0:0:
64,192,102486,1,0,0:0:0:0:
192,192,102598,1,0,0:0:0:0:
320,192,102709,1,0,0:0:0:0:
448,192,102820,1,0,0:0:0:0:
320,192,102931,1,0,0:0:0:0:
192,192,103042,1,0,0:0:0:0:
64,192,103153,1,0,0:0:0:0:
320,192,103153,1,0,0:0:0:0:
448,192,103153,1,0,0:0:0:0:
192,192,103265,1,0,0:0:0:0:
320,192,103375,1,0,0:0:0:0:
448,192,103486,1,0,0:0:0:0:
64,192,103598,1,0,0:0:0:0:
320,192,103598,1,0,0:0:0:0:
448,192,103653,1,0,0:0:0:0:
192,192,103709,1,0,0:0:0:0:
320,192,103820,1,0,0:0:0:0:
448,192,103931,1,0,0:0:0:0:
64,192,104042,1,0,0:0:0:0:
192,192,104042,1,0,0:0:0:0:
320,192,104042,1,0,0:0:0:0:
192,192,104153,1,0,0:0:0:0:
320,192,104265,1,0,0:0:0:0:
448,192,104375,1,0,0:0:0:0:
320,192,104431,1,0,0:0:0:0:
64,192,104486,1,0,0:0:0:0:
192,192,104486,1,0,0:0:0:0:
448,192,104542,1,0,0:0:0:0:
320,192,104598,1,0,0:0:0:0:
64,192,104709,1,0,0:0:0:0:
192,192,104765,1,0,0:0:0:0:
320,192,104820,1,0,0:0:0:0:
192,192,104875,1,0,0:0:0:0:
64,192,104931,1,0,0:0:0:0:
320,192,104931,1,0,0:0:0:0:
448,192,104931,1,0,0:0:0:0:
192,192,105042,1,0,0:0:0:0:
320,192,105153,1,0,0:0:0:0:
448,192,105265,1,0,0:0:0:0:
192,192,105320,1,0,0:0:0:0:
64,192,105375,1,0,0:0:0:0:
320,192,105375,1,0,0:0:0:0:
192,192,105431,1,0,0:0:0:0:
320,192,105486,1,0,0:0:0:0:
64,192,105598,1,0,0:0:0:0:
192,192,105709,1,0,0:0:0:0:
64,192,105820,1,0,0:0:0:0:
320,192,105820,1,0,0:0:0:0:
448,192,105820,1,0,0:0:0:0:
192,192,105931,1,0,0:0:0:0:
320,192,106042,1,0,0:0:0:0:
448,192,106153,1,0,0:0:0:0:
320,192,106209,1,0,0:0:0:0:
64,192,106265,1,0,0:0:0:0:
192,192,106265,1,0,0:0:0:0:
448,192,106320,1,0,0:0:0:0:
320,192,106375,1,0,0:0:0:0:
64,192,106486,1,0,0:0:0:0:
192,192,106542,1,0,0:0:0:0:
320,192,106598,1,0,0:0:0:0:
192,192,106653,1,0,0:0:0:0:
64,192,106709,1,0,0:0:0:0:
320,192,106709,1,0,0:0:0:0:
448,192,106709,1,0,0:0:0:0:
192,192,106820,1,0,0:0:0:0:
320,192,106931,1,0,0:0:0:0:
448,192,107042,1,0,0:0:0:0:
320,192,107098,1,0,0:0:0:0:
64,192,107153,1,0,0:0:0:0:
192,192,107153,1,0,0:0:0:0:
320,192,107209,1,0,0:0:0:0:
448,192,107265,1,0,0:0:0:0:
192,192,107375,1,0,0:0:0:0:
320,192,107486,1,0,0:0:0:0:
64,192,107598,1,0,0:0:0:0:
192,192,107598,1,0,0:0:0:0:
448,192,107598,1,0,0:0:0:0:
64,192,107709,1,0,0:0:0:0:
320,192,107820,1,0,0:0:0:0:
192,192,107931,1,0,0:0:0:0:
64,192,107986,1,0,0:0:0:0:
320,192,108042,1,0,0:0:0:0:
448,192,108042,1,0,0:0:0:0:
192,192,108098,1,0,0:0:0:0:
64,192,108153,1,0,0:0:0:0:
320,192,108264,1,0,0:0:0:0:
192,192,108320,1,0,0:0:0:0:
448,192,108375,1,0,0:0:0:0:
320,192,108430,1,0,0:0:0:0:
64,192,108486,1,0,0:0:0:0:
192,192,108486,1,0,0:0:0:0:
448,192,108486,1,0,0:0:0:0:
320,192,108597,1,0,0:0:0:0:
192,192,108709,1,0,0:0:0:0:
448,192,108820,1,0,0:0:0:0:
320,192,108875,1,0,0:0:0:0:
64,192,108930,1,0,0:0:0:0:
192,192,108930,1,0,0:0:0:0:
320,192,108986,1,0,0:0:0:0:
448,192,109042,1,0,0:0:0:0:
192,192,109153,1,0,0:0:0:0:
320,192,109264,1,0,0:0:0:0:
64,192,109375,1,0,0:0:0:0:
192,192,109375,1,0,0:0:0:0:
448,192,109375,1,0,0:0:0:0:
320,192,109486,1,0,0:0:0:0:
64,192,109597,1,0,0:0:0:0:
320,192,109709,1,0,0:0:0:0:
192,192,109765,1,0,0:0:0:0:
64,192,109820,1,0,0:0:0:0:
448,192,109820,1,0,0:0:0:0:
192,192,109875,1,0,0:0:0:0:
320,192,109931,1,0,0:0:0:0:
448,192,110042,1,0,0:0:0:0:
320,192,110098,1,0,0:0:0:0:
192,192,110153,1,0,0:0:0:0:
320,192,110209,1,0,0:0:0:0:
64,192,110265,1,0,0:0:0:0:
192,192,110265,1,0,0:0:0:0:
448,192,110265,1,0,0:0:0:0:
320,192,110375,1,0,0:0:0:0:
192,192,110486,1,0,0:0:0:0:
448,192,110598,1,0,0:0:0:0:
192,192,110653,1,0,0:0:0:0:
64,192,110709,1,0,0:0:0:0:
320,192,110709,1,0,0:0:0:0:
192,192,110765,1,0,0:0:0:0:
448,192,110820,1,0,0:0:0:0:
64,192,110931,1,0,0:0:0:0:
192,192,111042,1,0,0:0:0:0:
64,192,111153,1,0,0:0:0:0:
320,192,111153,1,0,0:0:0:0:
448,192,111153,1,0,0:0:0:0:
320,192,111265,1,0,0:0:0:0:
192,192,111375,1,0,0:0:0:0:
448,192,111486,1,0,0:0:0:0:
64,192,111542,1,0,0:0:0:0:
192,192,111598,1,0,0:0:0:0:
320,192,111598,1,0,0:0:0:0:
448,192,111653,1,0,0:0:0:0:
64,192,111709,1,0,0:0:0:0:
448,192,111820,1,0,0:0:0:0:
320,192,111875,1,0,0:0:0:0:
192,192,111931,1,0,0:0:0:0:
320,192,111986,1,0,0:0:0:0:
64,192,112042,1,0,0:0:0:0:
192,192,112042,1,0,0:0:0:0:
448,192,112042,1,0,0:0:0:0:
320,192,112153,1,0,0:0:0:0:
64,192,112265,1,0,0:0:0:0:
448,192,112375,1,0,0:0:0:0:
320,192,112431,1,0,0:0:0:0:
64,192,112486,1,0,0:0:0:0:
192,192,112486,1,0,0:0:0:0:
320,192,112542,1,0,0:0:0:0:
448,192,112598,1,0,0:0:0:0:
64,192,112709,1,0,0:0:0:0:
192,192,112820,1,0,0:0:0:0:
64,192,112931,1,0,0:0:0:0:
320,192,112931,1,0,0:0:0:0:
448,192,112931,1,0,0:0:0:0:
192,192,112986,1,0,0:0:0:0:
320,192,113042,1,0,0:0:0:0:
192,192,113153,1,0,0:0:0:0:
64,192,113265,1,0,0:0:0:0:
192,192,113320,1,0,0:0:0:0:
320,192,113375,1,0,0:0:0:0:
448,192,113375,1,0,0:0:0:0:
64,192,113431,1,0,0:0:0:0:
192,192,113487,1,0,0:0:0:0:
448,192,113598,1,0,0:0:0:0:
320,192,113654,1,0,0:0:0:0:
192,192,113709,1,0,0:0:0:0:
64,192,113765,1,0,0:0:0:0:
192,192,113820,1,0,0:0:0:0:
320,192,113820,1,0,0:0:0:0:
448,192,113820,1,0,0:0:0:0:
64,192,113875,1,0,0:0:0:0:
320,192,113931,1,0,0:0:0:0:
192,192,114042,1,0,0:0:0:0:
320,192,114154,1,0,0:0:0:0:
192,192,114209,1,0,0:0:0:0:
64,192,114265,1,0,0:0:0:0:
448,192,114265,1,0,0:0:0:0:
320,192,114320,1,0,0:0:0:0:
192,192,114375,1,0,0:0:0:0:
64,192,114487,1,0,0:0:0:0:
448,192,114598,1,0,0:0:0:0:
64,192,114709,1,0,0:0:0:0:
192,192,114709,1,0,0:0:0:0:
320,192,114709,1,0,0:0:0:0:
448,192,114820,1,0,0:0:0:0:
192,192,114931,1,0,0:0:0:0:
320,192,115042,1,0,0:0:0:0:
448,192,115098,1,0,0:0:0:0:
64,192,115154,1,0,0:0:0:0:
192,192,115154,1,0,0:0:0:0:
320,192,115209,1,0,0:0:0:0:
448,192,115265,1,0,0:0:0:0:
192,192,115375,1,0,0:0:0:0:
320,192,115431,1,0,0:0:0:0:
64,192,115487,1,0,0:0:0:0:
192,192,115542,1,0,0:0:0:0:
64,192,115598,1,0,0:0:0:0:
320,192,115598,1,0,0:0:0:0:
448,192,115598,1,0,0:0:0:0:
192,192,115709,1,0,0:0:0:0:
320,192,115820,1,0,0:0:0:0:
64,192,115931,1,0,0:0:0:0:
448,192,115931,1,0,0:0:0:0:
192,192,116042,1,0,0:0:0:0:
320,192,116042,1,0,0:0:0:0:
448,192,116098,1,0,0:0:0:0:
64,192,116154,1,0,0:0:0:0:
192,192,116265,1,0,0:0:0:0:
320,192,116375,1,0,0:0:0:0:
64,192,116487,1,0,0:0:0:0:
192,192,116487,1,0,0:0:0:0:
448,192,116487,1,0,0:0:0:0:
320,192,116598,1,0,0:0:0:0:
448,192,116598,1,0,0:0:0:0:
64,192,116820,1,0,0:0:0:0:
448,192,116820,1,0,0:0:0:0:
192,192,116931,1,0,0:0:0:0:
320,192,116931,1,0,0:0:0:0:
64,192,117042,1,0,0:0:0:0:
192,192,117042,1,0,0:0:0:0:
320,192,117154,1,0,0:0:0:0:
192,192,117265,1,0,0:0:0:0:
448,192,117265,1,0,0:0:0:0:
64,192,117375,1,0,0:0:0:0:
320,192,117375,1,0,0:0:0:0:
448,192,117375,1,0,0:0:0:0:
192,192,117487,1,0,0:0:0:0:
64,192,117598,1,0,0:0:0:0:
320,192,117598,1,0,0:0:0:0:
448,192,117709,1,0,0:0:0:0:
320,192,117765,1,0,0:0:0:0:
64,192,117820,1,0,0:0:0:0:
192,192,117820,1,0,0:0:0:0:
448,192,117875,1,0,0:0:0:0:
64,192,117931,1,0,0:0:0:0:
192,192,117931,1,0,0:0:0:0:
320,192,118042,1,0,0:0:0:0:
448,192,118042,1,0,0:0:0:0:
192,192,118154,1,0,0:0:0:0:
64,192,118265,1,0,0:0:0:0:
448,192,118265,1,0,0:0:0:0:
64,192,118376,1,0,0:0:0:0:
192,192,118376,1,0,0:0:0:0:
192,192,118487,1,0,0:0:0:0:
320,192,118487,1,0,0:0:0:0:
448,192,118598,1,0,0:0:0:0:
192,192,118654,1,0,0:0:0:0:
320,192,118710,1,0,0:0:0:0:
448,192,118710,1,0,0:0:0:0:
64,192,118765,1,0,0:0:0:0:
192,192,118820,1,0,0:0:0:0:
320,192,118820,1,0,0:0:0:0:
64,192,118931,1,0,0:0:0:0:
448,192,118931,1,0,0:0:0:0:
192,192,119043,1,0,0:0:0:0:
320,192,119098,1,0,0:0:0:0:
64,192,119154,1,0,0:0:0:0:
448,192,119154,1,0,0:0:0:0:
192,192,119265,1,0,0:0:0:0:
320,192,119265,1,0,0:0:0:0:
64,192,119376,1,0,0:0:0:0:
448,192,119376,1,0,0:0:0:0:
320,192,119487,1,0,0:0:0:0:
192,192,119543,1,0,0:0:0:0:
64,192,119598,1,0,0:0:0:0:
320,192,119598,1,0,0:0:0:0:
192,192,119654,1,0,0:0:0:0:
64,192,119710,1,0,0:0:0:0:
448,192,119710,1,0,0:0:0:0:
192,192,119820,1,0,0:0:0:0:
320,192,119820,1,0,0:0:0:0:
448,192,119931,1,0,0:0:0:0:
64,192,120043,1,0,0:0:0:0:
192,192,120043,1,0,0:0:0:0:
448,192,120098,1,0,0:0:0:0:
192,192,120154,1,0,0:0:0:0:
320,192,120154,1,0,0:0:0:0:
64,192,120265,1,0,0:0:0:0:
448,192,120265,1,0,0:0:0:0:
192,192,120376,1,0,0:0:0:0:
320,192,120431,1,0,0:0:0:0:
64,192,120487,1,0,0:0:0:0:
448,192,120487,1,0,0:0:0:0:
192,192,120543,1,0,0:0:0:0:
320,192,120598,1,0,0:0:0:0:
448,192,120598,1,0,0:0:0:0:
64,192,120710,1,0,0:0:0:0:
192,192,120710,1,0,0:0:0:0:
448,192,120820,1,0,0:0:0:0:
64,192,120876,1,0,0:0:0:0:
192,192,120931,1,0,0:0:0:0:
320,192,120931,1,0,0:0:0:0:
64,192,120987,1,0,0:0:0:0:
320,192,121043,1,0,0:0:0:0:
448,192,121043,1,0,0:0:0:0:
64,192,121154,1,0,0:0:0:0:
192,192,121154,1,0,0:0:0:0:
448,192,121265,1,0,0:0:0:0:
320,192,121320,1,0,0:0:0:0:
64,192,121376,1,0,0:0:0:0:
192,192,121376,1,0,0:0:0:0:
448,192,121431,1,0,0:0:0:0:
64,192,121487,1,0,0:0:0:0:
320,192,121487,1,0,0:0:0:0:
192,192,121598,1,0,0:0:0:0:
448,192,121598,1,0,0:0:0:0:
320,192,121710,1,0,0:0:0:0:
64,192,121820,1,0,0:0:0:0:
448,192,121820,1,0,0:0:0:0:
192,192,121876,1,0,0:0:0:0:
320,192,121932,1,0,0:0:0:0:
448,192,121932,1,0,0:0:0:0:
64,192,122043,1,0,0:0:0:0:
192,192,122043,1,0,0:0:0:0:
448,192,122154,1,0,0:0:0:0:
192,192,122210,1,0,0:0:0:0:
320,192,122265,1,0,0:0:0:0:
448,192,122265,1,0,0:0:0:0:
64,192,122320,1,0,0:0:0:0:
192,192,122376,1,0,0:0:0:0:
320,192,122376,1,0,0:0:0:0:
64,192,122487,1,0,0:0:0:0:
448,192,122487,1,0,0:0:0:0:
192,192,122599,1,0,0:0:0:0:
320,192,122654,1,0,0:0:0:0:
64,192,122710,1,0,0:0:0:0:
192,192,122710,1,0,0:0:0:0:
448,192,122765,1,0,0:0:0:0:
192,192,122820,1,0,0:0:0:0:
320,192,122820,1,0,0:0:0:0:
64,192,122932,1,0,0:0:0:0:
448,192,122932,1,0,0:0:0:0:
192,192,123043,1,0,0:0:0:0:
320,192,123099,1,0,0:0:0:0:
64,192,123154,1,0,0:0:0:0:
192,192,123154,1,0,0:0:0:0:
448,192,123210,1,0,0:0:0:0:
192,192,123265,1,0,0:0:0:0:
320,192,123265,1,0,0:0:0:0:
64,192,123376,1,0,0:0:0:0:
448,192,123376,1,0,0:0:0:0:
192,192,123487,1,0,0:0:0:0:
320,192,123599,1,0,0:0:0:0:
448,192,123599,1,0,0:0:0:0:
64,192,123654,1,0,0:0:0:0:
192,192,123710,1,0,0:0:0:0:
320,192,123710,1,0,0:0:0:0:
448,192,123765,1,0,0:0:0:0:
64,192,123820,1,0,0:0:0:0:
192,192,123820,1,0,0:0:0:0:
320,192,123932,1,0,0:0:0:0:
192,192,123987,1,0,0:0:0:0:
320,192,124043,1,0,0:0:0:0:
448,192,124043,1,0,0:0:0:0:
64,192,124099,1,0,0:0:0:0:
192,192,124154,1,0,0:0:0:0:
320,192,124154,1,0,0:0:0:0:
64,192,124265,1,0,0:0:0:0:
448,192,124265,1,0,0:0:0:0:
192,192,124376,1,0,0:0:0:0:
320,192,124432,1,0,0:0:0:0:
64,192,124487,1,0,0:0:0:0:
192,192,124487,1,0,0:0:0:0:
320,192,124599,1,0,0:0:0:0:
448,192,124599,1,0,0:0:0:0:
192,192,124710,1,0,0:0:0:0:
320,192,124710,1,0,0:0:0:0:
64,192,124820,1,0,0:0:0:0:
448,192,124820,1,0,0:0:0:0:
192,192,124876,1,0,0:0:0:0:
320,192,124932,1,0,0:0:0:0:
448,192,124932,1,0,0:0:0:0:
192,192,124987,1,0,0:0:0:0:
64,192,125043,1,0,0:0:0:0:
448,192,125043,1,0,0:0:0:0:
192,192,125154,1,0,0:0:0:0:
320,192,125154,1,0,0:0:0:0:
320,192,125265,1,0,0:0:0:0:
448,192,125265,1,0,0:0:0:0:
64,192,125376,1,0,0:0:0:0:
192,192,125376,1,0,0:0:0:0:
320,192,125488,1,0,0:0:0:0:
448,192,125488,1,0,0:0:0:0:
64,192,125599,1,0,0:0:0:0:
320,192,125599,1,0,0:0:0:0:
64,192,125710,1,0,0:0:0:0:
192,192,125710,1,0,0:0:0:0:
448,192,125765,1,0,0:0:0:0:
192,192,125821,1,0,0:0:0:0:
320,192,125821,1,0,0:0:0:0:
64,192,125876,1,0,0:0:0:0:
320,192,125932,1,0,0:0:0:0:
448,192,125932,1,0,0:0:0:0:
64,192,126043,1,0,0:0:0:0:
192,192,126043,1,0,0:0:0:0:
320,192,126155,1,0,0:0:0:0:
448,192,126155,1,0,0:0:0:0:
192,192,126210,1,0,0:0:0:0:
320,192,126265,1,0,0:0:0:0:
448,192,126265,1,0,0:0:0:0:
64,192,126321,1,0,0:0:0:0:
192,192,126376,1,0,0:0:0:0:
320,192,126376,1,0,0:0:0:0:
64,192,126488,1,0,0:0:0:0:
448,192,126488,1,0,0:0:0:0:
192,192,126599,1,0,0:0:0:0:
320,192,126599,1,0,0:0:0:0:
448,192,126655,1,0,0:0:0:0:
64,192,126710,1,0,0:0:0:0:
192,192,126710,1,0,0:0:0:0:
320,192,126765,1,0,0:0:0:0:
64,192,126821,1,0,0:0:0:0:
448,192,126821,1,0,0:0:0:0:
192,192,126932,1,0,0:0:0:0:
320,192,126932,1,0,0:0:0:0:
320,192,127043,1,0,0:0:0:0:
448,192,127043,1,0,0:0:0:0:
64,192,127155,1,0,0:0:0:0:
192,192,127155,1,0,0:0:0:0:
448,192,127210,1,0,0:0:0:0:
192,192,127265,1,0,0:0:0:0:
320,192,127265,1,0,0:0:0:0:
320,192,127376,1,0,0:0:0:0:
448,192,127376,1,0,0:0:0:0:
64,192,127488,1,0,0:0:0:0:
192,192,127488,1,0,0:0:0:0:
448,192,127543,1,0,0:0:0:0:
64,192,127599,1,0,0:0:0:0:
320,192,127599,1,0,0:0:0:0:
192,192,127655,1,0,0:0:0:0:
320,192,127710,1,0,0:0:0:0:
448,192,127710,1,0,0:0:0:0:
64,192,127821,1,0,0:0:0:0:
192,192,127821,1,0,0:0:0:0:
320,192,127932,1,0,0:0:0:0:
448,192,127932,1,0,0:0:0:0:
64,192,128043,1,0,0:0:0:0:
192,192,128043,1,0,0:0:0:0:
320,192,128155,1,0,0:0:0:0:
192,192,128265,1,0,0:0:0:0:
448,192,128376,1,0,0:0:0:0:
192,192,128432,1,0,0:0:0:0:
64,192,128488,1,0,0:0:0:0:
320,192,128488,1,0,0:0:0:0:
192,192,128599,1,0,0:0:0:0:
448,192,128710,1,0,0:0:0:0:
64,192,128821,1,0,0:0:0:0:
320,192,128932,1,0,0:0:0:0:
448,192,128932,1,0,0:0:0:0:
192,192,129044,1,0,0:0:0:0:
64,192,129155,1,0,0:0:0:0:
320,192,129265,1,0,0:0:0:0:
192,192,129321,1,0,0:0:0:0:
64,192,129377,1,0,0:0:0:0:
448,192,129377,1,0,0:0:0:0:
192,192,129488,1,0,0:0:0:0:
320,192,129599,1,0,0:0:0:0:
448,192,129710,1,0,0:0:0:0:
64,192,129821,1,0,0:0:0:0:
320,192,129821,1,0,0:0:0:0:
448,192,129877,1,0,0:0:0:0:
192,192,129932,1,0,0:0:0:0:
320,192,129988,1,0,0:0:0:0:
64,192,130044,1,0,0:0:0:0:
192,192,130099,1,0,0:0:0:0:
320,192,130155,1,0,0:0:0:0:
448,192,130155,1,0,0:0:0:0:
192,192,130210,1,0,0:0:0:0:
320,192,130265,1,0,0:0:0:0:
448,192,130321,1,0,0:0:0:0:
64,192,130377,1,0,0:0:0:0:
192,192,130432,1,0,0:0:0:0:
320,192,130488,1,0,0:0:0:0:
448,192,130488,1,0,0:0:0:0:
64,192,130544,1,0,0:0:0:0:
192,192,130599,1,0,0:0:0:0:
320,192,130655,1,0,0:0:0:0:
64,192,130710,1,0,0:0:0:0:
448,192,130710,1,0,0:0:0:0:
192,192,130765,1,0,0:0:0:0:
320,0,130821,128,0,130877:1:0:0:0:
64,192,130877,1,0,0:0:0:0:
448,0,130932,128,0,130988:1:0:0:0:
192,192,130988,1,0,0:0:0:0:
320,192,131044,1,0,0:0:0:0:
192,192,131099,1,0,0:0:0:0:
64,0,131155,128,0,131210:1:0:0:0:
320,192,131210,1,0,0:0:0:0:
192,0,131265,128,0,131321:1:0:0:0:
448,192,131321,1,0,0:0:0:0:
320,0,131377,128,0,131432:1:0:0:0:
64,192,131432,1,0,0:0:0:0:
448,0,131488,128,0,131544:1:0:0:0:
192,192,131544,1,0,0:0:0:0:
320,192,131599,1,0,0:0:0:0:
192,0,131710,128,0,131821:1:0:0:0:
64,192,131821,1,0,0:0:0:0:
448,0,131932,128,0,132044:1:0:0:0:
320,192,132044,1,0,0:0:0:0:
64,0,132155,128,0,132265:1:0:0:0:
192,192,132265,1,0,0:0:0:0:
64,192,132377,1,0,0:0:0:0:
320,0,132377,128,0,132488:1:0:0:0:
448,0,132488,128,0,132599:1:0:0:0:
192,192,132544,1,0,0:0:0:0:
64,0,132599,128,0,132710:1:0:0:0:
192,0,132710,128,0,132821:1:0:0:0:
448,0,132821,128,0,132932:1:0:0:0:
320,192,132932,1,0,0:0:0:0:
192,0,133044,128,0,133155:1:0:0:0:
448,0,133155,128,0,133265:1:0:0:0:
64,0,133265,128,0,133377:1:0:0:0:
192,192,133377,1,0,0:0:0:0:
448,192,133377,1,0,0:0:0:0:
320,0,133488,128,0,133599:1:0:0:0:
192,192,133599,1,0,0:0:0:0:
448,0,133710,128,0,133821:1:0:0:0:
192,192,133821,1,0,0:0:0:0:
64,0,133932,128,0,134044:1:0:0:0:
448,192,134044,1,0,0:0:0:0:
64,192,134155,1,0,0:0:0:0:
320,0,134155,128,0,134265:1:0:0:0:
192,0,134265,128,0,134377:1:0:0:0:
320,0,134377,128,0,134488:1:0:0:0:
448,0,134488,128,0,134599:1:0:0:0:
320,0,134599,128,0,134710:1:0:0:0:
192,0,134710,128,0,134821:1:0:0:0:
64,0,134821,128,0,134932:1:0:0:0:
320,0,134932,128,0,135044:1:0:0:0:
192,0,135044,128,0,135155:1:0:0:0:
64,192,135155,1,0,0:0:0:0:
448,0,135155,128,0,135265:1:0:0:0:
320,0,135265,128,0,135377:1:0:0:0:
64,0,135377,128,0,135488:1:0:0:0:
192,0,135488,128,0,135599:1:0:0:0:
448,192,135599,1,0,0:0:0:0:
320,0,135710,128,0,135821:1:0:0:0:
64,192,135821,1,0,0:0:0:0:
320,192,135932,1,0,0:0:0:0:
448,0,135932,128,0,136044:1:0:0:0:
320,0,136155,128,0,136265:1:0:0:0:
192,0,136265,128,0,136377:1:0:0:0:
64,0,136377,128,0,136488:1:0:0:0:
320,192,136488,1,0,0:0:0:0:
448,0,136599,128,0,136710:1:0:0:0:
320,0,136710,128,0,136821:1:0:0:0:
192,0,136821,128,0,136932:1:0:0:0:
64,192,136932,1,0,0:0:0:0:
448,192,136932,1,0,0:0:0:0:
320,0,137044,128,0,137155:1:0:0:0:
192,192,137155,1,0,0:0:0:0:
320,0,137265,128,0,137377:1:0:0:0:
192,192,137377,1,0,0:0:0:0:
64,0,137488,128,0,137599:1:0:0:0:
320,192,137599,1,0,0:0:0:0:
64,192,137710,1,0,0:0:0:0:
192,0,137710,128,0,137765:1:0:0:0:
320,192,137765,1,0,0:0:0:0:
192,192,137821,1,0,0:0:0:0:
64,192,137877,1,0,0:0:0:0:
448,0,137932,128,0,137988:1:0:0:0:
320,0,137988,128,0,138044:1:0:0:0:
192,0,138044,128,0,138099:1:0:0:0:
64,192,138099,1,0,0:0:0:0:
320,0,138155,128,0,138210:1:0:0:0:
192,192,138210,1,0,0:0:0:0:
448,0,138265,128,0,138321:1:0:0:0:
64,192,138321,1,0,0:0:0:0:
192,0,138377,128,0,138432:1:0:0:0:
320,192,138432,1,0,0:0:0:0:
64,0,138488,128,0,138544:1:0:0:0:
192,192,138544,1,0,0:0:0:0:
320,192,138599,1,0,0:0:0:0:
448,192,138655,1,0,0:0:0:0:
64,192,138710,1,0,0:0:0:0:
192,192,138710,1,0,0:0:0:0:
192,192,138821,1,0,0:0:0:0:
320,0,138932,128,0,139044:1:0:0:0:
448,0,139044,128,0,139155:1:0:0:0:
320,192,139155,1,0,0:0:0:0:
192,0,139265,128,0,139377:1:0:0:0:
448,192,139377,1,0,0:0:0:0:
192,192,139488,1,0,0:0:0:0:
320,0,139488,128,0,139599:1:0:0:0:
64,192,139599,1,0,0:0:0:0:
448,0,139710,128,0,139821:1:0:0:0:
192,0,139821,128,0,139932:1:0:0:0:
64,0,139932,128,0,140044:1:0:0:0:
448,192,140044,1,0,0:0:0:0:
320,0,140155,128,0,140265:1:0:0:0:
192,192,140265,1,0,0:0:0:0:
448,0,140377,128,0,140488:1:0:0:0:
64,192,140488,1,0,0:0:0:0:
192,192,140488,1,0,0:0:0:0:
320,0,140599,128,0,140710:1:0:0:0:
192,0,140710,128,0,140821:1:0:0:0:
64,0,140821,128,0,140932:1:0:0:0:
448,192,140932,1,0,0:0:0:0:
320,0,141044,128,0,141155:1:0:0:0:
64,192,141155,1,0,0:0:0:0:
448,192,141155,1,0,0:0:0:0:
320,192,141265,1,0,0:0:0:0:
192,0,141265,128,0,141377:1:0:0:0:
64,0,141488,128,0,141599:1:0:0:0:
448,0,141599,128,0,141710:1:0:0:0:
192,0,141710,128,0,141821:1:0:0:0:
64,192,141821,1,0,0:0:0:0:
320,0,141932,128,0,142044:1:0:0:0:
192,192,142044,1,0,0:0:0:0:
448,0,142155,128,0,142265:1:0:0:0:
64,192,142265,1,0,0:0:0:0:
192,192,142265,1,0,0:0:0:0:
320,192,142377,1,0,0:0:0:0:
64,0,142488,128,0,142599:1:0:0:0:
192,0,142599,128,0,142710:1:0:0:0:
320,192,142710,1,0,0:0:0:0:
320,0,142821,128,0,142932:1:0:0:0:
64,192,142932,1,0,0:0:0:0:
320,192,143044,1,0,0:0:0:0:
448,0,143044,128,0,143155:1:0:0:0:
192,0,143265,128,0,143377:1:0:0:0:
320,0,143377,128,0,143488:1:0:0:0:
192,0,143488,128,0,143599:1:0:0:0:
448,192,143599,1,0,0:0:0:0:
64,0,143710,128,0,143821:1:0:0:0:
192,0,143821,128,0,143932:1:0:0:0:
320,0,143932,128,0,144044:1:0:0:0:
64,192,144044,1,0,0:0:0:0:
448,0,144044,128,0,144099:1:0:0:0:
320,192,144099,1,0,0:0:0:0:
192,192,144155,1,0,0:0:0:0:
64,192,144210,1,0,0:0:0:0:
320,0,144265,128,0,144321:1:0:0:0:
448,192,144321,1,0,0:0:0:0:
192,0,144377,128,0,144432:1:0:0:0:
64,192,144432,1,0,0:0:0:0:
320,192,144488,1,0,0:0:0:0:
192,192,144544,1,0,0:0:0:0:
64,0,144599,128,0,144655:1:0:0:0:
448,192,144655,1,0,0:0:0:0:
320,192,144710,1,0,0:0:0:0:
192,192,144765,1,0,0:0:0:0:
448,0,144821,128,0,144932:1:0:0:0:
64,192,144877,1,0,0:0:0:0:
192,192,144932,1,0,0:0:0:0:
448,192,144988,1,0,0:0:0:0:
320,0,145044,128,0,145099:1:0:0:0:
192,192,145099,1,0,0:0:0:0:
320,0,145155,128,0,145210:1:0:0:0:
192,192,145210,1,0,0:0:0:0:
64,192,145265,1,0,0:0:0:0:
448,192,145321,1,0,0:0:0:0:
320,0,145377,128,0,145432:1:0:0:0:
192,192,145432,1,0,0:0:0:0:
64,192,145488,1,0,0:0:0:0:
320,192,145544,1,0,0:0:0:0:
192,192,145599,1,0,0:0:0:0:
448,192,145655,1,0,0:0:0:0:
320,192,145710,1,0,0:0:0:0:
192,192,145765,1,0,0:0:0:0:
448,192,145821,1,0,0:0:0:0:
64,0,145821,128,0,145877:1:0:0:0:
320,0,145932,128,0,145988:1:0:0:0:
192,0,146044,128,0,146099:1:0:0:0:
448,0,146155,128,0,146210:1:0:0:0:
64,0,146265,128,0,146321:1:0:0:0:
192,0,146377,128,0,146432:1:0:0:0:
320,0,146488,128,0,146544:1:0:0:0:
64,192,146599,1,0,0:0:0:0:
448,0,146599,128,0,146710:1:0:0:0:
448,0,146821,128,0,146877:1:0:0:0:
320,0,146932,128,0,146988:1:0:0:0:
192,0,147044,128,0,147100:1:0:0:0:
320,0,147155,128,0,147210:1:0:0:0:
448,0,147266,128,0,147321:1:0:0:0:
320,0,147321,128,0,147377:1:0:0:0:
192,0,147377,128,0,147433:1:0:0:0:
320,0,147488,128,0,147544:1:0:0:0:
192,192,147600,1,0,0:0:0:0:
448,0,147600,128,0,147655:1:0:0:0:
64,0,147710,128,0,147766:1:0:0:0:
192,0,147821,128,0,147877:1:0:0:0:
320,0,147933,128,0,147988:1:0:0:0:
448,0,148044,128,0,148100:1:0:0:0:
320,0,148155,128,0,148210:1:0:0:0:
192,0,148266,128,0,148321:1:0:0:0:
320,192,148377,1,0,0:0:0:0:
64,0,148377,128,0,148433:1:0:0:0:
448,0,148488,128,0,148544:1:0:0:0:
320,0,148600,128,0,148655:1:0:0:0:
192,0,148710,128,0,148766:1:0:0:0:
64,0,148821,128,0,148877:1:0:0:0:
192,0,148933,128,0,148988:1:0:0:0:
320,0,148988,128,0,149100:1:0:0:0:
64,0,149266,128,0,149321:1:0:0:0:
320,0,149321,128,0,149377:1:0:0:0:
448,192,149377,1,0,0:0:0:0:
192,0,149377,128,0,149488:1:0:0:0:
192,0,149600,128,0,149710:1:0:0:0:
192,0,149821,128,0,149877:1:0:0:0:
320,0,149933,128,0,150044:1:0:0:0:
64,192,150155,1,0,0:0:0:0:
448,0,150155,128,0,150266:1:0:0:0:
320,0,150377,128,0,150488:1:0:0:0:
192,0,150600,128,0,150710:1:0:0:0:
320,0,150821,128,0,150933:1:0:0:0:
64,0,151044,128,0,151155:1:0:0:0:
192,192,151155,1,0,0:0:0:0:
320,192,151155,1,0,0:0:0:0:
448,0,151266,128,0,151377:1:0:0:0:
448,0,151488,128,0,151600:1:0:0:0:
320,0,151710,128,0,151766:1:0:0:0:
192,0,151821,128,0,151877:1:0:0:0:
448,192,151933,1,0,0:0:0:0:
64,0,151933,128,0,151989:1:0:0:0:
320,0,152044,128,0,152100:1:0:0:0:
448,0,152155,128,0,152210:1:0:0:0:
320,0,152266,128,0,152322:1:0:0:0:
192,0,152377,128,0,152433:1:0:0:0:
320,0,152489,128,0,152600:1:0:0:0:
64,0,152710,128,0,152766:1:0:0:0:
192,0,152822,128,0,152877:1:0:0:0:
448,192,152933,1,0,0:0:0:0:
320,0,152933,128,0,153044:1:0:0:0:
192,192,152989,1,0,0:0:0:0:
64,192,153044,1,0,0:0:0:0:
448,192,153100,1,0,0:0:0:0:
320,192,153155,1,0,0:0:0:0:
192,192,153210,1,0,0:0:0:0:
320,0,153266,128,0,153377:1:0:0:0:
192,192,153322,1,0,0:0:0:0:
64,192,153377,1,0,0:0:0:0:
320,192,153433,1,0,0:0:0:0:
448,0,153489,128,0,153544:1:0:0:0:
192,192,153544,1,0,0:0:0:0:
320,0,153600,128,0,153655:1:0:0:0:
64,192,153655,1,0,0:0:0:0:
320,0,153710,128,0,153766:1:0:0:0:
192,192,153766,1,0,0:0:0:0:
448,192,153822,1,0,0:0:0:0:
320,192,153877,1,0,0:0:0:0:
192,0,153933,128,0,153989:1:0:0:0:
64,192,153989,1,0,0:0:0:0:
320,0,154044,128,0,154100:1:0:0:0:
192,192,154100,1,0,0:0:0:0:
448,0,154155,128,0,154266:1:0:0:0:
320,192,154210,1,0,0:0:0:0:
192,192,154266,1,0,0:0:0:0:
64,192,154322,1,0,0:0:0:0:
320,192,154377,1,0,0:0:0:0:
192,192,154433,1,0,0:0:0:0:
64,0,154489,128,0,154600:1:0:0:0:
320,192,154544,1,0,0:0:0:0:
448,192,154600,1,0,0:0:0:0:
64,192,154655,1,0,0:0:0:0:
192,192,154710,1,0,0:0:0:0:
320,0,154710,128,0,154822:1:0:0:0:
320,0,155044,128,0,155155:1:0:0:0:
192,0,155266,128,0,155322:1:0:0:0:
320,0,155377,128,0,155433:1:0:0:0:
64,192,155489,1,0,0:0:0:0:
448,0,155489,128,0,156045:1:0:0:0:
192,192,155711,1,0,0:0:0:0:
64,192,155822,1,0,0:0:0:0:
320,192,155822,1,0,0:0:0:0:
320,192,156045,1,0,0:0:0:0:
320,192,156155,1,0,0:0:0:0:
64,0,156266,128,0,156322:1:0:0:0:
192,0,156378,128,0,156433:1:0:0:0:
448,192,156489,1,0,0:0:0:0:
320,0,156489,128,0,156600:1:0:0:0:
448,0,156711,128,0,156766:1:0:0:0:
320,0,156822,128,0,156933:1:0:0:0:
192,0,157045,128,0,157155:1:0:0:0:
320,192,157266,1,0,0:0:0:0:
64,0,157266,128,0,157378:1:0:0:0:
448,0,157489,128,0,157600:1:0:0:0:
320,192,157600,1,0,0:0:0:0:
192,192,157655,1,0,0:0:0:0:
320,0,157711,128,0,157822:1:0:0:0:
192,192,157766,1,0,0:0:0:0:
64,192,157822,1,0,0:0:0:0:
192,0,157933,128,0,157989:1:0:0:0:
64,0,158045,128,0,158155:1:0:0:0:
320,192,158266,1,0,0:0:0:0:
448,0,158266,128,0,158489:1:0:0:0:
192,192,158322,1,0,0:0:0:0:
64,192,158378,1,0,0:0:0:0:
192,192,158433,1,0,0:0:0:0:
320,192,158489,1,0,0:0:0:0:
448,192,158545,1,0,0:0:0:0:
64,192,158600,1,0,0:0:0:0:
192,192,158655,1,0,0:0:0:0:
320,192,158711,1,0,0:0:0:0:
448,192,158711,1,0,0:0:0:0:
64,192,158766,1,0,0:0:0:0:
192,192,158822,1,0,0:0:0:0:
320,192,158822,1,0,0:0:0:0:
448,192,158878,1,0,0:0:0:0:
64,192,158933,1,0,0:0:0:0:
192,192,158933,1,0,0:0:0:0:
320,192,158989,1,0,0:0:0:0:
64,192,159045,1,0,0:0:0:0:
448,192,159045,1,0,0:0:0:0:
192,192,159100,1,0,0:0:0:0:
320,192,159155,1,0,0:0:0:0:
192,192,159211,1,0,0:0:0:0:
64,192,159267,1,0,0:0:0:0:
448,192,159322,1,0,0:0:0:0:
192,192,159378,1,0,0:0:0:0:
320,192,159378,1,0,0:0:0:0:
64,192,159434,1,0,0:0:0:0:
448,192,159489,1,0,0:0:0:0:
192,192,159545,1,0,0:0:0:0:
320,192,159600,1,0,0:0:0:0:
448,192,159600,1,0,0:0:0:0:
64,192,159655,1,0,0:0:0:0:
192,192,159711,1,0,0:0:0:0:
320,192,159767,1,0,0:0:0:0:
64,192,159822,1,0,0:0:0:0:
448,192,159822,1,0,0:0:0:0:
192,192,159878,1,0,0:0:0:0:
320,192,159934,1,0,0:0:0:0:
448,192,159934,1,0,0:0:0:0:
192,192,159989,1,0,0:0:0:0:
64,192,160045,1,0,0:0:0:0:
448,192,160100,1,0,0:0:0:0:
192,192,160155,1,0,0:0:0:0:
320,192,160211,1,0,0:0:0:0:
64,192,160267,1,0,0:0:0:0:
192,192,160322,1,0,0:0:0:0:
320,192,160378,1,0,0:0:0:0:
448,192,160434,1,0,0:0:0:0:
320,192,160489,1,0,0:0:0:0:
192,192,160545,1,0,0:0:0:0:
64,192,160600,1,0,0:0:0:0:
448,192,160655,1,0,0:0:0:0:
192,192,160711,1,0,0:0:0:0:
448,192,160767,1,0,0:0:0:0:
192,192,160822,1,0,0:0:0:0:
320,192,160822,1,0,0:0:0:0:
64,192,160878,1,0,0:0:0:0:
192,192,160934,1,0,0:0:0:0:
320,192,160989,1,0,0:0:0:0:
448,192,161045,1,0,0:0:0:0:
64,192,161100,1,0,0:0:0:0:
192,192,161155,1,0,0:0:0:0:
320,192,161155,1,0,0:0:0:0:
448,192,161211,1,0,0:0:0:0:
192,192,161267,1,0,0:0:0:0:
320,192,161322,1,0,0:0:0:0:
64,192,161378,1,0,0:0:0:0:
448,192,161378,1,0,0:0:0:0:
320,192,161434,1,0,0:0:0:0:
64,192,161489,1,0,0:0:0:0:
192,192,161489,1,0,0:0:0:0:
448,192,161545,1,0,0:0:0:0:
192,192,161600,1,0,0:0:0:0:
320,192,161655,1,0,0:0:0:0:
64,192,161711,1,0,0:0:0:0:
448,192,161711,1,0,0:0:0:0:
192,192,161767,1,0,0:0:0:0:
320,192,161822,1,0,0:0:0:0:
192,192,161878,1,0,0:0:0:0:
64,192,161934,1,0,0:0:0:0:
448,192,161989,1,0,0:0:0:0:
320,192,162045,1,0,0:0:0:0:
192,192,162100,1,0,0:0:0:0:
64,192,162155,1,0,0:0:0:0:
320,192,162211,1,0,0:0:0:0:
64,192,162267,1,0,0:0:0:0:
192,192,162267,1,0,0:0:0:0:
448,192,162322,1,0,0:0:0:0:
192,192,162378,1,0,0:0:0:0:
320,192,162378,1,0,0:0:0:0:
64,192,162434,1,0,0:0:0:0:
320,192,162489,1,0,0:0:0:0:
448,192,162489,1,0,0:0:0:0:
192,192,162545,1,0,0:0:0:0:
64,192,162600,1,0,0:0:0:0:
448,192,162600,1,0,0:0:0:0:
192,192,162656,1,0,0:0:0:0:
320,192,162711,1,0,0:0:0:0:
448,192,162767,1,0,0:0:0:0:
64,192,162823,1,0,0:0:0:0:
192,192,162878,1,0,0:0:0:0:
320,192,162934,1,0,0:0:0:0:
448,192,162934,1,0,0:0:0:0:
192,192,162990,1,0,0:0:0:0:
64,192,163045,1,0,0:0:0:0:
448,192,163100,1,0,0:0:0:0:
192,192,163156,1,0,0:0:0:0:
320,192,163156,1,0,0:0:0:0:
448,192,163211,1,0,0:0:0:0:
64,192,163267,1,0,0:0:0:0:
192,192,163323,1,0,0:0:0:0:
320,192,163378,1,0,0:0:0:0:
448,192,163378,1,0,0:0:0:0:
64,192,163434,1,0,0:0:0:0:
192,192,163490,1,0,0:0:0:0:
320,192,163490,1,0,0:0:0:0:
448,192,163545,1,0,0:0:0:0:
320,192,163600,1,0,0:0:0:0:
192,192,163656,1,0,0:0:0:0:
64,192,163711,1,0,0:0:0:0:
448,192,163767,1,0,0:0:0:0:
192,192,163823,1,0,0:0:0:0:
320,192,163878,1,0,0:0:0:0:
64,192,163934,1,0,0:0:0:0:
192,192,163990,1,0,0:0:0:0:
320,192,164045,1,0,0:0:0:0:
448,192,164100,1,0,0:0:0:0:
64,192,164156,1,0,0:0:0:0:
192,192,164211,1,0,0:0:0:0:
320,192,164267,1,0,0:0:0:0:
192,192,164323,1,0,0:0:0:0:
320,192,164378,1,0,0:0:0:0:
448,192,164378,1,0,0:0:0:0:
64,192,164434,1,0,0:0:0:0:
448,192,164490,1,0,0:0:0:0:
320,192,164545,1,0,0:0:0:0:
192,192,164600,1,0,0:0:0:0:
64,192,164656,1,0,0:0:0:0:
320,192,164711,1,0,0:0:0:0:
448,192,164711,1,0,0:0:0:0:
192,192,164767,1,0,0:0:0:0:
448,192,164823,1,0,0:0:0:0:
64,192,164878,1,0,0:0:0:0:
192,192,164934,1,0,0:0:0:0:
320,192,164934,1,0,0:0:0:0:
448,192,164990,1,0,0:0:0:0:
64,192,165045,1,0,0:0:0:0:
192,192,165045,1,0,0:0:0:0:
320,192,165100,1,0,0:0:0:0:
64,192,165156,1,0,0:0:0:0:
448,192,165211,1,0,0:0:0:0:
192,192,165267,1,0,0:0:0:0:
320,192,165267,1,0,0:0:0:0:
64,192,165323,1,0,0:0:0:0:
448,192,165378,1,0,0:0:0:0:
320,192,165434,1,0,0:0:0:0:
192,192,165490,1,0,0:0:0:0:
64,192,165545,1,0,0:0:0:0:
192,192,165600,1,0,0:0:0:0:
320,192,165656,1,0,0:0:0:0:
448,192,165711,1,0,0:0:0:0:
192,192,165767,1,0,0:0:0:0:
320,192,165823,1,0,0:0:0:0:
448,192,165823,1,0,0:0:0:0:
64,192,165878,1,0,0:0:0:0:
192,192,165934,1,0,0:0:0:0:
320,192,165934,1,0,0:0:0:0:
448,192,165990,1,0,0:0:0:0:
64,192,166045,1,0,0:0:0:0:
192,192,166045,1,0,0:0:0:0:
320,192,166100,1,0,0:0:0:0:
192,192,166156,1,0,0:0:0:0:
448,192,166156,1,0,0:0:0:0:
64,192,166212,1,0,0:0:0:0:
320,192,166267,1,0,0:0:0:0:
192,192,166323,1,0,0:0:0:0:
448,192,166379,1,0,0:0:0:0:
320,192,166434,1,0,0:0:0:0:
64,192,166490,1,0,0:0:0:0:
192,192,166490,1,0,0:0:0:0:
448,192,166545,1,0,0:0:0:0:
192,192,166600,1,0,0:0:0:0:
320,192,166656,1,0,0:0:0:0:
64,192,166712,1,0,0:0:0:0:
448,192,166712,1,0,0:0:0:0:
192,192,166767,1,0,0:0:0:0:
320,192,166823,1,0,0:0:0:0:
448,192,166879,1,0,0:0:0:0:
192,192,166934,1,0,0:0:0:0:
320,192,166934,1,0,0:0:0:0:
64,192,166990,1,0,0:0:0:0:
320,192,167045,1,0,0:0:0:0:
448,192,167045,1,0,0:0:0:0:
192,192,167100,1,0,0:0:0:0:
320,192,167156,1,0,0:0:0:0:
64,192,167212,1,0,0:0:0:0:
192,192,167267,1,0,0:0:0:0:
320,192,167323,1,0,0:0:0:0:
64,192,167379,1,0,0:0:0:0:
448,192,167379,1,0,0:0:0:0:
320,192,167434,1,0,0:0:0:0:
192,192,167490,1,0,0:0:0:0:
64,192,167545,1,0,0:0:0:0:
448,192,167600,1,0,0:0:0:0:
192,192,167656,1,0,0:0:0:0:
320,192,167712,1,0,0:0:0:0:
64,192,167767,1,0,0:0:0:0:
192,192,167823,1,0,0:0:0:0:
320,192,167879,1,0,0:0:0:0:
64,192,167934,1,0,0:0:0:0:
448,192,167934,1,0,0:0:0:0:
192,192,167990,1,0,0:0:0:0:
320,192,168045,1,0,0:0:0:0:
192,192,168100,1,0,0:0:0:0:
64,192,168156,1,0,0:0:0:0:
448,192,168212,1,0,0:0:0:0:
192,192,168267,1,0,0:0:0:0:
320,192,168267,1,0,0:0:0:0:
64,192,168323,1,0,0:0:0:0:
192,192,168379,1,0,0:0:0:0:
320,192,168434,1,0,0:0:0:0:
64,192,168490,1,0,0:0:0:0:
448,192,168490,1,0,0:0:0:0:
192,192,168545,1,0,0:0:0:0:
320,192,168600,1,0,0:0:0:0:
448,192,168656,1,0,0:0:0:0:
192,192,168712,1,0,0:0:0:0:
320,192,168712,1,0,0:0:0:0:
64,192,168767,1,0,0:0:0:0:
320,192,168823,1,0,0:0:0:0:
448,192,168823,1,0,0:0:0:0:
192,192,168879,1,0,0:0:0:0:
320,192,168934,1,0,0:0:0:0:
64,192,168990,1,0,0:0:0:0:
192,192,169045,1,0,0:0:0:0:
320,192,169100,1,0,0:0:0:0:
448,192,169156,1,0,0:0:0:0:
320,192,169212,1,0,0:0:0:0:
192,192,169267,1,0,0:0:0:0:
64,192,169323,1,0,0:0:0:0:
448,192,169379,1,0,0:0:0:0:
192,192,169434,1,0,0:0:0:0:
448,192,169490,1,0,0:0:0:0:
320,192,169545,1,0,0:0:0:0:
192,192,169600,1,0,0:0:0:0:
64,192,169656,1,0,0:0:0:0:
320,192,169712,1,0,0:0:0:0:
448,192,169712,1,0,0:0:0:0:
192,192,169768,1,0,0:0:0:0:
320,192,169823,1,0,0:0:0:0:
192,192,169879,1,0,0:0:0:0:
448,192,169935,1,0,0:0:0:0:
64,192,169990,1,0,0:0:0:0:
192,192,170045,1,0,0:0:0:0:
320,192,170045,1,0,0:0:0:0:
448,192,170101,1,0,0:0:0:0:
64,192,170156,1,0,0:0:0:0:
192,192,170212,1,0,0:0:0:0:
320,192,170268,1,0,0:0:0:0:
448,192,170268,1,0,0:0:0:0:
192,192,170323,1,0,0:0:0:0:
64,192,170379,1,0,0:0:0:0:
448,192,170435,1,0,0:0:0:0:
192,192,170490,1,0,0:0:0:0:
320,192,170490,1,0,0:0:0:0:
448,192,170545,1,0,0:0:0:0:
64,192,170601,1,0,0:0:0:0:
192,192,170601,1,0,0:0:0:0:
320,192,170656,1,0,0:0:0:0:
192,192,170712,1,0,0:0:0:0:
320,192,170768,1,0,0:0:0:0:
448,192,170823,1,0,0:0:0:0:
64,192,170879,1,0,0:0:0:0:
192,192,170935,1,0,0:0:0:0:
320,192,170990,1,0,0:0:0:0:
192,192,171045,1,0,0:0:0:0:
64,192,171101,1,0,0:0:0:0:
448,192,171156,1,0,0:0:0:0:
320,192,171212,1,0,0:0:0:0:
192,192,171268,1,0,0:0:0:0:
64,192,171323,1,0,0:0:0:0:
448,192,171379,1,0,0:0:0:0:
192,192,171435,1,0,0:0:0:0:
320,192,171490,1,0,0:0:0:0:
64,192,171545,1,0,0:0:0:0:
192,192,171601,1,0,0:0:0:0:
320,192,171656,1,0,0:0:0:0:
448,192,171712,1,0,0:0:0:0:
192,192,171768,1,0,0:0:0:0:
320,192,171823,1,0,0:0:0:0:
64,192,171879,1,0,0:0:0:0:
192,192,171935,1,0,0:0:0:0:
320,192,171990,1,0,0:0:0:0:
448,192,172045,1,0,0:0:0:0:
320,192,172101,1,0,0:0:0:0:
192,192,172156,1,0,0:0:0:0:
64,192,172212,1,0,0:0:0:0:
448,192,172268,1,0,0:0:0:0:
320,192,172323,1,0,0:0:0:0:
192,192,172379,1,0,0:0:0:0:
64,192,172435,1,0,0:0:0:0:
448,192,172490,1,0,0:0:0:0:
320,192,172545,1,0,0:0:0:0:
192,192,172601,1,0,0:0:0:0:
320,192,172656,1,0,0:0:0:0:
448,192,172712,1,0,0:0:0:0:
64,192,172768,1,0,0:0:0:0:
192,192,172823,1,0,0:0:0:0:
320,192,172879,1,0,0:0:0:0:
64,192,172935,1,0,0:0:0:0:
448,192,172935,1,0,0:0:0:0:
192,192,172990,1,0,0:0:0:0:
320,192,173045,1,0,0:0:0:0:
448,192,173045,1,0,0:0:0:0:
192,192,173101,1,0,0:0:0:0:
64,192,173156,1,0,0:0:0:0:
320,192,173156,1,0,0:0:0:0:
448,192,173212,1,0,0:0:0:0:
64,192,173268,1,0,0:0:0:0:
192,192,173268,1,0,0:0:0:0:
320,192,173324,1,0,0:0:0:0:
192,192,173379,1,0,0:0:0:0:
448,192,173435,1,0,0:0:0:0:
320,192,173490,1,0,0:0:0:0:
192,192,173545,1,0,0:0:0:0:
64,192,173601,1,0,0:0:0:0:
448,192,173601,1,0,0:0:0:0:
320,192,173657,1,0,0:0:0:0:
192,192,173712,1,0,0:0:0:0:
64,192,173768,1,0,0:0:0:0:
320,192,173824,1,0,0:0:0:0:
448,192,173824,1,0,0:0:0:0:
192,192,173879,1,0,0:0:0:0:
448,192,173935,1,0,0:0:0:0:
64,192,173990,1,0,0:0:0:0:
192,192,174045,1,0,0:0:0:0:
320,192,174045,1,0,0:0:0:0:
448,192,174101,1,0,0:0:0:0:
64,192,174157,1,0,0:0:0:0:
192,192,174157,1,0,0:0:0:0:
320,192,174212,1,0,0:0:0:0:
192,192,174268,1,0,0:0:0:0:
448,192,174324,1,0,0:0:0:0:
320,192,174379,1,0,0:0:0:0:
192,192,174435,1,0,0:0:0:0:
64,192,174490,1,0,0:0:0:0:
448,192,174545,1,0,0:0:0:0:
192,192,174601,1,0,0:0:0:0:
320,192,174657,1,0,0:0:0:0:
64,192,174712,1,0,0:0:0:0:
192,192,174768,1,0,0:0:0:0:
320,192,174824,1,0,0:0:0:0:
448,192,174879,1,0,0:0:0:0:
192,192,174935,1,0,0:0:0:0:
320,192,174990,1,0,0:0:0:0:
64,192,175045,1,0,0:0:0:0:
448,192,175045,1,0,0:0:0:0:
192,192,175101,1,0,0:0:0:0:
320,192,175157,1,0,0:0:0:0:
192,192,175212,1,0,0:0:0:0:
64,192,175268,1,0,0:0:0:0:
448,192,175324,1,0,0:0:0:0:
192,192,175379,1,0,0:0:0:0:
320,192,175379,1,0,0:0:0:0:
64,192,175435,1,0,0:0:0:0:
448,192,175490,1,0,0:0:0:0:
192,192,175545,1,0,0:0:0:0:
320,192,175601,1,0,0:0:0:0:
448,192,175601,1,0,0:0:0:0:
192,192,175657,1,0,0:0:0:0:
64,192,175712,1,0,0:0:0:0:
320,192,175712,1,0,0:0:0:0:
448,192,175768,1,0,0:0:0:0:
64,192,175824,1,0,0:0:0:0:
192,192,175879,1,0,0:0:0:0:
320,192,175935,1,0,0:0:0:0:
448,192,175935,1,0,0:0:0:0:
64,192,175990,1,0,0:0:0:0:
192,192,176045,1,0,0:0:0:0:
320,192,176101,1,0,0:0:0:0:
448,192,176157,1,0,0:0:0:0:
320,192,176212,1,0,0:0:0:0:
192,192,176268,1,0,0:0:0:0:
64,192,176324,1,0,0:0:0:0:
448,192,176379,1,0,0:0:0:0:
192,192,176435,1,0,0:0:0:0:
320,192,176490,1,0,0:0:0:0:
448,192,176490,1,0,0:0:0:0:
64,192,176545,1,0,0:0:0:0:
192,192,176601,1,0,0:0:0:0:
320,192,176601,1,0,0:0:0:0:
448,192,176657,1,0,0:0:0:0:
64,192,176712,1,0,0:0:0:0:
192,192,176712,1,0,0:0:0:0:
320,192,176768,1,0,0:0:0:0:
64,192,176824,1,0,0:0:0:0:
448,192,176824,1,0,0:0:0:0:
320,192,176880,1,0,0:0:0:0:
192,192,176935,1,0,0:0:0:0:
64,192,176990,1,0,0:0:0:0:
320,192,177046,1,0,0:0:0:0:
448,192,177046,1,0,0:0:0:0:
192,192,177101,1,0,0:0:0:0:
64,192,177157,1,0,0:0:0:0:
320,192,177157,1,0,0:0:0:0:
448,192,177213,1,0,0:0:0:0:
192,192,177268,1,0,0:0:0:0:
320,192,177324,1,0,0:0:0:0:
64,192,177380,1,0,0:0:0:0:
448,192,177380,1,0,0:0:0:0:
192,192,177435,1,0,0:0:0:0:
320,192,177490,1,0,0:0:0:0:
192,192,177546,1,0,0:0:0:0:
64,192,177601,1,0,0:0:0:0:
320,192,177601,1,0,0:0:0:0:
448,192,177657,1,0,0:0:0:0:
64,192,177713,1,0,0:0:0:0:
192,192,177713,1,0,0:0:0:0:
320,192,177768,1,0,0:0:0:0:
448,192,177824,1,0,0:0:0:0:
320,192,177880,1,0,0:0:0:0:
192,192,177935,1,0,0:0:0:0:
64,192,177990,1,0,0:0:0:0:
448,192,178046,1,0,0:0:0:0:
320,192,178101,1,0,0:0:0:0:
192,192,178157,1,0,0:0:0:0:
320,192,178213,1,0,0:0:0:0:
192,192,178268,1,0,0:0:0:0:
64,192,178324,1,0,0:0:0:0:
448,192,178380,1,0,0:0:0:0:
192,192,178435,1,0,0:0:0:0:
320,192,178490,1,0,0:0:0:0:
64,192,178546,1,0,0:0:0:0:
192,192,178601,1,0,0:0:0:0:
320,192,178601,1,0,0:0:0:0:
448,192,178657,1,0,0:0:0:0:
64,192,178713,1,0,0:0:0:0:
192,192,178768,1,0,0:0:0:0:
320,192,178824,1,0,0:0:0:0:
448,192,178880,1,0,0:0:0:0:
192,192,178935,1,0,0:0:0:0:
320,192,178935,1,0,0:0:0:0:
64,192,178990,1,0,0:0:0:0:
448,192,179046,1,0,0:0:0:0:
192,192,179101,1,0,0:0:0:0:
320,192,179157,1,0,0:0:0:0:
448,192,179157,1,0,0:0:0:0:
64,192,179213,1,0,0:0:0:0:
192,192,179268,1,0,0:0:0:0:
320,192,179268,1,0,0:0:0:0:
448,192,179324,1,0,0:0:0:0:
320,192,179380,1,0,0:0:0:0:
192,192,179435,1,0,0:0:0:0:
64,192,179490,1,0,0:0:0:0:
448,192,179490,1,0,0:0:0:0:
192,192,179546,1,0,0:0:0:0:
320,192,179601,1,0,0:0:0:0:
448,192,179657,1,0,0:0:0:0:
192,192,179713,1,0,0:0:0:0:
448,192,179768,1,0,0:0:0:0:
320,192,179824,1,0,0:0:0:0:
192,192,179880,1,0,0:0:0:0:
64,192,179935,1,0,0:0:0:0:
192,192,179990,1,0,0:0:0:0:
320,192,180046,1,0,0:0:0:0:
448,192,180046,1,0,0:0:0:0:
64,192,180101,1,0,0:0:0:0:
192,192,180157,1,0,0:0:0:0:
320,192,180157,1,0,0:0:0:0:
448,192,180213,1,0,0:0:0:0:
64,192,180268,1,0,0:0:0:0:
192,192,180268,1,0,0:0:0:0:
320,192,180324,1,0,0:0:0:0:
64,192,180380,1,0,0:0:0:0:
448,192,180380,1,0,0:0:0:0:
320,192,180435,1,0,0:0:0:0:
192,192,180490,1,0,0:0:0:0:
64,192,180546,1,0,0:0:0:0:
448,192,180602,1,0,0:0:0:0:
192,192,180657,1,0,0:0:0:0:
320,192,180713,1,0,0:0:0:0:
448,192,180713,1,0,0:0:0:0:
64,192,180769,1,0,0:0:0:0:
192,192,180824,1,0,0:0:0:0:
320,192,180880,1,0,0:0:0:0:
64,192,180935,1,0,0:0:0:0:
448,192,180935,1,0,0:0:0:0:
192,192,180990,1,0,0:0:0:0:
320,192,181046,1,0,0:0:0:0:
192,192,181102,1,0,0:0:0:0:
320,192,181157,1,0,0:0:0:0:
448,192,181157,1,0,0:0:0:0:
64,192,181213,1,0,0:0:0:0:
192,192,181269,1,0,0:0:0:0:
320,192,181269,1,0,0:0:0:0:
64,192,181324,1,0,0:0:0:0:
448,192,181380,1,0,0:0:0:0:
320,192,181435,1,0,0:0:0:0:
192,192,181490,1,0,0:0:0:0:
64,192,181546,1,0,0:0:0:0:
320,192,181602,1,0,0:0:0:0:
448,192,181602,1,0,0:0:0:0:
192,192,181657,1,0,0:0:0:0:
448,192,181713,1,0,0:0:0:0:
64,192,181769,1,0,0:0:0:0:
192,192,181824,1,0,0:0:0:0:
320,192,181880,1,0,0:0:0:0:
448,192,181935,1,0,0:0:0:0:
192,192,181990,1,0,0:0:0:0:
320,192,182046,1,0,0:0:0:0:
64,192,182102,1,0,0:0:0:0:
192,192,182157,1,0,0:0:0:0:
320,192,182157,1,0,0:0:0:0:
448,192,182213,1,0,0:0:0:0:
320,192,182269,1,0,0:0:0:0:
192,192,182324,1,0,0:0:0:0:
64,192,182380,1,0,0:0:0:0:
448,192,182435,1,0,0:0:0:0:
192,192,182490,1,0,0:0:0:0:
320,192,182490,1,0,0:0:0:0:
64,192,182546,1,0,0:0:0:0:
192,192,182602,1,0,0:0:0:0:
320,192,182657,1,0,0:0:0:0:
64,192,182713,1,0,0:0:0:0:
448,192,182713,1,0,0:0:0:0:
192,192,182769,1,0,0:0:0:0:
320,192,182824,1,0,0:0:0:0:
448,192,182880,1,0,0:0:0:0:
192,192,182935,1,0,0:0:0:0:
320,192,182935,1,0,0:0:0:0:
64,192,182990,1,0,0:0:0:0:
320,192,183046,1,0,0:0:0:0:
448,192,183046,1,0,0:0:0:0:
192,192,183102,1,0,0:0:0:0:
320,192,183157,1,0,0:0:0:0:
64,192,183213,1,0,0:0:0:0:
192,192,183269,1,0,0:0:0:0:
320,192,183324,1,0,0:0:0:0:
448,192,183380,1,0,0:0:0:0:
320,192,183435,1,0,0:0:0:0:
192,192,183490,1,0,0:0:0:0:
64,192,183546,1,0,0:0:0:0:
448,192,183602,1,0,0:0:0:0:
192,192,183657,1,0,0:0:0:0:
320,192,183713,1,0,0:0:0:0:
64,192,183769,1,0,0:0:0:0:
192,192,183824,1,0,0:0:0:0:
320,192,183880,1,0,0:0:0:0:
64,192,183935,1,0,0:0:0:0:
448,192,183935,1,0,0:0:0:0:
192,192,183991,1,0,0:0:0:0:
320,192,184046,1,0,0:0:0:0:
448,192,184102,1,0,0:0:0:0:
192,192,184158,1,0,0:0:0:0:
320,192,184213,1,0,0:0:0:0:
64,192,184269,1,0,0:0:0:0:
448,192,184269,1,0,0:0:0:0:
320,192,184325,1,0,0:0:0:0:
192,192,184380,1,0,0:0:0:0:
64,192,184435,1,0,0:0:0:0:
320,192,184491,1,0,0:0:0:0:
448,192,184491,1,0,0:0:0:0:
192,192,184546,1,0,0:0:0:0:
64,192,184602,1,0,0:0:0:0:
448,192,184602,1,0,0:0:0:0:
192,192,184658,1,0,0:0:0:0:
320,192,184713,1,0,0:0:0:0:
448,192,184769,1,0,0:0:0:0:
64,192,184825,1,0,0:0:0:0:
192,192,184825,1,0,0:0:0:0:
320,192,184880,1,0,0:0:0:0:
64,192,184935,1,0,0:0:0:0:
448,192,184935,1,0,0:0:0:0:
320,192,184991,1,0,0:0:0:0:
192,192,185046,1,0,0:0:0:0:
64,192,185102,1,0,0:0:0:0:
448,192,185158,1,0,0:0:0:0:
320,192,185213,1,0,0:0:0:0:
192,192,185269,1,0,0:0:0:0:
320,192,185325,1,0,0:0:0:0:
64,192,185380,1,0,0:0:0:0:
192,192,185380,1,0,0:0:0:0:
320,192,185491,1,0,0:0:0:0:
64,192,185602,1,0,0:0:0:0:
192,192,185713,1,0,0:0:0:0:
320,192,185713,1,0,0:0:0:0:
64,192,186046,1,0,0:0:0:0:
448,192,186046,1,0,0:0:0:0:
192,192,186102,1,0,0:0:0:0:
320,192,186158,1,0,0:0:0:0:
448,192,186213,1,0,0:0:0:0:
64,192,186269,1,0,0:0:0:0:
192,192,186269,1,0,0:0:0:0:
320,192,186380,1,0,0:0:0:0:
448,192,186491,1,0,0:0:0:0:
64,192,186602,1,0,0:0:0:0:
192,192,186602,1,0,0:0:0:0:
320,192,186825,1,0,0:0:0:0:
64,192,186935,1,0,0:0:0:0:
192,192,186935,1,0,0:0:0:0:
448,192,186991,1,0,0:0:0:0:
320,192,187046,1,0,0:0:0:0:
192,192,187102,1,0,0:0:0:0:
64,192,187158,1,0,0:0:0:0:
448,192,187158,1,0,0:0:0:0:
192,192,187213,1,0,0:0:0:0:
320,192,187269,1,0,0:0:0:0:
448,192,187325,1,0,0:0:0:0:
64,192,187380,1,0,0:0:0:0:
192,192,187435,1,0,0:0:0:0:
320,192,187491,1,0,0:0:0:0:
448,0,187491,128,0,187825:1:0:0:0:
64,192,187825,1,0,0:0:0:0:
192,192,187825,1,0,0:0:0:0:
320,192,187880,1,0,0:0:0:0:
448,192,187935,1,0,0:0:0:0:
192,192,187991,1,0,0:0:0:0:
64,192,188047,1,0,0:0:0:0:
448,192,188047,1,0,0:0:0:0:
192,192,188158,1,0,0:0:0:0:
64,192,188269,1,0,0:0:0:0:
320,192,188269,1,0,0:0:0:0:
448,192,188380,1,0,0:0:0:0:
192,0,188380,128,0,188714:1:0:0:0:
320,192,188714,1,0,0:0:0:0:
448,192,188714,1,0,0:0:0:0:
192,192,188769,1,0,0:0:0:0:
64,192,188825,1,0,0:0:0:0:
448,192,188880,1,0,0:0:0:0:
192,192,188935,1,0,0:0:0:0:
320,192,188935,1,0,0:0:0:0:
448,192,188991,1,0,0:0:0:0:
64,192,189047,1,0,0:0:0:0:
192,192,189102,1,0,0:0:0:0:
320,192,189158,1,0,0:0:0:0:
448,192,189214,1,0,0:0:0:0:
64,192,189269,1,0,0:0:0:0:
192,192,189269,1,0,0:0:0:0:
448,192,189491,1,0,0:0:0:0:
192,192,189602,1,0,0:0:0:0:
320,192,189658,1,0,0:0:0:0:
64,192,189714,1,0,0:0:0:0:
192,192,189769,1,0,0:0:0:0:
320,192,189825,1,0,0:0:0:0:
448,192,189825,1,0,0:0:0:0:
192,192,189935,1,0,0:0:0:0:
64,192,190047,1,0,0:0:0:0:
320,192,190158,1,0,0:0:0:0:
448,192,190158,1,0,0:0:0:0:
64,192,190380,1,0,0:0:0:0:
320,192,190491,1,0,0:0:0:0:
192,192,190547,1,0,0:0:0:0:
448,192,190602,1,0,0:0:0:0:
64,192,190658,1,0,0:0:0:0:
192,192,190714,1,0,0:0:0:0:
320,192,190714,1,0,0:0:0:0:
448,192,190769,1,0,0:0:0:0:
320,192,190825,1,0,0:0:0:0:
192,192,190880,1,0,0:0:0:0:
64,192,190935,1,0,0:0:0:0:
448,192,190991,1,0,0:0:0:0:
320,192,191047,1,0,0:0:0:0:
192,0,191047,128,0,191380:1:0:0:0:
320,192,191270,1,0,0:0:0:0:
64,192,191380,1,0,0:0:0:0:
448,192,191380,1,0,0:0:0:0:
192,192,191436,1,0,0:0:0:0:
320,192,191491,1,0,0:0:0:0:
448,192,191547,1,0,0:0:0:0:
64,192,191603,1,0,0:0:0:0:
192,192,191603,1,0,0:0:0:0:
320,192,191714,1,0,0:0:0:0:
192,192,191825,1,0,0:0:0:0:
448,192,191825,1,0,0:0:0:0:
64,0,191936,128,0,195103:1:0:0:0:
320,0,191936,128,0,195103:1:0:0:0:
