osu file format v14

[General]
AudioFilename: audio.mp3
AudioLeadIn: 0
PreviewTime: 112867
Countdown: 0
SampleSet: Normal
StackLeniency: 0.7
Mode: 0
LetterboxInBreaks: 0
WidescreenStoryboard: 1

[Editor]
Bookmarks: 29123,58251,87380,112867,126504,127431,134713,149277,163842,178406,192970,207534,222099,247586,262150,269432
DistanceSpacing: 1
BeatDivisor: 4
GridSize: 8
TimelineZoom: 1

[Metadata]
Title:Choppastyle
TitleUnicode:Choppastyle
Artist:Virt
ArtistUnicode:Virt
Creator:YokesPai
Version:StarCastler's Insane
Source:
Tags:fx3 chiptune jake kaufman retro nes 8-bit electronic instrumental Starrodkirby86 Apo11o StarCastler
BeatmapID:2783765
BeatmapSetID:1023284

[Difficulty]
HPDrainRate:6
CircleSize:4
OverallDifficulty:8
ApproachRate:8
SliderMultiplier:2.4
SliderTickRate:2

[Events]
//Background and Video events
0,0,"helichop.png",0,0
//Break Periods
2,134913,147617
2,164042,175835
//Storyboard Layer 0 (Background)
//Storyboard Layer 1 (Fail)
//Storyboard Layer 2 (Pass)
//Storyboard Layer 3 (Foreground)
//Storyboard Layer 4 (Overlay)
//Storyboard Sound Samples

[TimingPoints]
14559.0107832392,455.131608890237,4,2,0,55,1,0
29123,-133.333333333333,4,2,0,55,0,0
42777,-200,4,1,0,40,0,0
43687,-100,4,1,0,45,0,0
58251,-100,4,1,0,35,0,0
87380,-100,4,1,0,40,0,0
98303,-100,4,1,0,35,0,0
101944,-100,4,1,0,40,0,0
112867,-83.3333333333333,4,1,0,45,0,1
126521,-100,4,1,0,45,0,1
127317,-80,4,1,0,45,0,0
127431,-80,4,1,0,45,0,1
134599,-80,4,1,0,45,0,0
134713,-80,4,1,0,45,0,1
134827,-100,4,1,0,35,0,0
178406,-88.8888888888889,4,1,0,40,0,0
192970,-88.8888888888889,4,1,0,40,0,0
207534,-83.3333333333333,4,1,0,45,0,0
233022,-83.3333333333333,4,1,0,40,0,0
236663,-83.3333333333333,4,1,0,45,0,0
247586,-74.0740740740741,4,1,0,50,0,1
262036,-74.0740740740741,4,1,0,50,0,0
262150,-66.6666666666667,4,1,0,50,0,1
269432,-100,4,1,0,50,0,0

[Colours]
Combo1 : 255,255,128
Combo2 : 122,204,200
Combo3 : 171,160,0
Combo4 : 0,154,213
Combo5 : 246,142,86
Combo6 : 255,128,128

[HitObjects]
256,192,14559,12,4,18200,0:0:0:0:
256,192,21841,12,4,25482,0:0:0:0:
64,232,29123,6,0,B|64:272|64:272|104:304,1,90.0000034332277,6|0,0:0|0:0,0:0:0:0:
144,320,29464,1,0,0:0:0:0:
184,304,29578,2,0,B|224:272|224:272|224:232,1,90.0000034332276,2|0,0:0|0:0,0:0:0:0:
184,160,30033,2,0,L|184:112,2,45.0000017166138,2|0|2,0:0|0:0|0:0,0:0:0:0:
144,232,30488,1,2,0:0:0:0:
144,232,30602,1,0,0:0:0:0:
144,232,30716,1,2,0:0:0:0:
208,264,30943,2,0,L|304:264,1,90.0000034332277,2|0,0:0|0:0,0:0:0:0:
296,336,31398,2,0,L|200:336,1,90.0000034332277
144,296,31854,1,2,0:0:0:0:
448,232,32536,1,8,0:0:0:0:
448,232,32764,6,0,B|448:272|448:272|408:304,1,90.0000034332277,6|0,0:0|0:0,0:0:0:0:
368,320,33105,1,0,0:0:0:0:
328,304,33219,2,0,B|288:272|288:272|288:232,1,90.0000034332276,2|0,0:0|0:0,0:0:0:0:
328,160,33674,2,0,L|328:112,2,45.0000017166138,2|0|2,0:0|0:0|0:0,0:0:0:0:
368,232,34129,1,2,0:0:0:0:
368,232,34243,1,0,0:0:0:0:
368,232,34357,1,10,0:0:0:0:
304,264,34584,2,0,L|208:264,1,90.0000034332277,2|0,0:0|0:0,0:0:0:0:
216,336,35039,2,0,L|312:336,1,90.0000034332277
368,296,35495,1,2,0:0:0:0:
400,312,35608,1,8,0:0:0:0:
432,328,35722,2,0,B|488:288|488:288|488:216,1,135.000005149841,2|8,0:0|0:0,0:0:0:0:
456,128,36405,6,0,L|456:32,1,90.0000034332277,6|0,0:0|0:0,0:0:0:0:
416,16,36746,1,0,0:0:0:0:
376,40,36860,2,0,L|376:136,1,90.0000034332277,2|0,0:0|0:0,0:0:0:0:
304,128,37315,2,0,L|256:128,2,45.0000017166138,2|0|2,0:0|0:0|0:0,0:0:0:0:
344,200,37770,1,2,0:0:0:0:
344,200,37884,1,0,0:0:0:0:
344,200,37998,1,2,0:0:0:0:
304,272,38225,2,0,L|208:272,1,90.0000034332277,2|0,0:0|0:0,0:0:0:0:
168,192,38680,2,0,L|264:192,1,90.0000034332277
336,192,39136,1,2,0:0:0:0:
56,128,39818,1,0,0:0:0:0:
56,128,40046,6,0,L|56:32,1,90.0000034332277,6|0,0:0|0:0,0:0:0:0:
96,16,40387,1,0,0:0:0:0:
136,40,40501,2,0,L|136:136,1,90.0000034332277,2|0,0:0|0:0,0:0:0:0:
208,128,40956,2,0,L|256:128,2,45.0000017166138,2|8|2,0:0|0:0|0:0,0:0:0:0:
168,200,41411,1,2,0:0:0:0:
168,200,41525,1,0,0:0:0:0:
168,200,41639,1,10,0:0:0:0:
192,272,41866,2,0,B|256:296|256:296|320:272,2,135.000005149841,2|2|2,0:0|0:0|0:0,0:0:0:0:
256,192,42777,1,6,0:0:0:0:
96,40,43687,37,14,0:0:0:0:
56,56,43801,1,0,0:0:0:0:
40,96,43914,1,0,0:0:0:0:
56,136,44028,2,0,L|56:256,2,120
136,160,44597,2,0,L|136:224,2,60,8|0|0,0:0|0:0|0:0,0:0:0:0:
96,40,45052,1,8,0:0:0:0:
416,40,45507,5,8,0:0:0:0:
456,56,45621,1,0,0:0:0:0:
472,96,45734,1,0,0:0:0:0:
456,136,45848,2,0,L|456:256,2,120
376,160,46418,2,0,L|376:224,2,60,8|0|0,0:0|0:0|0:0,0:0:0:0:
416,40,46873,1,8,0:0:0:0:
16,352,47328,5,8,0:0:0:0:
56,344,47442,1,0,0:0:0:0:
96,336,47555,1,0,0:0:0:0:
136,328,47669,2,0,L|256:328,2,120
136,248,48238,2,0,L|200:248,2,60,8|0|0,0:0|0:0|0:0,0:0:0:0:
16,248,48694,1,8,0:0:0:0:
496,352,49149,5,8,0:0:0:0:
456,344,49263,1,0,0:0:0:0:
416,336,49376,1,0,0:0:0:0:
376,328,49490,2,0,L|256:328,2,120
376,248,50059,2,0,L|312:248,2,60,12|0|0,0:0|0:0|0:0,0:0:0:0:
496,248,50515,1,12,0:0:0:0:
496,248,50628,1,0,0:0:0:0:
496,248,50741,1,0,0:0:0:0:
472,96,50969,38,0,L|472:32,2,60,12|0|0,0:0|0:0|0:0,0:0:0:0:
464,176,51310,2,0,B|408:152|408:152|392:96,2,120
480,104,51879,1,8,0:0:0:0:
480,104,51993,1,0,0:0:0:0:
480,104,52107,1,0,0:0:0:0:
344,192,52334,1,8,0:0:0:0:
40,96,52790,6,0,L|40:32,2,60,12|0|0,0:0|0:0|0:0,0:0:0:0:
48,176,53131,2,0,B|104:152|104:152|120:96,2,120
48,104,53700,1,8,0:0:0:0:
48,104,53814,1,0,0:0:0:0:
48,104,53928,1,0,0:0:0:0:
168,192,54155,1,8,0:0:0:0:
256,64,54610,6,0,L|256:0,2,60,12|0|0,0:0|0:0|0:0,0:0:0:0:
200,120,54951,2,0,B|256:144|256:144|312:120,2,120
200,208,55520,1,12,0:0:0:0:
200,208,55634,1,0,0:0:0:0:
200,208,55748,1,0,0:0:0:0:
312,208,55975,1,8,0:0:0:0:
256,192,56431,12,4,57796,0:0:0:0:
144,160,58251,54,0,B|200:200|256:160,1,120,6|0,0:0|0:0,0:0:0:0:
200,96,58592,2,0,B|256:56|312:96,1,120,2|0,0:0|0:0,0:0:0:0:
352,208,59048,1,2,0:0:0:0:
256,280,59275,1,2,0:0:0:0:
160,208,59503,1,2,0:0:0:0:
96,256,59617,2,0,L|48:296,1,60,8|0,0:0|0:0,0:0:0:0:
32,208,59844,2,0,L|80:168,1,60
168,96,60072,6,0,B|230:127|275:74,1,120,6|0,0:0|0:0,0:0:0:0:
344,96,60413,1,2,0:0:0:0:
472,136,60641,1,0,0:0:0:0:
392,232,60868,2,2,B|344:288|272:264|248:200|168:192|120:256,1,300,2|8,0:0|0:0,0:0:0:0:
72,320,61551,2,0,L|40:376,2,60,0|8|8,0:0|0:0|0:0,0:0:0:0:
128,264,61892,6,0,B|144:200|104:152,1,120,6|0,0:0|0:0,0:0:0:0:
8,104,62234,2,0,B|72:120|120:80,1,120,2|0,0:0|0:0,0:0:0:0:
208,16,62689,1,2,0:0:0:0:
256,152,62916,1,2,0:0:0:0:
304,16,63144,1,2,0:0:0:0:
304,16,63258,1,8,0:0:0:0:
392,80,63485,1,0,0:0:0:0:
432,128,63599,1,0,0:0:0:0:
472,176,63713,6,4,B|512:224|488:288,1,120,6|4,0:0|0:0,0:0:0:0:
416,240,64054,2,0,B|384:296|312:296,2,120,2|2|2,0:0|0:0|0:0,0:0:0:0:
360,192,64623,1,12,0:0:0:0:
344,128,64737,1,0,0:0:0:0:
328,64,64851,1,0,0:0:0:0:
184,64,65078,1,12,0:0:0:0:
168,128,65192,1,0,0:0:0:0:
152,192,65306,1,0,0:0:0:0:
112,296,65533,38,0,B|176:288|216:344,1,120,6|0,0:0|0:0,0:0:0:0:
296,344,65875,2,0,B|336:288|400:296,1,120,2|0,0:0|0:0,0:0:0:0:
464,192,66330,1,2,0:0:0:0:
336,192,66557,1,2,0:0:0:0:
400,88,66785,1,2,0:0:0:0:
400,88,66899,1,8,0:0:0:0:
400,232,67126,2,0,L|400:296,1,60
328,320,67354,6,0,B|272:280|288:216,1,120,6|0,0:0|0:0,0:0:0:0:
224,168,67695,2,0,B|240:104|184:64,1,120,2|0,0:0|0:0,0:0:0:0:
128,168,68150,2,2,B|160:88|248:96|256:160|360:152|384:88,1,300,2|8,0:0|0:0,0:0:0:0:
432,24,68833,1,0,0:0:0:0:
504,48,68947,1,8,0:0:0:0:
504,128,69061,1,8,0:0:0:0:
432,152,69174,6,0,L|424:216,3,60,6|0|0|0,0:0|0:0|0:0|0:0,0:0:0:0:
416,288,69629,1,10,0:0:0:0:
312,360,69857,1,0,0:0:0:0:
216,272,70085,1,2,0:0:0:0:
296,256,70198,1,0,0:0:0:0:
216,128,70426,1,0,0:0:0:0:
296,112,70540,2,0,B|376:96|344:24,1,120,10|0,0:0|0:0,0:0:0:0:
440,152,70881,6,0,B|480:192|480:192|480:256,1,120,6|0,0:0|0:0,0:0:0:0:
432,312,71222,1,0,0:0:0:0:
368,296,71336,1,0,0:0:0:0:
336,240,71450,1,10,0:0:0:0:
176,240,71678,1,0,0:0:0:0:
144,296,71791,1,2,0:0:0:0:
80,312,71905,2,0,L|32:272,2,60,12|0|0,0:0|0:0|0:0,0:0:0:0:
432,312,72360,2,0,L|480:272,2,60,12|0|0,0:0|0:0|0:0,0:0:0:0:
296,248,72815,38,0,B|336:192|296:136,1,120,6|0,0:0|0:0,0:0:0:0:
216,136,73157,2,0,B|176:192|216:248,1,120,2|0,0:0|0:0,0:0:0:0:
128,128,73612,1,2,0:0:0:0:
256,64,73839,1,2,0:0:0:0:
384,128,74067,1,2,0:0:0:0:
320,192,74181,2,0,L|296:136,1,60,8|0,0:0|0:0,0:0:0:0:
216,136,74408,2,0,L|192:192,1,60
144,288,74636,6,0,B|72:280|56:216,1,120,6|0,0:0|0:0,0:0:0:0:
24,144,74977,1,2,0:0:0:0:
152,112,75205,1,0,0:0:0:0:
40,40,75432,2,2,B|88:64|144:48|168:0|168:0|176:48|216:88|280:72,1,300,2|8,0:0|0:0,0:0:0:0:
328,136,76115,1,0,0:0:0:0:
256,144,76229,1,8,0:0:0:0:
184,152,76343,1,8,0:0:0:0:
120,184,76456,6,0,L|192:280,1,120,6|0,0:0|0:0,0:0:0:0:
312,360,76798,2,0,B|256:336|256:336|200:360,1,120,6|0,0:0|0:0,0:0:0:0:
320,280,77139,2,0,L|392:184,1,120,6|0,0:0|0:0,0:0:0:0:
448,136,77480,1,2,0:0:0:0:
448,136,77594,1,0,0:0:0:0:
448,136,77708,1,0,0:0:0:0:
448,136,77822,2,0,B|480:152|512:144,2,60,10|0|0,0:0|0:0|0:0,0:0:0:0:
360,32,78277,6,0,B|352:72|312:72|312:72|296:120,1,120,6|0,0:0|0:0,0:0:0:0:
216,120,78618,2,0,B|200:72|200:72|160:72|152:32,1,120,2|0,0:0|0:0,0:0:0:0:
64,160,79073,1,2,0:0:0:0:
128,208,79187,2,0,L|136:272,1,60,12|0,0:0|0:0,0:0:0:0:
144,344,79415,1,0,0:0:0:0:
384,208,79642,2,0,L|376:272,1,60,12|0,0:0|0:0,0:0:0:0:
368,344,79870,1,0,0:0:0:0:
312,160,80097,38,0,B|360:112|424:136,1,120,6|0,0:0|0:0,0:0:0:0:
472,208,80439,2,0,B|520:160|496:96,1,120,2|0,0:0|0:0,0:0:0:0:
376,24,80894,1,2,0:0:0:0:
256,104,81122,1,2,0:0:0:0:
136,24,81349,1,2,0:0:0:0:
80,72,81463,2,0,L|32:112,1,60,8|0,0:0|0:0,0:0:0:0:
96,152,81690,2,0,L|48:192,1,60
120,240,81918,6,0,B|192:256|216:192,1,120,6|0,0:0|0:0,0:0:0:0:
296,192,82259,2,0,B|320:256|392:240,1,120,2|0,0:0|0:0,0:0:0:0:
392,352,82714,2,2,B|304:360|256:304|256:304|208:360|120:352,1,300,2|8,0:0|0:0,0:0:0:0:
56,312,83397,1,0,0:0:0:0:
16,248,83511,2,0,L|16:184,1,60,8|8,0:0|0:0,0:0:0:0:
48,112,83739,6,2,B|80:56|80:56|144:72|184:24,1,180,6|2,0:0|0:0,0:0:0:0:
183,24,84194,1,8,0:0:0:0:
328,24,84421,2,2,B|368:72|432:56|432:56|464:112,2,180,6|2|10,0:0|0:0|0:0,0:0:0:0:
216,112,85331,1,0,0:0:0:0:
296,112,85445,1,2,0:0:0:0:
256,328,85787,5,2,0:0:0:0:
216,192,86014,1,8,0:0:0:0:
296,192,86128,1,2,0:0:0:0:
256,64,86356,1,0,0:0:0:0:
256,64,86469,2,0,L|256:0,2,60,8|0|0,0:0|0:0|0:0,0:0:0:0:
296,192,86924,1,8,0:0:0:0:
216,192,87152,1,0,0:0:0:0:
72,112,87380,37,6,0:0:0:0:
72,272,87607,1,0,0:0:0:0:
0,152,87835,1,8,0:0:0:0:
0,232,88062,1,0,0:0:0:0:
72,112,88290,1,6,0:0:0:0:
72,272,88517,1,0,0:0:0:0:
144,152,88745,1,8,0:0:0:0:
144,232,88973,1,0,0:0:0:0:
144,80,89200,5,6,0:0:0:0:
256,152,89428,1,0,0:0:0:0:
368,80,89655,1,8,0:0:0:0:
392,240,89883,2,2,B|360:336|256:376|152:336|120:240,1,360,2|8,0:0|0:0,0:0:0:0:
256,192,90793,1,0,0:0:0:0:
440,112,91021,5,6,0:0:0:0:
440,272,91248,1,0,0:0:0:0:
512,152,91476,1,8,0:0:0:0:
512,232,91703,1,0,0:0:0:0:
440,112,91931,1,6,0:0:0:0:
440,272,92158,1,0,0:0:0:0:
368,152,92386,1,8,0:0:0:0:
368,232,92614,1,0,0:0:0:0:
368,80,92841,5,6,0:0:0:0:
256,152,93069,1,0,0:0:0:0:
144,80,93296,1,8,0:0:0:0:
120,240,93524,2,2,B|152:336|256:376|360:336|392:240,1,360,2|8,0:0|0:0,0:0:0:0:
256,192,94434,1,0,0:0:0:0:
336,64,94662,37,6,0:0:0:0:
176,64,94889,1,0,0:0:0:0:
296,128,95117,1,8,0:0:0:0:
216,128,95344,1,0,0:0:0:0:
336,192,95572,1,6,0:0:0:0:
176,192,95800,1,0,0:0:0:0:
296,256,96027,1,8,0:0:0:0:
216,256,96255,1,0,0:0:0:0:
296,128,96482,6,0,L|296:8,2,120,6|0|8,0:0|0:0|0:0,0:0:0:0:
216,8,97165,1,0,0:0:0:0:
216,8,97392,2,0,L|216:128,2,120,2|0|8,0:0|0:0|0:0,0:0:0:0:
256,192,98075,1,6,0:0:0:0:
176,192,98303,5,0,0:0:0:0:
48,120,98530,1,2,0:0:0:0:
48,264,98758,1,8,0:0:0:0:
144,344,98985,1,0,0:0:0:0:
200,296,99099,2,0,B|256:272|256:272|312:296,1,120,2|0,0:0|0:0,0:0:0:0:
368,344,99441,1,2,0:0:0:0:
464,264,99668,1,8,0:0:0:0:
360,144,99896,1,0,0:0:0:0:
360,144,100009,6,0,L|240:144,1,120,2|0,0:0|0:0,0:0:0:0:
152,144,100351,1,2,0:0:0:0:
256,32,100578,1,8,0:0:0:0:
152,240,100806,1,0,0:0:0:0:
152,240,100920,2,0,L|272:240,1,120,2|0,0:0|0:0,0:0:0:0:
360,240,101261,1,2,0:0:0:0:
360,240,101375,1,0,0:0:0:0:
360,240,101489,1,8,0:0:0:0:
256,352,101716,1,0,0:0:0:0:
336,320,101944,37,6,0:0:0:0:
176,320,102171,1,0,0:0:0:0:
296,256,102399,1,8,0:0:0:0:
216,256,102626,1,0,0:0:0:0:
336,192,102854,1,6,0:0:0:0:
176,192,103082,1,0,0:0:0:0:
296,128,103309,1,8,0:0:0:0:
216,128,103537,1,0,0:0:0:0:
144,264,103764,5,6,0:0:0:0:
256,192,103992,1,0,0:0:0:0:
368,264,104219,1,8,0:0:0:0:
392,104,104447,2,2,B|360:8|256:-32|152:8|120:104,1,360,2|8,0:0|0:0,0:0:0:0:
256,152,105357,1,0,0:0:0:0:
320,264,105585,6,0,B|392:360,1,120,6|0,0:0|0:0,0:0:0:0:
448,288,106040,2,0,B|376:192,1,120,8|0,0:0|0:0,0:0:0:0:
192,264,106495,2,0,B|120:360,1,120,6|0,0:0|0:0,0:0:0:0:
64,288,106950,2,0,B|136:192,1,120,8|0,0:0|0:0,0:0:0:0:
112,88,107405,6,2,B|168:80|192:168|120:184|144:272|208:264,1,240,6|8,0:0|0:0,0:0:0:0:
304,264,108088,2,2,B|368:272|392:184|320:168|344:80|400:88,1,240,2|0,0:0|0:0,0:0:0:0:
256,192,108771,1,10,0:0:0:0:
256,192,108998,1,0,0:0:0:0:
256,192,109226,12,4,111046,0:0:0:0:
256,320,111502,53,8,0:0:0:0:
256,192,111729,1,0,0:0:0:0:
176,296,111957,6,8,L|168:336,2,40
184,264,112184,1,12,0:0:0:0:
336,296,112412,6,8,L|344:336,2,40
328,264,112639,1,12,0:0:0:0:
216,120,112867,38,0,L|216:48,3,71.9999978027344,6|0|0|0,0:0|0:0|0:0|0:0,0:0:0:0:
296,48,113322,2,0,L|296:120,3,71.9999978027344,8|0|0|0,0:0|0:0|0:0|0:0,0:0:0:0:
368,176,113777,2,0,B|376:256|296:288,1,143.999995605469,2|0,0:0|0:0,0:0:0:0:
216,288,114119,2,0,B|136:256|144:176,1,143.999995605469,2|0,0:0|0:0,0:0:0:0:
256,192,114460,1,2,0:0:0:0:
360,72,114687,6,2,B|432:40|512:104|464:192,1,215.999993408203,6|0,0:0|0:0,0:0:0:0:
440,264,115143,1,8,0:0:0:0:
152,72,115370,2,2,B|80:40|0:104|48:192,1,215.999993408203,6|0,0:0|0:0,0:0:0:0:
72,264,115826,1,2,0:0:0:0:
256,344,116053,1,8,0:0:0:0:
296,152,116280,1,2,0:0:0:0:
296,152,116394,1,0,0:0:0:0:
296,152,116508,6,0,L|296:80,3,71.9999978027344,4|0|0|0,0:0|0:0|0:0|0:0,0:0:0:0:
216,80,116963,2,0,L|216:152,3,71.9999978027344,8|0|0|0,0:0|0:0|0:0|0:0,0:0:0:0:
184,232,117418,2,0,L|328:232,1,143.999995605469
328,304,117760,1,0,0:0:0:0:
328,304,117873,2,0,L|184:304,1,143.999995605469,10|2,0:0|0:0,0:0:0:0:
112,304,118215,1,0,0:0:0:0:
112,304,118329,6,2,B|16:256|120:192|64:112,1,215.999993408203,6|0,0:0|0:0,0:0:0:0:
32,40,118784,1,8,0:0:0:0:
152,152,119011,1,0,0:0:0:0:
328,64,119239,1,6,0:0:0:0:
256,64,119353,1,0,0:0:0:0:
184,64,119466,1,0,0:0:0:0:
360,152,119694,1,8,0:0:0:0:
480,40,119921,1,0,0:0:0:0:
376,248,120149,38,0,L|304:232,3,71.9999978027344,6|0|0|0,0:0|0:0|0:0|0:0,0:0:0:0:
208,232,120604,2,0,L|136:248,3,71.9999978027344,8|0|0|0,0:0|0:0|0:0|0:0,0:0:0:0:
152,152,121059,2,0,B|208:128|184:72|184:72|216:40,1,143.999995605469,2|0,0:0|0:0,0:0:0:0:
296,40,121401,2,0,B|328:72|328:72|304:128|360:152,1,143.999995605469,2|0,0:0|0:0,0:0:0:0:
440,192,121742,1,2,0:0:0:0:
392,320,121970,6,2,B|296:384|240:240|120:320,1,287.999991210938,6|8,0:0|0:0,0:0:0:0:
120,64,122652,2,2,B|216:0|272:144|392:64,1,287.999991210938,6|2,0:0|0:0,0:0:0:0:
352,288,123335,1,8,0:0:0:0:
320,224,123449,1,0,0:0:0:0:
256,192,123563,1,2,0:0:0:0:
192,224,123676,1,0,0:0:0:0:
160,288,123790,6,0,L|208:344,3,71.9999978027344,4|0|0|0,0:0|0:0|0:0|0:0,0:0:0:0:
304,344,124245,2,0,L|352:288,3,71.9999978027344,8|0|0|0,0:0|0:0|0:0|0:0,0:0:0:0:
296,192,124700,2,0,L|296:48,1,143.999995605469,2|0,0:0|0:0,0:0:0:0:
216,48,125042,2,0,L|216:192,1,143.999995605469,2|0,0:0|0:0,0:0:0:0:
256,264,125383,1,2,0:0:0:0:
128,88,125611,6,2,B|176:152|256:112|256:112|336:152|384:88,1,287.999991210938,6|14,0:0|0:0,0:0:0:0:
256,192,126293,53,0,0:0:0:0:
336,296,126521,6,8,L|344:336,2,40
328,264,126748,1,12,0:0:0:0:
176,296,126976,6,8,L|168:336,2,40
184,264,127204,1,12,0:0:0:0:
136,128,127431,38,0,L|80:72,1,75,6|0,0:0|0:0,0:0:0:0:
184,8,127659,2,0,L|208:80,1,75
304,80,127886,2,0,L|328:8,1,75,10|0,0:0|0:0,0:0:0:0:
429,74,128114,2,0,L|376:128,1,75
304,192,128341,1,10,0:0:0:0:
288,160,128455,1,0,0:0:0:0:
256,144,128569,1,0,0:0:0:0:
224,160,128683,1,0,0:0:0:0:
208,192,128797,1,10,0:0:0:0:
224,224,128910,1,0,0:0:0:0:
256,240,129024,1,0,0:0:0:0:
288,224,129138,1,0,0:0:0:0:
296,272,129252,6,0,L|352:328,1,75,14|0,0:0|0:0,0:0:0:0:
368,232,129479,2,0,L|448:232,1,75
368,152,129707,2,8,L|448:152,1,75,10|0,0:0|0:0,0:0:0:0:
296,112,129934,2,0,L|352:56,1,75
216,112,130162,2,0,L|160:56,1,75,10|0,0:0|0:0,0:0:0:0:
144,152,130389,2,0,L|69:152,1,75
144,232,130617,2,8,L|64:232,1,75,10|0,0:0|0:0,0:0:0:0:
216,272,130844,2,0,L|162:325,1,75
256,360,131072,5,14,0:0:0:0:
256,352,131186,1,0,0:0:0:0:
256,344,131300,1,0,0:0:0:0:
256,336,131414,1,0,0:0:0:0:
256,328,131527,1,10,0:0:0:0:
256,320,131641,1,0,0:0:0:0:
256,312,131755,1,0,0:0:0:0:
256,304,131869,1,0,0:0:0:0:
256,296,131982,21,14,0:0:0:0:
368,88,132324,1,14,0:0:0:0:
144,88,132665,1,14,0:0:0:0:
256,192,132893,12,6,134713,0:0:0:0:
256,192,148367,12,8,149050,0:0:0:0:
0,32,149277,22,0,L|0:152,1,120,6|0,0:0|0:0,0:0:0:0:
72,152,149619,1,0,0:0:0:0:
72,152,149733,2,0,L|72:32,1,120,2|0,0:0|0:0,0:0:0:0:
144,32,150074,1,8,0:0:0:0:
144,32,150188,2,0,L|144:152,1,120
216,152,150529,1,0,0:0:0:0:
216,152,150643,2,0,L|216:32,1,120,0|8,0:0|0:0,0:0:0:0:
296,32,150984,1,0,0:0:0:0:
296,32,151098,6,0,L|296:152,1,120,6|0,0:0|0:0,0:0:0:0:
368,152,151439,1,8,0:0:0:0:
368,152,151553,2,0,L|368:32,1,120,2|0,0:0|0:0,0:0:0:0:
440,32,151894,1,0,0:0:0:0:
440,32,152008,2,0,L|440:152,1,120,8|2,0:0|0:0,0:0:0:0:
512,152,152350,1,0,0:0:0:0:
512,152,152463,2,0,L|512:32,1,120,0|8,0:0|0:0,0:0:0:0:
512,352,152919,6,0,L|512:232,1,120,6|0,0:0|0:0,0:0:0:0:
440,232,153261,1,0,0:0:0:0:
440,232,153375,2,0,L|440:352,1,120,10|0,0:0|0:0,0:0:0:0:
368,352,153716,1,8,0:0:0:0:
368,352,153830,2,0,L|368:232,1,120
296,232,154171,1,8,0:0:0:0:
296,232,154285,2,0,L|296:352,1,120,0|8,0:0|0:0,0:0:0:0:
216,352,154626,1,0,0:0:0:0:
216,352,154740,6,0,L|216:232,1,120,6|0,0:0|0:0,0:0:0:0:
144,232,155081,1,0,0:0:0:0:
144,232,155194,2,0,L|144:352,1,120,10|0,0:0|0:0,0:0:0:0:
72,352,155536,1,0,0:0:0:0:
72,352,155649,2,0,L|72:232,1,120,0|10,0:0|0:0,0:0:0:0:
0,232,155992,1,0,0:0:0:0:
0,232,156104,2,0,L|0:352,1,120,10|0,0:0|0:0,0:0:0:0:
88,112,156560,38,0,L|208:112,1,120,6|0,0:0|0:0,0:0:0:0:
304,112,156901,1,8,0:0:0:0:
304,112,157015,2,0,L|424:112,1,120,2|0,0:0|0:0,0:0:0:0:
256,192,157470,1,0,0:0:0:0:
256,192,157584,1,2,0:0:0:0:
256,192,157697,1,0,0:0:0:0:
176,48,157925,1,0,0:0:0:0:
336,48,158153,1,10,0:0:0:0:
376,248,158380,6,0,B|392:304|392:304|456:320,1,120,6|0,0:0|0:0,0:0:0:0:
136,248,158835,2,0,B|120:304|120:304|56:320,1,120,2|8,0:0|0:0,0:0:0:0:
232,80,159290,2,0,L|216:40,2,40
280,80,159518,2,0,L|296:40,2,40
256,120,159745,1,8,0:0:0:0:
208,232,159973,1,0,0:0:0:0:
256,248,160087,1,8,0:0:0:0:
304,232,160201,6,0,L|424:232,1,120,6|8,0:0|0:0,0:0:0:0:
488,192,160542,1,0,0:0:0:0:
424,152,160656,2,0,L|304:152,1,120,2|0,0:0|0:0,0:0:0:0:
208,232,160997,1,0,0:0:0:0:
208,232,161111,2,0,L|88:232,1,120,2|0,0:0|0:0,0:0:0:0:
24,192,161452,1,0,0:0:0:0:
88,152,161566,2,0,L|208:152,1,120,2|8,0:0|0:0,0:0:0:0:
312,288,162021,6,0,B|256:312|256:312|200:288,2,120,14|0|2,0:0|0:0|0:0,0:0:0:0:
256,96,162704,2,0,L|256:56,2,40
256,120,162931,1,14,0:0:0:0:
192,240,163159,2,8,L|144:280,1,60
256,288,163387,2,8,L|256:352,1,60
320,240,163614,2,8,L|368:280,1,60
256,192,163842,37,4,0:0:0:0:
256,192,176585,12,8,177951,0:0:0:0:
40,40,178406,54,0,L|176:40,1,135.000005149842,14|0,0:0|0:0,0:0:0:0:
472,40,178747,2,0,L|336:40,1,135.000005149842,2|0,0:0|0:0,0:0:0:0:
144,112,179089,2,0,L|72:112,1,67.5000025749208
368,112,179430,2,0,L|440:112,1,67.5000025749208
256,192,179771,1,8,0:0:0:0:
256,192,179999,1,0,0:0:0:0:
40,344,180226,6,0,L|176:344,1,135.000005149842,14|0,0:0|0:0,0:0:0:0:
472,344,180567,2,0,L|336:344,1,135.000005149842,2|0,0:0|0:0,0:0:0:0:
144,272,180909,2,0,L|72:272,1,67.5000025749208
368,272,181250,2,0,L|440:272,1,67.5000025749208
256,192,181591,1,8,0:0:0:0:
256,192,181819,1,0,0:0:0:0:
464,40,182047,70,0,B|464:104|464:104|400:136,1,135.000005149842,14|0,0:0|0:0,0:0:0:0:
48,40,182388,2,0,B|48:104|48:104|112:136,1,135.000005149842,2|0,0:0|0:0,0:0:0:0:
168,88,182730,1,0,0:0:0:0:
168,88,182843,1,0,0:0:0:0:
344,88,183071,1,0,0:0:0:0:
344,88,183184,1,0,0:0:0:0:
256,232,183412,1,8,0:0:0:0:
256,232,183640,1,0,0:0:0:0:
464,344,183867,6,0,B|464:280|464:280|400:248,1,135.000005149842,14|0,0:0|0:0,0:0:0:0:
48,344,184208,2,0,B|48:280|48:280|112:248,1,135.000005149842,2|0,0:0|0:0,0:0:0:0:
168,296,184550,1,0,0:0:0:0:
208,320,184663,1,0,0:0:0:0:
256,328,184778,1,12,0:0:0:0:
304,320,184891,1,0,0:0:0:0:
344,296,185004,1,0,0:0:0:0:
312,152,185233,2,2,B|272:168|256:232|256:232|240:168|200:152,1,202.500007724762,14|0,0:0|0:0,0:0:0:0:
168,232,185688,70,0,L|32:232,1,135.000005149842,14|0,0:0|0:0,0:0:0:0:
344,232,186029,2,0,L|480:232,1,135.000005149842,2|0,0:0|0:0,0:0:0:0:
376,304,186371,2,0,L|448:304,1,67.5000025749208
136,304,186712,2,0,L|64:304,1,67.5000025749208
256,344,187053,1,8,0:0:0:0:
256,344,187281,1,0,0:0:0:0:
168,152,187509,6,0,L|32:152,1,135.000005149842,14|0,0:0|0:0,0:0:0:0:
344,152,187850,2,0,L|480:152,1,135.000005149842,2|0,0:0|0:0,0:0:0:0:
376,80,188192,2,0,L|448:80,1,67.5000025749208
136,80,188533,2,0,L|64:80,1,67.5000025749208
256,40,188874,1,8,0:0:0:0:
256,40,189102,1,0,0:0:0:0:
432,232,189329,70,0,L|296:232,1,135.000005149842,14|0,0:0|0:0,0:0:0:0:
80,232,189670,2,0,L|216:232,1,135.000005149842,2|0,0:0|0:0,0:0:0:0:
360,152,190012,1,0,0:0:0:0:
360,152,190126,1,0,0:0:0:0:
152,152,190353,1,0,0:0:0:0:
152,152,190467,1,0,0:0:0:0:
320,304,190694,2,0,B|256:328|256:328|192:304,1,135.000005149842,8|0,0:0|0:0,0:0:0:0:
40,192,191150,5,14,0:0:0:0:
152,80,191377,1,0,0:0:0:0:
152,152,191491,1,2,0:0:0:0:
360,152,191718,1,2,0:0:0:0:
360,80,191832,1,0,0:0:0:0:
192,224,192060,1,12,0:0:0:0:
192,224,192174,2,0,B|328:224,1,135.000005149842,2|0,0:0|0:0,0:0:0:0:
400,224,192515,1,14,0:0:0:0:
112,224,192743,1,2,0:0:0:0:
128,32,192970,6,0,B|216:32|216:112,1,135.000005149842,6|0,0:0|0:0,0:0:0:0:
296,112,193311,2,0,B|296:32|384:32,1,135.000005149842,2|0,0:0|0:0,0:0:0:0:
376,112,193653,1,0,0:0:0:0:
376,112,193767,1,6,0:0:0:0:
256,16,193994,1,2,0:0:0:0:
136,112,194222,1,2,0:0:0:0:
136,112,194335,1,8,0:0:0:0:
256,192,194563,1,0,0:0:0:0:
256,240,194677,1,0,0:0:0:0:
256,288,194791,6,0,B|248:360|160:360,1,135.000005149842,6|0,0:0|0:0,0:0:0:0:
256,288,195132,2,0,B|264:360|352:360,2,135.000005149842,2|0|2,0:0|0:0|0:0,0:0:0:0:
200,240,195701,1,12,0:0:0:0:
256,192,195815,1,0,0:0:0:0:
312,240,195928,1,0,0:0:0:0:
392,80,196156,2,0,L|336:40,1,67.5000025749208,14|0,0:0|0:0,0:0:0:0:
120,80,196384,2,0,L|176:40,1,67.5000025749208,8|0,0:0|0:0,0:0:0:0:
312,136,196611,6,0,B|376:192|320:256,1,135.000005149842,6|0,0:0|0:0,0:0:0:0:
192,256,196953,2,0,B|136:192|200:136,1,135.000005149842,2|0,0:0|0:0,0:0:0:0:
320,336,197408,2,0,B|256:368|256:304|192:336,2,135.000005149842,6|2|2,0:0|0:0|0:0,0:0:0:0:
392,296,197977,1,8,0:0:0:0:
488,152,198204,1,0,0:0:0:0:
472,80,198318,1,0,0:0:0:0:
400,56,198432,6,0,B|344:40|344:40|336:80|296:96,1,135.000005149842,6|0,0:0|0:0,0:0:0:0:
216,96,198773,2,0,B|176:80|168:40|168:40|112:56,1,135.000005149842,2|0,0:0|0:0,0:0:0:0:
40,192,199228,1,2,0:0:0:0:
40,192,199342,2,0,L|64:256,1,67.5000025749208,12|0,0:0|0:0,0:0:0:0:
168,304,199570,2,0,L|192:240,1,67.5000025749208
320,240,199797,2,0,L|344:304,1,67.5000025749208,12|0,0:0|0:0,0:0:0:0:
448,256,200025,2,0,L|472:192,1,67.5000025749208
320,136,200252,38,0,B|256:176|192:136,1,135.000005149842,6|0,0:0|0:0,0:0:0:0:
192,56,200594,2,0,B|256:16|320:56,1,135.000005149842,2|0,0:0|0:0,0:0:0:0:
392,160,201049,1,6,0:0:0:0:
256,256,201276,1,2,0:0:0:0:
120,160,201504,1,2,0:0:0:0:
168,88,201618,2,0,L|208:144,1,67.5000025749208,8|0,0:0|0:0,0:0:0:0:
304,144,201845,2,0,L|344:88,1,67.5000025749208
416,24,202073,6,0,B|480:64|456:144,1,135.000005149842,6|0,0:0|0:0,0:0:0:0:
376,192,202414,2,0,B|416:256|496:232,2,135.000005149842,2|2|2,0:0|0:0|0:0,0:0:0:0:
336,128,202983,1,12,0:0:0:0:
176,128,203211,1,0,0:0:0:0:
144,184,203324,1,0,0:0:0:0:
160,248,203438,2,0,L|208:296,1,67.5000025749208,8|0,0:0|0:0,0:0:0:0:
352,248,203666,2,0,L|304:296,1,67.5000025749208,8|0,0:0|0:0,0:0:0:0:
256,368,203893,5,6,0:0:0:0:
256,368,204007,1,0,0:0:0:0:
96,360,204235,2,0,B|16:344|24:264,1,135.000005149842,2|0,0:0|0:0,0:0:0:0:
96,168,204690,2,0,B|160:200|160:136|224:168,2,135.000005149842,6|2|2,0:0|0:0|0:0,0:0:0:0:
24,152,205259,1,8,0:0:0:0:
96,280,205486,1,0,0:0:0:0:
136,336,205600,1,0,0:0:0:0:
192,296,205714,6,0,B|256:256|320:296,1,135.000005149842,6|0,0:0|0:0,0:0:0:0:
376,224,206055,1,2,0:0:0:0:
256,128,206283,1,2,0:0:0:0:
136,224,206510,1,2,0:0:0:0:
136,224,206624,2,0,L|72:192,1,67.5000025749208,12|0,0:0|0:0,0:0:0:0:
176,112,206852,2,0,L|152:48,1,67.5000025749208
336,112,207079,2,0,L|360:48,1,67.5000025749208,12|0,0:0|0:0,0:0:0:0:
376,224,207307,2,0,L|436:193,1,67.5000025749208
448,336,207534,38,0,B|368:368|320:304,1,143.999995605469,6|0,0:0|0:0,0:0:0:0:
192,304,207876,2,0,B|144:368|64:336,1,143.999995605469,2|0,0:0|0:0,0:0:0:0:
0,192,208331,1,6,0:0:0:0:
128,136,208558,1,2,0:0:0:0:
16,48,208786,1,2,0:0:0:0:
16,48,208900,1,8,0:0:0:0:
80,199,209127,1,0,0:0:0:0:
136,256,209241,1,0,0:0:0:0:
184,192,209355,6,0,B|200:128|200:128|232:152|272:128,1,143.999995605469,6|0,0:0|0:0,0:0:0:0:
328,192,209696,2,0,B|312:256|312:256|280:232|240:256,1,143.999995605469,2|0,0:0|0:0,0:0:0:0:
120,32,210151,2,2,B|208:112|288:-24|392:48,1,287.999991210938,6|0,0:0|0:0,0:0:0:0:
440,112,210720,2,0,L|456:184,1,71.9999978027344,8|0,0:0|0:0,0:0:0:0:
472,256,210948,1,8,0:0:0:0:
416,304,211062,1,8,0:0:0:0:
344,288,211175,6,0,L|296:344,2,71.9999978027344,6|0|0,0:0|0:0|0:0,0:0:0:0:
168,288,211517,2,0,L|216:344,2,71.9999978027344,2|8|0,0:0|0:0|0:0,0:0:0:0:
256,192,211858,1,0,0:0:0:0:
256,192,211972,1,2,0:0:0:0:
320,32,212199,2,0,B|256:0|256:0|192:32,1,143.999995605469,2|0,0:0|0:0,0:0:0:0:
128,72,212541,1,8,0:0:0:0:
192,112,212655,2,0,B|256:144|256:144|320:112,1,143.999995605469,2|0,0:0|0:0,0:0:0:0:
344,192,212996,6,0,B|280:240|312:320,1,143.999995605469,6|0,0:0|0:0,0:0:0:0:
200,320,213337,2,0,B|232:240|168:192,2,143.999995605469,2|2|2,0:0|0:0|0:0,0:0:0:0:
128,352,213906,1,12,0:0:0:0:
136,272,214020,1,0,0:0:0:0:
200,320,214134,1,0,0:0:0:0:
384,352,214361,1,12,0:0:0:0:
376,272,214475,1,0,0:0:0:0:
312,320,214589,1,0,0:0:0:0:
80,120,214816,38,0,B|104:192|192:192,1,143.999995605469,6|0,0:0|0:0,0:0:0:0:
320,192,215158,2,0,B|408:192|432:120,1,143.999995605469,2|0,0:0|0:0,0:0:0:0:
256,104,215613,1,6,0:0:0:0:
160,280,215840,1,2,0:0:0:0:
352,280,216068,1,2,0:0:0:0:
328,320,216182,1,8,0:0:0:0:
280,336,216296,1,0,0:0:0:0:
232,336,216409,1,0,0:0:0:0:
184,320,216523,1,0,0:0:0:0:
160,280,216637,6,0,B|88:240|96:160,1,143.999995605469,6|0,0:0|0:0,0:0:0:0:
184,192,216978,2,0,B|176:112|248:72,2,143.999995605469,2|2|2,0:0|0:0|0:0,0:0:0:0:
160,280,217547,1,6,0:0:0:0:
352,280,217775,1,0,0:0:0:0:
480,344,218002,1,8,0:0:0:0:
496,296,218116,1,0,0:0:0:0:
480,240,218230,1,8,0:0:0:0:
496,192,218344,1,8,0:0:0:0:
512,144,218457,6,2,B|464:56|384:128|336:40,1,215.999993408203,6|2,0:0|0:0,0:0:0:0:
335,39,218913,1,8,0:0:0:0:
176,40,219140,2,2,B|128:128|48:56|0:144,2,215.999993408203,6|2|10,0:0|0:0|0:0,0:0:0:0:
304,192,220050,1,0,0:0:0:0:
208,192,220164,1,2,0:0:0:0:
256,192,220278,12,8,221643,0:0:0:0:
256,192,221871,5,0,0:0:0:0:
136,40,222099,37,6,0:0:0:0:
376,40,222326,1,0,0:0:0:0:
216,40,222554,1,8,0:0:0:0:
296,40,222781,1,0,0:0:0:0:
136,112,223009,1,6,0:0:0:0:
376,112,223236,1,0,0:0:0:0:
216,112,223464,1,8,0:0:0:0:
296,112,223691,1,0,0:0:0:0:
136,192,223919,5,6,0:0:0:0:
320,272,224147,1,0,0:0:0:0:
192,272,224374,1,8,0:0:0:0:
376,192,224602,2,2,B|448:232|432:344|360:368,2,215.999993408203,2|0|8,0:0|0:0|0:0,0:0:0:0:
256,192,225512,1,0,0:0:0:0:
376,40,225740,5,6,0:0:0:0:
136,40,225967,1,0,0:0:0:0:
296,40,226195,1,8,0:0:0:0:
216,40,226422,1,0,0:0:0:0:
376,112,226650,1,6,0:0:0:0:
136,112,226877,1,0,0:0:0:0:
296,112,227105,1,8,0:0:0:0:
216,112,227332,1,0,0:0:0:0:
376,192,227560,5,6,0:0:0:0:
192,272,227788,1,0,0:0:0:0:
320,272,228015,1,8,0:0:0:0:
136,192,228243,2,2,B|64:232|80:344|152:368,2,215.999993408203,2|0|8,0:0|0:0|0:0,0:0:0:0:
256,192,229153,1,0,0:0:0:0:
408,96,229381,37,6,0:0:0:0:
256,0,229608,1,0,0:0:0:0:
408,96,229836,1,8,0:0:0:0:
408,96,230063,1,0,0:0:0:0:
104,96,230291,1,6,0:0:0:0:
256,0,230518,1,0,0:0:0:0:
104,96,230746,1,8,0:0:0:0:
104,96,230973,1,0,0:0:0:0:
184,344,231201,6,0,L|328:344,2,143.999995605469,6|0|8,0:0|0:0|0:0,0:0:0:0:
328,264,231884,1,0,0:0:0:0:
328,264,232111,2,0,L|184:264,2,143.999995605469,2|0|8,0:0|0:0|0:0,0:0:0:0:
256,120,232794,1,2,0:0:0:0:
152,192,233022,5,0,0:0:0:0:
256,40,233249,1,2,0:0:0:0:
360,192,233477,1,8,0:0:0:0:
392,56,233704,1,0,0:0:0:0:
320,88,233818,2,0,B|256:120|256:120|192:88,1,143.999995605469,2|0,0:0|0:0,0:0:0:0:
120,56,234160,1,2,0:0:0:0:
256,192,234387,1,8,0:0:0:0:
472,120,234615,1,0,0:0:0:0:
472,120,234728,6,0,L|472:264,1,143.999995605469,2|0,0:0|0:0,0:0:0:0:
472,344,235070,1,2,0:0:0:0:
344,192,235297,1,8,0:0:0:0:
40,120,235525,1,0,0:0:0:0:
40,120,235639,2,0,L|40:264,1,143.999995605469,2|0,0:0|0:0,0:0:0:0:
40,344,235981,1,2,0:0:0:0:
40,344,236094,1,0,0:0:0:0:
40,344,236208,1,8,0:0:0:0:
168,192,236435,1,0,0:0:0:0:
296,344,236663,37,6,0:0:0:0:
472,344,236890,1,0,0:0:0:0:
384,192,237118,1,8,0:0:0:0:
384,320,237345,1,0,0:0:0:0:
216,344,237573,1,6,0:0:0:0:
40,344,237800,1,0,0:0:0:0:
128,192,238028,1,8,0:0:0:0:
128,320,238255,1,0,0:0:0:0:
256,120,238483,5,6,0:0:0:0:
336,264,238710,1,0,0:0:0:0:
176,264,238938,1,8,0:0:0:0:
168,88,239166,2,2,B|208:16|304:16|344:88,2,215.999993408203,2|0|8,0:0|0:0|0:0,0:0:0:0:
256,192,240076,1,0,0:0:0:0:
200,344,240304,5,6,0:0:0:0:
24,344,240531,1,0,0:0:0:0:
112,192,240759,1,8,0:0:0:0:
112,368,240986,1,0,0:0:0:0:
312,344,241214,1,6,0:0:0:0:
488,344,241442,1,0,0:0:0:0:
400,192,241669,1,8,0:0:0:0:
400,368,241896,1,0,0:0:0:0:
400,104,242124,6,2,B|248:96|328:232|160:224,1,287.999991210938,6|8,0:0|0:0,0:0:0:0:
112,104,242807,2,2,B|264:96|184:232|352:224,1,287.999991210938,2|0,0:0|0:0,0:0:0:0:
256,40,243490,1,10,0:0:0:0:
256,40,243717,1,0,0:0:0:0:
256,192,243945,12,6,245765,0:0:0:0:
256,336,246220,53,8,0:0:0:0:
256,192,246448,1,0,0:0:0:0:
176,304,246676,6,8,L|168:352,2,47.9999985351563
184,264,246903,1,12,0:0:0:0:
336,304,247131,6,8,L|344:352,2,47.9999985351563
328,264,247358,1,12,0:0:0:0:
304,144,247586,38,0,L|304:56,1,81.0000003089905,4|0,0:0|0:0,0:0:0:0:
208,144,247813,2,0,L|120:144,1,81.0000003089905
208,240,248041,2,0,L|208:328,1,81.0000003089905,8|0,0:0|0:0,0:0:0:0:
304,240,248269,2,0,L|392:240,1,81.0000003089905
448,136,248496,2,0,B|360:136|360:136|344:104|304:88,1,162.000000617981,2|0,0:0|0:0,0:0:0:0:
208,88,248838,2,0,B|168:104|152:136|152:136|65:136,1,162.000000617981,2|0,0:0|0:0,0:0:0:0:
8,80,249179,1,2,0:0:0:0:
8,80,249293,1,0,0:0:0:0:
8,80,249406,6,2,B|96:40|176:88|160:192,1,243.000000926971,6|0,0:0|0:0,0:0:0:0:
136,264,249862,1,8,0:0:0:0:
504,80,250089,2,2,B|416:40|336:88|352:192,1,243.000000926971,6|0,0:0|0:0,0:0:0:0:
376,264,250545,1,2,0:0:0:0:
176,104,250772,1,8,0:0:0:0:
208,64,250886,1,0,0:0:0:0:
256,48,250999,1,2,0:0:0:0:
304,64,251113,1,0,0:0:0:0:
336,104,251227,6,0,L|376:176,1,81.0000003089905,4|0,0:0|0:0,0:0:0:0:
472,184,251455,2,0,L|432:256,1,81.0000003089905
424,352,251682,2,0,L|352:312,1,81.0000003089905,8|0,0:0|0:0,0:0:0:0:
256,304,251910,2,0,L|296:232,1,81.0000003089905
256,304,252137,2,0,L|216:232,1,81.0000003089905
160,312,252365,2,0,L|88:352,1,81.0000003089905
80,256,252592,2,0,L|40:184,1,81.0000003089905,10|0,0:0|0:0,0:0:0:0:
136,176,252820,2,0,L|176:104,1,81.0000003089905,2|0,0:0|0:0,0:0:0:0:
256,80,253047,6,2,B|328:144|184:240|256:304,1,243.000000926971,6|0,0:0|0:0,0:0:0:0:
336,352,253503,1,8,0:0:0:0:
176,352,253730,1,0,0:0:0:0:
120,136,253958,1,6,0:0:0:0:
112,216,254072,1,0,0:0:0:0:
176,264,254185,1,0,0:0:0:0:
392,136,254413,1,12,0:0:0:0:
400,216,254527,1,0,0:0:0:0:
336,264,254640,1,0,0:0:0:0:
256,80,254868,37,6,0:0:0:0:
304,56,254982,1,0,0:0:0:0:
360,48,255096,1,0,0:0:0:0:
408,72,255209,1,0,0:0:0:0:
432,120,255323,2,0,L|488:184,1,81.0000003089905,8|0,0:0|0:0,0:0:0:0:
456,272,255551,2,0,L|400:208,1,81.0000003089905
312,240,255778,2,0,L|368:304,2,81.0000003089905,2|0|0,0:0|0:0|0:0,0:0:0:0:
256,144,256120,2,0,L|256:56,2,81.0000003089905,2|8|0,0:0|0:0|0:0,0:0:0:0:
200,240,256461,2,0,L|144:304,1,81.0000003089905,2|0,0:0|0:0,0:0:0:0:
88,368,256689,6,2,B|32:336|40:240|80:224|144:200|112:72,1,324.000001235962,6|8,0:0|0:0,0:0:0:0:
400,72,257371,2,2,B|368:200|432:224|472:240|480:336|424:368,1,324.000001235962,6|2,0:0|0:0,0:0:0:0:
160,288,258054,1,8,0:0:0:0:
192,224,258168,1,0,0:0:0:0:
256,192,258281,1,2,0:0:0:0:
320,224,258395,1,0,0:0:0:0:
352,288,258509,6,0,L|432:264,3,81.0000003089905,4|0|0|0,0:0|0:0|0:0|0:0,0:0:0:0:
160,288,258964,2,0,L|80:264,3,81.0000003089905,8|0|0|0,0:0|0:0|0:0|0:0,0:0:0:0:
176,192,259419,2,0,L|136:120,2,81.0000003089905,2|0|0,0:0|0:0|0:0,0:0:0:0:
336,192,259761,2,0,L|376:120,2,81.0000003089905,2|8|0,0:0|0:0|0:0,0:0:0:0:
256,136,260102,2,0,L|256:48,1,81.0000003089905,2|0,0:0|0:0,0:0:0:0:
256,248,260330,5,14,0:0:0:0:
256,264,260443,1,0,0:0:0:0:
256,280,260557,1,0,0:0:0:0:
256,296,260671,1,0,0:0:0:0:
256,312,260785,1,8,0:0:0:0:
256,328,260898,1,0,0:0:0:0:
256,344,261012,1,0,0:0:0:0:
328,248,261240,70,8,L|336:304,2,54.0000002059937
320,192,261467,1,12,0:0:0:0:
184,248,261695,6,8,L|176:304,2,54.0000002059937
192,192,261922,1,12,0:0:0:0:
48,256,262150,37,14,0:0:0:0:
72,328,262264,1,0,0:0:0:0:
144,352,262378,1,0,0:0:0:0:
216,328,262491,1,0,0:0:0:0:
256,264,262605,1,14,0:0:0:0:
296,328,262719,1,0,0:0:0:0:
368,352,262832,1,0,0:0:0:0:
440,328,262946,1,0,0:0:0:0:
464,256,263060,2,0,L|488:168,1,90.0000034332277,14|0,0:0|0:0,0:0:0:0:
328,192,263288,2,0,L|344:104,1,90.0000034332277
184,192,263516,2,0,L|168:104,1,90.0000034332277,14|0,0:0|0:0,0:0:0:0:
56,256,263743,2,0,L|40:168,1,90.0000034332277
160,264,263971,5,14,0:0:0:0:
216,320,264084,1,0,0:0:0:0:
296,320,264198,1,0,0:0:0:0:
352,264,264312,1,0,0:0:0:0:
352,192,264426,1,14,0:0:0:0:
296,136,264539,1,0,0:0:0:0:
216,136,264653,1,0,0:0:0:0:
160,192,264767,1,0,0:0:0:0:
112,256,264881,2,0,L|24:240,1,90.0000034332277,14|0,0:0|0:0,0:0:0:0:
56,104,265108,2,0,L|144:120,1,90.0000034332277
400,256,265336,2,0,L|488:240,1,90.0000034332277,14|0,0:0|0:0,0:0:0:0:
456,104,265563,2,0,L|368:120,1,90.0000034332277
296,240,265791,6,0,L|296:304,5,60.0000022888184,14|0|0|0|0|0,0:0|0:0|0:0|0:0|0:0|0:0,0:0:0:0:
216,240,266246,6,0,L|216:304,5,60.0000022888184,14|0|0|0|0|0,0:0|0:0|0:0|0:0|0:0|0:0,0:0:0:0:
256,376,266701,21,14,0:0:0:0:
464,8,267043,1,14,0:0:0:0:
48,8,267384,1,14,0:0:0:0:
256,192,267612,12,4,269432,0:0:0:0:
