osu file format v14

[General]
AudioFilename: audio.mp3
AudioLeadIn: 0
PreviewTime: 112867
Countdown: 0
SampleSet: Normal
StackLeniency: 0.4
Mode: 0
LetterboxInBreaks: 0
WidescreenStoryboard: 1

[Editor]
Bookmarks: 14559,29123,43687,58251,72816,87380,101944,112867,120149,127431,134713,149278,163842,178406,192970,207535,222099,236663,247586,254868,262150,269432
DistanceSpacing: 1
BeatDivisor: 4
GridSize: 16
TimelineZoom: 1.8

[Metadata]
Title:Choppastyle
TitleUnicode:Choppastyle
Artist:Virt
ArtistUnicode:Virt
Creator:YokesPai
Version:Hard
Source:
Tags:fx3 chiptune jake kaufman retro nes 8-bit electronic instrumental Starrodkirby86 Apo11o StarCastler
BeatmapID:2140700
BeatmapSetID:1023284

[Difficulty]
HPDrainRate:5
CircleSize:4
OverallDifficulty:7
ApproachRate:8
SliderMultiplier:1.9
SliderTickRate:1

[Events]
//Background and Video events
0,0,"helichop.png",0,0
//Break Periods
2,134913,148367
2,193170,206624
//Storyboard Layer 0 (Background)
//Storyboard Layer 1 (Fail)
//Storyboard Layer 2 (Pass)
//Storyboard Layer 3 (Foreground)
//Storyboard Layer 4 (Overlay)
//Storyboard Sound Samples

[TimingPoints]
14559,455.131608890237,4,2,0,55,1,0
29123,-133.333333333333,4,2,0,55,0,0
41866,-146.907595122668,4,2,0,55,0,0
42777,-146.907595122668,4,1,0,40,0,0
43687,-133.333333333333,4,1,0,45,0,0
58251,-133.333333333333,4,1,0,35,0,0
86924,-133.333333333333,4,1,0,35,0,0
87380,-133.333333333333,4,1,0,40,0,0
98303,-133.333333333333,4,1,0,35,0,0
101944,-133.333333333333,4,1,0,40,0,0
111957,-118.623962040332,4,1,0,40,0,0
112867,-118.623962040332,4,1,0,45,0,1
134713,-133.333333333333,4,1,0,45,0,0
134827,-133.333333333333,4,1,0,35,0,0
162931,-133.333333333333,4,1,0,35,0,0
163842,-133.333333333333,4,1,0,35,0,0
178406,-133.333333333333,4,1,0,45,0,0
192970,-133.333333333333,4,1,0,45,0,0
207534,-133.333333333333,4,1,0,45,0,0
220278,-133.333333333333,4,1,0,45,0,0
222099,-133.333333333333,4,1,0,45,0,0
233022,-133.333333333333,4,1,0,40,0,0
236663,-133.333333333333,4,1,0,45,0,0
246676,-133.333333333333,4,1,0,45,0,0
247586,-118.623962040332,4,1,0,50,0,1
269432,-118.623962040332,4,1,0,50,0,0

[Colours]
Combo1 : 0,115,230
Combo2 : 22,237,54
Combo3 : 219,219,0
Combo4 : 128,128,0

[HitObjects]
256,192,14559,12,4,18200,0:0:0:0:
256,192,21841,12,4,25482,0:0:0:0:
16,224,29123,6,0,L|16:368,1,142.500005435944,6|2,0:0|0:0,0:0:0:0:
192,128,30033,1,2,0:0:0:0:
192,128,30147,1,0,0:0:0:0:
192,128,30261,2,0,L|192:80,2,35.625001358986,2|0|2,0:0|0:0|0:0,0:0:0:0:
384,352,30943,5,2,0:0:0:0:
336,256,31285,1,0,0:0:0:0:
256,176,31626,1,0,0:0:0:0:
176,256,31967,1,0,0:0:0:0:
128,352,32309,1,0,0:0:0:0:
496,224,32764,6,0,L|496:368,1,142.500005435944,6|2,0:0|0:0,0:0:0:0:
320,128,33674,1,2,0:0:0:0:
320,128,33788,1,0,0:0:0:0:
320,128,33902,2,0,L|320:80,2,35.625001358986,2|0|2,0:0|0:0|0:0,0:0:0:0:
112,0,34584,5,2,0:0:0:0:
160,96,34926,1,0,0:0:0:0:
256,144,35267,1,0,0:0:0:0:
352,96,35608,1,0,0:0:0:0:
400,0,35950,1,0,0:0:0:0:
512,192,36405,6,0,L|400:192,1,106.875004076958,6|0,0:0|0:0,0:0:0:0:
384,192,36860,1,2,0:0:0:0:
496,336,37315,1,2,0:0:0:0:
480,336,37428,1,0,0:0:0:0:
464,336,37542,1,2,0:0:0:0:
448,336,37656,1,0,0:0:0:0:
432,336,37770,1,2,0:0:0:0:
256,192,38225,5,2,0:0:0:0:
336,96,38567,1,0,3:0:0:0:
256,0,38908,1,0,0:0:0:0:
176,96,39249,1,0,0:0:0:0:
256,192,39591,1,0,0:0:0:0:
0,192,40046,6,0,L|112:192,1,106.875004076958,6|0,0:0|0:0,0:0:0:0:
128,192,40501,1,2,0:0:0:0:
16,336,40956,1,2,0:0:0:0:
32,336,41069,1,8,0:0:0:0:
48,336,41183,1,2,0:0:0:0:
64,336,41297,1,0,0:0:0:0:
80,336,41411,1,2,0:0:0:0:
256,192,41866,5,2,0:0:0:0:
256,192,42777,1,6,0:0:0:0:
512,0,43687,6,0,L|416:0,1,71.2500027179719,14|0,0:0|0:0,0:0:0:0:
432,96,44142,2,0,L|336:96,1,71.2500027179719,8|0,0:0|0:0,0:0:0:0:
352,192,44597,1,8,0:0:0:0:
352,192,44711,1,0,0:0:0:0:
352,192,44825,1,0,0:0:0:0:
256,192,45052,1,8,0:0:0:0:
0,0,45507,6,0,L|96:0,1,71.2500027179719,8|0,0:0|0:0,0:0:0:0:
80,96,45962,2,0,L|176:96,1,71.2500027179719,8|0,0:0|0:0,0:0:0:0:
160,192,46417,1,8,0:0:0:0:
160,192,46531,1,0,0:0:0:0:
160,192,46645,1,0,0:0:0:0:
256,192,46872,1,8,0:0:0:0:
496,384,47328,6,0,L|496:304,1,71.2500027179719,8|0,0:0|0:0,0:0:0:0:
416,256,47783,1,8,0:0:0:0:
336,320,48011,1,0,0:0:0:0:
256,256,48238,1,8,0:0:0:0:
256,256,48352,1,0,0:0:0:0:
256,256,48466,1,0,0:0:0:0:
176,320,48693,1,8,0:0:0:0:
16,384,49149,6,0,L|16:304,1,71.2500027179719,8|0,0:0|0:0,0:0:0:0:
96,256,49604,1,8,0:0:0:0:
176,320,49831,1,0,0:0:0:0:
256,256,50059,2,0,L|256:192,1,35.625001358986,12|0,0:0|0:0,0:0:0:0:
256,176,50286,2,0,L|256:112,1,35.625001358986,0|0,0:0|0:0,0:0:0:0:
256,96,50514,1,12,0:0:0:0:
256,80,50628,1,0,0:0:0:0:
256,64,50741,1,0,0:0:0:0:
256,48,50855,1,0,0:0:0:0:
256,32,50969,6,0,L|352:32,1,71.2500027179719,12|0,0:0|0:0,0:0:0:0:
384,112,51424,2,0,L|480:112,1,71.2500027179719,8|0,0:0|0:0,0:0:0:0:
464,208,51879,1,8,0:0:0:0:
448,224,51993,1,0,0:0:0:0:
432,208,52107,1,0,0:0:0:0:
416,224,52221,1,0,0:0:0:0:
400,208,52334,1,8,0:0:0:0:
256,32,52790,6,0,L|160:32,1,71.2500027179719,12|0,0:0|0:0,0:0:0:0:
128,112,53245,2,0,L|32:112,1,71.2500027179719,8|0,0:0|0:0,0:0:0:0:
48,208,53700,1,8,0:0:0:0:
64,224,53814,1,0,0:0:0:0:
80,208,53928,1,0,0:0:0:0:
96,224,54042,1,0,0:0:0:0:
112,208,54155,1,8,0:0:0:0:
0,384,54610,6,0,L|80:384,1,71.2500027179719,12|0,0:0|0:0,0:0:0:0:
144,320,55065,1,8,0:0:0:0:
224,384,55293,1,0,0:0:0:0:
256,288,55520,1,12,0:0:0:0:
256,288,55634,1,0,0:0:0:0:
256,288,55748,1,0,0:0:0:0:
256,192,55975,1,8,0:0:0:0:
512,384,56431,6,0,L|432:384,1,71.2500027179719,12|0,0:0|0:0,0:0:0:0:
368,320,56886,1,8,0:0:0:0:
288,384,57114,1,0,0:0:0:0:
256,288,57341,2,0,L|256:256,4,23.7500009059906,8|0|0|0|0,0:0|0:0|0:0|0:0|0:0,0:0:0:0:
256,208,57796,2,0,L|256:176,4,23.7500009059906,12|0|0|0|0,0:0|0:0|0:0|0:0|0:0,0:0:0:0:
272,128,58251,6,0,L|400:128,1,106.875004076958,6|2,0:0|0:0,0:0:0:0:
400,32,58820,1,0,0:0:0:0:
496,48,59048,2,0,L|480:128,1,71.2500027179719,2|2,0:0|0:0,0:0:0:0:
448,208,59503,1,2,0:0:0:0:
448,208,59617,2,0,L|496:208,1,35.625001358986,8|0,0:0|0:0,0:0:0:0:
512,224,59844,2,0,L|512:272,1,35.625001358986,0|0,0:0|0:0,0:0:0:0:
512,304,60072,6,0,P|448:288|400:288,1,106.875004076958,6|2,0:0|0:0,0:0:0:0:
352,368,60641,1,0,0:0:0:0:
288,304,60868,1,2,0:0:0:0:
288,304,60982,1,0,0:0:0:0:
336,224,61209,1,0,0:0:0:0:
384,144,61437,1,8,0:0:0:0:
304,96,61665,2,0,L|256:96,1,35.625001358986,8|8,0:0|0:0,0:0:0:0:
240,128,61892,6,0,L|112:128,1,106.875004076958,6|2,0:0|0:0,0:0:0:0:
112,32,62461,1,0,0:0:0:0:
16,48,62689,2,0,L|32:128,1,71.2500027179719,2|2,0:0|0:0,0:0:0:0:
64,208,63144,1,2,0:0:0:0:
64,208,63258,2,0,L|16:208,1,35.625001358986,8|0,0:0|0:0,0:0:0:0:
0,224,63485,2,0,L|0:272,1,35.625001358986,0|0,0:0|0:0,0:0:0:0:
0,304,63713,6,0,P|64:288|112:288,1,106.875004076958,6|2,0:0|0:0,0:0:0:0:
160,368,64282,1,2,0:0:0:0:
224,304,64509,1,2,0:0:0:0:
224,304,64623,1,12,0:0:0:0:
176,224,64850,1,0,0:0:0:0:
128,144,65078,1,12,0:0:0:0:
208,96,65306,2,0,L|256:96,1,35.625001358986,0|0,0:0|0:0,0:0:0:0:
272,80,65533,5,6,0:0:0:0:
368,64,65761,1,0,0:0:0:0:
368,64,65875,1,2,0:0:0:0:
416,144,66102,2,0,L|416:224,1,71.2500027179719,0|2,0:0|0:0,0:0:0:0:
320,240,66557,2,0,L|320:168,1,71.2500027179719,2|2,0:0|0:0,0:0:0:0:
304,144,66899,1,8,0:0:0:0:
240,80,67126,5,0,0:0:0:0:
240,80,67240,1,0,0:0:0:0:
240,80,67354,1,6,0:0:0:0:
144,64,67582,1,0,0:0:0:0:
144,64,67696,1,2,0:0:0:0:
96,144,67923,2,0,L|96:224,1,71.2500027179719,0|2,0:0|0:0,0:0:0:0:
192,240,68378,2,0,L|192:168,1,71.2500027179719,0|0,0:0|0:0,0:0:0:0:
208,144,68719,1,8,0:0:0:0:
256,64,68947,6,0,L|304:64,1,35.625001358986,8|8,0:0|0:0,0:0:0:0:
320,80,69174,2,0,L|320:128,1,35.625001358986,6|0,0:0|0:0,0:0:0:0:
336,144,69402,2,0,L|384:144,1,35.625001358986,0|0,0:0|0:0,0:0:0:0:
400,160,69629,1,10,0:0:0:0:
352,240,69857,1,0,0:0:0:0:
352,240,69971,2,0,L|272:240,1,71.2500027179719,0|0,0:0|0:0,0:0:0:0:
256,160,70426,1,0,0:0:0:0:
256,160,70540,1,10,0:0:0:0:
256,160,70653,1,0,0:0:0:0:
256,64,70881,1,6,0:0:0:0:
256,64,70995,6,0,L|208:64,1,35.625001358986,0|0,0:0|0:0,0:0:0:0:
192,80,71222,2,0,L|192:128,1,35.625001358986,0|0,0:0|0:0,0:0:0:0:
176,144,71450,2,0,L|128:144,1,35.625001358986,10|0,0:0|0:0,0:0:0:0:
112,160,71677,1,0,0:0:0:0:
160,240,71905,2,0,L|240:240,1,71.2500027179719,12|0,0:0|0:0,0:0:0:0:
256,336,72360,1,12,0:0:0:0:
256,336,72474,1,0,0:0:0:0:
256,336,72588,1,0,0:0:0:0:
256,336,72702,1,0,0:0:0:0:
256,336,72815,6,0,L|368:336,1,106.875004076958,6|2,0:0|0:0,0:0:0:0:
352,240,73384,1,0,0:0:0:0:
368,144,73612,1,2,0:0:0:0:
320,64,73839,1,2,0:0:0:0:
256,128,74067,1,2,0:0:0:0:
256,128,74181,1,8,0:0:0:0:
192,64,74408,5,0,0:0:0:0:
192,64,74522,1,0,0:0:0:0:
192,64,74636,1,6,0:0:0:0:
144,144,74863,1,0,0:0:0:0:
144,144,74977,1,2,0:0:0:0:
160,240,75205,1,0,0:0:0:0:
149,336,75432,2,0,L|256:336,1,106.875004076958,2|0,0:0|0:0,0:0:0:0:
256,240,76001,1,8,0:0:0:0:
336,160,76229,1,8,0:0:0:0:
336,160,76343,1,8,0:0:0:0:
336,160,76456,6,0,L|320:80,1,71.2500027179719,6|0,0:0|0:0,0:0:0:0:
304,64,76798,1,6,0:0:0:0:
208,64,77025,1,0,0:0:0:0:
189,90,77140,2,0,L|175:159,1,71.2500027179719,6|0,0:0|0:0,0:0:0:0:
174,159,77480,1,2,0:0:0:0:
174,159,77594,1,0,0:0:0:0:
174,159,77708,1,0,0:0:0:0:
174,159,77822,1,10,0:0:0:0:
256,240,78049,1,0,0:0:0:0:
208,320,78277,6,0,L|64:320,1,142.500005435944,6|8,0:0|0:0,0:0:0:0:
304,320,79187,2,0,L|448:320,1,142.500005435944,12|12,0:0|0:0,0:0:0:0:
512,128,80097,5,6,0:0:0:0:
432,80,80325,1,0,0:0:0:0:
432,80,80439,2,0,L|336:96,1,71.2500027179719,2|0,0:0|0:0,0:0:0:0:
320,176,80894,1,2,0:0:0:0:
256,240,81121,1,2,0:0:0:0:
192,176,81349,1,2,0:0:0:0:
0,128,81690,5,0,0:0:0:0:
0,128,81804,1,0,0:0:0:0:
0,128,81918,1,6,0:0:0:0:
80,80,82146,1,0,0:0:0:0:
80,80,82259,2,0,L|176:96,1,71.2500027179719,2|0,0:0|0:0,0:0:0:0:
192,176,82714,1,2,0:0:0:0:
192,176,82828,1,0,0:0:0:0:
256,96,83056,1,0,0:0:0:0:
320,176,83283,1,8,0:0:0:0:
384,256,83511,1,8,0:0:0:0:
384,256,83625,1,8,0:0:0:0:
384,256,83739,6,0,B|384:304|384:304|304:352,1,106.875004076958,6|2,0:0|0:0,0:0:0:0:
178,334,84421,2,0,B|128:304|128:304|128:256,1,106.875004076958,6|2,0:0|0:0,0:0:0:0:
208,128,85104,1,10,0:0:0:0:
304,128,85331,1,0,0:0:0:0:
304,128,85445,1,2,0:0:0:0:
384,256,85787,5,2,0:0:0:0:
304,320,86014,2,0,L|304:368,2,35.625001358986,8|2|0,0:0|0:0|0:0,0:0:0:0:
208,320,86469,2,0,L|208:368,2,35.625001358986,8|0|0,0:0|0:0|0:0,0:0:0:0:
128,256,86924,6,0,L|128:176,2,71.2500027179719,8|0|6,0:0|0:0|0:0,0:0:0:0:
32,128,87835,2,0,L|32:48,2,71.2500027179719,8|0|6,0:0|0:0|0:0,0:0:0:0:
32,320,88745,5,8,0:0:0:0:
128,320,88973,1,0,0:0:0:0:
80,240,89200,1,6,0:0:0:0:
128,160,89428,1,0,0:0:0:0:
32,160,89655,1,8,0:0:0:0:
80,80,89883,1,2,0:0:0:0:
384,256,90565,6,0,L|384:176,2,71.2500027179719,8|0|6,0:0|0:0|0:0,0:0:0:0:
480,128,91476,2,0,L|480:48,2,71.2500027179719,8|0|6,0:0|0:0|0:0,0:0:0:0:
480,320,92386,5,8,0:0:0:0:
384,320,92614,1,0,0:0:0:0:
432,240,92841,1,6,0:0:0:0:
384,160,93069,1,0,0:0:0:0:
480,160,93296,1,8,0:0:0:0:
432,80,93524,1,2,0:0:0:0:
128,64,94207,5,8,0:0:0:0:
208,112,94434,1,0,0:0:0:0:
256,32,94662,1,6,0:0:0:0:
176,208,95117,5,8,0:0:0:0:
256,256,95344,1,0,0:0:0:0:
336,208,95572,1,6,0:0:0:0:
256,32,96027,5,8,0:0:0:0:
304,112,96255,1,0,0:0:0:0:
384,64,96482,1,6,0:0:0:0:
336,208,96937,6,0,L|336:288,1,71.2500027179719,8|0,0:0|0:0,0:0:0:0:
292,367,97392,2,0,L|196:367,1,71.2500027179719,2|0,0:0|0:0,0:0:0:0:
176,279,97848,2,0,L|176:208,1,71.2500027179719,8|6,0:0|0:0,0:0:0:0:
48,48,98530,5,2,0:0:0:0:
128,0,98758,2,0,B|144:80|144:80|144:112,2,106.875004076958,8|2|2,0:0|0:0|0:0,0:0:0:0:
224,32,99668,1,8,0:0:0:0:
256,160,100009,1,2,0:0:0:0:
288,32,100351,1,2,0:0:0:0:
384,0,100579,2,0,B|368:80|368:80|368:112,2,106.875004076958,8|2|2,0:0|0:0|0:0,0:0:0:0:
464,48,101489,6,0,L|464:128,2,71.2500027179719,8|0|6,0:0|0:0|0:0,0:0:0:0:
464,224,102399,2,0,L|464:304,2,71.2500027179719,8|0|6,0:0|0:0|0:0,0:0:0:0:
384,384,103309,1,8,0:0:0:0:
320,320,103537,1,0,0:0:0:0:
384,256,103764,1,6,0:0:0:0:
320,192,103992,1,0,0:0:0:0:
256,256,104219,1,8,0:0:0:0:
192,192,104447,1,2,0:0:0:0:
48,48,105130,6,0,L|48:128,2,71.2500027179719,8|0|6,0:0|0:0|0:0,0:0:0:0:
48,224,106040,2,0,L|48:304,2,71.2500027179719,8|0|6,0:0|0:0|0:0,0:0:0:0:
128,384,106950,1,8,0:0:0:0:
192,320,107178,1,0,0:0:0:0:
128,256,107405,1,6,0:0:0:0:
256,128,107860,1,8,0:0:0:0:
256,224,108088,1,2,0:0:0:0:
352,0,108771,5,10,0:0:0:0:
256,32,108998,1,0,0:0:0:0:
160,0,109226,1,6,0:0:0:0:
256,192,109340,12,4,111046,0:0:0:0:
304,352,111957,6,0,L|304:384,3,26.6949999185333,8|8|8|12,0:0|0:0|0:0|0:0,0:0:0:0:
208,378,112412,2,0,L|208:351,3,26.6949999185333,8|8|8|12,0:0|0:0|0:0|0:0,0:0:0:0:
144,288,112867,5,6,0:0:0:0:
144,272,112981,1,0,0:0:0:0:
144,256,113094,1,0,0:0:0:0:
144,240,113208,1,0,0:0:0:0:
144,224,113322,2,0,L|144:176,2,40.0424998778,8|0|0,0:0|0:0|0:0,0:0:0:0:
48,160,113777,5,2,0:0:0:0:
160,64,114119,1,2,0:0:0:0:
256,176,114460,1,2,0:0:0:0:
256,272,114687,1,6,0:0:0:0:
80,352,115143,5,8,0:0:0:0:
80,352,115370,2,0,L|80:272,1,80.0849997556,6|0,0:0|0:0,0:0:0:0:
32,192,115825,2,0,L|32:112,1,80.0849997556,2|8,0:0|0:0,0:0:0:0:
0,32,116280,1,2,0:0:0:0:
96,32,116508,5,4,0:0:0:0:
112,32,116622,1,0,0:0:0:0:
128,32,116736,1,0,0:0:0:0:
144,32,116849,1,0,0:0:0:0:
160,32,116963,2,0,L|208:32,2,40.0424998778,8|0|0,0:0|0:0|0:0,0:0:0:0:
160,128,117418,1,0,0:0:0:0:
64,288,117873,5,10,0:0:0:0:
112,368,118101,1,2,0:0:0:0:
192,320,118329,1,6,0:0:0:0:
304,176,118784,5,8,0:0:0:0:
208,176,119011,1,0,0:0:0:0:
256,256,119238,1,6,0:0:0:0:
320,320,119465,1,0,0:0:0:0:
400,368,119693,1,8,0:0:0:0:
448,288,119921,1,0,0:0:0:0:
368,288,120149,5,6,0:0:0:0:
368,272,120263,1,0,0:0:0:0:
368,256,120376,1,0,0:0:0:0:
368,240,120490,1,0,0:0:0:0:
368,224,120604,2,0,L|368:176,2,40.0424998778,8|0|0,0:0|0:0|0:0,0:0:0:0:
464,160,121059,5,2,0:0:0:0:
352,64,121401,1,2,0:0:0:0:
256,176,121742,1,2,0:0:0:0:
256,272,121969,1,6,0:0:0:0:
432,352,122425,5,8,0:0:0:0:
432,352,122652,2,0,L|432:272,1,80.0849997556,6|0,0:0|0:0,0:0:0:0:
480,192,123107,2,0,L|480:112,1,80.0849997556,2|8,0:0|0:0,0:0:0:0:
512,32,123562,1,2,0:0:0:0:
416,32,123790,5,4,0:0:0:0:
400,32,123904,1,0,0:0:0:0:
384,32,124018,1,0,0:0:0:0:
368,32,124131,1,0,0:0:0:0:
352,32,124245,2,0,L|304:32,2,40.0424998778,8|0|0,0:0|0:0|0:0,0:0:0:0:
352,128,124700,1,2,0:0:0:0:
336,272,125042,1,2,0:0:0:0:
176,272,125383,1,2,0:0:0:0:
256,224,125611,1,6,0:0:0:0:
208,32,126521,6,0,L|208:64,3,26.6949999185333,8|8|8|12,0:0|0:0|0:0|0:0,0:0:0:0:
304,58,126976,2,0,L|304:32,3,26.6949999185333,8|8|8|12,0:0|0:0|0:0|0:0,0:0:0:0:
400,0,127431,6,0,L|400:64,1,40.0424998778,6|0,0:0|0:0,0:0:0:0:
416,64,127659,2,0,L|416:128,1,40.0424998778,0|0,0:0|0:0,0:0:0:0:
400,128,127886,1,10,0:0:0:0:
336,288,128341,5,10,0:0:0:0:
352,272,128455,1,0,0:0:0:0:
368,256,128569,1,0,0:0:0:0:
352,240,128683,1,0,0:0:0:0:
336,224,128797,1,10,0:0:0:0:
256,256,129024,1,0,0:0:0:0:
176,224,129252,5,14,0:0:0:0:
160,240,129366,1,0,0:0:0:0:
144,256,129479,1,0,0:0:0:0:
160,272,129594,1,0,0:0:0:0:
176,288,129708,1,10,0:0:0:0:
112,0,130162,6,0,L|112:64,1,40.0424998778,10|0,0:0|0:0,0:0:0:0:
96,64,130390,2,0,L|96:128,1,40.0424998778,0|0,0:0|0:0,0:0:0:0:
112,128,130617,1,10,0:0:0:0:
256,288,131072,5,14,0:0:0:0:
256,272,131186,1,0,0:0:0:0:
256,256,131300,1,0,0:0:0:0:
256,240,131414,1,0,0:0:0:0:
256,224,131527,2,0,L|256:176,3,40.0424998778,10|0|0|0,0:0|0:0|0:0|0:0,0:0:0:0:
256,160,131982,5,14,0:0:0:0:
336,304,132324,1,14,0:0:0:0:
176,304,132665,1,14,0:0:0:0:
256,352,132893,1,14,0:0:0:0:
256,192,133007,12,6,134713,0:0:0:0:
0,192,149277,5,6,0:0:0:0:
64,128,149505,1,0,0:0:0:0:
64,128,149619,1,0,0:0:0:0:
64,128,149733,2,0,L|144:128,1,71.2500027179719,2|0,0:0|0:0,0:0:0:0:
112,48,150188,2,0,L|32:48,2,71.2500027179719,0|0|0,0:0|0:0|0:0,0:0:0:0:
192,64,150870,1,8,0:0:0:0:
224,144,151098,5,6,0:0:0:0:
176,224,151326,1,0,0:0:0:0:
176,224,151439,1,8,0:0:0:0:
176,224,151553,2,0,L|96:224,1,71.2500027179719,2|0,0:0|0:0,0:0:0:0:
96,304,152008,2,0,L|176:304,1,71.2500027179719,8|2,0:0|0:0,0:0:0:0:
256,304,152463,1,0,0:0:0:0:
512,192,152919,5,6,0:0:0:0:
448,128,153147,1,0,0:0:0:0:
448,128,153261,1,0,0:0:0:0:
448,128,153375,2,0,L|368:128,1,71.2500027179719,10|0,0:0|0:0,0:0:0:0:
400,48,153830,2,0,L|480:48,2,71.2500027179719,0|0|0,0:0|0:0|0:0,0:0:0:0:
320,64,154512,1,8,0:0:0:0:
288,144,154740,5,6,0:0:0:0:
336,224,154968,1,0,0:0:0:0:
336,224,155081,1,0,0:0:0:0:
336,224,155195,2,0,L|416:224,1,71.2500027179719,10|0,0:0|0:0,0:0:0:0:
416,304,155650,2,0,L|336:304,1,71.2500027179719,0|10,0:0|0:0,0:0:0:0:
256,304,156105,1,10,0:0:0:0:
80,384,156560,5,6,0:0:0:0:
16,320,156787,1,0,0:0:0:0:
16,304,156901,1,8,0:0:0:0:
16,288,157015,2,0,L|16:208,1,71.2500027179719,2|0,0:0|0:0,0:0:0:0:
96,192,157470,1,0,0:0:0:0:
176,224,157697,1,0,0:0:0:0:
256,192,157925,1,0,0:0:0:0:
432,384,158380,5,6,0:0:0:0:
496,320,158607,1,0,0:0:0:0:
496,304,158721,1,0,0:0:0:0:
496,288,158835,2,0,L|496:208,1,71.2500027179719,2|8,0:0|0:0,0:0:0:0:
416,192,159290,1,0,0:0:0:0:
336,224,159517,1,0,0:0:0:0:
256,192,159745,1,8,0:0:0:0:
400,32,160201,5,6,0:0:0:0:
400,32,160314,1,0,0:0:0:0:
320,80,160542,1,0,0:0:0:0:
320,80,160656,1,2,0:0:0:0:
112,32,161111,5,2,0:0:0:0:
112,32,161224,1,8,0:0:0:0:
192,80,161452,1,0,0:0:0:0:
192,80,161566,1,2,0:0:0:0:
256,144,161794,1,8,0:0:0:0:
208,224,162021,1,14,0:0:0:0:
208,224,162135,1,0,0:0:0:0:
304,224,162362,1,0,0:0:0:0:
304,224,162476,1,2,0:0:0:0:
256,304,162704,2,0,L|256:336,3,23.7500009059906,0|0|0|14,0:0|0:0|0:0|0:0,0:0:0:0:
0,384,163842,6,0,L|0:304,1,71.2500027179719,12|0,0:0|0:0,0:0:0:0:
64,240,164297,1,8,0:0:0:0:
64,240,164411,1,0,0:0:0:0:
64,240,164524,2,0,L|144:240,1,71.2500027179719,0|8,0:0|0:0,0:0:0:0:
224,208,164979,1,0,0:0:0:0:
256,304,165207,1,8,0:0:0:0:
512,384,165662,6,0,L|512:304,1,71.2500027179719,8|0,0:0|0:0,0:0:0:0:
448,240,166117,1,8,0:0:0:0:
448,240,166231,1,0,0:0:0:0:
448,240,166344,2,0,L|368:240,1,71.2500027179719,0|8,0:0|0:0,0:0:0:0:
288,208,166799,1,0,0:0:0:0:
256,304,167027,1,8,0:0:0:0:
0,192,167483,5,8,0:0:0:0:
0,192,167597,1,0,0:0:0:0:
0,192,167710,2,0,L|0:112,1,71.2500027179719,0|8,0:0|0:0,0:0:0:0:
80,64,168165,1,0,0:0:0:0:
160,16,168393,1,8,0:0:0:0:
256,16,168621,1,0,0:0:0:0:
256,112,168848,1,8,0:0:0:0:
512,192,169303,6,0,L|512:112,1,71.2500027179719,8|0,0:0|0:0,0:0:0:0:
432,64,169758,1,8,0:0:0:0:
352,16,169986,1,0,0:0:0:0:
256,16,170214,2,0,L|256:64,1,35.625001358986,8|0,0:0|0:0,0:0:0:0:
256,80,170441,2,0,L|256:128,1,35.625001358986,0|0,0:0|0:0,0:0:0:0:
256,160,170669,1,8,0:0:0:0:
256,176,170782,1,0,0:0:0:0:
256,192,170896,1,0,0:0:0:0:
256,208,171010,1,0,0:0:0:0:
256,224,171124,5,8,0:0:0:0:
336,256,171351,2,0,L|416:256,1,71.2500027179719,0|8,0:0|0:0,0:0:0:0:
480,304,171806,1,0,0:0:0:0:
480,320,171920,1,0,0:0:0:0:
480,336,172034,1,8,0:0:0:0:
480,352,172148,1,0,0:0:0:0:
480,368,172262,1,0,0:0:0:0:
384,384,172489,1,8,0:0:0:0:
256,224,172944,5,8,0:0:0:0:
176,256,173171,2,0,L|96:256,1,71.2500027179719,0|8,0:0|0:0,0:0:0:0:
32,304,173626,1,0,0:0:0:0:
32,320,173740,1,0,0:0:0:0:
32,336,173855,1,8,0:0:0:0:
32,352,173968,1,0,0:0:0:0:
32,368,174082,1,0,0:0:0:0:
128,384,174309,1,8,0:0:0:0:
80,144,174765,5,8,0:0:0:0:
144,64,174992,1,0,0:0:0:0:
208,144,175220,1,8,0:0:0:0:
208,144,175334,1,0,0:0:0:0:
208,144,175448,1,0,0:0:0:0:
304,144,175675,1,8,0:0:0:0:
368,64,175903,1,0,0:0:0:0:
432,144,176130,1,8,0:0:0:0:
256,256,176585,5,8,0:0:0:0:
432,304,177040,1,8,0:0:0:0:
256,352,177496,1,8,0:0:0:0:
80,304,177951,1,8,0:0:0:0:
16,128,178406,5,14,0:0:0:0:
144,128,178747,1,2,0:0:0:0:
144,256,179089,1,0,0:0:0:0:
80,304,179316,1,8,0:0:0:0:
16,256,179544,1,0,0:0:0:0:
80,208,179771,1,8,0:0:0:0:
368,128,180226,5,14,0:0:0:0:
496,128,180567,1,2,0:0:0:0:
496,256,180909,1,0,0:0:0:0:
432,208,181136,1,8,0:0:0:0:
368,256,181364,1,0,0:0:0:0:
432,304,181591,1,8,0:0:0:0:
256,368,182047,5,14,0:0:0:0:
256,240,182388,1,2,0:0:0:0:
256,112,182730,1,0,0:0:0:0:
192,64,182957,1,8,0:0:0:0:
256,16,183185,1,0,0:0:0:0:
320,64,183412,1,8,0:0:0:0:
176,208,183867,5,14,0:0:0:0:
336,208,184209,1,2,0:0:0:0:
256,336,184550,1,0,0:0:0:0:
256,256,184778,2,0,L|256:208,1,35.625001358986,12|0,0:0|0:0,0:0:0:0:
256,192,185005,2,0,L|256:144,1,35.625001358986,0|0,0:0|0:0,0:0:0:0:
256,128,185233,1,14,0:0:0:0:
256,112,185347,1,0,0:0:0:0:
256,96,185460,1,0,0:0:0:0:
256,80,185574,1,0,0:0:0:0:
256,64,185688,5,14,0:0:0:0:
384,64,186029,1,2,0:0:0:0:
512,64,186371,1,0,0:0:0:0:
448,128,186598,1,8,0:0:0:0:
384,192,186826,1,0,0:0:0:0:
320,256,187053,1,8,0:0:0:0:
256,64,187509,5,14,0:0:0:0:
128,64,187850,1,2,0:0:0:0:
0,64,188192,1,0,0:0:0:0:
64,128,188419,1,8,0:0:0:0:
128,192,188647,1,0,0:0:0:0:
192,256,188874,1,8,0:0:0:0:
336,96,189329,5,14,0:0:0:0:
176,96,189670,1,2,0:0:0:0:
256,240,190012,1,0,0:0:0:0:
256,160,190239,1,8,0:0:0:0:
256,80,190467,1,0,0:0:0:0:
256,0,190694,1,8,0:0:0:0:
327,192,191150,5,14,0:0:0:0:
256,240,191377,1,0,0:0:0:0:
256,240,191491,1,2,0:0:0:0:
185,192,191718,1,2,0:0:0:0:
185,192,191832,1,0,0:0:0:0:
212,112,192060,1,12,0:0:0:0:
212,112,192174,1,2,0:0:0:0:
300,112,192401,1,0,0:0:0:0:
300,112,192515,1,14,0:0:0:0:
327,192,192743,2,0,L|256:192,1,71.2500027179719,2|6,0:0|0:0,0:0:0:0:
512,16,207534,6,0,L|432:16,1,71.2500027179719,6|0,0:0|0:0,0:0:0:0:
416,16,207876,1,2,0:0:0:0:
368,96,208103,1,0,0:0:0:0:
464,96,208331,2,0,L|464:176,1,71.2500027179719,6|2,0:0|0:0,0:0:0:0:
512,240,208786,1,2,0:0:0:0:
400,352,209127,1,0,0:0:0:0:
400,352,209241,1,0,0:0:0:0:
400,352,209355,2,0,L|320:352,1,71.2500027179719,6|0,0:0|0:0,0:0:0:0:
304,352,209696,1,2,0:0:0:0:
336,272,209924,1,0,0:0:0:0:
304,192,210151,1,6,0:0:0:0:
304,192,210265,2,0,L|384:192,2,71.2500027179719,0|0|8,0:0|0:0|0:0,0:0:0:0:
256,112,210948,5,8,0:0:0:0:
256,112,211062,1,8,0:0:0:0:
256,112,211175,2,0,L|304:112,3,35.625001358986,6|0|0|2,0:0|0:0|0:0|0:0,0:0:0:0:
320,128,211630,2,0,L|368:128,3,35.625001358986,8|0|0|2,0:0|0:0|0:0|0:0,0:0:0:0:
384,144,212086,1,0,0:0:0:0:
400,160,212199,1,2,0:0:0:0:
416,176,212313,1,0,0:0:0:0:
432,192,212427,1,0,0:0:0:0:
448,208,212541,1,8,0:0:0:0:
256,112,212996,6,0,L|208:112,3,35.625001358986,6|0|0|2,0:0|0:0|0:0|0:0,0:0:0:0:
192,128,213451,2,0,L|144:128,3,35.625001358986,8|2|0|2,0:0|0:0|0:0|0:0,0:0:0:0:
128,144,213907,1,12,0:0:0:0:
112,160,214020,1,0,0:0:0:0:
96,176,214134,1,0,0:0:0:0:
80,192,214248,1,0,0:0:0:0:
64,208,214362,1,12,0:0:0:0:
0,16,214816,6,0,L|80:16,1,71.2500027179719,6|0,0:0|0:0,0:0:0:0:
96,16,215158,1,2,0:0:0:0:
144,96,215385,1,0,0:0:0:0:
48,96,215613,2,0,L|48:176,1,71.2500027179719,6|2,0:0|0:0,0:0:0:0:
0,240,216068,1,2,0:0:0:0:
112,352,216409,1,0,0:0:0:0:
112,352,216523,1,0,0:0:0:0:
112,352,216637,2,0,L|192:352,1,71.2500027179719,6|0,0:0|0:0,0:0:0:0:
208,352,216978,1,2,0:0:0:0:
176,272,217206,1,2,0:0:0:0:
208,192,217433,1,2,0:0:0:0:
208,192,217547,2,0,L|128:192,2,71.2500027179719,6|0|8,0:0|0:0|0:0,0:0:0:0:
256,112,218230,5,8,0:0:0:0:
256,112,218344,1,8,0:0:0:0:
256,112,218457,2,0,B|304:112|304:112|352:48,1,106.875004076958,6|2,0:0|0:0,0:0:0:0:
172,64,219140,2,0,B|208:112|208:112|256:112,1,106.875004076958,6|2,0:0|0:0,0:0:0:0:
256,256,219823,1,10,0:0:0:0:
256,352,220050,1,0,0:0:0:0:
256,352,220164,1,2,0:0:0:0:
256,352,220278,1,0,0:0:0:0:
368,160,220733,5,8,0:0:0:0:
144,160,221188,1,0,0:0:0:0:
256,352,221643,6,0,L|336:352,2,71.2500027179719,8|0|6,0:0|0:0|0:0,0:0:0:0:
432,304,222554,2,0,L|512:304,2,71.2500027179719,8|0|6,0:0|0:0|0:0,0:0:0:0:
256,256,223464,1,8,0:0:0:0:
352,256,223691,1,0,0:0:0:0:
400,176,223919,1,6,0:0:0:0:
496,176,224147,1,0,0:0:0:0:
448,96,224374,1,8,0:0:0:0:
352,96,224602,1,2,0:0:0:0:
256,352,225284,6,0,L|176:352,2,71.2500027179719,8|0|6,0:0|0:0|0:0,0:0:0:0:
80,304,226195,2,0,L|0:304,2,71.2500027179719,8|0|6,0:0|0:0|0:0,0:0:0:0:
256,256,227105,1,8,0:0:0:0:
160,256,227332,1,0,0:0:0:0:
112,176,227560,1,6,0:0:0:0:
16,176,227788,1,0,0:0:0:0:
64,96,228015,1,8,0:0:0:0:
160,96,228243,1,2,0:0:0:0:
256,352,228925,5,8,0:0:0:0:
336,288,229153,1,0,0:0:0:0:
432,320,229381,1,6,0:0:0:0:
336,160,229836,5,8,0:0:0:0:
256,224,230063,1,0,0:0:0:0:
176,160,230291,1,6,0:0:0:0:
80,320,230746,5,8,0:0:0:0:
176,288,230974,1,0,0:0:0:0:
256,352,231202,1,6,0:0:0:0:
320,160,231656,6,0,L|320:80,1,71.2500027179719,8|0,0:0|0:0,0:0:0:0:
292,0,232111,2,0,L|220:0,1,71.2500027179719,2|0,0:0|0:0,0:0:0:0:
192,88,232567,2,0,L|192:160,1,71.2500027179719,8|2,0:0|0:0,0:0:0:0:
32,304,233249,5,2,0:0:0:0:
112,336,233477,2,0,B|160:352|160:352|224:352,2,106.875004076958,8|2|2,0:0|0:0|0:0,0:0:0:0:
160,256,234387,1,8,0:0:0:0:
256,144,234728,1,2,0:0:0:0:
352,256,235070,1,2,0:0:0:0:
400,336,235297,2,0,B|352:352|352:352|288:352,2,106.875004076958,8|2|2,0:0|0:0|0:0,0:0:0:0:
480,304,236208,6,0,L|480:224,2,71.2500027179719,8|0|6,0:0|0:0|0:0,0:0:0:0:
448,128,237118,2,0,L|448:48,2,71.2500027179719,8|0|6,0:0|0:0|0:0,0:0:0:0:
400,304,238028,1,8,0:0:0:0:
304,304,238256,1,0,0:0:0:0:
208,304,238483,1,6,0:0:0:0:
256,224,238711,1,0,0:0:0:0:
304,144,238938,1,8,0:0:0:0:
352,224,239166,1,2,0:0:0:0:
32,304,239849,6,0,L|32:224,2,71.2500027179719,8|0|6,0:0|0:0|0:0,0:0:0:0:
64,128,240759,2,0,L|64:48,2,71.2500027179719,8|0|6,0:0|0:0|0:0,0:0:0:0:
112,304,241669,1,8,0:0:0:0:
208,304,241897,1,0,0:0:0:0:
304,304,242124,1,6,0:0:0:0:
208,144,242579,1,8,0:0:0:0:
160,224,242807,1,2,0:0:0:0:
352,16,243490,5,10,0:0:0:0:
256,64,243718,1,0,0:0:0:0:
160,16,243945,1,6,0:0:0:0:
256,192,244059,12,6,245765,0:0:0:0:
304,0,246676,6,0,L|304:23,3,23.7500009059906,8|8|8|12,0:0|0:0|0:0|0:0,0:0:0:0:
208,23,247131,2,0,L|208:0,3,23.7500009059906,8|8|8|12,0:0|0:0|0:0|0:0,0:0:0:0:
112,0,247586,5,4,0:0:0:0:
112,16,247700,1,0,0:0:0:0:
112,32,247813,1,0,0:0:0:0:
112,48,247927,1,0,0:0:0:0:
112,64,248041,2,0,L|112:112,2,40.0424998778,8|0|0,0:0|0:0|0:0,0:0:0:0:
16,96,248496,5,2,0:0:0:0:
64,176,248724,1,0,0:0:0:0:
64,176,248837,1,2,0:0:0:0:
160,176,249065,1,0,0:0:0:0:
160,176,249179,2,0,L|160:224,1,40.0424998778,2|0,0:0|0:0,0:0:0:0:
160,240,249406,1,6,0:0:0:0:
0,384,249862,5,8,0:0:0:0:
96,368,250089,2,0,L|176:368,1,80.0849997556,6|0,0:0|0:0,0:0:0:0:
256,304,250544,1,2,0:0:0:0:
256,304,250658,1,0,0:0:0:0:
256,208,250886,1,0,0:0:0:0:
256,208,250999,1,2,0:0:0:0:
176,256,251227,5,4,0:0:0:0:
160,256,251341,1,0,0:0:0:0:
144,256,251455,1,0,0:0:0:0:
128,256,251568,1,0,0:0:0:0:
112,256,251682,2,0,L|32:256,1,80.0849997556,8|0,0:0|0:0,0:0:0:0:
16,352,252137,1,0,0:0:0:0:
144,176,252592,5,10,0:0:0:0:
208,112,252820,1,2,0:0:0:0:
192,32,253047,1,6,0:0:0:0:
176,256,253503,5,8,0:0:0:0:
256,304,253730,1,0,0:0:0:0:
336,256,253958,1,6,0:0:0:0:
368,176,254185,1,0,0:0:0:0:
304,112,254413,1,12,0:0:0:0:
320,32,254640,1,0,0:0:0:0:
400,0,254868,5,6,0:0:0:0:
400,16,254982,1,0,0:0:0:0:
400,32,255095,1,0,0:0:0:0:
400,48,255209,1,0,0:0:0:0:
400,64,255323,2,0,L|400:112,2,40.0424998778,8|0|0,0:0|0:0|0:0,0:0:0:0:
496,96,255778,5,2,0:0:0:0:
448,176,256006,1,0,0:0:0:0:
448,176,256119,1,2,0:0:0:0:
352,176,256347,1,0,0:0:0:0:
352,176,256461,2,0,L|352:224,1,40.0424998778,2|0,0:0|0:0,0:0:0:0:
352,240,256688,1,6,0:0:0:0:
512,384,257144,5,8,0:0:0:0:
416,368,257371,2,0,L|336:368,1,80.0849997556,6|0,0:0|0:0,0:0:0:0:
256,304,257826,1,2,0:0:0:0:
256,304,257940,1,0,0:0:0:0:
256,208,258168,1,0,0:0:0:0:
256,208,258281,1,2,0:0:0:0:
336,256,258509,5,4,0:0:0:0:
352,256,258623,1,0,0:0:0:0:
368,256,258737,1,0,0:0:0:0:
384,256,258850,1,0,0:0:0:0:
400,256,258964,2,0,L|480:256,1,80.0849997556,8|0,0:0|0:0,0:0:0:0:
496,352,259419,1,2,0:0:0:0:
336,352,259761,1,2,0:0:0:0:
176,352,260102,1,2,0:0:0:0:
256,304,260330,5,14,0:0:0:0:
256,288,260443,1,0,0:0:0:0:
256,272,260557,1,0,0:0:0:0:
256,256,260671,1,0,0:0:0:0:
256,240,260785,1,8,0:0:0:0:
304,48,261240,6,0,L|304:16,3,26.6949999185333,8|8|8|12,0:0|0:0|0:0|0:0,0:0:0:0:
208,21,261695,2,0,L|208:48,3,26.6949999185333,8|8|8|12,0:0|0:0|0:0|0:0,0:0:0:0:
112,48,262150,5,14,0:0:0:0:
112,64,262264,1,0,0:0:0:0:
112,80,262378,1,0,0:0:0:0:
112,96,262491,1,0,0:0:0:0:
112,112,262605,1,14,0:0:0:0:
112,192,262833,1,0,0:0:0:0:
112,272,263060,1,14,0:0:0:0:
128,272,263174,1,0,0:0:0:0:
144,272,263288,1,0,0:0:0:0:
160,272,263402,1,0,0:0:0:0:
176,272,263515,1,14,0:0:0:0:
400,48,263971,5,14,0:0:0:0:
400,64,264085,1,0,0:0:0:0:
400,80,264199,1,0,0:0:0:0:
400,96,264312,1,0,0:0:0:0:
400,112,264426,1,14,0:0:0:0:
400,192,264653,1,0,0:0:0:0:
400,272,264881,1,14,0:0:0:0:
384,272,264995,1,0,0:0:0:0:
368,272,265109,1,0,0:0:0:0:
352,272,265223,1,0,0:0:0:0:
336,272,265336,1,14,0:0:0:0:
256,320,265564,1,0,0:0:0:0:
256,224,265791,6,0,L|256:192,4,26.6949999185333,14|0|0|0|0,0:0|0:0|0:0|0:0|0:0,0:0:0:0:
256,144,266246,2,0,L|256:112,4,26.6949999185333,14|0|0|0|0,0:0|0:0|0:0|0:0|0:0,0:0:0:0:
256,64,266701,5,14,0:0:0:0:
336,208,267043,1,14,0:0:0:0:
176,208,267384,1,14,0:0:0:0:
256,256,267612,1,14,0:0:0:0:
256,192,267725,12,4,269432,0:0:0:0:
