osu file format v14

[General]
AudioFilename: audio.mp3
AudioLeadIn: 0
PreviewTime: -1
Countdown: 1
SampleSet: None
StackLeniency: 0.7
Mode: 3
LetterboxInBreaks: 0
SpecialStyle: 0
WidescreenStoryboard: 0

[Editor]
DistanceSpacing: 0.9
BeatDivisor: 4
GridSize: 4
TimelineZoom: 1

[Metadata]
Title:Surat Cinta Untuk Starla
TitleUnicode:Surat Cinta Untuk Starla
Artist:Virgoun
ArtistUnicode:Virgoun
Creator:Fadly R
Version:Normal
Source:
Tags:
BeatmapID:1293807
BeatmapSetID:613181

[Difficulty]
HPDrainRate:6
CircleSize:4
OverallDifficulty:6
ApproachRate:6
SliderMultiplier:1.4
SliderTickRate:1

[Events]
//Background and Video events
0,0,"maxresdefault.jpg",0,0
//Break Periods
//Storyboard Layer 0 (Background)
//Storyboard Layer 1 (Fail)
//Storyboard Layer 2 (Pass)
//Storyboard Layer 3 (Foreground)
//Storyboard Sound Samples

[TimingPoints]
45574,425.531914893617,4,1,0,100,1,0

[HitObjects]
64,192,45042,5,0,0:0:0:0:
192,192,45467,1,0,0:0:0:0:
320,192,45786,1,0,0:0:0:0:
192,192,46425,1,0,0:0:0:0:
64,192,46637,1,0,0:0:0:0:
192,192,47063,1,0,0:0:0:0:
320,192,47488,1,0,0:0:0:0:
192,192,47914,1,0,0:0:0:0:
64,192,48339,1,0,0:0:0:0:
320,192,48978,1,0,0:0:0:0:
448,192,49191,1,0,0:0:0:0:
320,192,49510,1,0,0:0:0:0:
192,192,49935,1,0,0:0:0:0:
64,192,50361,1,0,0:0:0:0:
192,192,50786,1,0,0:0:0:0:
320,192,51212,1,0,0:0:0:0:
448,192,51637,1,0,0:0:0:0:
320,192,51850,1,0,0:0:0:0:
192,192,52063,1,0,0:0:0:0:
64,192,52488,1,0,0:0:0:0:
192,192,52914,1,0,0:0:0:0:
64,192,53339,1,0,0:0:0:0:
192,192,53765,1,0,0:0:0:0:
64,192,53978,1,0,0:0:0:0:
64,192,54191,1,0,0:0:0:0:
192,192,54510,1,0,0:0:0:0:
320,192,54935,1,0,0:0:0:0:
448,192,55361,1,0,0:0:0:0:
320,192,55786,1,0,0:0:0:0:
192,192,56212,1,0,0:0:0:0:
64,192,56531,1,0,0:0:0:0:
192,192,56744,1,0,0:0:0:0:
320,192,56956,1,0,0:0:0:0:
448,192,57169,1,0,0:0:0:0:
64,192,57595,1,0,0:0:0:0:
448,192,57914,1,0,0:0:0:0:
320,192,57914,1,0,0:0:0:0:
64,192,58339,1,0,0:0:0:0:
448,192,58339,1,0,0:0:0:0:
64,192,58978,1,0,0:0:0:0:
192,192,59191,1,0,0:0:0:0:
320,192,59403,1,0,0:0:0:0:
448,192,59616,1,0,0:0:0:0:
320,192,59616,1,0,0:0:0:0:
192,192,60042,1,0,0:0:0:0:
448,192,60042,1,0,0:0:0:0:
192,192,60467,1,0,0:0:0:0:
64,192,60786,1,0,0:0:0:0:
448,192,61105,1,0,0:0:0:0:
320,192,61212,1,0,0:0:0:0:
64,192,61531,1,0,0:0:0:0:
192,192,61850,1,0,0:0:0:0:
320,192,61956,1,0,0:0:0:0:
448,192,61956,1,0,0:0:0:0:
64,192,62595,1,0,0:0:0:0:
192,192,62595,1,0,0:0:0:0:
64,192,62808,1,0,0:0:0:0:
448,192,62808,1,0,0:0:0:0:
192,192,63339,1,0,0:0:0:0:
64,192,63339,1,0,0:0:0:0:
448,192,64084,1,0,0:0:0:0:
320,192,64191,1,0,0:0:0:0:
64,192,64616,128,0,65680:0:0:0:0:
320,192,64616,128,0,65680:0:0:0:0:
448,192,64616,128,0,65680:0:0:0:0:
192,192,65893,1,0,0:0:0:0:
192,192,66212,1,0,0:0:0:0:
320,192,66212,1,0,0:0:0:0:
320,192,66637,1,0,0:0:0:0:
64,192,66637,1,0,0:0:0:0:
448,192,67063,1,0,0:0:0:0:
192,192,67063,1,0,0:0:0:0:
320,192,67488,1,0,0:0:0:0:
192,192,67595,1,0,0:0:0:0:
64,192,67701,1,0,0:0:0:0:
192,192,67808,1,0,0:0:0:0:
320,192,67914,1,0,0:0:0:0:
448,192,68020,1,0,0:0:0:0:
192,192,68233,1,0,0:0:0:0:
64,192,68233,1,0,0:0:0:0:
64,192,68765,1,0,0:0:0:0:
320,192,68765,1,0,0:0:0:0:
448,192,69084,1,0,0:0:0:0:
320,192,69084,1,0,0:0:0:0:
64,192,69084,1,0,0:0:0:0:
64,192,69510,1,0,0:0:0:0:
192,192,69510,1,0,0:0:0:0:
320,192,69616,1,0,0:0:0:0:
448,192,69616,1,0,0:0:0:0:
320,192,70042,1,0,0:0:0:0:
192,192,70254,1,0,0:0:0:0:
64,192,70254,1,0,0:0:0:0:
192,192,70573,1,0,0:0:0:0:
64,192,70786,1,0,0:0:0:0:
448,192,70786,1,0,0:0:0:0:
192,192,71212,1,0,0:0:0:0:
320,192,71425,1,0,0:0:0:0:
448,192,71425,1,0,0:0:0:0:
448,192,71850,1,0,0:0:0:0:
64,192,71850,1,0,0:0:0:0:
320,192,72488,1,0,0:0:0:0:
192,192,72595,1,0,0:0:0:0:
64,192,73127,1,0,0:0:0:0:
448,192,73127,1,0,0:0:0:0:
192,192,73339,1,0,0:0:0:0:
320,192,73339,1,0,0:0:0:0:
448,192,73765,1,0,0:0:0:0:
320,192,73978,1,0,0:0:0:0:
192,192,74191,1,0,0:0:0:0:
64,192,74510,1,0,0:0:0:0:
192,192,74722,1,0,0:0:0:0:
320,192,74935,1,0,0:0:0:0:
448,192,75361,1,0,0:0:0:0:
320,192,75786,1,0,0:0:0:0:
448,192,75786,1,0,0:0:0:0:
64,192,75786,1,0,0:0:0:0:
192,192,76212,1,0,0:0:0:0:
448,192,76212,1,0,0:0:0:0:
64,192,76637,1,0,0:0:0:0:
192,192,77063,1,0,0:0:0:0:
320,192,77063,1,0,0:0:0:0:
320,192,77382,1,0,0:0:0:0:
448,192,77382,1,0,0:0:0:0:
192,192,77808,1,0,0:0:0:0:
448,192,77808,1,0,0:0:0:0:
64,192,78339,1,0,0:0:0:0:
320,192,78339,1,0,0:0:0:0:
192,192,78765,1,0,0:0:0:0:
192,192,79191,1,0,0:0:0:0:
320,192,79403,1,0,0:0:0:0:
448,192,79616,1,0,0:0:0:0:
64,192,80042,1,0,0:0:0:0:
192,192,80148,1,0,0:0:0:0:
320,192,80254,1,0,0:0:0:0:
448,192,80573,1,0,0:0:0:0:
64,192,80573,1,0,0:0:0:0:
320,192,81212,1,0,0:0:0:0:
448,192,81212,1,0,0:0:0:0:
192,192,81425,1,0,0:0:0:0:
64,192,81850,1,0,0:0:0:0:
320,192,81850,1,0,0:0:0:0:
448,192,82488,1,0,0:0:0:0:
320,192,82914,1,0,0:0:0:0:
448,192,82914,1,0,0:0:0:0:
192,192,83233,1,0,0:0:0:0:
64,192,83446,1,0,0:0:0:0:
448,192,83446,1,0,0:0:0:0:
448,192,83765,1,0,0:0:0:0:
320,192,84084,1,0,0:0:0:0:
192,192,84510,1,0,0:0:0:0:
320,192,84935,1,0,0:0:0:0:
448,192,85361,1,0,0:0:0:0:
64,192,85361,1,0,0:0:0:0:
320,192,85786,1,0,0:0:0:0:
192,192,86212,1,0,0:0:0:0:
64,192,86637,1,0,0:0:0:0:
320,192,86637,1,0,0:0:0:0:
64,192,87063,1,0,0:0:0:0:
320,192,87063,1,0,0:0:0:0:
448,192,87063,1,0,0:0:0:0:
192,192,87488,1,0,0:0:0:0:
320,192,87808,1,0,0:0:0:0:
448,192,88127,1,0,0:0:0:0:
64,192,88127,1,0,0:0:0:0:
320,192,88552,1,0,0:0:0:0:
192,192,88659,1,0,0:0:0:0:
64,192,88765,1,0,0:0:0:0:
320,192,89191,1,0,0:0:0:0:
448,192,89191,1,0,0:0:0:0:
320,192,90148,1,0,0:0:0:0:
192,192,90361,1,0,0:0:0:0:
64,192,90573,1,0,0:0:0:0:
448,192,90786,1,0,0:0:0:0:
320,192,90893,1,0,0:0:0:0:
192,192,91212,1,0,0:0:0:0:
320,192,91425,1,0,0:0:0:0:
448,192,91425,1,0,0:0:0:0:
192,192,91531,1,0,0:0:0:0:
64,192,91637,1,0,0:0:0:0:
320,192,91956,1,0,0:0:0:0:
448,192,91956,1,0,0:0:0:0:
192,192,92488,1,0,0:0:0:0:
448,192,92488,1,0,0:0:0:0:
64,192,92914,1,0,0:0:0:0:
320,192,92914,1,0,0:0:0:0:
192,192,93233,1,0,0:0:0:0:
320,192,93233,1,0,0:0:0:0:
320,192,93446,1,0,0:0:0:0:
448,192,93659,1,0,0:0:0:0:
192,192,94084,1,0,0:0:0:0:
64,192,94510,1,0,0:0:0:0:
192,192,94935,1,0,0:0:0:0:
320,192,95361,1,0,0:0:0:0:
192,192,95786,1,0,0:0:0:0:
448,192,95786,1,0,0:0:0:0:
64,192,96212,1,0,0:0:0:0:
192,192,96637,1,0,0:0:0:0:
320,192,97063,1,0,0:0:0:0:
192,192,97488,1,0,0:0:0:0:
64,192,97808,1,0,0:0:0:0:
64,192,98233,1,0,0:0:0:0:
192,192,98659,1,0,0:0:0:0:
320,192,98659,1,0,0:0:0:0:
192,192,99084,1,0,0:0:0:0:
64,192,99403,1,0,0:0:0:0:
320,192,99510,1,0,0:0:0:0:
448,192,99510,1,0,0:0:0:0:
448,192,99935,1,0,0:0:0:0:
320,192,99935,1,0,0:0:0:0:
320,192,100361,1,0,0:0:0:0:
192,192,100786,1,0,0:0:0:0:
64,192,101212,1,0,0:0:0:0:
192,192,101531,1,0,0:0:0:0:
320,192,101850,1,0,0:0:0:0:
192,192,101956,1,0,0:0:0:0:
64,192,102063,1,0,0:0:0:0:
192,192,102169,1,0,0:0:0:0:
320,192,102276,1,0,0:0:0:0:
448,192,102382,1,0,0:0:0:0:
320,192,102808,1,0,0:0:0:0:
448,192,102808,1,0,0:0:0:0:
192,192,103233,1,0,0:0:0:0:
448,192,103233,1,0,0:0:0:0:
64,192,103552,1,0,0:0:0:0:
192,192,103765,1,0,0:0:0:0:
64,192,104191,1,0,0:0:0:0:
192,192,104297,1,0,0:0:0:0:
320,192,104403,1,0,0:0:0:0:
448,192,104510,1,0,0:0:0:0:
448,192,104722,1,0,0:0:0:0:
320,192,104829,1,0,0:0:0:0:
192,192,104935,1,0,0:0:0:0:
64,192,105042,1,0,0:0:0:0:
192,192,105148,1,0,0:0:0:0:
320,192,105573,1,0,0:0:0:0:
448,192,105573,1,0,0:0:0:0:
192,192,105893,1,0,0:0:0:0:
320,192,105999,1,0,0:0:0:0:
64,192,107063,1,0,0:0:0:0:
192,192,107169,1,0,0:0:0:0:
320,192,107276,1,0,0:0:0:0:
448,192,107382,1,0,0:0:0:0:
64,192,107488,1,0,0:0:0:0:
192,192,107914,1,0,0:0:0:0:
320,192,108339,1,0,0:0:0:0:
448,192,108446,1,0,0:0:0:0:
64,192,108765,1,0,0:0:0:0:
192,192,108765,1,0,0:0:0:0:
320,192,109084,1,0,0:0:0:0:
448,192,109510,1,0,0:0:0:0:
64,192,109510,1,0,0:0:0:0:
448,192,109935,1,0,0:0:0:0:
320,192,110042,1,0,0:0:0:0:
192,192,110148,1,0,0:0:0:0:
448,192,110467,1,0,0:0:0:0:
64,192,110467,1,0,0:0:0:0:
320,192,110786,1,0,0:0:0:0:
192,192,110893,1,0,0:0:0:0:
64,192,110999,1,0,0:0:0:0:
192,192,111105,1,0,0:0:0:0:
320,192,111212,1,0,0:0:0:0:
448,192,111318,1,0,0:0:0:0:
320,192,111425,1,0,0:0:0:0:
64,192,112063,1,0,0:0:0:0:
192,192,112169,1,0,0:0:0:0:
320,192,112276,1,0,0:0:0:0:
448,192,112488,1,0,0:0:0:0:
64,192,112488,1,0,0:0:0:0:
320,192,112914,1,0,0:0:0:0:
448,192,112914,1,0,0:0:0:0:
64,192,113020,1,0,0:0:0:0:
192,192,113233,1,0,0:0:0:0:
320,192,113339,1,0,0:0:0:0:
448,192,113446,1,0,0:0:0:0:
64,192,113871,1,0,0:0:0:0:
448,192,113871,1,0,0:0:0:0:
320,192,113871,1,0,0:0:0:0:
192,192,114084,1,0,0:0:0:0:
320,192,114510,1,0,0:0:0:0:
448,192,114510,1,0,0:0:0:0:
64,192,114510,1,0,0:0:0:0:
448,192,114935,1,0,0:0:0:0:
320,192,115361,1,0,0:0:0:0:
192,192,115786,1,0,0:0:0:0:
448,192,115786,1,0,0:0:0:0:
64,192,116212,1,0,0:0:0:0:
192,192,116318,1,0,0:0:0:0:
64,192,116956,1,0,0:0:0:0:
192,192,117488,1,0,0:0:0:0:
448,192,117488,1,0,0:0:0:0:
320,192,117914,1,0,0:0:0:0:
64,192,117914,1,0,0:0:0:0:
448,192,117914,1,0,0:0:0:0:
448,192,118233,1,0,0:0:0:0:
192,192,118233,1,0,0:0:0:0:
320,192,118659,1,0,0:0:0:0:
192,192,119084,1,0,0:0:0:0:
320,192,119191,1,0,0:0:0:0:
448,192,119297,1,0,0:0:0:0:
320,192,119403,1,0,0:0:0:0:
192,192,119510,1,0,0:0:0:0:
64,192,119616,1,0,0:0:0:0:
192,192,119722,1,0,0:0:0:0:
448,192,119829,1,0,0:0:0:0:
320,192,119829,1,0,0:0:0:0:
64,192,120148,1,0,0:0:0:0:
192,192,120254,1,0,0:0:0:0:
320,192,120361,1,0,0:0:0:0:
448,192,120467,1,0,0:0:0:0:
320,192,120573,1,0,0:0:0:0:
64,192,120573,1,0,0:0:0:0:
192,192,120786,1,0,0:0:0:0:
320,192,120893,1,0,0:0:0:0:
448,192,120999,1,0,0:0:0:0:
64,192,121212,1,0,0:0:0:0:
192,192,121531,1,0,0:0:0:0:
320,192,121956,1,0,0:0:0:0:
448,192,121956,1,0,0:0:0:0:
192,192,122382,1,0,0:0:0:0:
64,192,122808,1,0,0:0:0:0:
64,192,123233,1,0,0:0:0:0:
448,192,123233,1,0,0:0:0:0:
192,192,123659,1,0,0:0:0:0:
320,192,124084,1,0,0:0:0:0:
448,192,124510,1,0,0:0:0:0:
320,192,124616,1,0,0:0:0:0:
192,192,124616,1,0,0:0:0:0:
320,192,124935,1,0,0:0:0:0:
192,192,125361,1,0,0:0:0:0:
64,192,125680,1,0,0:0:0:0:
320,192,125786,1,0,0:0:0:0:
192,192,125786,1,0,0:0:0:0:
192,192,126105,1,0,0:0:0:0:
320,192,126531,1,0,0:0:0:0:
448,192,126956,1,0,0:0:0:0:
320,192,127382,1,0,0:0:0:0:
192,192,127808,1,0,0:0:0:0:
320,192,127808,1,0,0:0:0:0:
64,192,128233,1,0,0:0:0:0:
192,192,128659,1,0,0:0:0:0:
320,192,129084,1,0,0:0:0:0:
192,192,129403,1,0,0:0:0:0:
448,192,129510,1,0,0:0:0:0:
64,192,129510,1,0,0:0:0:0:
320,192,129722,1,0,0:0:0:0:
192,192,130893,1,0,0:0:0:0:
320,192,130893,1,0,0:0:0:0:
64,192,131318,1,0,0:0:0:0:
192,192,131637,1,0,0:0:0:0:
320,192,132063,1,0,0:0:0:0:
192,192,132488,1,0,0:0:0:0:
320,192,132914,1,0,0:0:0:0:
448,192,133339,1,0,0:0:0:0:
320,192,133339,1,0,0:0:0:0:
448,192,133765,1,0,0:0:0:0:
64,192,133765,1,0,0:0:0:0:
320,192,134084,1,0,0:0:0:0:
192,192,134191,1,0,0:0:0:0:
64,192,134297,1,0,0:0:0:0:
192,192,135042,1,0,0:0:0:0:
64,192,135254,1,0,0:0:0:0:
192,192,135573,1,0,0:0:0:0:
320,192,135786,1,0,0:0:0:0:
448,192,136212,1,0,0:0:0:0:
320,192,136425,1,0,0:0:0:0:
64,192,136637,1,0,0:0:0:0:
192,192,136850,1,0,0:0:0:0:
320,192,136956,1,0,0:0:0:0:
448,192,137063,1,0,0:0:0:0:
448,192,137595,1,0,0:0:0:0:
320,192,137701,1,0,0:0:0:0:
192,192,137808,1,0,0:0:0:0:
64,192,137914,1,0,0:0:0:0:
192,192,138127,1,0,0:0:0:0:
448,192,138127,1,0,0:0:0:0:
64,192,138339,1,0,0:0:0:0:
320,192,138339,1,0,0:0:0:0:
192,192,138339,1,0,0:0:0:0:
320,192,138765,1,0,0:0:0:0:
192,192,139191,1,0,0:0:0:0:
64,192,139510,1,0,0:0:0:0:
192,192,139935,1,0,0:0:0:0:
320,192,140361,1,0,0:0:0:0:
448,192,140786,1,0,0:0:0:0:
64,192,140786,1,0,0:0:0:0:
320,192,141212,1,0,0:0:0:0:
192,192,141212,1,0,0:0:0:0:
192,192,141637,1,0,0:0:0:0:
64,192,142063,1,0,0:0:0:0:
64,192,142488,1,0,0:0:0:0:
320,192,142488,1,0,0:0:0:0:
192,192,142808,1,0,0:0:0:0:
192,192,143233,1,0,0:0:0:0:
64,192,143339,1,0,0:0:0:0:
320,192,143659,1,0,0:0:0:0:
448,192,144084,1,0,0:0:0:0:
64,192,144084,1,0,0:0:0:0:
320,192,144510,1,0,0:0:0:0:
64,192,144510,1,0,0:0:0:0:
320,192,144722,1,0,0:0:0:0:
448,192,144935,1,0,0:0:0:0:
64,192,144935,1,0,0:0:0:0:
192,192,144935,1,0,0:0:0:0:
320,192,145361,1,0,0:0:0:0:
192,192,145786,1,0,0:0:0:0:
64,192,146212,1,0,0:0:0:0:
192,192,146318,1,0,0:0:0:0:
320,192,146425,1,0,0:0:0:0:
448,192,146531,1,0,0:0:0:0:
320,192,146850,1,0,0:0:0:0:
64,192,146850,1,0,0:0:0:0:
320,192,147276,1,0,0:0:0:0:
192,192,147382,1,0,0:0:0:0:
64,192,147488,1,0,0:0:0:0:
320,192,147914,1,0,0:0:0:0:
192,192,148127,1,0,0:0:0:0:
64,192,148339,1,0,0:0:0:0:
192,192,148659,1,0,0:0:0:0:
320,192,149084,1,0,0:0:0:0:
448,192,149510,1,0,0:0:0:0:
320,192,149935,1,0,0:0:0:0:
192,192,150361,1,0,0:0:0:0:
64,192,150786,1,0,0:0:0:0:
64,192,151212,1,0,0:0:0:0:
192,192,151637,1,0,0:0:0:0:
320,192,151744,1,0,0:0:0:0:
448,192,151850,1,0,0:0:0:0:
192,192,152063,1,0,0:0:0:0:
320,192,152488,1,0,0:0:0:0:
320,192,152914,1,0,0:0:0:0:
64,192,152914,1,0,0:0:0:0:
448,192,153339,1,0,0:0:0:0:
192,192,153339,1,0,0:0:0:0:
448,192,153765,1,0,0:0:0:0:
320,192,153765,1,0,0:0:0:0:
320,192,154191,1,0,0:0:0:0:
448,192,154191,1,0,0:0:0:0:
64,192,154191,1,0,0:0:0:0:
192,192,154510,1,0,0:0:0:0:
448,192,154510,1,0,0:0:0:0:
64,192,154935,1,0,0:0:0:0:
192,192,155148,1,0,0:0:0:0:
320,192,155254,1,0,0:0:0:0:
448,192,155361,1,0,0:0:0:0:
64,192,155573,1,0,0:0:0:0:
448,192,155786,1,0,0:0:0:0:
320,192,155893,1,0,0:0:0:0:
320,192,156212,1,0,0:0:0:0:
192,192,156425,1,0,0:0:0:0:
64,192,156531,1,0,0:0:0:0:
320,192,156850,1,0,0:0:0:0:
192,192,157382,1,0,0:0:0:0:
448,192,157382,1,0,0:0:0:0:
192,192,157808,1,0,0:0:0:0:
320,192,158233,1,0,0:0:0:0:
192,192,158339,1,0,0:0:0:0:
64,192,158446,1,0,0:0:0:0:
448,192,158552,1,0,0:0:0:0:
320,192,158765,1,0,0:0:0:0:
192,192,159084,1,0,0:0:0:0:
64,192,159510,1,0,0:0:0:0:
320,192,159510,1,0,0:0:0:0:
448,192,159510,1,0,0:0:0:0:
64,192,159935,1,0,0:0:0:0:
192,192,160361,1,0,0:0:0:0:
64,192,160786,1,0,0:0:0:0:
320,192,160786,1,0,0:0:0:0:
192,192,161212,1,0,0:0:0:0:
192,192,161531,1,0,0:0:0:0:
320,192,161637,1,0,0:0:0:0:
64,192,162063,1,0,0:0:0:0:
192,192,162169,1,0,0:0:0:0:
320,192,162276,1,0,0:0:0:0:
448,192,162488,1,0,0:0:0:0:
192,192,162488,1,0,0:0:0:0:
320,192,162914,1,0,0:0:0:0:
448,192,162914,1,0,0:0:0:0:
192,192,163339,1,0,0:0:0:0:
64,192,163659,1,0,0:0:0:0:
320,192,163659,1,0,0:0:0:0:
448,192,163659,1,0,0:0:0:0:
192,192,164084,1,0,0:0:0:0:
320,192,164191,1,0,0:0:0:0:
448,192,164297,1,0,0:0:0:0:
192,192,164510,1,0,0:0:0:0:
64,192,164616,1,0,0:0:0:0:
192,192,164935,1,0,0:0:0:0:
320,192,165148,1,0,0:0:0:0:
448,192,165573,1,0,0:0:0:0:
320,192,165786,1,0,0:0:0:0:
192,192,166212,1,0,0:0:0:0:
64,192,166531,1,0,0:0:0:0:
192,192,166850,1,0,0:0:0:0:
192,192,167382,1,0,0:0:0:0:
448,192,167382,1,0,0:0:0:0:
192,192,167808,1,0,0:0:0:0:
320,192,168233,1,0,0:0:0:0:
192,192,168339,1,0,0:0:0:0:
64,192,168446,1,0,0:0:0:0:
448,192,168765,1,0,0:0:0:0:
320,192,168871,1,0,0:0:0:0:
320,192,169191,1,0,0:0:0:0:
192,192,169297,1,0,0:0:0:0:
64,192,169403,1,0,0:0:0:0:
192,192,169510,1,0,0:0:0:0:
320,192,169616,1,0,0:0:0:0:
448,192,169722,1,0,0:0:0:0:
448,192,169935,1,0,0:0:0:0:
320,192,170361,1,0,0:0:0:0:
192,192,170786,1,0,0:0:0:0:
64,192,172063,1,0,0:0:0:0:
64,192,172488,1,0,0:0:0:0:
192,192,172808,1,0,0:0:0:0:
320,192,173127,1,0,0:0:0:0:
448,192,173339,1,0,0:0:0:0:
320,192,173765,1,0,0:0:0:0:
192,192,174084,1,0,0:0:0:0:
448,192,174510,1,0,0:0:0:0:
320,192,174935,1,0,0:0:0:0:
192,192,175361,1,0,0:0:0:0:
64,192,175786,128,0,176637:0:0:0:0:
192,192,175786,128,0,176637:0:0:0:0:
448,192,176956,1,0,0:0:0:0:
320,192,177063,1,0,0:0:0:0:
192,192,177169,1,0,0:0:0:0:
320,192,177488,1,0,0:0:0:0:
192,192,177808,1,0,0:0:0:0:
64,192,178020,1,0,0:0:0:0:
192,192,178233,1,0,0:0:0:0:
320,192,178446,1,0,0:0:0:0:
448,192,178446,1,0,0:0:0:0:
448,192,178871,1,0,0:0:0:0:
320,192,178978,1,0,0:0:0:0:
192,192,179084,1,0,0:0:0:0:
64,192,179191,1,0,0:0:0:0:
192,192,179297,1,0,0:0:0:0:
320,192,179403,1,0,0:0:0:0:
448,192,179616,1,0,0:0:0:0:
64,192,179616,1,0,0:0:0:0:
320,192,179935,1,0,0:0:0:0:
448,192,180361,1,0,0:0:0:0:
320,192,180680,1,0,0:0:0:0:
448,192,180680,1,0,0:0:0:0:
64,192,180680,1,0,0:0:0:0:
192,192,181105,1,0,0:0:0:0:
320,192,181212,1,0,0:0:0:0:
448,192,181318,1,0,0:0:0:0:
448,192,181531,1,0,0:0:0:0:
64,192,181531,1,0,0:0:0:0:
320,192,182063,1,0,0:0:0:0:
448,192,182063,1,0,0:0:0:0:
64,192,182488,1,0,0:0:0:0:
192,192,182488,1,0,0:0:0:0:
64,192,182914,1,0,0:0:0:0:
320,192,182914,1,0,0:0:0:0:
192,192,183233,1,0,0:0:0:0:
192,192,183659,1,0,0:0:0:0:
320,192,183871,1,0,0:0:0:0:
448,192,183871,1,0,0:0:0:0:
448,192,184297,1,0,0:0:0:0:
320,192,184722,1,0,0:0:0:0:
192,192,184829,1,0,0:0:0:0:
64,192,184935,1,0,0:0:0:0:
192,192,185042,1,0,0:0:0:0:
448,192,185254,1,0,0:0:0:0:
448,192,185680,1,0,0:0:0:0:
320,192,185680,1,0,0:0:0:0:
64,192,185680,128,0,188339:0:0:0:0:
192,192,185999,1,0,0:0:0:0:
320,192,186212,1,0,0:0:0:0:
448,192,186318,1,0,0:0:0:0:
320,192,186531,1,0,0:0:0:0:
320,192,186850,1,0,0:0:0:0:
448,192,187169,1,0,0:0:0:0:
192,192,187488,1,0,0:0:0:0:
448,192,187808,1,0,0:0:0:0:
320,192,187914,1,0,0:0:0:0:
192,192,188020,1,0,0:0:0:0:
192,192,188339,1,0,0:0:0:0:
320,192,188552,1,0,0:0:0:0:
448,192,188552,1,0,0:0:0:0:
64,192,188765,1,0,0:0:0:0:
192,192,188765,1,0,0:0:0:0:
320,192,189191,1,0,0:0:0:0:
448,192,189191,1,0,0:0:0:0:
64,192,189191,1,0,0:0:0:0:
192,192,189403,1,0,0:0:0:0:
320,192,189616,1,0,0:0:0:0:
448,192,189935,1,0,0:0:0:0:
320,192,190042,1,0,0:0:0:0:
192,192,190148,1,0,0:0:0:0:
320,192,190361,1,0,0:0:0:0:
448,192,190361,1,0,0:0:0:0:
192,192,190467,1,0,0:0:0:0:
64,192,190573,1,0,0:0:0:0:
192,192,190680,1,0,0:0:0:0:
320,192,190786,1,0,0:0:0:0:
448,192,190786,1,0,0:0:0:0:
64,192,191212,1,0,0:0:0:0:
192,192,191531,1,0,0:0:0:0:
320,192,192063,1,0,0:0:0:0:
64,192,192063,1,0,0:0:0:0:
320,192,192382,1,0,0:0:0:0:
192,192,192488,1,0,0:0:0:0:
64,192,192595,1,0,0:0:0:0:
448,192,192808,1,0,0:0:0:0:
320,192,193020,1,0,0:0:0:0:
192,192,193127,1,0,0:0:0:0:
64,192,193233,1,0,0:0:0:0:
192,192,193339,1,0,0:0:0:0:
320,192,193446,1,0,0:0:0:0:
192,192,193765,1,0,0:0:0:0:
448,192,194084,1,0,0:0:0:0:
320,192,194191,1,0,0:0:0:0:
192,192,194510,1,0,0:0:0:0:
320,192,194616,1,0,0:0:0:0:
448,192,194722,1,0,0:0:0:0:
64,192,194935,1,0,0:0:0:0:
192,192,194935,1,0,0:0:0:0:
320,192,195361,1,0,0:0:0:0:
192,192,195467,1,0,0:0:0:0:
64,192,195573,1,0,0:0:0:0:
192,192,195680,1,0,0:0:0:0:
448,192,195786,128,0,196531:0:0:0:0:
192,192,196637,1,0,0:0:0:0:
64,192,196744,1,0,0:0:0:0:
192,192,196850,1,0,0:0:0:0:
448,192,196956,1,0,0:0:0:0:
320,192,197063,1,0,0:0:0:0:
192,192,197169,1,0,0:0:0:0:
64,192,197276,1,0,0:0:0:0:
192,192,197488,1,0,0:0:0:0:
448,192,197488,1,0,0:0:0:0:
64,192,197808,1,0,0:0:0:0:
192,192,198020,1,0,0:0:0:0:
320,192,198127,1,0,0:0:0:0:
448,192,198233,1,0,0:0:0:0:
320,192,198339,1,0,0:0:0:0:
192,192,198446,1,0,0:0:0:0:
448,192,198765,1,0,0:0:0:0:
192,192,198765,1,0,0:0:0:0:
320,192,199084,1,0,0:0:0:0:
192,192,199191,1,0,0:0:0:0:
320,192,199510,1,0,0:0:0:0:
192,192,199616,1,0,0:0:0:0:
64,192,199722,1,0,0:0:0:0:
448,192,199935,1,0,0:0:0:0:
320,192,199935,1,0,0:0:0:0:
192,192,200361,1,0,0:0:0:0:
320,192,200361,1,0,0:0:0:0:
64,192,200786,1,0,0:0:0:0:
320,192,200786,1,0,0:0:0:0:
192,192,201212,1,0,0:0:0:0:
320,192,201212,1,0,0:0:0:0:
64,192,201425,1,0,0:0:0:0:
192,192,201531,1,0,0:0:0:0:
320,192,201637,1,0,0:0:0:0:
448,192,201744,1,0,0:0:0:0:
320,192,201850,1,0,0:0:0:0:
64,192,202063,1,0,0:0:0:0:
192,192,202063,1,0,0:0:0:0:
320,192,202488,1,0,0:0:0:0:
192,192,202488,1,0,0:0:0:0:
320,192,202808,1,0,0:0:0:0:
192,192,202914,1,0,0:0:0:0:
64,192,203020,1,0,0:0:0:0:
192,192,203127,1,0,0:0:0:0:
320,192,203233,1,0,0:0:0:0:
448,192,203339,1,0,0:0:0:0:
320,192,203659,1,0,0:0:0:0:
192,192,203871,1,0,0:0:0:0:
64,192,203978,1,0,0:0:0:0:
192,192,204084,1,0,0:0:0:0:
320,192,204191,1,0,0:0:0:0:
448,192,204297,1,0,0:0:0:0:
320,192,205042,1,0,0:0:0:0:
448,192,205042,1,0,0:0:0:0:
192,192,205361,1,0,0:0:0:0:
64,192,205786,1,0,0:0:0:0:
448,192,205786,1,0,0:0:0:0:
192,192,205999,1,0,0:0:0:0:
320,192,206212,1,0,0:0:0:0:
448,192,206425,1,0,0:0:0:0:
320,192,206637,1,0,0:0:0:0:
192,192,206850,1,0,0:0:0:0:
64,192,207063,1,0,0:0:0:0:
320,192,207063,1,0,0:0:0:0:
192,192,207488,1,0,0:0:0:0:
448,192,207488,1,0,0:0:0:0:
64,192,207808,1,0,0:0:0:0:
192,192,207808,1,0,0:0:0:0:
320,192,208339,1,0,0:0:0:0:
192,192,208765,1,0,0:0:0:0:
320,192,209084,1,0,0:0:0:0:
448,192,209510,1,0,0:0:0:0:
448,192,210254,1,0,0:0:0:0:
320,192,210361,1,0,0:0:0:0:
64,192,210573,1,0,0:0:0:0:
192,192,210680,1,0,0:0:0:0:
320,192,210893,1,0,0:0:0:0:
64,192,211212,1,0,0:0:0:0:
320,192,211425,1,0,0:0:0:0:
448,192,211531,1,0,0:0:0:0:
320,192,211850,1,0,0:0:0:0:
192,192,212169,1,0,0:0:0:0:
64,192,212382,1,0,0:0:0:0:
192,192,212808,1,0,0:0:0:0:
320,192,213659,1,0,0:0:0:0:
320,192,213978,1,0,0:0:0:0:
192,192,214297,1,0,0:0:0:0:
64,192,215042,1,0,0:0:0:0:
192,192,215361,1,0,0:0:0:0:
320,192,215786,1,0,0:0:0:0:
448,192,216212,1,0,0:0:0:0:
320,192,216425,1,0,0:0:0:0:
192,192,216531,1,0,0:0:0:0:
64,192,216637,1,0,0:0:0:0:
192,192,216744,1,0,0:0:0:0:
64,192,217063,1,0,0:0:0:0:
448,192,217063,1,0,0:0:0:0:
192,192,217488,1,0,0:0:0:0:
320,192,217808,1,0,0:0:0:0:
320,192,218339,1,0,0:0:0:0:
448,192,218339,1,0,0:0:0:0:
64,192,218339,128,0,223446:0:0:0:0:
192,192,219084,1,0,0:0:0:0:
320,192,219510,1,0,0:0:0:0:
448,192,220042,1,0,0:0:0:0:
320,192,220361,1,0,0:0:0:0:
192,192,220680,1,0,0:0:0:0:
320,192,220786,1,0,0:0:0:0:
448,192,220893,1,0,0:0:0:0:
320,192,220999,1,0,0:0:0:0:
320,192,221425,1,0,0:0:0:0:
192,192,221850,1,0,0:0:0:0:
320,192,222169,1,0,0:0:0:0:
448,192,222169,1,0,0:0:0:0:
320,192,222595,1,0,0:0:0:0:
448,192,222914,1,0,0:0:0:0:
192,192,223446,1,0,0:0:0:0:
448,192,223446,1,0,0:0:0:0:
320,192,223765,1,0,0:0:0:0:
320,192,224191,1,0,0:0:0:0:
64,192,224191,1,0,0:0:0:0:
192,192,224510,1,0,0:0:0:0:
320,192,224935,1,0,0:0:0:0:
448,192,225361,1,0,0:0:0:0:
64,192,225467,1,0,0:0:0:0:
448,192,225786,128,0,226850:0:0:0:0:
192,192,226956,1,0,0:0:0:0:
448,192,227169,1,0,0:0:0:0:
192,192,227169,1,0,0:0:0:0:
64,192,227169,1,0,0:0:0:0:
64,192,227701,1,0,0:0:0:0:
192,192,227808,1,0,0:0:0:0:
320,192,227914,1,0,0:0:0:0:
448,192,228020,1,0,0:0:0:0:
320,192,228339,1,0,0:0:0:0:
448,192,228339,1,0,0:0:0:0:
64,192,228339,1,0,0:0:0:0:
192,192,228765,1,0,0:0:0:0:
320,192,228871,1,0,0:0:0:0:
448,192,228978,1,0,0:0:0:0:
320,192,229084,1,0,0:0:0:0:
192,192,229191,1,0,0:0:0:0:
64,192,229297,1,0,0:0:0:0:
192,192,229403,1,0,0:0:0:0:
448,192,229616,1,0,0:0:0:0:
320,192,229616,1,0,0:0:0:0:
320,192,229935,1,0,0:0:0:0:
192,192,230361,1,0,0:0:0:0:
320,192,230361,1,0,0:0:0:0:
64,192,230786,128,0,232169:0:0:0:0:
448,192,230786,128,0,232169:0:0:0:0:
192,192,232169,1,0,0:0:0:0:
320,192,232169,1,0,0:0:0:0:
64,192,232595,1,0,0:0:0:0:
192,192,232701,1,0,0:0:0:0:
320,192,232808,1,0,0:0:0:0:
448,192,232914,1,0,0:0:0:0:
320,192,233020,1,0,0:0:0:0:
192,192,233127,1,0,0:0:0:0:
64,192,233339,1,0,0:0:0:0:
448,192,233339,1,0,0:0:0:0:
192,192,233765,1,0,0:0:0:0:
64,192,234191,1,0,0:0:0:0:
192,192,234510,1,0,0:0:0:0:
320,192,234935,1,0,0:0:0:0:
448,192,235361,1,0,0:0:0:0:
192,192,235786,1,0,0:0:0:0:
64,192,235786,128,0,237276:0:0:0:0:
448,192,237063,1,0,0:0:0:0:
320,192,237169,1,0,0:0:0:0:
192,192,237276,1,0,0:0:0:0:
192,192,237914,1,0,0:0:0:0:
320,192,238446,1,0,0:0:0:0:
448,192,238446,1,0,0:0:0:0:
320,192,238765,1,0,0:0:0:0:
192,192,239084,1,0,0:0:0:0:
320,192,239191,1,0,0:0:0:0:
64,192,239510,1,0,0:0:0:0:
192,192,239616,1,0,0:0:0:0:
320,192,239722,1,0,0:0:0:0:
64,192,239935,1,0,0:0:0:0:
448,192,239935,1,0,0:0:0:0:
192,192,240361,1,0,0:0:0:0:
320,192,240361,1,0,0:0:0:0:
192,192,240786,1,0,0:0:0:0:
320,192,240999,1,0,0:0:0:0:
448,192,241212,1,0,0:0:0:0:
320,192,241425,1,0,0:0:0:0:
192,192,241637,1,0,0:0:0:0:
64,192,241850,1,0,0:0:0:0:
192,192,242063,1,0,0:0:0:0:
448,192,242063,128,0,243339:0:0:0:0:
64,192,242595,1,0,0:0:0:0:
192,192,242701,1,0,0:0:0:0:
320,192,242808,1,0,0:0:0:0:
192,192,243020,1,0,0:0:0:0:
64,192,243339,1,0,0:0:0:0:
192,192,243765,1,0,0:0:0:0:
64,192,244084,1,0,0:0:0:0:
192,192,244510,1,0,0:0:0:0:
320,192,244935,1,0,0:0:0:0:
448,192,245361,1,0,0:0:0:0:
192,192,245361,1,0,0:0:0:0:
64,192,245680,1,0,0:0:0:0:
192,192,245786,1,0,0:0:0:0:
320,192,245893,1,0,0:0:0:0:
448,192,245999,1,0,0:0:0:0:
192,192,247169,1,0,0:0:0:0:
64,192,247488,1,0,0:0:0:0:
320,192,247488,1,0,0:0:0:0:
64,192,247914,1,0,0:0:0:0:
192,192,248020,1,0,0:0:0:0:
320,192,248127,1,0,0:0:0:0:
448,192,248233,1,0,0:0:0:0:
320,192,248339,1,0,0:0:0:0:
192,192,248765,1,0,0:0:0:0:
320,192,249084,1,0,0:0:0:0:
448,192,249616,1,0,0:0:0:0:
320,192,249935,1,0,0:0:0:0:
192,192,250361,1,0,0:0:0:0:
64,192,250786,1,0,0:0:0:0:
320,192,250786,1,0,0:0:0:0:
192,192,250999,1,0,0:0:0:0:
320,192,251212,1,0,0:0:0:0:
448,192,251425,1,0,0:0:0:0:
320,192,251637,1,0,0:0:0:0:
192,192,251744,1,0,0:0:0:0:
64,192,251744,1,0,0:0:0:0:
320,192,251956,1,0,0:0:0:0:
192,192,252063,1,0,0:0:0:0:
64,192,252169,1,0,0:0:0:0:
192,192,252276,1,0,0:0:0:0:
320,192,252382,1,0,0:0:0:0:
448,192,252595,1,0,0:0:0:0:
448,192,252914,1,0,0:0:0:0:
320,192,253020,1,0,0:0:0:0:
192,192,253127,1,0,0:0:0:0:
64,192,253233,1,0,0:0:0:0:
192,192,253765,1,0,0:0:0:0:
320,192,253765,1,0,0:0:0:0:
64,192,254084,1,0,0:0:0:0:
320,192,254510,1,0,0:0:0:0:
192,192,254935,1,0,0:0:0:0:
448,192,255361,1,0,0:0:0:0:
320,192,255786,1,0,0:0:0:0:
192,192,256212,1,0,0:0:0:0:
64,192,256425,1,0,0:0:0:0:
192,192,256531,1,0,0:0:0:0:
320,192,256637,1,0,0:0:0:0:
448,192,256744,1,0,0:0:0:0:
320,192,256850,1,0,0:0:0:0:
64,192,257169,1,0,0:0:0:0:
320,192,257169,1,0,0:0:0:0:
448,192,257488,1,0,0:0:0:0:
320,192,257914,1,0,0:0:0:0:
192,192,258339,1,0,0:0:0:0:
64,192,258765,1,0,0:0:0:0:
192,192,258978,1,0,0:0:0:0:
448,192,258978,1,0,0:0:0:0:
320,192,259297,1,0,0:0:0:0:
448,192,259722,1,0,0:0:0:0:
320,192,260148,1,0,0:0:0:0:
192,192,260254,1,0,0:0:0:0:
64,192,260361,1,0,0:0:0:0:
192,192,260680,1,0,0:0:0:0:
320,192,260786,1,0,0:0:0:0:
448,192,260893,128,0,263446:0:0:0:0:
320,192,263446,1,0,0:0:0:0:
64,192,263765,1,0,0:0:0:0:
192,192,263871,1,0,0:0:0:0:
64,192,264084,1,0,0:0:0:0:
448,192,264084,1,0,0:0:0:0:
192,192,264510,1,0,0:0:0:0:
320,192,264935,1,0,0:0:0:0:
64,192,264935,1,0,0:0:0:0:
448,192,264935,1,0,0:0:0:0:
448,192,265467,1,0,0:0:0:0:
320,192,265786,1,0,0:0:0:0:
192,192,265999,1,0,0:0:0:0:
64,192,266212,1,0,0:0:0:0:
192,192,266425,1,0,0:0:0:0:
320,192,266637,1,0,0:0:0:0:
448,192,266850,1,0,0:0:0:0:
192,192,267063,1,0,0:0:0:0:
320,192,267169,1,0,0:0:0:0:
448,192,267276,1,0,0:0:0:0:
320,192,267382,1,0,0:0:0:0:
64,192,267595,1,0,0:0:0:0:
320,192,267914,1,0,0:0:0:0:
192,192,268020,1,0,0:0:0:0:
64,192,268127,1,0,0:0:0:0:
192,192,268233,1,0,0:0:0:0:
320,192,268339,1,0,0:0:0:0:
448,192,268446,1,0,0:0:0:0:
192,192,268765,1,0,0:0:0:0:
64,192,269084,1,0,0:0:0:0:
192,192,269510,1,0,0:0:0:0:
320,192,269935,1,0,0:0:0:0:
448,192,270361,1,0,0:0:0:0:
320,192,270786,1,0,0:0:0:0:
192,192,270999,1,0,0:0:0:0:
64,192,271212,1,0,0:0:0:0:
192,192,271425,1,0,0:0:0:0:
320,192,271531,1,0,0:0:0:0:
448,192,271744,1,0,0:0:0:0:
64,192,271956,1,0,0:0:0:0:
192,192,272063,1,0,0:0:0:0:
320,192,272169,1,0,0:0:0:0:
448,192,272276,1,0,0:0:0:0:
192,192,272488,1,0,0:0:0:0:
64,192,272914,1,0,0:0:0:0:
192,192,273020,1,0,0:0:0:0:
320,192,273127,1,0,0:0:0:0:
448,192,273233,1,0,0:0:0:0:
320,192,273339,1,0,0:0:0:0:
192,192,273446,1,0,0:0:0:0:
320,192,273765,1,0,0:0:0:0:
192,192,273765,1,0,0:0:0:0:
448,192,274084,1,0,0:0:0:0:
320,192,274510,1,0,0:0:0:0:
320,192,274935,1,0,0:0:0:0:
192,192,275361,1,0,0:0:0:0:
320,192,275786,1,0,0:0:0:0:
448,192,276212,1,0,0:0:0:0:
320,192,276212,1,0,0:0:0:0:
64,192,276425,1,0,0:0:0:0:
192,192,276531,1,0,0:0:0:0:
64,192,276637,1,0,0:0:0:0:
192,192,276850,1,0,0:0:0:0:
448,192,277063,1,0,0:0:0:0:
320,192,277169,1,0,0:0:0:0:
448,192,277488,1,0,0:0:0:0:
64,192,277488,1,0,0:0:0:0:
320,192,277914,1,0,0:0:0:0:
192,192,278339,1,0,0:0:0:0:
448,192,278339,1,0,0:0:0:0:
64,192,278659,1,0,0:0:0:0:
192,192,278871,1,0,0:0:0:0:
320,192,279084,1,0,0:0:0:0:
448,192,279297,1,0,0:0:0:0:
320,192,279510,1,0,0:0:0:0:
192,192,279722,1,0,0:0:0:0:
64,192,279935,1,0,0:0:0:0:
320,192,279935,1,0,0:0:0:0:
192,192,280361,1,0,0:0:0:0:
320,192,280786,1,0,0:0:0:0:
448,192,280999,1,0,0:0:0:0:
320,192,281212,1,0,0:0:0:0:
192,192,281425,1,0,0:0:0:0:
64,192,281637,1,0,0:0:0:0:
192,192,281850,1,0,0:0:0:0:
320,192,282063,1,0,0:0:0:0:
192,192,282276,1,0,0:0:0:0:
64,192,282488,1,0,0:0:0:0:
192,192,282701,1,0,0:0:0:0:
320,192,282914,1,0,0:0:0:0:
320,192,283127,1,0,0:0:0:0:
192,192,283339,1,0,0:0:0:0:
64,192,283552,1,0,0:0:0:0:
192,192,283765,1,0,0:0:0:0:
320,192,283871,1,0,0:0:0:0:
448,192,283978,1,0,0:0:0:0:
64,192,284084,1,0,0:0:0:0:
192,192,284191,1,0,0:0:0:0:
320,192,284297,1,0,0:0:0:0:
448,192,284510,1,0,0:0:0:0:
192,192,284510,1,0,0:0:0:0:
448,192,284935,1,0,0:0:0:0:
192,192,284935,1,0,0:0:0:0:
64,192,284935,1,0,0:0:0:0:
320,192,285361,1,0,0:0:0:0:
192,192,285786,1,0,0:0:0:0:
448,192,285786,1,0,0:0:0:0:
64,192,286212,1,0,0:0:0:0:
192,192,286318,1,0,0:0:0:0:
320,192,286425,1,0,0:0:0:0:
448,192,286531,1,0,0:0:0:0:
320,192,286637,1,0,0:0:0:0:
448,192,287063,1,0,0:0:0:0:
192,192,287063,1,0,0:0:0:0:
320,192,287488,1,0,0:0:0:0:
448,192,287488,1,0,0:0:0:0:
192,192,287914,1,0,0:0:0:0:
448,192,287914,1,0,0:0:0:0:
64,192,287914,1,0,0:0:0:0:
64,192,288339,1,0,0:0:0:0:
320,192,288339,1,0,0:0:0:0:
192,192,288659,1,0,0:0:0:0:
320,192,288871,1,0,0:0:0:0:
448,192,289084,1,0,0:0:0:0:
320,192,289191,1,0,0:0:0:0:
192,192,289297,1,0,0:0:0:0:
64,192,289403,1,0,0:0:0:0:
192,192,289510,1,0,0:0:0:0:
320,192,289616,1,0,0:0:0:0:
448,192,289722,1,0,0:0:0:0:
192,192,289935,1,0,0:0:0:0:
64,192,289935,1,0,0:0:0:0:
320,192,290361,1,0,0:0:0:0:
448,192,290361,1,0,0:0:0:0:
192,192,290786,1,0,0:0:0:0:
64,192,290786,1,0,0:0:0:0:
320,192,291425,1,0,0:0:0:0:
192,192,291637,1,0,0:0:0:0:
64,192,291637,1,0,0:0:0:0:
64,192,292063,1,0,0:0:0:0:
448,192,292063,1,0,0:0:0:0:
192,192,292488,1,0,0:0:0:0:
320,192,292808,1,0,0:0:0:0:
448,192,293339,1,0,0:0:0:0:
64,192,293339,1,0,0:0:0:0:
192,192,293339,1,0,0:0:0:0:
448,192,293978,1,0,0:0:0:0:
320,192,294084,1,0,0:0:0:0:
192,192,294191,1,0,0:0:0:0:
64,192,294403,1,0,0:0:0:0:
192,192,294510,1,0,0:0:0:0:
320,192,294616,1,0,0:0:0:0:
448,192,294722,1,0,0:0:0:0:
64,192,295042,1,0,0:0:0:0:
192,192,295042,1,0,0:0:0:0:
64,192,295361,1,0,0:0:0:0:
320,192,295361,1,0,0:0:0:0:
192,192,295786,1,0,0:0:0:0:
448,192,295786,1,0,0:0:0:0:
320,192,295786,1,0,0:0:0:0:
64,192,296425,1,0,0:0:0:0:
192,192,296531,1,0,0:0:0:0:
320,192,296637,1,0,0:0:0:0:
448,192,296744,1,0,0:0:0:0:
320,192,296850,1,0,0:0:0:0:
192,192,296956,1,0,0:0:0:0:
64,192,297063,1,0,0:0:0:0:
64,192,297488,1,0,0:0:0:0:
192,192,297808,1,0,0:0:0:0:
320,192,297914,1,0,0:0:0:0:
448,192,298020,1,0,0:0:0:0:
320,192,298339,1,0,0:0:0:0:
448,192,298339,128,0,304297:0:0:0:0:
192,192,298339,1,0,0:0:0:0:
64,192,298339,128,0,304297:0:0:0:0:
320,192,304297,1,0,0:0:0:0:
192,192,304297,1,0,0:0:0:0:
