osu file format v14

[General]
AudioFilename: audio.mp3
AudioLeadIn: 0
PreviewTime: 66370
Countdown: 0
SampleSet: Soft
StackLeniency: 0.2
Mode: 0
LetterboxInBreaks: 0
WidescreenStoryboard: 1

[Editor]
Bookmarks: 17736,31465,50278,66549,97058
DistanceSpacing: 1
BeatDivisor: 4
GridSize: 4
TimelineZoom: 1.5

[Metadata]
Title:Roman (Cut Ver.)
TitleUnicode:Роман (Cut Ver.)
Artist:Vintage
ArtistUnicode:Винтаж
Creator:Shmiklak
Version:Roma <3
Source:
Tags:marvollo m_a_r_v_o_l_l_o russian pop русский поп vintaj анечка anechka анна плетнева anna pletneva vintazh astrolis roma рома
BeatmapID:2922060
BeatmapSetID:1418244

[Difficulty]
HPDrainRate:6
CircleSize:4
OverallDifficulty:7
ApproachRate:8.5
SliderMultiplier:1.8
SliderTickRate:1

[Events]
//Background and Video events
0,0,"osudaycore.jpg",0,0
//Break Periods
//Storyboard Layer 0 (Background)
//Storyboard Layer 1 (Fail)
//Storyboard Layer 2 (Pass)
//Storyboard Layer 3 (Foreground)
//Storyboard Layer 4 (Overlay)
//Storyboard Sound Samples

[TimingPoints]
1465,508.474576271187,4,2,1,75,1,0
24219,-100,4,2,1,5,0,0
24346,-100,4,2,1,75,0,0
34007,-166.666666666667,4,2,1,55,0,0
48753,-125,4,2,1,75,0,0
50278,-100,4,2,1,75,0,0
65532,-142.857142857143,4,2,1,75,0,0
66549,-83.3333333333334,4,2,1,75,0,1
97058,-100,4,2,1,75,0,0

[Colours]
Combo1 : 237,190,80
Combo2 : 251,149,167
Combo3 : 254,90,225
Combo4 : 245,82,106

[HitObjects]
366,302,17736,6,0,P|359:254|356:208,1,90,6|0,0:0|0:0,0:0:0:0:
367,140,18117,1,0,0:0:0:0:
367,140,18244,1,8,0:0:0:0:
454,74,18498,2,0,L|498:82,1,45
353,7,18880,2,0,L|308:15,1,45
179,119,19261,1,8,0:0:0:0:
110,58,19515,1,0,0:0:0:0:
0,217,19770,6,0,P|46:216|94:225,1,90,2|0,0:0|0:0,0:0:0:0:
145,279,20151,1,0,0:0:0:0:
145,279,20278,1,8,0:0:0:0:
206,175,20532,2,0,P|202:153|186:113,1,45
337,39,20914,2,0,P|333:60|317:101,1,45
352,158,21168,1,0,0:0:0:0:
352,158,21295,1,8,0:0:0:0:
486,117,21549,1,0,0:0:0:0:
476,335,21803,6,0,B|490:290|490:290|473:244,1,90,2|0,0:0|0:0,0:0:0:0:
431,189,22185,1,0,0:0:0:0:
431,189,22312,1,8,0:0:0:0:
293,320,22566,2,0,L|303:383,1,45
148,264,22948,2,0,L|158:201,1,45
126,112,23202,1,0,0:0:0:0:
126,112,23329,2,0,L|141:213,1,90,8|0,0:0|0:0,0:0:0:0:
81,356,23837,6,0,B|153:375|128:316|214:333,1,135,2|0,0:0|0:0,0:0:0:0:
231,348,24346,2,0,B|255:345|273:333|273:333|287:346|319:349,1,90,8|0,0:0|0:0,0:0:0:0:
420,269,24854,2,0,B|396:266|378:254|378:254|364:267|332:270,1,90,2|0,0:0|0:0,0:0:0:0:
214,195,25363,2,0,B|238:192|256:180|256:180|270:193|302:196,1,90,8|0,0:0|0:0,0:0:0:0:
460,62,25871,6,0,P|412:69|366:72,1,90,2|0,0:0|0:0,0:0:0:0:
308,108,26253,1,0,0:0:0:0:
308,108,26380,1,8,0:0:0:0:
168,56,26634,2,0,L|160:12,1,45
61,139,27015,2,0,L|69:95,1,45
167,217,27397,1,8,0:0:0:0:
43,274,27651,1,0,0:0:0:0:
167,365,27905,6,0,P|213:364|261:373,1,90,2|0,0:0|0:0,0:0:0:0:
327,346,28287,1,0,0:0:0:0:
327,346,28414,1,8,0:0:0:0:
394,249,28668,2,0,P|386:227|382:205,1,45
465,130,29049,2,0,P|472:108|476:86,1,45
441,20,29303,1,0,0:0:0:0:
441,20,29431,1,8,0:0:0:0:
329,126,29685,1,0,0:0:0:0:
208,69,29939,6,0,B|160:59|160:59|114:77,1,90,2|0,0:0|0:0,0:0:0:0:
51,111,30320,1,0,0:0:0:0:
51,111,30448,1,8,0:0:0:0:
165,235,30702,2,0,P|157:213|153:191,1,45
32,325,31083,2,0,P|39:303|43:281,1,45
198,367,31465,1,8,0:0:0:0:
198,367,34007,6,0,P|202:338|201:266,1,80.9999975280763,2|0,0:0|3:0,0:0:0:0:
197,260,34515,2,0,L|205:190,1,53.9999983520508,8|0,3:2|3:0,0:0:0:0:
206,179,34897,1,0,0:0:0:0:
206,179,35024,1,2,0:0:0:0:
289,243,35278,1,0,0:0:0:0:
342,138,35532,2,0,P|338:111|326:76,1,53.9999983520508,8|0,0:0|3:0,0:0:0:0:
443,239,36041,6,0,P|447:212|459:177,1,53.9999983520508,2|0,0:0|3:0,0:0:0:0:
476,168,36422,1,0,3:0:0:0:
476,168,36549,1,8,3:2:0:0:
375,272,36803,1,0,3:0:0:0:
465,320,37058,1,2,0:0:0:0:
342,363,37312,1,0,0:0:0:0:
382,288,37566,1,8,0:0:0:0:
324,204,37820,1,0,3:0:0:0:
391,77,38075,6,0,L|294:89,1,80.9999975280763,2|0,0:0|3:0,0:0:0:0:
291,99,38583,2,0,L|235:91,1,53.9999983520508,8|0,3:2|3:0,0:0:0:0:
119,166,39092,2,0,L|175:158,1,53.9999983520508,2|0,0:0|0:0,0:0:0:0:
253,221,39600,1,8,0:0:0:0:
192,294,39854,1,0,3:0:0:0:
346,350,40109,6,0,P|330:325|307:304,1,53.9999983520508,2|0,0:0|3:0,0:0:0:0:
291,303,40490,1,0,3:0:0:0:
291,303,40617,1,8,3:2:0:0:
193,352,40871,1,0,3:0:0:0:
115,279,41126,1,2,0:0:0:0:
204,346,41380,1,0,0:0:0:0:
119,199,41634,1,8,0:0:0:0:
18,339,41888,1,0,3:0:0:0:
230,233,42142,6,0,P|240:205|242:165,1,53.9999983520508,2|0,0:0|3:0,0:0:0:0:
243,158,42524,1,0,3:0:0:0:
243,158,42651,2,0,L|241:88,1,53.9999983520508,8|0,3:2|3:0,0:0:0:0:
239,78,43032,1,2,0:0:0:0:
239,78,43159,1,2,0:0:0:0:
325,139,43414,1,0,0:0:0:0:
427,20,43668,2,0,L|349:15,1,53.9999983520508,8|0,0:0|3:0,0:0:0:0:
180,105,44176,6,0,L|233:108,1,53.9999983520508,2|0,0:0|3:0,0:0:0:0:
257,138,44558,1,0,3:0:0:0:
257,138,44685,2,0,P|266:178|262:202,1,53.9999983520508,8|0,3:2|3:0,0:0:0:0:
203,312,45193,1,2,0:0:0:0:
180,241,45448,1,0,0:0:0:0:
318,344,45702,1,8,0:0:0:0:
354,274,45956,1,0,3:0:0:0:
495,384,46210,6,0,L|484:318,1,53.9999983520508,2|0,0:0|3:0,0:0:0:0:
471,309,46592,1,0,3:0:0:0:
471,309,46719,2,0,L|482:243,1,53.9999983520508,8|0,3:2|3:0,0:0:0:0:
410,155,47227,2,0,L|399:89,1,53.9999983520508,2|0,0:0|0:0,0:0:0:0:
309,7,47736,1,8,0:0:0:0:
184,148,47990,2,0,L|250:159,1,53.9999983520508,0|2,3:0|0:0,0:0:0:0:
330,295,48498,6,0,L|285:300,1,26.9999991760254,0|0,3:0|3:0,0:0:0:0:
284,317,48753,2,0,L|209:308,1,72,8|0,3:2|3:0,0:0:0:0:
101,349,49261,2,0,P|128:306|132:236,1,108,2|0,0:0|0:0,0:0:0:0:
121,226,49770,1,8,0:0:0:0:
24,131,50024,5,0,3:0:0:0:
30,123,50151,1,0,0:0:0:0:
37,115,50278,2,0,P|94:108|149:85,1,90,6|0,0:0|0:0,0:0:0:0:
179,38,50659,1,0,0:0:0:0:
179,38,50787,1,8,0:0:0:0:
144,187,51041,1,0,0:0:0:0:
326,294,51295,2,0,L|311:202,1,90,2|0,0:0|0:0,0:0:0:0:
390,69,51803,1,8,0:0:0:0:
512,230,52058,6,0,B|412:249|444:168|333:183,1,180
289,234,52693,1,0,0:0:0:0:
289,234,52820,2,0,P|252:247|265:215,1,90,8|0,0:0|0:0,0:0:0:0:
180,74,53329,2,0,P|193:116|186:160,1,90,2|0,0:0|0:0,0:0:0:0:
114,266,53837,1,8,0:0:0:0:
0,133,54092,2,0,L|114:122,1,90,0|2,0:0|0:0,0:0:0:0:
260,50,54600,5,0,0:0:0:0:
260,50,54727,1,0,0:0:0:0:
260,50,54854,2,0,L|369:56,1,90,8|0,0:0|0:0,0:0:0:0:
493,129,55363,2,0,P|433:138|384:183,1,90,2|0,0:0|0:0,0:0:0:0:
300,247,55871,1,8,0:0:0:0:
425,338,56126,6,0,B|458:254|458:254|416:170,1,180
376,111,56761,1,0,0:0:0:0:
376,111,56888,1,8,0:0:0:0:
292,252,57142,1,0,0:0:0:0:
196,133,57397,2,0,P|210:76|206:33,1,90,2|0,0:0|0:0,0:0:0:0:
59,114,57905,1,8,0:0:0:0:
173,229,58159,1,0,0:0:0:0:
12,348,58414,6,0,L|22:239,1,90,2|0,0:0|0:0,0:0:0:0:
51,192,58795,1,0,0:0:0:0:
51,192,58922,2,0,L|41:83,1,90,8|0,0:0|0:0,0:0:0:0:
198,8,59431,2,0,P|184:59|183:100,1,90,2|0,0:0|0:0,0:0:0:0:
234,247,59939,1,8,0:0:0:0:
327,134,60193,6,0,B|359:96|367:8|309:-4|287:29|336:74,1,180
417,145,60829,1,0,0:0:0:0:
417,145,60956,2,0,P|456:145|517:130,1,90,8|0,0:0|0:0,0:0:0:0:
356,213,61465,1,2,0:0:0:0:
422,61,61719,1,0,0:0:0:0:
510,220,61973,1,8,0:0:0:0:
332,302,62227,2,0,L|240:282,1,90,0|2,0:0|0:0,0:0:0:0:
116,178,62736,5,0,0:0:0:0:
108,158,62863,1,0,0:0:0:0:
101,138,62990,2,0,L|116:23,1,90,8|0,0:0|0:0,0:0:0:0:
18,138,63498,1,2,0:0:0:0:
180,216,63753,1,0,0:0:0:0:
19,278,64007,1,8,0:0:0:0:
167,357,64261,6,0,L|179:252,1,90,0|2,0:0|0:0,0:0:0:0:
262,114,64770,2,0,L|273:169,1,45
290,231,65024,1,8,0:0:0:0:
437,322,65278,1,0,0:0:0:0:
502,221,65532,2,0,P|486:177|480:89,1,125.999996154785,2|8,0:0|0:0,0:0:0:0:
239,8,66549,6,0,L|257:122,1,107.999996704102,6|0,0:0|0:0,0:0:0:0:
309,178,66931,1,0,0:0:0:0:
309,178,67058,1,8,0:0:0:0:
154,66,67312,1,0,0:0:0:0:
343,90,67566,1,2,0:0:0:0:
187,207,67820,1,0,0:0:0:0:
187,207,67948,1,0,0:0:0:0:
187,207,68075,1,8,0:0:0:0:
331,345,68329,2,0,L|313:232,1,107.999996704102,0|2,0:0|0:0,0:0:0:0:
482,165,68837,5,0,0:0:0:0:
482,165,68965,1,0,0:0:0:0:
482,165,69092,2,0,L|464:297,1,107.999996704102,8|0,0:0|0:0,0:0:0:0:
317,356,69600,2,0,B|220:376|255:296|162:316,1,161.999995056153,2|0,0:0|0:0,0:0:0:0:
105,345,70109,1,8,0:0:0:0:
6,226,70363,1,0,0:0:0:0:
106,63,70617,6,0,L|236:73,1,107.999996704102,2|0,0:0|0:0,0:0:0:0:
280,125,70998,1,0,0:0:0:0:
280,125,71126,2,0,B|328:108|328:108|388:129,1,107.999996704102,8|0,0:0|0:0,0:0:0:0:
509,211,71634,1,2,0:0:0:0:
325,280,71888,1,0,0:0:0:0:
506,223,72142,1,8,0:0:0:0:
446,384,72397,1,0,0:0:0:0:
280,207,72651,6,0,P|339:195|407:267,1,161.999995056153,2|0,0:0|0:0,0:0:0:0:
388,333,73159,1,8,0:0:0:0:
493,216,73414,1,0,0:0:0:0:
349,118,73668,2,0,P|330:66|323:-3,1,107.999996704102,2|0,0:0|0:0,0:0:0:0:
180,127,74176,2,0,P|161:179|154:248,1,107.999996704102,8|0,0:0|0:0,0:0:0:0:
302,373,74685,6,0,L|420:363,1,107.999996704102,2|0,0:0|0:0,0:0:0:0:
483,350,75066,1,0,0:0:0:0:
483,350,75193,1,8,0:0:0:0:
392,251,75448,1,0,0:0:0:0:
498,171,75702,2,0,P|507:117|496:65,1,107.999996704102,2|0,0:0|0:0,0:0:0:0:
370,0,76210,1,8,0:0:0:0:
278,102,76465,2,0,P|215:117|164:93,1,107.999996704102,0|2,0:0|0:0,0:0:0:0:
68,24,76973,5,0,0:0:0:0:
68,24,77100,1,0,0:0:0:0:
68,24,77227,1,8,0:0:0:0:
0,141,77481,1,0,0:0:0:0:
113,276,77736,2,0,L|123:154,1,107.999996704102,2|0,0:0|0:0,0:0:0:0:
203,26,78244,1,8,0:0:0:0:
282,122,78498,1,0,0:0:0:0:
402,0,78753,6,0,L|418:172,1,161.999995056153,2|0,0:0|0:0,0:0:0:0:
471,212,79261,2,0,P|460:269|453:328,1,107.999996704102,8|0,0:0|0:0,0:0:0:0:
314,364,79770,1,2,0:0:0:0:
376,239,80024,1,0,0:0:0:0:
512,379,80278,1,8,0:0:0:0:
304,359,80532,1,0,0:0:0:0:
469,245,80787,6,0,P|495:173|496:72,1,161.999995056153,2|0,0:0|0:0,0:0:0:0:
450,31,81295,1,8,0:0:0:0:
280,41,81549,1,0,0:0:0:0:
278,206,81803,2,0,P|328:180|393:172,1,107.999996704102,2|0,0:0|0:0,0:0:0:0:
490,336,82312,2,0,P|442:310|389:301,1,107.999996704102,8|0,0:0|0:0,0:0:0:0:
227,371,82820,6,0,L|112:346,1,107.999996704102,6|0,0:0|0:0,0:0:0:0:
47,361,83202,1,0,0:0:0:0:
47,361,83329,1,8,0:0:0:0:
125,260,83583,1,0,0:0:0:0:
0,187,83837,2,0,L|14:306,1,107.999996704102,2|0,0:0|0:0,0:0:0:0:
115,372,84346,1,8,0:0:0:0:
221,278,84600,2,0,P|236:234|235:159,1,107.999996704102,0|2,0:0|0:0,0:0:0:0:
187,20,85109,5,0,0:0:0:0:
187,20,85236,1,0,0:0:0:0:
187,20,85363,2,0,P|222:67|283:81,1,107.999996704102,8|0,0:0|0:0,0:0:0:0:
437,77,85871,2,0,P|387:95|356:138,1,107.999996704102,2|0,0:0|0:0,0:0:0:0:
414,295,86380,1,8,0:0:0:0:
482,194,86634,2,0,L|462:68,1,107.999996704102,0|2,0:0|0:0,0:0:0:0:
289,31,87142,5,0,0:0:0:0:
289,31,87270,1,0,0:0:0:0:
289,31,87397,2,0,P|237:54|167:61,1,107.999996704102,8|0,0:0|0:0,0:0:0:0:
28,37,87905,1,2,0:0:0:0:
125,104,88159,1,0,0:0:0:0:
2,228,88414,1,8,0:0:0:0:
36,115,88668,1,0,0:0:0:0:
208,226,88922,6,0,P|256:235|321:218,1,107.999996704102,2|0,0:0|0:0,0:0:0:0:
367,173,89303,1,0,0:0:0:0:
367,173,89431,2,0,P|415:164|480:181,1,107.999996704102,8|0,0:0|0:0,0:0:0:0:
427,369,89939,2,0,L|410:263,1,107.999996704102,2|0,0:0|0:0,0:0:0:0:
265,136,90448,2,0,L|282:30,1,107.999996704102,8|0,0:0|0:0,0:0:0:0:
74,170,90956,6,0,P|163:189|210:254,1,161.999995056153,2|0,0:0|0:0,0:0:0:0:
220,317,91465,1,8,0:0:0:0:
316,230,91719,1,0,0:0:0:0:
466,360,91973,2,0,P|452:313|456:237,1,107.999996704102,2|0,0:0|0:0,0:0:0:0:
491,127,92481,1,8,0:0:0:0:
364,28,92736,2,0,L|360:138,1,107.999996704102,0|2,0:0|0:0,0:0:0:0:
325,364,93244,5,0,0:0:0:0:
325,364,93371,1,0,0:0:0:0:
325,364,93498,2,0,P|290:317|229:303,1,107.999996704102,8|0,0:0|0:0,0:0:0:0:
70,329,94007,1,2,0:0:0:0:
166,228,94261,1,0,0:0:0:0:
14,162,94515,1,8,0:0:0:0:
14,162,94642,1,0,0:0:0:0:
14,162,94770,1,0,0:0:0:0:
196,47,95024,6,0,L|183:172,1,107.999996704102,2|0,0:0|0:0,0:0:0:0:
224,218,95405,1,0,0:0:0:0:
224,218,95532,2,0,P|265:193|327:179,1,107.999996704102,8|0,0:0|0:0,0:0:0:0:
505,337,96041,2,0,P|451:309|341:322,1,161.999995056153,2|0,0:0|0:0,0:0:0:0:
288,345,96549,2,0,L|147:322,1,107.999996704102,8|0,0:0|0:0,0:0:0:0:
59,372,97058,1,2,0:0:0:0:
