osu file format v14

[General]
AudioFilename: audio.mp3
AudioLeadIn: 0
PreviewTime: 66370
Countdown: 0
SampleSet: Soft
StackLeniency: 0.8
Mode: 0
LetterboxInBreaks: 0
WidescreenStoryboard: 1

[Editor]
Bookmarks: 17736,31465,50278,66549,97058
DistanceSpacing: 1
BeatDivisor: 4
GridSize: 4
TimelineZoom: 1.18

[Metadata]
Title:Roman (Cut Ver.)
TitleUnicode:Роман (Cut Ver.)
Artist:Vintage
ArtistUnicode:Винтаж
Creator:Shmiklak
Version:Normal
Source:
Tags:marvollo m_a_r_v_o_l_l_o russian pop русский поп vintaj анечка anechka анна плетнева anna pletneva vintazh astrolis roma рома
BeatmapID:2922514
BeatmapSetID:1418244

[Difficulty]
HPDrainRate:3.5
CircleSize:3
OverallDifficulty:4
ApproachRate:4.5
SliderMultiplier:1.2
SliderTickRate:1

[Events]
//Background and Video events
0,0,"osudaycore.jpg",0,0
//Break Periods
//Storyboard Layer 0 (Background)
//Storyboard Layer 1 (Fail)
//Storyboard Layer 2 (Pass)
//Storyboard Layer 3 (Foreground)
//Storyboard Layer 4 (Overlay)
//Storyboard Sound Samples

[TimingPoints]
1465,508.474576271187,4,2,1,75,1,0
18117,-100,4,2,1,75,0,0
18244,-100,4,2,1,75,0,0
24219,-100,4,2,1,75,0,0
24346,-100,4,2,1,75,0,0
25236,-100,4,2,1,75,0,0
25363,-100,4,2,1,75,0,0
34007,-111.111111111111,4,2,1,55,0,0
48753,-111.111111111111,4,2,1,75,0,0
50278,-100,4,2,1,75,0,0
66549,-90.9090909090909,4,2,1,75,0,1
97058,-100,4,2,1,75,0,0

[Colours]
Combo1 : 237,190,80
Combo2 : 251,149,167
Combo3 : 254,90,225
Combo4 : 245,82,106

[HitObjects]
232,368,17736,6,0,P|236:308|208:244,1,120,6|8,0:0|0:0,0:0:0:0:
180,204,18498,1,0,0:0:0:0:
132,168,18753,2,0,L|56:160,2,60,2|0|8,0:0|0:0|0:0,0:0:0:0:
214,253,19770,2,0,P|274:265|350:245,1,120,2|8,0:0|0:0,0:0:0:0:
380,220,20532,1,0,0:0:0:0:
412,168,20787,2,0,P|417:145|418:108,1,60,2|0,0:0|0:0,0:0:0:0:
392,54,21295,1,8,0:0:0:0:
280,92,21803,6,0,P|236:128|168:132,1,120,2|8,0:0|0:0,0:0:0:0:
116,120,22566,1,0,0:0:0:0:
60,96,22820,2,0,L|72:224,1,120,2|8,0:0|0:0,0:0:0:0:
180,268,23837,2,0,B|236:288|236:288|308:252,2,120,2|8|2,0:0|0:0|0:0,0:0:0:0:
71,215,25363,1,8,0:0:0:0:
152,128,25871,6,0,P|248:116|280:132,1,120,2|8,0:0|0:0,0:0:0:0:
312,160,26634,1,0,0:0:0:0:
356,200,26888,2,0,L|480:188,1,120,2|8,0:0|0:0,0:0:0:0:
500,304,27905,2,0,L|380:292,1,120,2|8,0:0|0:0,0:0:0:0:
328,324,28668,1,0,0:0:0:0:
276,352,28922,2,0,P|236:344|216:328,1,60,2|0,0:0|0:0,0:0:0:0:
180,288,29431,2,0,P|140:296|120:312,1,60,8|0,0:0|0:0,0:0:0:0:
72,336,29939,6,0,L|88:204,1,120,2|8,0:0|0:0,0:0:0:0:
140,108,30956,2,0,P|196:112|272:92,1,120,2|8,0:0|0:0,0:0:0:0:
257,98,34007,6,0,P|200:108|144:96,1,107.999996704102,2|8,0:0|3:2,0:0:0:0:
112,200,35024,2,0,P|164:190|217:200,1,107.999996704102,2|8,0:0|0:0,0:0:0:0:
260,236,35787,1,0,3:0:0:0:
304,264,36041,5,2,0:0:0:0:
400,220,36549,2,0,L|476:236,1,53.9999983520508,8|0,3:2|3:0,0:0:0:0:
504,216,37058,2,0,P|483:115|480:92,1,107.999996704102,2|8,0:0|0:0,0:0:0:0:
400,44,38075,2,0,P|388:96|378:149,1,107.999996704102,2|8,0:0|3:2,0:0:0:0:
296,220,39092,2,0,P|244:204|236:196,1,53.9999983520508,2|0,0:0|0:0,0:0:0:0:
204,172,39600,6,0,P|180:160|88:184,1,107.999996704102,8|2,0:0|0:0,0:0:0:0:
40,260,40617,1,8,3:2:0:0:
124,332,41126,2,0,L|240:304,1,107.999996704102,2|8,0:0|0:0,0:0:0:0:
276,276,41888,1,0,3:0:0:0:
308,232,42142,2,0,P|360:252|424:260,1,107.999996704102,2|8,0:0|3:2,0:0:0:0:
488,180,43159,2,0,L|481:72,2,107.999996704102,2|8|2,0:0|0:0|0:0,0:0:0:0:
411,259,44685,5,8,3:2:0:0:
312,300,45193,2,0,P|264:284|204:288,1,107.999996704102,2|8,0:0|0:0,0:0:0:0:
160,316,45956,1,0,3:0:0:0:
120,352,46210,2,0,L|112:240,1,107.999996704102,2|8,0:0|3:2,0:0:0:0:
160,148,47227,2,0,L|272:156,1,107.999996704102,2|8,0:0|0:0,0:0:0:0:
316,132,47990,2,0,P|360:136|424:100,2,107.999996704102,0|0|0,3:0|3:0|0:0,0:0:0:0:
271,101,49261,2,0,P|225:85|155:86,1,107.999996704102,2|8,0:0|0:0,0:0:0:0:
57,135,50278,6,0,B|37:203|89:187|61:267,1,120,6|8,0:0|0:0,0:0:0:0:
34,302,51041,1,0,0:0:0:0:
74,346,51295,2,0,P|114:362|182:318,2,120,2|8|2,0:0|0:0|0:0,0:0:0:0:
8,245,52820,1,8,0:0:0:0:
102,170,53329,2,0,B|166:154|166:154|226:178,1,120,2|8,0:0|0:0,0:0:0:0:
264,209,54092,1,0,0:0:0:0:
319,186,54346,6,0,L|343:58,1,120,2|8,0:0|0:0,0:0:0:0:
395,41,55109,1,0,0:0:0:0:
452,58,55363,2,0,P|456:118|424:166,1,120,2|8,0:0|0:0,0:0:0:0:
380,207,56126,2,0,L|408:343,1,120
289,359,57142,1,0,0:0:0:0:
259,306,57397,2,0,P|247:266|243:182,1,120,2|8,0:0|0:0,0:0:0:0:
253,129,58159,6,0,P|205:165|129:169,1,120
87,165,58922,1,8,0:0:0:0:
60,282,59431,2,0,L|192:258,1,120,2|8,0:0|0:0,0:0:0:0:
230,231,60193,1,0,0:0:0:0:
285,207,60448,2,0,P|337:199|401:243,2,120,2|8|2,0:0|0:0|0:0,0:0:0:0:
199,290,61973,1,8,0:0:0:0:
314,323,62481,6,0,L|454:307,1,120,2|8,0:0|0:0,0:0:0:0:
487,202,63498,2,0,L|367:188,1,120,2|8,0:0|0:0,0:0:0:0:
307,84,64515,1,2,0:0:0:0:
422,49,65024,1,8,0:0:0:0:
372,164,65532,1,2,0:0:0:0:
372,164,66549,6,0,B|304:144|304:144|232:164,1,132.00000402832,6|8,0:0|0:0,0:0:0:0:
184,184,67312,1,0,0:0:0:0:
140,236,67566,2,0,P|128:300|180:348,1,132.00000402832,2|8,0:0|0:0,0:0:0:0:
228,380,68329,2,0,P|284:344|352:332,1,132.00000402832
408,360,69092,1,8,0:0:0:0:
460,240,69600,1,2,0:0:0:0:
376,140,70109,1,8,0:0:0:0:
271,220,70617,6,0,P|204:241|131:216,2,132.00000402832,2|8|2,0:0|0:0|0:0,0:0:0:0:
324,180,71888,1,0,0:0:0:0:
359,124,72142,2,0,P|355:91|336:64,1,66.0000020141602,8|0,0:0|0:0,0:0:0:0:
280,29,72651,2,0,P|216:17|159:48,1,132.00000402832,2|8,0:0|0:0,0:0:0:0:
106,88,73414,1,0,0:0:0:0:
54,129,73668,2,0,B|34:193|34:193|74:273,1,132.00000402832,2|8,0:0|0:0,0:0:0:0:
157,343,74685,6,0,P|225:319|309:323,1,132.00000402832,2|8,0:0|0:0,0:0:0:0:
345,339,75448,1,0,0:0:0:0:
367,276,75702,2,0,P|352:242|343:204,1,66.0000020141602,2|0,0:0|0:0,0:0:0:0:
355,149,76210,1,8,0:0:0:0:
379,87,76465,1,0,0:0:0:0:
268,159,76973,2,0,P|226:156|185:138,1,66.0000020141602,0|8,0:0|0:0,0:0:0:0:
148,112,77481,1,0,0:0:0:0:
81,106,77736,2,0,L|101:258,1,132.00000402832,2|8,0:0|0:0,0:0:0:0:
194,327,78753,6,0,P|254:343|326:311,2,132.00000402832,2|8|2,0:0|0:0|0:0,0:0:0:0:
145,282,80024,1,0,0:0:0:0:
98,236,80278,2,0,P|106:198|114:148,1,66.0000020141602,8|0,0:0|0:0,0:0:0:0:
144,114,80787,2,0,P|208:142|276:126,1,132.00000402832,2|8,0:0|0:0,0:0:0:0:
320,96,81549,1,0,0:0:0:0:
376,128,81803,2,0,P|404:192|388:260,1,132.00000402832,2|8,0:0|0:0,0:0:0:0:
288,332,82820,6,0,B|220:312|220:312|148:332,1,132.00000402832,6|8,0:0|0:0,0:0:0:0:
96,348,83583,1,0,0:0:0:0:
44,308,83837,2,0,L|60:236,1,66.0000020141602,2|0,0:0|0:0,0:0:0:0:
96,188,84346,2,0,L|80:116,2,66.0000020141602,8|0|2,0:0|0:0|0:0,0:0:0:0:
192,96,85363,2,0,L|208:24,2,66.0000020141602,8|0|2,0:0|0:0|0:0,0:0:0:0:
228,151,86126,1,0,0:0:0:0:
275,197,86380,1,8,0:0:0:0:
380,108,86888,6,0,P|447:87|520:112,2,132.00000402832,2|8|2,0:0|0:0|0:0,0:0:0:0:
336,156,88159,1,0,0:0:0:0:
284,200,88414,2,0,P|251:196|224:177,1,66.0000020141602,8|0,0:0|0:0,0:0:0:0:
180,128,88922,2,0,P|116:160|60:148,1,132.00000402832,2|8,0:0|0:0,0:0:0:0:
20,96,89685,1,0,0:0:0:0:
40,32,89939,2,0,B|184:36,1,132.00000402832,2|8,0:0|0:0,0:0:0:0:
292,92,90956,6,0,P|316:160|312:244,1,132.00000402832,2|8,0:0|0:0,0:0:0:0:
304,284,91719,1,0,0:0:0:0:
260,332,91973,2,0,P|228:323|198:309,1,66.0000020141602,2|0,0:0|0:0,0:0:0:0:
164,252,92481,2,0,L|160:184,2,66.0000020141602,8|0|2,0:0|0:0|0:0,0:0:0:0:
52,180,93498,2,0,L|56:112,2,66.0000020141602,8|0|2,0:0|0:0|0:0,0:0:0:0:
27,241,94261,1,0,0:0:0:0:
8,304,94515,1,8,0:0:0:0:
132,356,95024,6,0,P|192:372|264:340,2,132.00000402832,2|8|2,0:0|0:0|0:0,0:0:0:0:
84,308,96295,1,0,0:0:0:0:
92,244,96549,2,0,P|100:206|112:104,1,132.00000402832,8|2,0:0|0:0,0:0:0:0:
