osu file format v14

[General]
AudioFilename: audio.mp3
AudioLeadIn: 0
PreviewTime: 68809
Countdown: 0
SampleSet: Soft
StackLeniency: 0.7
Mode: 0
LetterboxInBreaks: 0
WidescreenStoryboard: 1

[Editor]
Bookmarks: 10084,29878,68854,89267,99164
DistanceSpacing: 0.2
BeatDivisor: 8
GridSize: 8
TimelineZoom: 2.799999

[Metadata]
Title:Run This
TitleUnicode:场上称霸
Artist:Vinida
ArtistUnicode:万妮达
Creator:-M4x
Version:wherismysqwa
Source:
Tags:
BeatmapID:2038457
BeatmapSetID:973754

[Difficulty]
HPDrainRate:6.9
CircleSize:6.9
OverallDifficulty:6.9
ApproachRate:9
SliderMultiplier:0.69
SliderTickRate:1

[Events]
//Background and Video events
0,0,"denjoghurt.png",0,0
//Break Periods
2,89467,96089
//Storyboard Layer 0 (Background)
//Storyboard Layer 1 (Fail)
//Storyboard Layer 2 (Pass)
//Storyboard Layer 3 (Foreground)
//Storyboard Sound Samples

[TimingPoints]
195,618.556701030928,4,2,0,69,1,0
12179,-100,4,2,0,5,0,0
12256,-100,4,2,0,69,0,0
12488,-100,4,2,0,5,0,0
12566,-100,4,2,0,69,0,0
14963,-100,4,2,0,5,0,0
15040,-25,4,2,0,69,0,0
15079,-25,4,2,0,5,0,0
15658,-25,4,2,0,69,0,0
16586,-100,4,2,0,69,0,0
17746,-100,4,2,0,5,0,0
17823,-100,4,2,0,69,0,0
18055,-100,4,2,0,5,0,0
18133,-100,4,2,0,69,0,0
18365,-100,4,2,0,5,0,0
18442,-100,4,2,0,69,0,0
18674,-100,4,2,0,5,0,0
18751,-100,4,2,0,69,0,0
18983,-100,4,2,0,5,0,0
19060,-100,4,2,0,69,0,0
19988,-303.030303030303,4,2,0,69,0,0
21844,-100,4,2,0,69,0,0
22076,-100,4,2,0,5,0,0
22153,-100,4,2,0,69,0,0
22385,-100,4,2,0,5,0,0
22463,-100,4,2,0,69,0,0
24937,-25,4,2,0,69,0,0
24975,-25,4,2,0,5,0,0
25555,-100,4,2,0,69,0,0
26097,-100,4,2,0,5,0,0
26174,-100,4,2,0,69,0,0
27643,-100,4,2,0,5,0,0
27720,-100,4,2,0,69,0,0
27952,-100,4,2,0,5,0,0
28030,-100,4,2,0,69,0,0
28262,-100,4,2,0,5,0,0
28339,-100,4,2,0,69,0,0
28571,-100,4,2,0,5,0,0
28648,-100,4,2,0,69,0,0
28880,-100,4,2,0,5,0,0
28957,-100,4,2,0,69,0,0
35684,-100,4,2,0,5,0,0
35762,-100,4,2,0,69,0,0
38545,-50,4,2,0,69,0,0
38777,-50,4,2,0,5,0,0
38854,-50,4,2,0,69,0,0
39782,-10,4,2,0,69,0,0
39859,-25,4,2,0,5,0,0
39937,-25,4,2,0,69,0,0
40091,-50,4,2,0,69,0,0
41329,-25,4,2,0,69,0,0
41638,-50,4,2,0,69,0,0
41870,-50,4,2,0,5,0,0
41947,-50,4,2,0,69,0,0
48287,-25,4,2,0,69,0,0
49370,-66.6666666666667,4,2,0,69,0,0
49988,-25,4,2,0,69,0,0
50298,-100,4,2,0,69,0,0
52153,-66.6666666666667,4,2,0,69,0,0
52385,-66.6666666666667,4,2,0,5,0,0
52463,-66.6666666666667,4,2,0,69,0,0
53004,-66.6666666666667,4,2,0,5,0,0
53081,-66.6666666666667,4,2,0,69,0,0
54318,-37.1747211895911,4,2,0,69,0,0
55246,-40,4,2,0,69,0,0
58648,-66.6666666666667,4,2,0,69,0,0
58957,-40,4,2,0,69,0,0
59189,-66.6666666666667,4,2,0,5,0,0
59267,-66.6666666666667,4,2,0,69,0,0
59576,-25,4,2,0,69,0,0
59808,-33.3333333333333,4,2,0,5,0,0
59885,-33.3333333333333,4,2,0,69,0,0
60272,-33.3333333333333,4,2,0,5,0,0
60349,-33.3333333333333,4,2,0,69,0,0
60504,-33.3333333333333,4,2,0,69,0,0
61432,-33.3333333333333,4,2,0,69,0,0
62050,-33.3333333333333,4,2,0,69,0,0
63287,-33.3333333333333,4,2,0,69,0,0
64756,-33.3333333333333,4,2,0,5,0,0
64834,-33.3333333333333,4,2,0,69,0,0
65066,-33.3333333333333,4,2,0,5,0,0
65143,-33.3333333333333,4,2,0,69,0,0
66999,-100,4,2,0,69,0,0
67231,-100,4,2,0,5,0,0
67308,-100,4,2,0,69,0,0
67540,-100,4,2,0,5,0,0
67617,-100,4,2,0,69,0,0
67849,-100,4,2,0,5,0,0
67926,-100,4,2,0,69,0,0
71560,-100,4,2,0,5,0,0
71638,-100,4,2,0,69,0,0
71870,-100,4,2,0,5,0,0
71947,-100,4,2,0,69,0,0
74344,-100,4,2,0,5,0,0
74421,-25,4,2,0,69,0,0
74460,-25,4,2,0,5,0,0
75040,-100,4,2,0,69,0,0
77127,-100,4,2,0,5,0,0
77205,-100,4,2,0,69,0,0
77437,-100,4,2,0,5,0,0
77514,-100,4,2,0,69,0,0
77746,-100,4,2,0,5,0,0
77823,-100,4,2,0,69,0,0
78055,-100,4,2,0,5,0,0
78133,-100,4,2,0,69,0,0
78365,-100,4,2,0,5,0,0
78442,-100,4,2,0,69,0,0
79370,-303.030303030303,4,2,0,69,0,0
79988,-100,4,2,0,69,0,0
81457,-100,4,2,0,5,0,0
81535,-100,4,2,0,69,0,0
81767,-100,4,2,0,5,0,0
81844,-100,4,2,0,69,0,0
84318,-25,4,2,0,69,0,0
84357,-100,4,2,0,69,0,0
87024,-100,4,2,0,5,0,0
87102,-100,4,2,0,69,0,0
87334,-100,4,2,0,5,0,0
87411,-100,4,2,0,69,0,0
87643,-100,4,2,0,5,0,0
87720,-100,4,2,0,69,0,0
87952,-100,4,2,0,5,0,0
88030,-100,4,2,0,69,0,0
88262,-100,4,2,0,5,0,0
88339,-66.6666666666667,4,2,0,69,0,0
106277,-22.222222222222,4,2,0,69,0,0
106586,-66.6666666666667,4,2,0,69,0,0
111535,-50,4,2,0,69,0,0
113390,-25,4,2,0,69,0,0
113622,-25,4,2,0,5,0,0
113700,-25,4,2,0,69,0,0
113932,-25,4,2,0,5,0,0
114009,-25,4,2,0,69,0,0

[Colours]
Combo1 : 194,186,205
Combo2 : 213,213,255

[HitObjects]
256,192,9473,6,0,L|292:198,1,34.5
344,192,9937,1,0,0:0:0:0:
192,296,10091,1,4,0:1:0:0:
192,296,10710,5,2,0:0:0:0:
256,192,10865,1,0,0:0:0:0:
241,121,11019,1,0,3:0:0:0:
241,121,11329,6,0,L|236:98,1,17.25
320,88,11638,1,0,3:0:0:0:
320,88,11947,6,0,L|293:86,1,25.875,2|0,0:0|0:0,0:0:0:0:
188,168,12256,2,0,L|160:171,1,25.875
36,119,12566,1,0,3:0:0:0:
72,36,13030,5,0,0:0:0:0:
72,36,13184,2,0,L|95:38,1,17.25,2|0,0:0|0:0,0:0:0:0:
188,168,13493,1,0,3:0:0:0:
36,119,13803,1,0,0:0:0:0:
320,88,14112,5,0,3:0:0:0:
451,292,14421,5,2,0:0:0:0:
408,324,14576,1,0,3:0:0:0:
401,270,14731,2,0,L|397:242,1,25.875
451,92,15040,6,0,L|447:64,1,17.25,4|0,0:0|0:0,0:0:0:0:
448,74,15658,5,2,0:0:0:0:
375,53,15813,1,0,0:0:0:0:
256,96,15968,1,0,3:0:0:0:
137,53,16277,5,0,0:0:0:0:
256,96,16586,6,0,L|238:98,1,17.25,0|0,3:0|0:0,0:0:0:0:
137,53,16896,2,0,L|102:56,1,34.5,2|0,0:0|0:0,0:0:0:0:
102,56,17514,6,0,P|94:69|90:80,1,25.875,0|0,3:0|0:0,0:0:0:0:
65,157,17823,2,0,P|68:171|73:182,1,25.875,0|0,3:0|0:0,0:0:0:0:
110,254,18133,2,0,P|123:262|134:266,1,25.875,0|0,3:0|0:0,0:0:0:0:
369,217,18442,2,0,P|381:221|391:228,1,25.875,0|0,3:0|0:0,0:0:0:0:
428,300,18751,6,0,P|433:312|436:325,1,25.875,0|0,3:0|0:0,0:0:0:0:
435,324,19060,1,4,0:0:0:0:
256,192,19370,5,2,0:0:0:0:
361,264,19524,1,0,0:0:0:0:
141,215,19679,1,0,3:0:0:0:
448,74,19988,6,0,L|446:96,1,22.7699999305115,4|8,3:1|3:2,0:0:0:0:
463,146,20762,5,0,0:0:0:0:
256,192,20916,1,4,3:0:0:0:
273,241,21225,1,0,0:0:0:0:
306,203,21535,1,4,3:0:0:0:
332,205,21844,6,0,L|305:203,1,25.875,0|0,3:2|0:0,0:0:0:0:
199,284,22153,2,0,L|171:287,1,25.875,2|0,0:0|0:0,0:0:0:0:
47,235,22463,1,4,3:0:0:0:
47,235,22926,5,2,0:0:0:0:
47,235,23081,2,0,B|40:304|40:304|54:270,1,103.5,8|4,3:2|3:0,0:0:0:0:
53,272,24318,6,0,L|72:275,1,17.25,8|8,3:2|3:0,0:0:0:0:
70,274,24627,1,4,3:0:0:0:
441,109,24937,6,0,L|459:112,1,17.25,4|0,0:0|0:0,0:0:0:0:
458,111,25555,5,0,3:0:0:0:
416,48,25710,1,0,3:0:0:0:
352,192,25865,1,4,3:0:0:0:
458,111,26174,5,2,0:3:0:0:
352,192,26483,5,4,3:0:0:0:
310,129,26638,1,0,0:0:0:0:
246,273,26792,2,0,L|211:278,1,34.5
211,278,27411,6,0,L|215:304,1,25.875,4|0,3:0|0:0,0:0:0:0:
160,192,27720,2,0,L|164:166,1,25.875,0|0,3:0|0:0,0:0:0:0:
67,235,28030,2,0,L|71:261,1,25.875,8|0,3:2|0:0,0:0:0:0:
210,201,28339,2,0,L|214:175,1,25.875,4|0,3:0|0:0,0:0:0:0:
115,225,28648,2,0,L|119:251,1,25.875,0|0,3:0|0:0,0:0:0:0:
119,251,28957,1,4,3:0:0:0:
198,104,29267,5,8,0:0:0:0:
104,81,29421,1,4,3:0:0:0:
198,104,29576,2,0,L|199:121,1,17.25,2|0,0:0|3:0,0:0:0:0:
319,40,29885,6,0,L|357:39,1,34.5,4|0,0:0|0:0,0:0:0:0:
353,39,30349,1,0,0:0:0:0:
448,117,30504,2,0,L|446:135,1,17.25,2|0,0:0|0:0,0:0:0:0:
446,134,30813,1,2,0:3:0:0:
448,267,31122,2,0,L|446:249,1,17.25,0|0,3:0|0:0,0:0:0:0:
446,250,31431,1,2,0:3:0:0:
256,328,31741,5,0,0:0:0:0:
245,321,31896,1,0,0:0:0:0:
179,328,32050,1,0,0:0:0:0:
168,321,32205,1,0,0:0:0:0:
102,328,32359,5,2,0:0:0:0:
256,56,32669,5,0,0:0:0:0:
333,56,32823,1,0,0:0:0:0:
410,56,32978,1,2,0:3:0:0:
410,56,33287,5,0,0:0:0:0:
421,63,33442,1,0,0:0:0:0:
448,267,33597,2,0,L|446:249,1,17.25,0|0,3:0|0:0,0:0:0:0:
446,249,33906,1,2,0:3:0:0:
256,192,34215,5,0,0:0:0:0:
224,104,34370,1,0,0:0:0:0:
348,208,34524,2,0,L|346:190,1,17.25
195,263,34834,1,2,0:0:0:0:
193,274,35143,5,0,0:0:0:0:
195,263,35298,1,0,0:0:0:0:
348,208,35452,2,0,L|345:239,1,25.875
345,233,35762,1,2,0:0:0:0:
179,39,36071,5,0,0:0:0:0:
123,58,36225,1,0,0:0:0:0:
78,22,36380,1,0,0:0:0:0:
36,126,36689,5,2,0:0:0:0:
36,126,36999,2,0,L|38:103,1,17.25
76,278,37308,2,0,P|91:286|113:286,1,34.5,2|0,0:3|0:0,0:0:0:0:
103,236,37772,1,0,0:0:0:0:
256,48,37926,6,0,L|273:50,1,17.25
331,52,38236,2,0,L|349:55,1,17.25
398,243,38545,6,0,P|405:218|403:192,1,51.75,2|0,0:0|0:0,0:0:0:0:
403,192,38854,2,0,L|368:188,1,34.5,0|0,3:0|3:0,0:0:0:0:
213,299,39164,2,0,L|208:333,1,34.5,0|0,3:0|3:0,0:0:0:0:
154,354,39473,1,0,0:0:0:0:
158,45,39782,6,0,L|168:142,1,86.25,4|0,1:0|0:0,0:0:0:0:
166,130,39937,5,0,3:0:0:0:
287,203,40091,2,0,P|272:194|256:192,1,34.5,0|0,3:0|3:0,0:0:0:0:
345,130,40401,2,0,L|393:127,1,34.5,0|0,3:0|0:0,3:0:0:0:
270,315,40710,6,0,P|241:334|207:332,1,69,4|0,3:0|1:0,0:0:0:0:
95,61,41329,6,0,P|123:42|157:44,1,69,4|0,1:3|0:0,0:0:0:0:
133,148,41638,6,2,L|139:97,1,51.75,2|0,0:1|0:1,0:1:0:0:
95,61,41947,2,0,P|72:55|53:61,1,34.5,2|2,0:3|0:3,0:0:0:0:
16,209,42256,1,4,3:0:0:0:
16,209,42566,6,0,P|16:231|18:246,1,34.5,0|0,3:0|3:0,0:0:0:0:
93,285,42875,5,0,3:0:0:0:
95,300,43030,1,0,3:0:0:0:
154,279,43184,5,4,3:0:0:0:
156,294,43339,1,0,3:0:0:0:
299,352,43493,2,0,P|313:308|310:270,1,69,2|4,0:3|3:0,0:0:0:0:
256,248,43957,1,0,3:0:0:0:
221,189,44112,6,0,L|256:192,2,34.5,2|4|0,0:3|3:0|0:0,0:0:0:0:
149,258,44576,1,0,0:0:0:0:
221,189,44731,2,0,L|255:191,2,34.5,6|0|0,0:3|0:0|0:0,0:0:0:0:
363,258,45195,2,0,L|369:300,1,34.5,2|0,0:3|1:0,0:0:0:0:
402,145,45658,6,0,L|408:103,1,34.5,2|0,0:3|3:0,0:0:0:0:
405,104,45890,1,0,3:0:0:0:
403,98,45968,1,0,3:0:0:0:
362,60,46122,1,0,0:0:0:0:
303,69,46277,1,2,0:3:0:0:
197,219,46432,6,0,P|230:214|255:191,1,69,0|2,1:0|0:3,0:0:0:0:
75,74,47205,5,4,3:0:0:0:
67,135,47359,1,0,0:0:0:0:
58,193,47514,1,0,3:0:0:0:
60,204,47669,1,0,3:0:0:0:
75,74,47823,2,0,P|54:69|35:71,1,34.5,2|0,0:3|1:0,0:0:0:0:
354,38,48287,5,0,1:0:0:0:
470,70,48442,2,0,P|415:25|343:47,1,138,0|4,1:0|3:0,0:0:0:0:
319,300,48906,6,0,P|265:340|197:336,1,138,0|4,1:0|3:0,0:0:0:0:
211,250,49370,6,2,B|221:261|237:263|237:263|230:255|227:245,1,51.7500019741059,2|4,0:1|1:0,0:1:0:0:
227,244,49988,6,0,L|225:218,4,17.25,0|0|0|0|0,3:0|3:0|3:0|3:0|3:0,3:0:0:0:
280,31,50298,1,8,0:0:0:0:
331,45,50607,6,0,L|330:32,2,8.625,0|0|0,3:0|3:0|3:0,3:0:0:0:
310,127,50916,1,2,0:0:0:0:
392,149,51071,1,0,0:0:0:0:
412,68,51225,1,2,0:0:0:0:
331,45,51380,1,0,0:0:0:0:
227,244,51535,1,8,0:0:0:0:
227,244,51844,6,0,L|228:257,3,8.625,0|0|0|0,3:0|3:0|3:0|3:0,3:0:0:0:
261,289,52153,6,0,P|244:300|215:300,1,38.8125014805794,4|0,0:1|0:0,0:0:0:0:
123,174,52463,2,0,L|119:138,1,25.875000987053,2|0,0:0|0:0,0:0:0:0:
90,211,52772,6,0,P|106:221|125:224,1,38.8125014805794,8|0,0:0|0:0,0:0:0:0:
228,107,53082,2,0,L|225:82,1,25.875000987053,4|0,3:0|0:0,0:0:0:0:
378,31,53390,5,0,3:0:0:0:
328,67,53545,1,0,0:0:0:0:
273,46,53700,1,4,3:0:0:0:
225,82,53854,2,0,L|228:107,1,25.875000987053,0|4,0:0|0:0,0:0:0:0:
351,245,54318,6,0,P|357:228|356:244,1,46.4025005310345,0|2,1:0|0:3,0:0:0:0:
429,206,54627,6,0,P|423:189|424:205,1,46.4025005310345,0|2,1:0|0:3,0:0:0:0:
427,328,54937,5,0,3:0:0:0:
422,328,55014,1,0,3:0:0:0:
417,329,55091,1,0,3:0:0:0:
413,329,55168,1,0,3:0:0:0:
408,330,55246,6,0,L|414:282,1,43.125,8|0,0:0|0:0,0:0:0:0:
345,202,55555,2,0,L|350:244,1,43.125,4|0,3:0|0:0,0:0:0:0:
104,330,55865,1,2,0:3:0:0:
104,330,56019,1,2,0:3:0:0:
104,54,56483,6,0,L|98:102,1,43.125,8|0,0:0|3:0,0:0:0:0:
167,182,56792,2,0,L|161:139,1,43.125,0|0,3:0|0:0,0:0:0:0:
408,54,57102,1,6,3:0:0:0:
408,54,57256,1,2,0:3:0:0:
442,97,57720,6,0,P|421:108|385:105,1,43.125,2|0,3:0|0:0,0:0:0:0:
296,227,58030,2,0,P|277:237|256:240,1,43.125,4|0,3:0|0:0,0:0:0:0:
104,54,58339,1,2,0:3:0:0:
104,54,58493,1,2,0:3:0:0:
148,93,58648,6,0,L|147:81,3,12.9375004935265,0|0|0|0,3:0|3:0|3:0|3:0,3:0:0:0:
104,54,58957,6,0,P|139:31|170:37,1,64.6875,8|0,1:2|0:0,0:0:0:0:
273,72,59267,2,0,L|274:46,1,25.875000987053,8|4,3:0|3:0,0:0:0:0:
147,81,59576,6,0,L|158:195,1,103.5,4|0,1:0|0:0,0:0:0:0:
156,184,59885,1,0,3:0:0:0:
331,289,60040,2,0,P|292:291|256:304,1,77.6250029611589,0|0,1:0|0:0,0:0:0:0:
255,304,60349,1,0,3:0:0:0:
433,242,60504,2,0,P|439:217|440:192,1,51.7500019741059,4|2,3:0|3:0,0:0:0:0:
407,116,60813,1,0,3:0:0:0:
105,268,61122,1,4,0:0:0:0:
151,253,61432,6,0,P|126:254|105:268,1,51.7500019741059,2|0,0:0|3:0,0:0:0:0:
295,372,61741,2,0,P|320:371|341:357,1,51.7500019741059,2|0,0:0|3:0,0:0:0:0:
328,192,62050,5,4,0:0:0:0:
305,324,62205,1,0,0:0:0:0:
328,192,62359,1,2,0:3:0:0:
140,304,62669,6,0,L|145:361,1,51.7500019741059,8|0,0:0|3:0,0:0:0:0:
54,288,62978,2,0,L|59:231,1,51.7500019741059,4|0,3:0|3:0,0:0:0:0:
131,130,63287,1,0,3:0:0:0:
58,148,63442,1,0,3:0:0:0:
233,144,63597,1,0,3:0:0:0:
238,144,63674,1,0,3:0:0:0:
243,145,63751,1,0,3:0:0:0:
247,145,63828,1,0,3:0:0:0:
252,146,63906,6,0,P|219:119|194:119,1,51.7500019741059,4|4,0:0|3:0,0:0:0:0:
130,131,64215,1,0,3:0:0:0:
130,131,64370,1,0,3:0:0:0:
287,226,64524,6,0,L|292:315,1,77.6250029611589,4|0,0:1|0:0,0:0:0:0:
423,156,64834,2,0,L|428:67,1,77.6250029611589,2|0,0:3|0:0,0:0:0:0:
427,78,65143,2,0,L|362:73,1,51.7500019741059,8|0,0:0|3:0,0:0:0:0:
287,226,65452,2,0,L|352:231,1,51.7500019741059,4|0,3:0|0:0,0:0:0:0:
204,42,65762,5,0,3:0:0:0:
151,33,65916,1,0,3:0:0:0:
85,78,66071,1,4,3:0:0:0:
132,101,66380,6,0,P|99:128|74:128,1,51.7500019741059,4|2,0:0|0:0,0:0:0:0:
56,192,66689,6,0,L|60:230,3,25.875000987053,0|0|0|0,0:0|0:0|0:0|0:0,3:0:0:0:
197,272,66999,6,4,P|209:272|227:280,1,25.875,0|0,0:0|0:0,3:0:0:0:
289,342,67308,2,0,P|276:346|263:346,1,25.875,2|0,0:3|0:0,0:0:0:0:
338,321,67617,2,0,P|350:321|368:329,1,25.875,8|0,0:0|0:0,0:0:0:0:
362,325,67926,5,4,3:0:0:0:
372,270,68081,1,0,0:0:0:0:
382,215,68236,1,0,0:0:0:0:
378,206,68390,1,0,0:0:0:0:
256,192,68545,1,4,3:0:0:0:
256,192,68854,6,0,L|220:186,1,34.5,4|0,0:0|0:0,0:0:0:0:
178,153,69318,1,0,0:0:0:0:
117,297,69473,1,0,0:0:0:0:
117,297,70091,5,2,0:0:0:0:
71,223,70246,1,0,0:0:0:0:
100,77,70401,1,0,3:0:0:0:
100,77,70710,6,0,L|79:74,1,17.25
223,35,71019,1,0,3:0:0:0:
223,35,71329,6,0,L|254:39,1,25.875,2|0,0:0|0:0,0:0:0:0:
367,9,71638,2,0,L|336:13,1,25.875
464,192,71947,1,0,3:0:0:0:
464,192,72411,1,0,3:0:0:0:
464,192,72566,6,0,L|467:171,1,17.25
350,194,72875,1,0,3:0:0:0:
370,310,73184,1,0,0:0:0:0:
486,290,73493,1,0,3:0:0:0:
328,178,73803,5,2,0:0:0:0:
340,102,73958,1,0,3:0:0:0:
350,194,74112,2,0,L|375:197,1,25.875
162,190,74422,6,0,L|144:187,1,17.25,4|0,0:0|0:0,0:0:0:0:
144,187,75040,5,2,0:0:0:0:
80,248,75195,1,0,0:0:0:0:
256,192,75349,1,0,3:0:0:0:
120,68,75658,5,0,0:0:0:0:
256,192,75968,5,2,0:0:0:0:
192,253,76123,1,0,0:0:0:0:
368,197,76277,2,0,P|370:171|367:159,1,34.5
94,65,76896,6,0,L|127:68,1,25.875
196,35,77205,2,0,L|163:38,1,25.875
230,189,77514,2,0,L|263:192,1,25.875
332,159,77823,2,0,L|299:162,1,25.875
393,317,78133,2,0,L|426:320,1,25.875
418,319,78442,1,0,0:0:0:0:
255,191,78751,5,2,0:0:0:0:
332,159,78906,1,0,0:0:0:0:
196,349,79060,1,0,3:0:0:0:
218,34,79370,6,0,L|196:35,1,22.7699999305115,4|8,3:1|3:2,0:0:0:0:
148,14,80143,5,0,0:0:0:0:
256,192,80298,1,4,3:0:0:0:
239,241,80607,1,0,0:0:0:0:
206,203,80916,1,4,3:0:0:0:
180,201,81225,6,0,L|207:203,1,25.875,0|0,3:2|0:0,0:0:0:0:
281,349,81535,2,0,L|256:352,1,25.875,2|0,0:0|0:0,0:0:0:0:
414,291,81844,1,4,3:0:0:0:
71,66,82308,5,2,0:0:0:0:
71,66,82463,2,0,P|102:41|167:40,1,103.5,8|4,3:2|3:0,0:0:0:0:
163,38,83700,6,0,L|161:57,1,17.25,8|8,3:2|3:0,0:0:0:0:
442,109,84009,1,4,3:0:0:0:
254,334,84318,6,0,L|256:352,1,17.25,4|0,0:0|0:0,0:0:0:0:
254,334,84937,5,8,3:2:0:0:
284,257,85091,1,2,3:2:0:0:
256,351,85246,1,4,3:0:0:0:
314,180,85555,5,2,0:1:0:0:
284,257,85865,5,4,3:0:0:0:
314,180,86019,1,0,3:0:0:0:
286,274,86174,2,0,L|290:236,1,34.5,8|0,3:2|3:0,0:0:0:0:
289,239,86792,6,0,L|261:235,1,25.875,4|0,3:0|0:0,0:0:0:0:
226,156,87102,2,0,L|207:136,1,25.875,0|0,3:0|0:0,0:0:0:0:
231,51,87411,6,0,L|229:23,1,25.875,8|0,3:2|0:0,0:0:0:0:
281,333,87720,2,0,L|282:360,1,25.875,4|0,3:0|0:0,0:0:0:0:
256,192,88030,1,0,3:0:0:0:
185,222,88339,6,0,P|171:221|157:215,1,25.875000987053,4|0,3:0|3:0,0:0:0:0:
274,120,88648,1,8,0:0:0:0:
256,192,88803,6,0,P|242:193|228:199,1,25.875000987053,4|2,3:0|0:3,0:0:0:0:
301,267,89112,1,0,3:0:0:0:
301,267,89267,1,4,0:0:0:0:
256,192,96689,12,4,98854,0:0:0:0:
256,145,99164,6,0,L|122:133,1,129.375004935265,8|0,0:3|0:0,0:0:0:0:
121,60,100091,2,0,B|134:83|134:83|125:142,1,77.6250029611589,4|0,0:3|0:0,0:0:0:0:
87,164,100710,2,0,B|73:140|73:140|82:81,1,77.6250029611589,4|0,0:3|0:0,0:0:0:0:
121,60,101329,2,0,L|156:57,1,25.875000987053,0|0,3:0|3:0,0:0:0:0:
267,225,101638,6,0,L|255:353,1,129.375004935265,4|0,0:3|0:0,0:0:0:0:
247,276,102566,2,0,L|255:353,1,77.6250029611589,4|0,0:3|0:0,0:0:0:0:
420,206,103184,6,0,P|398:193|372:195,1,51.7500019741059,4|0,0:3|0:0,0:0:0:0:
340,231,103648,2,0,P|361:243|387:241,1,51.7500019741059,8|0,0:3|0:0,0:0:0:0:
275,46,104112,6,0,L|141:57,1,129.375004935265,8|0,0:3|0:0,0:0:0:0:
279,114,105040,2,0,B|282:98|293:87|293:87|274:70|274:38,1,77.6250029611589,4|0,0:3|0:0,0:0:0:0:
330,127,105658,2,0,B|342:137|345:152|345:152|370:144|398:160,1,77.6250029611589,4|0,0:3|0:0,0:0:0:0:
293,164,106277,6,0,B|278:169|263:164|263:164|258:190|230:206,1,77.6250029611589,0|0,3:0|3:0,0:0:0:0:
84,166,106586,5,2,0:0:0:0:
108,251,106741,1,2,0:0:0:0:
170,188,106896,1,2,0:0:0:0:
96,177,107050,5,2,0:0:0:0:
97,265,107205,1,2,0:0:0:0:
173,220,107514,5,0,3:0:0:0:
104,190,107668,1,0,3:0:0:0:
82,275,107823,5,2,0:0:0:0:
167,251,107978,1,2,0:0:0:0:
61,259,108133,5,2,0:0:0:0:
149,257,108288,1,2,0:0:0:0:
44,238,108442,5,2,0:3:0:0:
468,146,108751,1,4,0:0:0:0:
44,54,109060,5,4,1:0:0:0:
96,76,109370,2,0,L|95:94,3,12.9375004935265,0|0|0|0,3:0|3:0|3:0|3:0,3:0:0:0:
138,39,109679,1,8,3:2:0:0:
213,99,109988,2,0,L|212:111,2,12.9375004935265,4|0|0,3:0|3:0|3:0,0:0:0:0:
468,54,110298,5,2,0:0:0:0:
416,76,110452,1,2,0:0:0:0:
374,39,110607,5,4,3:0:0:0:
299,99,110762,1,0,3:0:0:0:
138,39,110916,1,8,3:2:0:0:
44,54,111071,1,0,3:0:0:0:
44,54,111225,2,0,L|43:72,3,12.9375004935265,0|0|0|0,3:0|3:0|3:0|3:0,3:0:0:0:
15,150,111535,6,0,L|12:107,1,34.5,4|2,3:0|0:0,0:0:0:0:
94,224,111844,1,2,0:0:0:0:
106,220,111998,1,2,0:0:0:0:
103,209,112154,1,2,0:0:0:0:
91,212,112308,1,2,0:0:0:0:
12,269,112463,5,4,3:0:0:0:
98,292,112617,2,0,L|92:217,1,69,2|2,0:3|0:3,0:0:0:0:
237,194,113082,1,0,3:0:0:0:
242,194,113159,1,0,3:0:0:0:
247,193,113236,1,0,3:0:0:0:
251,193,113313,1,0,3:0:0:0:
256,192,113390,6,0,P|292:212|363:215,1,103.5,8|0,3:2|0:0,0:0:0:0:
409,62,113700,2,0,P|373:42|302:39,1,103.5,0|0,3:0|0:0,0:0:0:0:
311,36,114009,1,4,0:0:0:0:
